  0
SECTION
  2
HEADER
  9
$ACADVER
  1
AC1021
  9
$ACADMAINTVER
 70
    25
  9
$DWGCODEPAGE
  3
ANSI_936
  9
$LASTSAVEDBY
  1
zb.ye
  9
$INSBASE
 10
0.0
 20
0.0
 30
0.0
  9
$EXTMIN
 10
362.1913288019441
 20
184.5317611943767
 30
-0.0000000349181948
  9
$EXTMAX
 10
510.7901595154102
 20
289.5841011132693
 30
0.0000000814935746
  9
$LIMMIN
 10
0.0
 20
0.0
  9
$LIMMAX
 10
12.0
 20
9.0
  9
$ORTHOMODE
 70
     1
  9
$REGENMODE
 70
     1
  9
$FILLMODE
 70
     1
  9
$QTEXTMODE
 70
     0
  9
$MIRRTEXT
 70
     1
  9
$LTSCALE
 40
1.0
  9
$ATTMODE
 70
     1
  9
$TEXTSIZE
 40
0.2
  9
$TRACEWID
 40
0.05
  9
$TEXTSTYLE
  7
Standard
  9
$CLAYER
  8
0
  9
$CELTYPE
  6
ByLayer
  9
$CECOLOR
 62
   256
  9
$CELTSCALE
 40
1.0
  9
$DISPSILH
 70
     0
  9
$DIMSCALE
 40
1.0
  9
$DIMASZ
 40
1.5
  9
$DIMEXO
 40
0.2
  9
$DIMDLI
 40
0.2
  9
$DIMRND
 40
0.0
  9
$DIMDLE
 40
0.0
  9
$DIMEXE
 40
0.5
  9
$DIMTP
 40
0.0
  9
$DIMTM
 40
0.0
  9
$DIMTXT
 40
2.0
  9
$DIMCEN
 40
0.0
  9
$DIMTSZ
 40
0.0
  9
$DIMTOL
 70
     0
  9
$DIMLIM
 70
     0
  9
$DIMTIH
 70
     0
  9
$DIMTOH
 70
     0
  9
$DIMSE1
 70
     0
  9
$DIMSE2
 70
     0
  9
$DIMTAD
 70
     1
  9
$DIMZIN
 70
     8
  9
$DIMBLK
  1

  9
$DIMASO
 70
     1
  9
$DIMSHO
 70
     1
  9
$DIMPOST
  1

  9
$DIMAPOST
  1

  9
$DIMALT
 70
     0
  9
$DIMALTD
 70
     2
  9
$DIMALTF
 40
25.4
  9
$DIMLFAC
 40
1.0
  9
$DIMTOFL
 70
     0
  9
$DIMTVP
 40
0.0
  9
$DIMTIX
 70
     0
  9
$DIMSOXD
 70
     0
  9
$DIMSAH
 70
     0
  9
$DIMBLK1
  1

  9
$DIMBLK2
  1

  9
$DIMSTYLE
  2
01
  9
$DIMCLRD
 70
     1
  9
$DIMCLRE
 70
     6
  9
$DIMCLRT
 70
     4
  9
$DIMTFAC
 40
1.0
  9
$DIMGAP
 40
0.5
  9
$DIMJUST
 70
     0
  9
$DIMSD1
 70
     0
  9
$DIMSD2
 70
     0
  9
$DIMTOLJ
 70
     1
  9
$DIMTZIN
 70
     0
  9
$DIMALTZ
 70
     0
  9
$DIMALTTZ
 70
     0
  9
$DIMUPT
 70
     0
  9
$DIMDEC
 70
     1
  9
$DIMTDEC
 70
     1
  9
$DIMALTU
 70
     2
  9
$DIMALTTD
 70
     2
  9
$DIMTXSTY
  7
Romans字体
  9
$DIMAUNIT
 70
     0
  9
$DIMADEC
 70
     2
  9
$DIMALTRND
 40
0.0
  9
$DIMAZIN
 70
     2
  9
$DIMDSEP
 70
    46
  9
$DIMATFIT
 70
     3
  9
$DIMFRAC
 70
     0
  9
$DIMLDRBLK
  1

  9
$DIMLUNIT
 70
     2
  9
$DIMLWD
 70
    -2
  9
$DIMLWE
 70
    -2
  9
$DIMTMOVE
 70
     0
  9
$DIMFXL
 40
1.0
  9
$DIMFXLON
 70
     0
  9
$DIMJOGANG
 40
0.7853981633974483
  9
$DIMTFILL
 70
     0
  9
$DIMTFILLCLR
 70
     0
  9
$DIMARCSYM
 70
     0
  9
$DIMLTYPE
  6

  9
$DIMLTEX1
  6

  9
$DIMLTEX2
  6

  9
$LUNITS
 70
     2
  9
$LUPREC
 70
     4
  9
$SKETCHINC
 40
0.1
  9
$FILLETRAD
 40
0.5
  9
$AUNITS
 70
     0
  9
$AUPREC
 70
     0
  9
$MENU
  1
.
  9
$ELEVATION
 40
0.0
  9
$PELEVATION
 40
0.0
  9
$THICKNESS
 40
0.0
  9
$LIMCHECK
 70
     0
  9
$CHAMFERA
 40
0.5
  9
$CHAMFERB
 40
0.5
  9
$CHAMFERC
 40
1.0
  9
$CHAMFERD
 40
0.0
  9
$SKPOLY
 70
     0
  9
$TDCREATE
 40
2456524.383632987
  9
$TDUCREATE
 40
2456524.050299653
  9
$TDUPDATE
 40
2460293.483658009
  9
$TDUUPDATE
 40
2460293.150324676
  9
$TDINDWG
 40
1.1657682176
  9
$TDUSRTIMER
 40
1.1657486227
  9
$USRTIMER
 70
     1
  9
$ANGBASE
 50
0.0
  9
$ANGDIR
 70
     0
  9
$PDMODE
 70
     0
  9
$PDSIZE
 40
0.0
  9
$PLINEWID
 40
0.0
  9
$SPLFRAME
 70
     0
  9
$SPLINETYPE
 70
     6
  9
$SPLINESEGS
 70
     8
  9
$HANDSEED
  5
14360
  9
$SURFTAB1
 70
     6
  9
$SURFTAB2
 70
     6
  9
$SURFTYPE
 70
     6
  9
$SURFU
 70
     6
  9
$SURFV
 70
     6
  9
$UCSBASE
  2

  9
$UCSNAME
  2

  9
$UCSORG
 10
0.0
 20
0.0
 30
0.0
  9
$UCSXDIR
 10
1.0
 20
0.0
 30
0.0
  9
$UCSYDIR
 10
0.0
 20
1.0
 30
0.0
  9
$UCSORTHOREF
  2

  9
$UCSORTHOVIEW
 70
     0
  9
$UCSORGTOP
 10
0.0
 20
0.0
 30
0.0
  9
$UCSORGBOTTOM
 10
0.0
 20
0.0
 30
0.0
  9
$UCSORGLEFT
 10
0.0
 20
0.0
 30
0.0
  9
$UCSORGRIGHT
 10
0.0
 20
0.0
 30
0.0
  9
$UCSORGFRONT
 10
0.0
 20
0.0
 30
0.0
  9
$UCSORGBACK
 10
0.0
 20
0.0
 30
0.0
  9
$PUCSBASE
  2

  9
$PUCSNAME
  2

  9
$PUCSORG
 10
0.0
 20
0.0
 30
0.0
  9
$PUCSXDIR
 10
1.0
 20
0.0
 30
0.0
  9
$PUCSYDIR
 10
0.0
 20
1.0
 30
0.0
  9
$PUCSORTHOREF
  2

  9
$PUCSORTHOVIEW
 70
     0
  9
$PUCSORGTOP
 10
0.0
 20
0.0
 30
0.0
  9
$PUCSORGBOTTOM
 10
0.0
 20
0.0
 30
0.0
  9
$PUCSORGLEFT
 10
0.0
 20
0.0
 30
0.0
  9
$PUCSORGRIGHT
 10
0.0
 20
0.0
 30
0.0
  9
$PUCSORGFRONT
 10
0.0
 20
0.0
 30
0.0
  9
$PUCSORGBACK
 10
0.0
 20
0.0
 30
0.0
  9
$USERI1
 70
     0
  9
$USERI2
 70
     0
  9
$USERI3
 70
     0
  9
$USERI4
 70
     0
  9
$USERI5
 70
     0
  9
$USERR1
 40
0.0
  9
$USERR2
 40
0.0
  9
$USERR3
 40
0.0
  9
$USERR4
 40
0.0
  9
$USERR5
 40
0.0
  9
$WORLDVIEW
 70
     1
  9
$SHADEDGE
 70
     3
  9
$SHADEDIF
 70
    70
  9
$TILEMODE
 70
     1
  9
$MAXACTVP
 70
    64
  9
$PINSBASE
 10
0.0
 20
0.0
 30
0.0
  9
$PLIMCHECK
 70
     0
  9
$PEXTMIN
 10
1.000000000000000E+20
 20
1.000000000000000E+20
 30
1.000000000000000E+20
  9
$PEXTMAX
 10
-1.000000000000000E+20
 20
-1.000000000000000E+20
 30
-1.000000000000000E+20
  9
$PLIMMIN
 10
0.0
 20
0.0
  9
$PLIMMAX
 10
12.0
 20
9.0
  9
$UNITMODE
 70
     0
  9
$VISRETAIN
 70
     1
  9
$PLINEGEN
 70
     0
  9
$PSLTSCALE
 70
     1
  9
$TREEDEPTH
 70
  3020
  9
$CMLSTYLE
  2
Standard
  9
$CMLJUST
 70
     0
  9
$CMLSCALE
 40
1.0
  9
$PROXYGRAPHICS
 70
     1
  9
$MEASUREMENT
 70
     0
  9
$CELWEIGHT
370
    -1
  9
$ENDCAPS
280
     0
  9
$JOINSTYLE
280
     0
  9
$LWDISPLAY
290
     0
  9
$INSUNITS
 70
     4
  9
$HYPERLINKBASE
  1

  9
$STYLESHEET
  1
MONOCHROME.CTB
  9
$XEDIT
290
     1
  9
$CEPSNTYPE
380
     0
  9
$PSTYLEMODE
290
     1
  9
$FINGERPRINTGUID
  2
{4A02065B-8BB3-4A96-9036-502DC906C165}
  9
$VERSIONGUID
  2
{75635C93-ACDC-4F0C-8FBA-439E468C4A47}
  9
$EXTNAMES
290
     1
  9
$PSVPSCALE
 40
0.0
  9
$OLESTARTUP
290
     0
  9
$SORTENTS
280
   127
  9
$INDEXCTL
280
     0
  9
$HIDETEXT
280
     0
  9
$XCLIPFRAME
290
     0
  9
$HALOGAP
280
     0
  9
$OBSCOLOR
 70
   257
  9
$OBSLTYPE
280
     0
  9
$INTERSECTIONDISPLAY
280
     0
  9
$INTERSECTIONCOLOR
 70
   257
  9
$DIMASSOC
280
     1
  9
$PROJECTNAME
  1

  9
$CAMERADISPLAY
290
     0
  9
$LENSLENGTH
 40
50.0
  9
$CAMERAHEIGHT
 40
0.0
  9
$STEPSPERSEC
 40
2.0
  9
$STEPSIZE
 40
6.0
  9
$3DDWFPREC
 40
2.0
  9
$PSOLWIDTH
 40
0.25
  9
$PSOLHEIGHT
 40
4.0
  9
$LOFTANG1
 40
1.570796326794896
  9
$LOFTANG2
 40
1.570796326794896
  9
$LOFTMAG1
 40
0.0
  9
$LOFTMAG2
 40
0.0
  9
$LOFTPARAM
 70
     7
  9
$LOFTNORMALS
280
     1
  9
$LATITUDE
 40
37.795
  9
$LONGITUDE
 40
-122.394
  9
$NORTHDIRECTION
 40
0.0
  9
$TIMEZONE
 70
 -8000
  9
$LIGHTGLYPHDISPLAY
280
     1
  9
$TILEMODELIGHTSYNCH
280
     1
  9
$CMATERIAL
347
4FE6
  9
$SOLIDHIST
280
     1
  9
$SHOWHIST
280
     1
  9
$DWFFRAME
280
     2
  9
$DGNFRAME
280
     0
  9
$REALWORLDSCALE
290
     1
  9
$INTERFERECOLOR
 62
     1
  9
$INTERFEREOBJVS
345
33
  9
$INTERFEREVPVS
346
30
  9
$CSHADOW
280
     0
  9
$SHADOWPLANELOCATION
 40
0.0
  0
ENDSEC
  0
SECTION
  2
CLASSES
  0
CLASS
  1
ACDBDICTIONARYWDFLT
  2
AcDbDictionaryWithDefault
  3
ObjectDBX Classes
 90
        0
 91
        1
280
     0
281
     0
  0
CLASS
  1
VISUALSTYLE
  2
AcDbVisualStyle
  3
ObjectDBX Classes
 90
     4095
 91
       16
280
     0
281
     0
  0
CLASS
  1
MATERIAL
  2
AcDbMaterial
  3
ObjectDBX Classes
 90
     1153
 91
        3
280
     0
281
     0
  0
CLASS
  1
TABLESTYLE
  2
AcDbTableStyle
  3
ObjectDBX Classes
 90
     4095
 91
        1
280
     0
281
     0
  0
CLASS
  1
SCALE
  2
AcDbScale
  3
ObjectDBX Classes
 90
     1153
 91
       33
280
     0
281
     0
  0
CLASS
  1
MLEADERSTYLE
  2
AcDbMLeaderStyle
  3
ACDB_MLEADERSTYLE_CLASS
 90
     4095
 91
        1
280
     0
281
     0
  0
CLASS
  1
CELLSTYLEMAP
  2
AcDbCellStyleMap
  3
ObjectDBX Classes
 90
     1152
 91
        2
280
     0
281
     0
  0
CLASS
  1
DICTIONARYVAR
  2
AcDbDictionaryVar
  3
ObjectDBX Classes
 90
        0
 91
        8
280
     0
281
     0
  0
CLASS
  1
SORTENTSTABLE
  2
AcDbSortentsTable
  3
ObjectDBX Classes
 90
        0
 91
        1
280
     0
281
     0
  0
CLASS
  1
ACAD_EVALUATION_GRAPH
  2
AcDbEvalGraph
  3
ObjectDBX Classes
 90
     1153
 91
        1
280
     0
281
     0
  0
CLASS
  1
ACAECUSTOBJ
  2
AcAeEditorObj
  3
AcAeEditorObj
 90
     1024
 91
        1
280
     0
281
     0
  0
CLASS
  1
ACDB_DYNAMICBLOCKPURGEPREVENTER_VERSION
  2
AcDbDynamicBlockPurgePreventer
  3
ObjectDBX Classes
 90
     1153
 91
        1
280
     0
281
     0
  0
CLASS
  1
MENTALRAYRENDERSETTINGS
  2
AcDbMentalRayRenderSettings
  3
SCENEOE
 90
     1024
 91
        1
280
     0
281
     0
  0
CLASS
  1
ACDB_BLOCKREPRESENTATION_DATA
  2
AcDbBlockRepresentationData
  3
ObjectDBX Classes
 90
     1153
 91
        0
280
     0
281
     0
  0
CLASS
  1
DIMASSOC
  2
AcDbDimAssoc
  3
"AcDbDimAssoc|Product Desc:     AcDim ARX App For Dimension|Company:          Autodesk, Inc.|WEB Address:      www.autodesk.com"
 90
        0
 91
        4
280
     0
281
     0
  0
ENDSEC
  0
SECTION
  2
TABLES
  0
TABLE
  2
VPORT
  5
8
102
{ACAD_XDICTIONARY
360
50EE
102
}
330
0
100
AcDbSymbolTable
 70
     1
  0
VPORT
  5
29
330
8
100
AcDbSymbolTableRecord
100
AcDbViewportTableRecord
  2
*Active
 70
     0
 10
0.0
 20
0.0
 11
1.0
 21
1.0
 12
331.5252472867686
 22
88.55570038522518
 13
0.0
 23
0.0
 14
0.5
 24
0.5
 15
0.5
 25
0.5
 16
0.0
 26
0.0
 36
1.0
 17
104.9654968719086
 27
148.5022307685978
 37
0.0
 40
106.1170595802327
 41
2.426395939086294
 42
50.0
 43
0.0
 44
0.0
 50
0.0
 51
0.0
 71
     0
 72
   100
 73
     1
 74
     3
 75
     0
 76
     0
 77
     0
 78
     0
281
     0
 65
     1
110
0.0
120
0.0
130
0.0
111
1.0
121
0.0
131
0.0
112
0.0
122
1.0
132
0.0
 79
     0
146
0.0
348
2F
 60
     3
 61
     5
292
     1
282
     1
141
0.0
142
0.0
 63
   250
421
  3355443
  0
ENDTAB
  0
TABLE
  2
LTYPE
  5
5
330
0
100
AcDbSymbolTable
 70
     2
  0
LTYPE
  5
14
330
5
100
AcDbSymbolTableRecord
100
AcDbLinetypeTableRecord
  2
ByBlock
 70
     0
  3

 72
    65
 73
     0
 40
0.0
  0
LTYPE
  5
15
330
5
100
AcDbSymbolTableRecord
100
AcDbLinetypeTableRecord
  2
ByLayer
 70
     0
  3

 72
    65
 73
     0
 40
0.0
  0
LTYPE
  5
16
330
5
100
AcDbSymbolTableRecord
100
AcDbLinetypeTableRecord
  2
Continuous
 70
     0
  3
Solid line
 72
    65
 73
     0
 40
0.0
  0
LTYPE
  5
67BA
330
5
100
AcDbSymbolTableRecord
100
AcDbLinetypeTableRecord
  2
CENTER
 70
     0
  3
Center ____ _ ____ _ ____ _ ____ _ ____ _ ____
 72
    65
 73
     4
 40
2.0
 49
1.25
 74
     0
 49
-0.25
 74
     0
 49
0.25
 74
     0
 49
-0.25
 74
     0
  0
ENDTAB
  0
TABLE
  2
LAYER
  5
2
102
{ACAD_XDICTIONARY
360
50B8
102
}
330
0
100
AcDbSymbolTable
 70
     9
  0
LAYER
  5
10
102
{ACAD_XDICTIONARY
360
50D0
102
}
330
2
100
AcDbSymbolTableRecord
100
AcDbLayerTableRecord
  2
0
 70
     0
 62
     7
  6
Continuous
370
    25
390
F
347
4FF6
  0
LAYER
  5
3B
102
{ACAD_XDICTIONARY
360
50D2
102
}
330
2
100
AcDbSymbolTableRecord
100
AcDbLayerTableRecord
  2
图层 1
 70
     0
 62
     7
  6
Continuous
370
    -3
390
F
347
4FF6
  0
LAYER
  5
50AE
102
{ACAD_XDICTIONARY
360
50AF
102
}
330
2
100
AcDbSymbolTableRecord
100
AcDbLayerTableRecord
  2
图框
 70
     0
 62
     7
  6
Continuous
370
    20
390
F
347
4FF6
  0
LAYER
  5
5141
330
2
100
AcDbSymbolTableRecord
100
AcDbLayerTableRecord
  2
Defpoints
 70
     0
 62
     7
  6
Continuous
290
     0
370
    -3
390
F
347
4FF6
  0
LAYER
  5
5144
330
2
100
AcDbSymbolTableRecord
100
AcDbLayerTableRecord
  2
DIM
 70
     0
 62
     3
  6
Continuous
370
    15
390
F
347
4FF6
1001
AcAecLayerStandard
1000

1000

  0
LAYER
  5
52F3
330
2
100
AcDbSymbolTableRecord
100
AcDbLayerTableRecord
  2
打标文字
 70
     0
 62
     3
  6
Continuous
370
    20
390
F
347
4FF6
  0
LAYER
  5
67B7
330
2
100
AcDbSymbolTableRecord
100
AcDbLayerTableRecord
  2
CEN
 70
     0
 62
     1
  6
CENTER
370
    15
390
F
347
4FF6
1001
AcAecLayerStandard
1000

1000

  0
LAYER
  5
11B6B
330
2
100
AcDbSymbolTableRecord
100
AcDbLayerTableRecord
  2
hat
 70
     0
 62
     6
  6
Continuous
370
    15
390
F
347
4FF6
1001
AcAecLayerStandard
1000

1000

  0
LAYER
  5
11B6D
330
2
100
AcDbSymbolTableRecord
100
AcDbLayerTableRecord
  2
文本
 70
     0
 62
     4
  6
Continuous
370
    25
390
11B6F
347
4FF6
  0
ENDTAB
  0
TABLE
  2
STYLE
  5
3
330
0
100
AcDbSymbolTable
 70
     4
  0
STYLE
  5
11
330
3
100
AcDbSymbolTableRecord
100
AcDbTextStyleTableRecord
  2
Standard
 70
     0
 40
0.0
 41
0.75
 50
0.0
 71
     0
 42
0.2
  3
SIMFANG.TTF
  4

1001
ACAD
1000
FangSong_GB2312
1071
    34353
  0
STYLE
  5
FD48
330
3
100
AcDbSymbolTableRecord
100
AcDbTextStyleTableRecord
  2
Romans字体
 70
     0
 40
0.0
 41
0.75
 50
0.0
 71
     0
 42
0.2
  3
romans.shx
  4

  0
STYLE
  5
11080
330
3
100
AcDbSymbolTableRecord
100
AcDbTextStyleTableRecord
  2
工程字
 70
     0
 40
0.0
 41
1.0
 50
0.0
 71
     0
 42
3.5
  3
gbenor.shx
  4
gbcbig.shx
  0
STYLE
  5
11081
330
3
100
AcDbSymbolTableRecord
100
AcDbTextStyleTableRecord
  2
Chinese
 70
     0
 40
0.0
 41
1.0
 50
0.0
 71
     0
 42
2.5
  3
PMingLiU.ttf
  4

1001
ACAD
1000
PMingLiU
1071
    34834
  0
ENDTAB
  0
TABLE
  2
VIEW
  5
6
330
0
100
AcDbSymbolTable
 70
     0
  0
ENDTAB
  0
TABLE
  2
UCS
  5
7
330
0
100
AcDbSymbolTable
 70
     0
  0
ENDTAB
  0
TABLE
  2
APPID
  5
9
330
0
100
AcDbSymbolTable
 70
    17
  0
APPID
  5
12
330
9
100
AcDbSymbolTableRecord
100
AcDbRegAppTableRecord
  2
ACAD
 70
     0
  0
APPID
  5
5024
330
9
100
AcDbSymbolTableRecord
100
AcDbRegAppTableRecord
  2
ACAD_MLEADERVER
 70
     0
  0
APPID
  5
50B5
330
9
100
AcDbSymbolTableRecord
100
AcDbRegAppTableRecord
  2
AcDbDynamicBlockGUID
 70
     0
  0
APPID
  5
50B6
330
9
100
AcDbSymbolTableRecord
100
AcDbRegAppTableRecord
  2
AcDbBlockRepETag
 70
     0
  0
APPID
  5
50B7
330
9
100
AcDbSymbolTableRecord
100
AcDbRegAppTableRecord
  2
ACAD_PSEXT
 70
     0
  0
APPID
  5
50CF
330
9
100
AcDbSymbolTableRecord
100
AcDbRegAppTableRecord
  2
AcadAnnoPO
 70
     0
  0
APPID
  5
5146
330
9
100
AcDbSymbolTableRecord
100
AcDbRegAppTableRecord
  2
AcAecLayerStandard
 70
     0
  0
APPID
  5
5147
330
9
100
AcDbSymbolTableRecord
100
AcDbRegAppTableRecord
  2
ACAD_DSTYLE_DIMJAG
 70
     0
  0
APPID
  5
5148
330
9
100
AcDbSymbolTableRecord
100
AcDbRegAppTableRecord
  2
ACAD_DSTYLE_DIMTALN
 70
     0
  0
APPID
  5
52AD
330
9
100
AcDbSymbolTableRecord
100
AcDbRegAppTableRecord
  2
ACAUTHENVIRON
 70
     0
  0
APPID
  5
52B0
330
9
100
AcDbSymbolTableRecord
100
AcDbRegAppTableRecord
  2
AcDbDynamicBlockTrueName
 70
     0
  0
APPID
  5
67C6
330
9
100
AcDbSymbolTableRecord
100
AcDbRegAppTableRecord
  2
ACAD_EXEMPT_FROM_CAD_STANDARDS
 70
     0
  0
APPID
  5
6838
330
9
100
AcDbSymbolTableRecord
100
AcDbRegAppTableRecord
  2
ACAD_NAV_VCDISPLAY
 70
     0
  0
APPID
  5
70A9
330
9
100
AcDbSymbolTableRecord
100
AcDbRegAppTableRecord
  2
DCO15
 70
     0
  0
APPID
  5
8725
330
9
100
AcDbSymbolTableRecord
100
AcDbRegAppTableRecord
  2
AcDbBlockRepBTag
 70
     0
  0
APPID
  5
FE64
330
9
100
AcDbSymbolTableRecord
100
AcDbRegAppTableRecord
  2
ACAD_DSTYLE_DIMRADIAL_EXTENSION
 70
     0
  0
APPID
  5
FF93
330
9
100
AcDbSymbolTableRecord
100
AcDbRegAppTableRecord
  2
ACAD_DSTYLE_DIMBREAK
 70
     0
  0
ENDTAB
  0
TABLE
  2
DIMSTYLE
  5
A
330
0
100
AcDbSymbolTable
 70
     2
100
AcDbDimStyleTable
 71
     2
340
5145
340
27
  0
DIMSTYLE
105
27
330
A
100
AcDbSymbolTableRecord
100
AcDbDimStyleTableRecord
  2
Standard
 70
     0
340
11
  0
DIMSTYLE
105
5145
102
{ACAD_REACTORS
330
12AC8
330
12AF2
330
12C48
330
12B02
330
12B08
330
12B13
102
}
330
A
100
AcDbSymbolTableRecord
100
AcDbDimStyleTableRecord
  2
01
 70
     0
 41
1.5
 42
0.2
 43
0.2
 44
0.5
 73
     0
 74
     0
 77
     1
 78
     8
 79
     2
140
2.0
141
0.0
147
0.5
176
     1
177
     6
178
     4
179
     2
271
     1
272
     1
340
FD48
1001
ACAD_DSTYLE_DIMJAG
1070
   388
1040
1.5
1001
ACAD_DSTYLE_DIMTALN
1070
   392
1070
     0
  0
ENDTAB
  0
TABLE
  2
BLOCK_RECORD
  5
1
330
0
100
AcDbSymbolTable
 70
     9
  0
BLOCK_RECORD
  5
1F
102
{ACAD_XDICTIONARY
360
67C0
102
}
330
1
100
AcDbSymbolTableRecord
100
AcDbBlockTableRecord
  2
*Model_Space
340
22
 70
     0
280
     1
281
     0
  0
BLOCK_RECORD
  5
1B
330
1
100
AcDbSymbolTableRecord
100
AcDbBlockTableRecord
  2
*Paper_Space
340
1E
 70
     0
280
     1
281
     0
  0
BLOCK_RECORD
  5
23
330
1
100
AcDbSymbolTableRecord
100
AcDbBlockTableRecord
  2
*Paper_Space0
340
26
 70
     0
280
     1
281
     0
  0
BLOCK_RECORD
  5
12C64
330
1
100
AcDbSymbolTableRecord
100
AcDbBlockTableRecord
  2
*D1
340
0
 70
     0
280
     1
281
     0
  0
BLOCK_RECORD
  5
12C70
330
1
100
AcDbSymbolTableRecord
100
AcDbBlockTableRecord
  2
*D2
340
0
 70
     0
280
     1
281
     0
  0
BLOCK_RECORD
  5
12C85
330
1
100
AcDbSymbolTableRecord
100
AcDbBlockTableRecord
  2
*D3
340
0
 70
     0
280
     1
281
     0
  0
BLOCK_RECORD
  5
12C91
330
1
100
AcDbSymbolTableRecord
100
AcDbBlockTableRecord
  2
*D4
340
0
 70
     0
280
     1
281
     0
  0
BLOCK_RECORD
  5
12C9E
330
1
100
AcDbSymbolTableRecord
100
AcDbBlockTableRecord
  2
*D5
340
0
 70
     0
280
     1
281
     0
  0
BLOCK_RECORD
  5
12CB4
330
1
100
AcDbSymbolTableRecord
100
AcDbBlockTableRecord
  2
*D6
340
0
 70
     0
280
     1
281
     0
  0
BLOCK_RECORD
  5
13E17
102
{ACAD_XDICTIONARY
360
1433F
102
}
330
1
100
AcDbSymbolTableRecord
100
AcDbBlockTableRecord
  2
A4图框-NEW
340
0
310
2800000020000000200000000100080000000000000400000000000000000000000000000000000000000000000080000080000000808000800000008000800080800000C0C0C000C0DCC000F0CAA6000020400000206000002080000020A0000020C0000020E00000400000004020000040400000406000004080000040A0
310
000040C0000040E00000600000006020000060400000606000006080000060A0000060C0000060E00000800000008020000080400000806000008080000080A0000080C0000080E00000A0000000A0200000A0400000A0600000A0800000A0A00000A0C00000A0E00000C0000000C0200000C0400000C0600000C0800000C0
310
A00000C0C00000C0E00000E0000000E0200000E0400000E0600000E0800000E0A00000E0C00000E0E00040000000400020004000400040006000400080004000A0004000C0004000E00040200000402020004020400040206000402080004020A0004020C0004020E000404000004040200040404000404060004040800040
310
40A0004040C0004040E00040600000406020004060400040606000406080004060A0004060C0004060E00040800000408020004080400040806000408080004080A0004080C0004080E00040A0000040A0200040A0400040A0600040A0800040A0A00040A0C00040A0E00040C0000040C0200040C0400040C0600040C08000
310
40C0A00040C0C00040C0E00040E0000040E0200040E0400040E0600040E0800040E0A00040E0C00040E0E00080000000800020008000400080006000800080008000A0008000C0008000E00080200000802020008020400080206000802080008020A0008020C0008020E00080400000804020008040400080406000804080
310
008040A0008040C0008040E00080600000806020008060400080606000806080008060A0008060C0008060E00080800000808020008080400080806000808080008080A0008080C0008080E00080A0000080A0200080A0400080A0600080A0800080A0A00080A0C00080A0E00080C0000080C0200080C0400080C0600080C0
310
800080C0A00080C0C00080C0E00080E0000080E0200080E0400080E0600080E0800080E0A00080E0C00080E0E000C0000000C0002000C0004000C0006000C0008000C000A000C000C000C000E000C0200000C0202000C0204000C0206000C0208000C020A000C020C000C020E000C0400000C0402000C0404000C0406000C0
310
408000C040A000C040C000C040E000C0600000C0602000C0604000C0606000C0608000C060A000C060C000C060E000C0800000C0802000C0804000C0806000C0808000C080A000C080C000C080E000C0A00000C0A02000C0A04000C0A06000C0A08000C0A0A000C0A0C000C0A0E000C0C00000C0C02000C0C04000C0C06000
310
C0C08000C0C0A000F0FBFF00A4A0A000808080000000FF0000FF000000FFFF00FF000000FF00FF00FFFF0000FFFFFF0000000000000000000000000000000000000000000000000000000000000000000000000000000000000000000000000000000000000000000000000000000000000000000000000000000000000000
310
000000000000000000000000000000000000000000000000000000000000000000000000000000000000000000000000000000000000000000000000000000000000000000000000000000000000000000000000000000000000000000000000000000000000000000000000000000000000F9F9F9F9F9F9F9F9F9F9F9F9F9
310
F9F9F9F9F9F9F9F9F9F9F9F9F9F9FF00000000F9FF000000000000000000FFFFFFFFFFFFFFFFFFFFFFFFF9FAFAFAFF00000000F9FF000000000000000000FFFFFFFFFFFFFFFFFFFFFFFFFFFFFFFFFF00000000F9FD000000000000000000FFFFFFFFFFFFFFFFFFFFFFFFFFFFFFFFFF00000000F9FF000000000000000000FF
310
FFFFFFFFFFFFFFFFFFFFFFFFFFFFFFFF00000000F9FD000000000000000000FFFFFFFFFFFFFFFFFFFFFFFFFFFFFFFFFF00000000F9FF00000000000000000000000000000000000000000000000000FF00000000F9FD00000000000000000000000000000000000000000000000000FF00000000F9FF000000000000000000
310
00000000000000000000000000000000FF00000000F9FD00000000000000000000000000000000000000000000000000FF00000000F9FF00000000000000000000000000000000000000000000000000FF00000000F9FD00000000000000000000000000000000000000000000000000FF00000000F9FD0000000000000000
310
0000000000000000000000000000000000FF00000000F9FF00000000000000000000000000000000000000000000000000FF00000000F9FD00000000000000000000000000000000000000000000000000FF00000000F9FF00000000000000000000000000000000000000000000000000FF00000000F9FD00000000000000
310
000000000000000000000000000000000000FF00000000F9FF00000000000000000000000000000000000000000000000000FF00000000F9FFFFFFFFFFFFFFFFFFFFFFFFFFFFFFFFFFFFFFFFFFFFFFFFFFFFFF00000000F9FFFFFFF9F9F9F9F9F9F9F9F9F9F9F9F9F9F9F9F9F9F9F9F9F9F9F9000000000000000000000000
310
00000000000000000000000000000000000000000000000000000000000000000000000000000000000000000000000000000000000000000000000000000000000000000000000000000000000000000000000000000000000000000000000000000000000000000000000000000000000000000000000000000000000000
310
0000000000000000000000000000000000000000000000000000000000000000000000000000000000000000000000000000000000000000
102
{BLKREFS
331
13EBE
102
}
 70
     4
280
     1
281
     0
1001
AcDbDynamicBlockGUID
1000
{5A248704-C0E3-4466-9C16-6821371AE1C0}
1001
AcDbBlockRepETag
1070
     1
1071
      149
  0
ENDTAB
  0
ENDSEC
  0
SECTION
  2
BLOCKS
  0
BLOCK
  5
20
330
1F
100
AcDbEntity
  8
0
100
AcDbBlockBegin
  2
*Model_Space
 70
     0
 10
0.0
 20
0.0
 30
0.0
  3
*Model_Space
  1

  0
ENDBLK
  5
21
330
1F
100
AcDbEntity
  8
0
100
AcDbBlockEnd
  0
BLOCK
  5
1C
330
1B
100
AcDbEntity
 67
     1
  8
0
100
AcDbBlockBegin
  2
*Paper_Space
 70
     0
 10
0.0
 20
0.0
 30
0.0
  3
*Paper_Space
  1

  0
ENDBLK
  5
1D
330
1B
100
AcDbEntity
 67
     1
  8
0
100
AcDbBlockEnd
  0
BLOCK
  5
24
330
23
100
AcDbEntity
 67
     1
  8
0
100
AcDbBlockBegin
  2
*Paper_Space0
 70
     0
 10
0.0
 20
0.0
 30
0.0
  3
*Paper_Space0
  1

  0
ENDBLK
  5
25
330
23
100
AcDbEntity
 67
     1
  8
0
100
AcDbBlockEnd
  0
BLOCK
  5
12C65
330
12C64
100
AcDbEntity
  8
0
100
AcDbBlockBegin
  2
*D1
 70
     1
 10
0.0
 20
0.0
 30
0.0
  3
*D1
  1

  0
LINE
  5
12C7C
330
12C64
100
AcDbEntity
  8
DIM
 62
     6
370
    -2
100
AcDbLine
 10
412.5155926693643
 20
238.4136002705516
 30
0.0
 11
407.0272650947233
 21
238.4136002705516
 31
0.0
  0
LINE
  5
12C7D
330
12C64
100
AcDbEntity
  8
DIM
 62
     6
370
    -2
100
AcDbLine
 10
412.5155926693643
 20
233.9136002700613
 30
0.0
 11
407.0272650947233
 21
233.9136002700613
 31
0.0
  0
LINE
  5
12C7E
330
12C64
100
AcDbEntity
  8
DIM
 62
     1
370
    -2
100
AcDbLine
 10
407.5272650947233
 20
236.9136002705515
 30
0.0
 11
407.5272650947233
 21
235.4136002700613
 31
0.0
  0
SOLID
  5
12C7F
330
12C64
100
AcDbEntity
  8
DIM
 62
     1
100
AcDbTrace
 10
407.2772650947233
 20
236.9136002705515
 30
0.0
 11
407.7772650947233
 21
236.9136002705515
 31
0.0
 12
407.5272650947233
 22
238.4136002705516
 32
0.0
 13
407.5272650947233
 23
238.4136002705516
 33
0.0
  0
SOLID
  5
12C80
330
12C64
100
AcDbEntity
  8
DIM
 62
     1
100
AcDbTrace
 10
407.2772650947233
 20
235.4136002700613
 30
0.0
 11
407.7772650947233
 21
235.4136002700613
 31
0.0
 12
407.5272650947233
 22
233.9136002700613
 32
0.0
 13
407.5272650947233
 23
233.9136002700613
 33
0.0
  0
MTEXT
  5
12C81
330
12C64
100
AcDbEntity
  8
DIM
 62
     4
100
AcDbMText
 10
406.0272650947228
 20
236.1636002703065
 30
0.0
 40
2.0
 41
0.0
 46
0.0
 71
     5
 72
     1
  1
\A1;%%C4.5
  7
Romans字体
 11
0.0000000000000001
 21
1.0
 31
0.0
 73
     1
 44
1.0
  0
POINT
  5
12C82
330
12C64
100
AcDbEntity
  8
Defpoints
 62
     0
100
AcDbPoint
 10
412.7155926693641
 20
238.4136002705516
 30
0.0
  0
POINT
  5
12C83
330
12C64
100
AcDbEntity
  8
Defpoints
 62
     0
100
AcDbPoint
 10
412.7155926693641
 20
233.9136002700613
 30
0.0
  0
POINT
  5
12C84
330
12C64
100
AcDbEntity
  8
Defpoints
 62
     0
100
AcDbPoint
 10
407.5272650947233
 20
233.9136002700613
 30
0.0
  0
ENDBLK
  5
12C66
330
12C64
100
AcDbEntity
  8
0
100
AcDbBlockEnd
  0
BLOCK
  5
12C71
330
12C70
100
AcDbEntity
  8
0
100
AcDbBlockBegin
  2
*D2
 70
     1
 10
0.0
 20
0.0
 30
0.0
  3
*D2
  1

  0
LINE
  5
12CAB
330
12C70
100
AcDbEntity
  8
DIM
 62
     6
370
    -2
100
AcDbLine
 10
412.7155926693641
 20
233.260510985133
 30
0.0
 11
412.7155926693641
 21
227.4903017713707
 31
0.0
  0
LINE
  5
12CAC
330
12C70
100
AcDbEntity
  8
DIM
 62
     6
370
    -2
100
AcDbLine
 10
420.2155926693373
 20
234.8386002710826
 30
0.0
 11
420.2155926693373
 21
227.4903017713707
 31
0.0
  0
LINE
  5
12CAD
330
12C70
100
AcDbEntity
  8
DIM
 62
     1
370
    -2
100
AcDbLine
 10
414.2155926693643
 20
227.9903017713706
 30
0.0
 11
418.7155926693375
 21
227.9903017713706
 31
0.0
  0
SOLID
  5
12CAE
330
12C70
100
AcDbEntity
  8
DIM
 62
     1
100
AcDbTrace
 10
414.2155926693643
 20
228.2403017713707
 30
0.0
 11
414.2155926693643
 21
227.7403017713707
 31
0.0
 12
412.7155926693641
 22
227.9903017713706
 32
0.0
 13
412.7155926693641
 23
227.9903017713706
 33
0.0
  0
SOLID
  5
12CAF
330
12C70
100
AcDbEntity
  8
DIM
 62
     1
100
AcDbTrace
 10
418.7155926693375
 20
228.2403017713707
 30
0.0
 11
418.7155926693375
 21
227.7403017713707
 31
0.0
 12
420.2155926693373
 22
227.9903017713706
 32
0.0
 13
420.2155926693373
 23
227.9903017713706
 33
0.0
  0
MTEXT
  5
12CB0
330
12C70
100
AcDbEntity
  8
DIM
 62
     4
100
AcDbMText
 10
416.4655926693509
 20
229.4903017713707
 30
0.0
 40
2.0
 41
0.0
 46
0.0
 71
     5
 72
     1
  1
\A1;7.5
  7
Romans字体
 73
     1
 44
1.0
  0
POINT
  5
12CB1
330
12C70
100
AcDbEntity
  8
Defpoints
 62
     0
100
AcDbPoint
 10
412.7155926693641
 20
233.460510985133
 30
0.0
  0
POINT
  5
12CB2
330
12C70
100
AcDbEntity
  8
Defpoints
 62
     0
100
AcDbPoint
 10
420.2155926693373
 20
235.0386002710826
 30
0.0
  0
POINT
  5
12CB3
330
12C70
100
AcDbEntity
  8
Defpoints
 62
     0
100
AcDbPoint
 10
420.2155926693373
 20
227.9903017713706
 30
0.0
  0
ENDBLK
  5
12C72
330
12C70
100
AcDbEntity
  8
0
100
AcDbBlockEnd
  0
BLOCK
  5
12C86
330
12C85
100
AcDbEntity
  8
0
100
AcDbBlockBegin
  2
*D3
 70
     1
 10
0.0
 20
0.0
 30
0.0
  3
*D3
  1

  0
LINE
  5
12C88
330
12C85
100
AcDbEntity
  8
DIM
 62
     6
370
    -2
100
AcDbLine
 10
437.7155926705341
 20
235.9636002709412
 30
0.0
 11
437.7155926705341
 21
224.5757755485479
 31
0.0
  0
LINE
  5
12C89
330
12C85
100
AcDbEntity
  8
DIM
 62
     6
370
    -2
100
AcDbLine
 10
412.7155926693641
 20
233.7136002700614
 30
0.0
 11
412.7155926693641
 21
224.5757755485479
 31
0.0
  0
LINE
  5
12C8A
330
12C85
100
AcDbEntity
  8
DIM
 62
     1
370
    -2
100
AcDbLine
 10
436.2155926705344
 20
225.075775548548
 30
0.0
 11
414.2155926693643
 21
225.075775548548
 31
0.0
  0
SOLID
  5
12C8B
330
12C85
100
AcDbEntity
  8
DIM
 62
     1
100
AcDbTrace
 10
436.2155926705344
 20
225.325775548548
 30
0.0
 11
436.2155926705344
 21
224.8257755485479
 31
0.0
 12
437.7155926705341
 22
225.075775548548
 32
0.0
 13
437.7155926705341
 23
225.075775548548
 33
0.0
  0
SOLID
  5
12C8C
330
12C85
100
AcDbEntity
  8
DIM
 62
     1
100
AcDbTrace
 10
414.2155926693643
 20
225.325775548548
 30
0.0
 11
414.2155926693643
 21
224.8257755485479
 31
0.0
 12
412.7155926693641
 22
225.075775548548
 32
0.0
 13
412.7155926693641
 23
225.075775548548
 33
0.0
  0
MTEXT
  5
12C8D
330
12C85
100
AcDbEntity
  8
DIM
 62
     4
100
AcDbMText
 10
425.2155926699491
 20
226.5757755485479
 30
0.0
 40
2.0
 41
0.0
 46
0.0
 71
     5
 72
     1
  1
\A1;25
  7
Romans字体
 73
     1
 44
1.0
  0
POINT
  5
12C8E
330
12C85
100
AcDbEntity
  8
Defpoints
 62
     0
100
AcDbPoint
 10
437.7155926705341
 20
236.1636002709412
 30
0.0
  0
POINT
  5
12C8F
330
12C85
100
AcDbEntity
  8
Defpoints
 62
     0
100
AcDbPoint
 10
412.7155926693641
 20
233.9136002700613
 30
0.0
  0
POINT
  5
12C90
330
12C85
100
AcDbEntity
  8
Defpoints
 62
     0
100
AcDbPoint
 10
412.7155926693641
 20
225.075775548548
 30
0.0
  0
ENDBLK
  5
12C87
330
12C85
100
AcDbEntity
  8
0
100
AcDbBlockEnd
  0
BLOCK
  5
12C92
330
12C91
100
AcDbEntity
  8
0
100
AcDbBlockBegin
  2
*D4
 70
     1
 10
0.0
 20
0.0
 30
0.0
  3
*D4
  1

  0
LINE
  5
12C94
330
12C91
100
AcDbEntity
  8
DIM
 62
     6
370
    -2
100
AcDbLine
 10
413.7713295035489
 20
237.2886002709522
 30
0.0
 11
410.4808532674295
 21
237.2886002709522
 31
0.0
  0
LINE
  5
12C95
330
12C91
100
AcDbEntity
  8
DIM
 62
     6
370
    -2
100
AcDbLine
 10
413.7713295035996
 20
235.0386002709522
 30
0.0
 11
410.4808532674295
 21
235.0386002709522
 31
0.0
  0
LINE
  5
12C96
330
12C91
100
AcDbEntity
  8
DIM
 62
     1
370
    -2
100
AcDbLine
 10
410.9808532674295
 20
238.7886002709522
 30
0.0
 11
410.9808532674295
 21
240.2886002709522
 31
0.0
  0
LINE
  5
12C97
330
12C91
100
AcDbEntity
  8
DIM
 62
     1
370
    -2
100
AcDbLine
 10
410.9808532674295
 20
233.5386002709522
 30
0.0
 11
410.9808532674295
 21
232.0386002709522
 31
0.0
  0
SOLID
  5
12C98
330
12C91
100
AcDbEntity
  8
DIM
 62
     1
100
AcDbTrace
 10
410.7308532674291
 20
238.7886002709522
 30
0.0
 11
411.2308532674295
 21
238.7886002709522
 31
0.0
 12
410.9808532674295
 22
237.2886002709522
 32
0.0
 13
410.9808532674295
 23
237.2886002709522
 33
0.0
  0
SOLID
  5
12C99
330
12C91
100
AcDbEntity
  8
DIM
 62
     1
100
AcDbTrace
 10
410.7308532674291
 20
233.5386002709522
 30
0.0
 11
411.2308532674295
 21
233.5386002709522
 31
0.0
 12
410.9808532674295
 22
235.0386002709522
 32
0.0
 13
410.9808532674295
 23
235.0386002709522
 33
0.0
  0
MTEXT
  5
12C9A
330
12C91
100
AcDbEntity
  8
DIM
 62
     4
100
AcDbMText
 10
409.480853267429
 20
236.1636002709523
 30
0.0
 40
2.0
 41
0.0
 46
0.0
 71
     5
 72
     1
  1
\A1;%%Cd
  7
Romans字体
 11
0.0000000000000001
 21
1.0
 31
0.0
 73
     1
 44
1.0
  0
POINT
  5
12C9B
330
12C91
100
AcDbEntity
  8
Defpoints
 62
     0
100
AcDbPoint
 10
413.9713295035493
 20
237.2886002709522
 30
0.0
  0
POINT
  5
12C9C
330
12C91
100
AcDbEntity
  8
Defpoints
 62
     0
100
AcDbPoint
 10
413.9713295035996
 20
235.0386002709522
 30
0.0
  0
POINT
  5
12C9D
330
12C91
100
AcDbEntity
  8
Defpoints
 62
     0
100
AcDbPoint
 10
410.9808532674295
 20
235.0386002709522
 30
0.0
  0
ENDBLK
  5
12C93
330
12C91
100
AcDbEntity
  8
0
100
AcDbBlockEnd
  0
BLOCK
  5
12C9F
330
12C9E
100
AcDbEntity
  8
0
100
AcDbBlockBegin
  2
*D5
 70
     1
 10
0.0
 20
0.0
 30
0.0
  3
*D5
  1

  0
LINE
  5
12CA1
330
12C9E
100
AcDbEntity
  8
DIM
 62
     6
370
    -2
100
AcDbLine
 10
436.6655926699038
 20
237.4136002715712
 30
0.0
 11
443.1370968699607
 21
237.4136002715712
 31
0.0
  0
LINE
  5
12CA2
330
12C9E
100
AcDbEntity
  8
DIM
 62
     6
370
    -2
100
AcDbLine
 10
436.6655926699038
 20
234.9136002703112
 30
0.0
 11
443.1370968699607
 21
234.9136002703112
 31
0.0
  0
LINE
  5
12CA3
330
12C9E
100
AcDbEntity
  8
DIM
 62
     1
370
    -2
100
AcDbLine
 10
442.6370968699607
 20
238.9136002715712
 30
0.0
 11
442.6370968699607
 21
240.4136002715712
 31
0.0
  0
LINE
  5
12CA4
330
12C9E
100
AcDbEntity
  8
DIM
 62
     1
370
    -2
100
AcDbLine
 10
442.6370968699607
 20
233.4136002703112
 30
0.0
 11
442.6370968699607
 21
226.3421716988826
 31
0.0
  0
SOLID
  5
12CA5
330
12C9E
100
AcDbEntity
  8
DIM
 62
     1
100
AcDbTrace
 10
442.3870968699607
 20
238.9136002715712
 30
0.0
 11
442.8870968699607
 21
238.9136002715712
 31
0.0
 12
442.6370968699607
 22
237.4136002715712
 32
0.0
 13
442.6370968699607
 23
237.4136002715712
 33
0.0
  0
SOLID
  5
12CA6
330
12C9E
100
AcDbEntity
  8
DIM
 62
     1
100
AcDbTrace
 10
442.3870968699607
 20
233.4136002703112
 30
0.0
 11
442.8870968699607
 21
233.4136002703112
 31
0.0
 12
442.6370968699607
 22
234.9136002703112
 32
0.0
 13
442.6370968699607
 23
234.9136002703112
 33
0.0
  0
MTEXT
  5
12CA7
330
12C9E
100
AcDbEntity
  8
DIM
 62
     4
100
AcDbMText
 10
441.1370968699606
 20
229.127885984597
 30
0.0
 40
2.0
 41
0.0
 46
0.0
 71
     5
 72
     1
  1
\A1;{\Fromand,hztxt|c134;%%C}2.5
  7
Romans字体
 11
0.0000000000000001
 21
1.0
 31
0.0
 73
     1
 44
1.0
  0
POINT
  5
12CA8
330
12C9E
100
AcDbEntity
  8
Defpoints
 62
     0
100
AcDbPoint
 10
436.4655926699041
 20
237.4136002715712
 30
0.0
  0
POINT
  5
12CA9
330
12C9E
100
AcDbEntity
  8
Defpoints
 62
     0
100
AcDbPoint
 10
436.4655926699041
 20
234.9136002703112
 30
0.0
  0
POINT
  5
12CAA
330
12C9E
100
AcDbEntity
  8
Defpoints
 62
     0
100
AcDbPoint
 10
442.6370968699607
 20
234.9136002703112
 30
0.0
  0
ENDBLK
  5
12CA0
330
12C9E
100
AcDbEntity
  8
0
100
AcDbBlockEnd
  0
BLOCK
  5
12CB5
330
12CB4
100
AcDbEntity
  8
0
100
AcDbBlockBegin
  2
*D6
 70
     1
 10
0.0
 20
0.0
 30
0.0
  3
*D6
  1

  0
LINE
  5
12CB7
330
12CB4
100
AcDbEntity
  8
DIM
 62
     6
370
    -2
100
AcDbLine
 10
416.4952188055471
 20
234.4136002710129
 30
0.0
 11
415.7327022548138
 21
234.4136002710129
 31
0.0
  0
LINE
  5
12CB8
330
12CB4
100
AcDbEntity
  8
DIM
 62
     6
370
    -2
100
AcDbLine
 10
417.0202188051275
 20
237.9136002710244
 30
0.0
 11
415.7327022548138
 21
237.9136002710244
 31
0.0
  0
LINE
  5
12CB9
330
12CB4
100
AcDbEntity
  8
DIM
 62
     1
370
    -2
100
AcDbLine
 10
416.2327022548137
 20
232.9136002710129
 30
0.0
 11
416.2327022548137
 21
231.4136002710129
 31
0.0
  0
LINE
  5
12CBA
330
12CB4
100
AcDbEntity
  8
DIM
 62
     1
370
    -2
100
AcDbLine
 10
416.2327022548137
 20
239.4136002710244
 30
0.0
 11
416.2327022548137
 21
244.3421716995958
 31
0.0
  0
SOLID
  5
12CBB
330
12CB4
100
AcDbEntity
  8
DIM
 62
     1
100
AcDbTrace
 10
415.982702254814
 20
232.9136002710129
 30
0.0
 11
416.482702254814
 21
232.9136002710129
 31
0.0
 12
416.2327022548137
 22
234.4136002710129
 32
0.0
 13
416.2327022548137
 23
234.4136002710129
 33
0.0
  0
SOLID
  5
12CBC
330
12CB4
100
AcDbEntity
  8
DIM
 62
     1
100
AcDbTrace
 10
415.982702254814
 20
239.4136002710244
 30
0.0
 11
416.482702254814
 21
239.4136002710244
 31
0.0
 12
416.2327022548137
 22
237.9136002710244
 32
0.0
 13
416.2327022548137
 23
237.9136002710244
 33
0.0
  0
MTEXT
  5
12CBD
330
12CB4
100
AcDbEntity
  8
DIM
 62
     4
100
AcDbMText
 10
414.7327022548138
 20
242.6278859853102
 30
0.0
 40
2.0
 41
0.0
 46
0.0
 71
     5
 72
     1
  1
\A1;%%CD
  7
Romans字体
 11
0.0000000000000001
 21
1.0
 31
0.0
 73
     1
 44
1.0
  0
POINT
  5
12CBE
330
12CB4
100
AcDbEntity
  8
Defpoints
 62
     0
100
AcDbPoint
 10
416.695218805547
 20
234.4136002710129
 30
0.0
  0
POINT
  5
12CBF
330
12CB4
100
AcDbEntity
  8
Defpoints
 62
     0
100
AcDbPoint
 10
417.2202188051275
 20
237.9136002710244
 30
0.0
  0
POINT
  5
12CC0
330
12CB4
100
AcDbEntity
  8
Defpoints
 62
     0
100
AcDbPoint
 10
416.2327022548137
 20
237.9136002710244
 30
0.0
  0
ENDBLK
  5
12CB6
330
12CB4
100
AcDbEntity
  8
0
100
AcDbBlockEnd
  0
BLOCK
  5
13E19
330
13E17
100
AcDbEntity
  8
0
100
AcDbBlockBegin
  2
A4图框-NEW
 70
     0
 10
0.0
 20
0.0
 30
0.0
  3
A4图框-NEW
  1

  0
MTEXT
  5
142AA
102
{ACAD_XDICTIONARY
360
14348
102
}
330
13E17
100
AcDbEntity
  8
图框
 62
     3
100
AcDbMText
 10
967.6594956750133
 20
499.7664151964293
 30
0.0
 40
2.985513575034151
 41
15.50176341157864
 46
6.292658374511018
 71
     5
 72
     5
  1
BQ LUO
  7
Romans字体
 73
     1
 44
1.0
1001
AcDbBlockRepETag
1070
     1
1071
        0
1005
142AA
1001
ACAD
1000
ACAD_MTEXT_DEFINED_HEIGHT_BEGIN
1070
    46
1040
6.292658374511018
1000
ACAD_MTEXT_DEFINED_HEIGHT_END
  0
MTEXT
  5
142AB
330
13E17
100
AcDbEntity
  8
图框
 62
     3
100
AcDbMText
 10
983.041569333247
 20
499.7664151964293
 30
0.0
 40
2.487927979195124
 41
15.26238390489062
 46
6.292658374511042
 71
     5
 72
     5
  1
{\W0.7;18.10.2010}
  7
Romans字体
 73
     1
 44
1.0
1001
AcDbBlockRepETag
1070
     1
1071
        1
1005
142AB
1001
ACAD
1000
ACAD_MTEXT_DEFINED_HEIGHT_BEGIN
1070
    46
1040
6.292658374511042
1000
ACAD_MTEXT_DEFINED_HEIGHT_END
  0
MTEXT
  5
142AC
330
13E17
100
AcDbEntity
  8
图框
 62
     3
100
AcDbMText
 10
1012.477254728976
 20
487.1810984474071
 30
0.0
 40
2.985513575034151
 41
17.64876416884615
 46
6.292658374511455
 71
     5
 72
     5
  1
YY LIN
  7
Romans字体
 73
     1
 44
1.0
1001
AcDbBlockRepETag
1070
     1
1071
        2
1005
142AC
1001
ACAD
1000
ACAD_MTEXT_DEFINED_HEIGHT_BEGIN
1070
    46
1040
6.292658374511455
1000
ACAD_MTEXT_DEFINED_HEIGHT_END
  0
MTEXT
  5
142AD
330
13E17
100
AcDbEntity
  8
图框
 62
     3
100
AcDbMText
 10
1028.977802139886
 20
487.1810984474071
 30
0.0
 40
2.487927979195124
 41
15.35233065297276
 46
6.292658374511495
 71
     5
 72
     5
  1
{\W0.7;18.10.2010}
  7
Romans字体
 73
     1
 44
1.0
1001
AcDbBlockRepETag
1070
     1
1071
        3
1005
142AD
1001
ACAD
1000
ACAD_MTEXT_DEFINED_HEIGHT_BEGIN
1070
    46
1040
6.292658374511495
1000
ACAD_MTEXT_DEFINED_HEIGHT_END
  0
MTEXT
  5
142AE
330
13E17
100
AcDbEntity
  8
图框
 62
     3
100
AcDbMText
 10
1063.722665487208
 20
525.4145966538831
 30
0.0
 40
2.985513575034151
 41
32.4973914334545
 46
11.82914190181707
 71
     5
 72
     5
  1
-
  7
Romans字体
 73
     1
 44
1.0
1001
AcDbBlockRepETag
1070
     1
1071
        4
1005
142AE
1001
ACAD
1000
ACAD_MTEXT_DEFINED_HEIGHT_BEGIN
1070
    46
1040
11.82914190181707
1000
ACAD_MTEXT_DEFINED_HEIGHT_END
  0
MTEXT
  5
142AF
330
13E17
100
AcDbEntity
  8
图框
 62
     3
100
AcDbMText
 10
1063.727338552349
 20
513.5854547520641
 30
0.0
 40
2.985513575034151
 41
32.48804530317308
 46
11.82914190182139
 71
     5
 72
     5
  1
-
  7
Romans字体
 73
     1
 44
1.0
1001
AcDbBlockRepETag
1070
     1
1071
        5
1005
142AF
1001
ACAD
1000
ACAD_MTEXT_DEFINED_HEIGHT_BEGIN
1070
    46
1040
11.82914190182139
1000
ACAD_MTEXT_DEFINED_HEIGHT_END
  0
MTEXT
  5
142B0
330
13E17
100
AcDbEntity
  8
图框
 62
     3
100
AcDbMText
 10
1110.122306614152
 20
526.8006839312707
 30
0.0
 40
2.985513575034151
 41
33.61239199242139
 46
9.05696734704178
 71
     5
 72
     5
  1
-
  7
Romans字体
 73
     1
 44
1.0
1001
AcDbBlockRepETag
1070
     1
1071
        6
1005
142B0
1001
ACAD
1000
ACAD_MTEXT_DEFINED_HEIGHT_BEGIN
1070
    46
1040
9.05696734704178
1000
ACAD_MTEXT_DEFINED_HEIGHT_END
  0
MTEXT
  5
142B1
330
13E17
100
AcDbEntity
  8
图框
 62
     3
100
AcDbMText
 10
1110.122306614152
 20
500.2775205517162
 30
0.0
 40
2.985513575034151
 41
33.61239199242139
 46
8.871557304763419
 71
     5
 72
     5
  1
-
  7
Romans字体
 73
     1
 44
1.0
1001
AcDbBlockRepETag
1070
     1
1071
        7
1005
142B1
1001
ACAD
1000
ACAD_MTEXT_DEFINED_HEIGHT_BEGIN
1070
    46
1040
8.871557304763419
1000
ACAD_MTEXT_DEFINED_HEIGHT_END
  0
MTEXT
  5
142B2
330
13E17
100
AcDbEntity
  8
图框
 62
     3
100
AcDbMText
 10
967.6594956750133
 20
493.4737568219182
 30
0.0
 40
2.985513575034151
 41
15.50176341157864
 46
6.292658374510335
 71
     5
 72
     5
  1
P RAO
  7
Romans字体
 73
     1
 44
1.0
1001
AcDbBlockRepETag
1070
     1
1071
        8
1005
142B2
1001
ACAD
1000
ACAD_MTEXT_DEFINED_HEIGHT_BEGIN
1070
    46
1040
6.292658374510335
1000
ACAD_MTEXT_DEFINED_HEIGHT_END
  0
MTEXT
  5
142B3
330
13E17
100
AcDbEntity
  8
图框
 62
     3
100
AcDbMText
 10
983.041569333247
 20
493.2441970450405
 30
0.0
 40
2.487927979195124
 41
15.26238390489051
 46
6.751777928266487
 71
     5
 72
     5
  1
{\W0.7;18.10.2010}
  7
Romans字体
 73
     1
 44
1.0
1001
AcDbBlockRepETag
1070
     1
1071
        9
1005
142B3
1001
ACAD
1000
ACAD_MTEXT_DEFINED_HEIGHT_BEGIN
1070
    46
1040
6.751777928266487
1000
ACAD_MTEXT_DEFINED_HEIGHT_END
  0
MTEXT
  5
142B4
330
13E17
100
AcDbEntity
  8
图框
 62
     3
100
AcDbMText
 10
1012.477254728976
 20
499.7664151964291
 30
0.0
 40
2.985513575034151
 41
17.64876416884615
 46
6.292658374511397
 71
     5
 72
     5
  1
-
  7
Romans字体
 73
     1
 44
1.0
1001
AcDbBlockRepETag
1070
     1
1071
       10
1005
142B4
1001
ACAD
1000
ACAD_MTEXT_DEFINED_HEIGHT_BEGIN
1070
    46
1040
6.292658374511397
1000
ACAD_MTEXT_DEFINED_HEIGHT_END
  0
MTEXT
  5
142B5
330
13E17
100
AcDbEntity
  8
图框
 62
     3
100
AcDbMText
 10
1028.977802139886
 20
499.7664151964289
 30
0.0
 40
2.487927979195124
 41
15.35233065297265
 46
6.292658374511382
 71
     5
 72
     5
  1
-
  7
Romans字体
 73
     1
 44
1.0
1001
AcDbBlockRepETag
1070
     1
1071
       11
1005
142B5
1001
ACAD
1000
ACAD_MTEXT_DEFINED_HEIGHT_BEGIN
1070
    46
1040
6.292658374511382
1000
ACAD_MTEXT_DEFINED_HEIGHT_END
  0
MTEXT
  5
142B6
330
13E17
100
AcDbEntity
  8
图框
 62
     3
100
AcDbMText
 10
967.6594956750133
 20
487.1810984474071
 30
0.0
 40
2.985513575034151
 41
15.50176341157863
 46
6.292658374511478
 71
     5
 72
     5
  1
-
  7
Romans字体
 73
     1
 44
1.0
1001
AcDbBlockRepETag
1070
     1
1071
       12
1005
142B6
1001
ACAD
1000
ACAD_MTEXT_DEFINED_HEIGHT_BEGIN
1070
    46
1040
6.292658374511478
1000
ACAD_MTEXT_DEFINED_HEIGHT_END
  0
MTEXT
  5
142B7
330
13E17
100
AcDbEntity
  8
图框
 62
     3
100
AcDbMText
 10
983.041569333247
 20
487.1810984474071
 30
0.0
 40
2.487927979195124
 41
15.26238390489062
 46
6.292658374511495
 71
     5
 72
     5
  1
-
  7
Romans字体
 73
     1
 44
1.0
1001
AcDbBlockRepETag
1070
     1
1071
       13
1005
142B7
1001
ACAD
1000
ACAD_MTEXT_DEFINED_HEIGHT_BEGIN
1070
    46
1040
6.292658374511495
1000
ACAD_MTEXT_DEFINED_HEIGHT_END
  0
MTEXT
  5
142B8
330
13E17
100
AcDbEntity
  8
图框
 62
     3
100
AcDbMText
 10
1074.556686986741
 20
495.8417418993361
 30
0.0
 40
2.985513575034151
 41
10.82934843438978
 46
7.886094601210427
 71
     5
 72
     5
  1
-
  7
Romans字体
 73
     1
 44
1.0
1001
AcDbBlockRepETag
1070
     1
1071
       14
1005
142B8
1001
ACAD
1000
ACAD_MTEXT_DEFINED_HEIGHT_BEGIN
1070
    46
1040
7.886094601210427
1000
ACAD_MTEXT_DEFINED_HEIGHT_END
  0
LINE
  5
142B9
330
13E17
100
AcDbEntity
  8
图框
370
    -3
100
AcDbLine
 10
1036.653967466372
 20
499.7847891999413
 30
0.0
 11
1079.971361203936
 21
499.7847891999413
 31
0.0
1001
AcDbBlockRepETag
1070
     1
1071
       15
1005
142B9
  0
MTEXT
  5
142BA
330
13E17
100
AcDbEntity
  8
图框
 62
     1
370
    20
100
AcDbMText
 10
1108.26336443907
 20
491.5162596080882
 30
0.0
 40
2.699054613030988
 41
82.30831305643079
 46
0.0
 71
     5
 72
     5
  1
{\fSimHei|b0|i0|c134|p2;厦门唯恩电气有限公司}
 73
     1
 44
1.0
1001
AcDbBlockRepETag
1070
     1
1071
       16
1005
142BA
  0
MTEXT
  5
142BB
330
13E17
100
AcDbEntity
  8
图框
 62
     3
370
    20
100
AcDbMText
 10
1108.435451459908
 20
487.298967726064
 30
0.0
 40
1.652482416141417
 41
68.08558693693567
 46
0.0
 71
     5
 72
     5
  1
{\fArial Narrow|b0|i0|c0|p34;XIAMEN WAIN ELECTRICAL CO.LTD}
  7
工程字
 73
     1
 44
1.0
1001
AcDbBlockRepETag
1070
     1
1071
       17
1005
142BB
  0
MTEXT
  5
142BC
330
13E17
100
AcDbEntity
  8
图框
 62
     1
370
    20
100
AcDbMText
 10
1085.711816899387
 20
491.0944802995856
 30
0.0
 40
2.005930044038334
 41
5.047240019334847
 46
0.0
 71
     1
 72
     5
  1
{\fArial|b0|i0|c0|p34;A}
  7
Chinese
 73
     1
 44
1.0
1001
AcDbBlockRepETag
1070
     1
1071
       18
1005
142BC
  0
MTEXT
  5
142BD
330
13E17
100
AcDbEntity
  8
图框
 62
     1
370
    20
100
AcDbMText
 10
1088.213485935716
 20
491.0944802995856
 30
0.0
 40
2.005930044038334
 41
5.047240019334847
 46
0.0
 71
     1
 72
     5
  1
{\fArial|b0|i0|c0|p34;I}
  7
Chinese
 73
     1
 44
1.0
1001
AcDbBlockRepETag
1070
     1
1071
       19
1005
142BD
  0
MTEXT
  5
142BE
330
13E17
100
AcDbEntity
  8
图框
 62
     1
370
    20
100
AcDbMText
 10
1089.142375222864
 20
491.0822866326808
 30
0.0
 40
2.005930044038334
 41
5.047240019334847
 46
0.0
 71
     1
 72
     5
  1
{\fArial|b0|i0|c0|p34;N}
  7
Chinese
 73
     1
 44
1.0
1001
AcDbBlockRepETag
1070
     1
1071
       20
1005
142BE
  0
MTEXT
  5
142BF
330
13E17
100
AcDbEntity
  8
图框
100
AcDbMText
 10
1069.142012769545
 20
487.9667319294409
 30
0.0
 40
2.252848170144607
 41
21.65869686878327
 46
7.863925338579296
 71
     5
 72
     5
  1
{\W0.5;\C1;All Dimensions in mm\POriginal Size DIN A 4}
  7
Romans字体
 73
     1
 44
1.0
1001
AcDbBlockRepETag
1070
     1
1071
       21
1005
142BF
1001
ACAD
1000
ACAD_MTEXT_DEFINED_HEIGHT_BEGIN
1070
    46
1040
7.863925338579296
1000
ACAD_MTEXT_DEFINED_HEIGHT_END
  0
MTEXT
  5
142C0
330
13E17
100
AcDbEntity
  8
图框
  6
ByBlock
 62
     6
370
    18
100
AcDbMText
 10
1127.40434942308
 20
508.7896535755975
 30
0.0
 40
2.651776162684904
 41
2.557913877927211
 46
0.0
 71
     1
 72
     5
  1
A
  7
Romans字体
 11
0.0000000000000001
 21
1.0
 31
0.0
 73
     1
 44
1.0
1001
AcDbBlockRepETag
1070
     1
1071
       22
1005
142C0
  0
MTEXT
  5
142C1
330
13E17
100
AcDbEntity
  8
图框
 62
     6
100
AcDbMText
 10
1127.40434942308
 20
556.3746573232886
 30
0.0
 40
2.651776162684904
 41
2.557913877927211
 46
0.0
 71
     1
 72
     5
  1
B
  7
Romans字体
 11
0.0000000000000001
 21
1.0
 31
0.0
 73
     1
 44
1.0
1001
AcDbBlockRepETag
1070
     1
1071
       23
1005
142C1
  0
MTEXT
  5
142C2
330
13E17
100
AcDbEntity
  8
图框
 62
     6
100
AcDbMText
 10
1127.40434942308
 20
607.5539372630998
 30
0.0
 40
2.651776162684904
 41
2.557913877927211
 46
0.0
 71
     1
 72
     5
  1
C
  7
Romans字体
 11
0.0000000000000001
 21
1.0
 31
0.0
 73
     1
 44
1.0
1001
AcDbBlockRepETag
1070
     1
1071
       24
1005
142C2
  0
MTEXT
  5
142C3
330
13E17
100
AcDbEntity
  8
图框
 62
     6
100
AcDbMText
 10
1127.40434942308
 20
658.7332172029115
 30
0.0
 40
2.651776162684904
 41
2.557913877927211
 46
0.0
 71
     1
 72
     5
  1
D
  7
Romans字体
 11
0.0000000000000001
 21
1.0
 31
0.0
 73
     1
 44
1.0
1001
AcDbBlockRepETag
1070
     1
1071
       25
1005
142C3
  0
LINE
  5
142C4
330
13E17
100
AcDbEntity
  8
图框
 62
     6
100
AcDbLine
 10
1130.411601781241
 20
634.0726090796082
 30
0.0
 11
1126.928502610363
 21
634.0726090796082
 31
0.0
1001
AcDbBlockRepETag
1070
     1
1071
       26
1005
142C4
  0
LINE
  5
142C5
330
13E17
100
AcDbEntity
  8
图框
 62
     6
100
AcDbLine
 10
1130.411601781241
 20
582.89332913979
 30
0.0
 11
1126.928502610363
 21
582.89332913979
 31
0.0
1001
AcDbBlockRepETag
1070
     1
1071
       27
1005
142C5
  0
MTEXT
  5
142C6
330
13E17
100
AcDbEntity
  8
图框
 62
     6
100
AcDbMText
 10
1105.329704038389
 20
483.6164543011163
 30
0.0
 40
2.651776162684904
 41
2.557913877927211
 46
0.0
 71
     1
 72
     5
  1
6
  7
Romans字体
 73
     1
 44
1.0
1001
AcDbBlockRepETag
1070
     1
1071
       28
1005
142C6
  0
LINE
  5
142C7
330
13E17
100
AcDbEntity
  8
图框
 62
     6
100
AcDbLine
 10
1081.088565155284
 20
484.0347692601515
 30
0.0
 11
1081.088565155284
 21
480.5347692601475
 31
0.0
1001
AcDbBlockRepETag
1070
     1
1071
       29
1005
142C7
  0
MTEXT
  5
142C8
330
13E17
100
AcDbEntity
  8
图框
 62
     6
100
AcDbMText
 10
1055.900596365941
 20
483.520053108993
 30
0.0
 40
2.651776162684904
 41
2.557913877927211
 46
0.0
 71
     1
 72
     5
  1
5
  7
Romans字体
 73
     1
 44
1.0
1001
AcDbBlockRepETag
1070
     1
1071
       30
1005
142C8
  0
LINE
  5
142C9
330
13E17
100
AcDbEntity
  8
图框
 62
     6
100
AcDbLine
 10
1031.553386436349
 20
484.0347692601515
 30
0.0
 11
1031.553386436349
 21
480.5347692601475
 31
0.0
1001
AcDbBlockRepETag
1070
     1
1071
       31
1005
142C9
  0
MTEXT
  5
142CA
330
13E17
100
AcDbEntity
  8
图框
 62
     6
100
AcDbMText
 10
1006.383180575197
 20
483.5687958215896
 30
0.0
 40
2.651776162684904
 41
2.557913877927211
 46
0.0
 71
     1
 72
     5
  1
4
  7
Romans字体
 73
     1
 44
1.0
1001
AcDbBlockRepETag
1070
     1
1071
       32
1005
142CA
  0
LINE
  5
142CB
330
13E17
100
AcDbEntity
  8
图框
 62
     6
100
AcDbLine
 10
982.0182077173887
 20
484.0347692601515
 30
0.0
 11
982.0182077173887
 21
480.5347692601475
 31
0.0
1001
AcDbBlockRepETag
1070
     1
1071
       33
1005
142CB
  0
MTEXT
  5
142CC
330
13E17
100
AcDbEntity
  8
图框
 62
     6
100
AcDbMText
 10
956.8302389280352
 20
483.5989680297948
 30
0.0
 40
2.651776162684904
 41
2.557913877927211
 46
0.0
 71
     1
 72
     5
  1
3
  7
Romans字体
 73
     1
 44
1.0
1001
AcDbBlockRepETag
1070
     1
1071
       34
1005
142CC
  0
LINE
  5
142CD
330
13E17
100
AcDbEntity
  8
图框
 62
     6
100
AcDbLine
 10
932.4830289984245
 20
484.0347692601515
 30
0.0
 11
932.4830289984245
 21
480.5347692601475
 31
0.0
1001
AcDbBlockRepETag
1070
     1
1071
       35
1005
142CD
  0
MTEXT
  5
142CE
330
13E17
100
AcDbEntity
  8
图框
 62
     6
100
AcDbMText
 10
906.0252349826365
 20
483.6475250013156
 30
0.0
 40
2.651776162684904
 41
2.557913877927211
 46
0.0
 71
     1
 72
     5
  1
2
  7
Romans字体
 73
     1
 44
1.0
1001
AcDbBlockRepETag
1070
     1
1071
       36
1005
142CE
  0
LINE
  5
142CF
330
13E17
100
AcDbEntity
  8
图框
 62
     6
100
AcDbLine
 10
882.9478502794648
 20
484.0347692601515
 30
0.0
 11
882.9478502794648
 21
480.5347692601475
 31
0.0
1001
AcDbBlockRepETag
1070
     1
1071
       37
1005
142CF
  0
MTEXT
  5
142D0
330
13E17
100
AcDbEntity
  8
图框
 62
     6
100
AcDbMText
 10
857.7598814901191
 20
483.651829494754
 30
0.0
 40
2.651776162684904
 41
2.557913877927211
 46
0.0
 71
     1
 72
     5
  1
1
  7
Romans字体
 73
     1
 44
1.0
1001
AcDbBlockRepETag
1070
     1
1071
       38
1005
142D0
  0
LINE
  5
142D1
330
13E17
100
AcDbEntity
  8
图框
370
    50
100
AcDbLine
 10
836.8548209370597
 20
484.0347692601515
 30
0.0
 11
1126.928502610363
 21
484.0347692601515
 31
0.0
1001
AcDbBlockRepETag
1070
     1
1071
       39
1005
142D1
  0
LINE
  5
142D2
330
13E17
100
AcDbEntity
  8
图框
370
    50
100
AcDbLine
 10
836.9128518455362
 20
484.0178684310246
 30
0.0
 11
836.9128518455394
 21
675.0207195125422
 31
0.0
1001
AcDbBlockRepETag
1070
     1
1071
       40
1005
142D2
  0
MTEXT
  5
142D3
330
13E17
100
AcDbEntity
  8
图框
 62
     6
100
AcDbMText
 10
833.8475685789031
 20
658.7332172029115
 30
0.0
 40
2.651776162684904
 41
2.557913877927211
 46
0.0
 71
     1
 72
     5
  1
D
  7
Romans字体
 11
0.0000000000000001
 21
1.0
 31
0.0
 73
     1
 44
1.0
1001
AcDbBlockRepETag
1070
     1
1071
       41
1005
142D3
  0
LINE
  5
142D4
330
13E17
100
AcDbEntity
  8
图框
 62
     6
100
AcDbLine
 10
836.9128518455386
 20
634.0726090796082
 30
0.0
 11
833.4128518455365
 21
634.0726090796082
 31
0.0
1001
AcDbBlockRepETag
1070
     1
1071
       42
1005
142D4
  0
MTEXT
  5
142D5
330
13E17
100
AcDbEntity
  8
图框
 62
     6
100
AcDbMText
 10
833.9039177480142
 20
607.5539372630998
 30
0.0
 40
2.651776162684904
 41
2.557913877927211
 46
0.0
 71
     1
 72
     5
  1
C
  7
Romans字体
 11
0.0000000000000001
 21
1.0
 31
0.0
 73
     1
 44
1.0
1001
AcDbBlockRepETag
1070
     1
1071
       43
1005
142D5
  0
LINE
  5
142D6
330
13E17
100
AcDbEntity
  8
图框
 62
     6
100
AcDbLine
 10
836.9128518455378
 20
582.89332913979
 30
0.0
 11
833.4128518455365
 21
582.89332913979
 31
0.0
1001
AcDbBlockRepETag
1070
     1
1071
       44
1005
142D6
  0
MTEXT
  5
142D7
330
13E17
100
AcDbEntity
  8
图框
 62
     6
100
AcDbMText
 10
833.9039177480142
 20
556.3746573232886
 30
0.0
 40
2.651776162684904
 41
2.557913877927211
 46
0.0
 71
     1
 72
     5
  1
B
  7
Romans字体
 11
0.0000000000000001
 21
1.0
 31
0.0
 73
     1
 44
1.0
1001
AcDbBlockRepETag
1070
     1
1071
       45
1005
142D7
  0
LINE
  5
142D8
330
13E17
100
AcDbEntity
  8
图框
 62
     6
100
AcDbLine
 10
836.9128518455367
 20
531.714049199969
 30
0.0
 11
833.4128518455365
 21
531.714049199969
 31
0.0
1001
AcDbBlockRepETag
1070
     1
1071
       46
1005
142D8
  0
MTEXT
  5
142D9
330
13E17
100
AcDbEntity
  8
图框
 62
     6
100
AcDbMText
 10
833.9039177480142
 20
508.7896535755975
 30
0.0
 40
2.651776162684904
 41
2.557913877927211
 46
0.0
 71
     1
 72
     5
  1
A
  7
Romans字体
 11
0.0000000000000001
 21
1.0
 31
0.0
 73
     1
 44
1.0
1001
AcDbBlockRepETag
1070
     1
1071
       47
1005
142D9
  0
LINE
  5
142DA
330
13E17
100
AcDbEntity
  8
图框
370
    -3
100
AcDbLine
 10
836.9128518455394
 20
675.0207195125422
 30
0.0
 11
836.9128518455394
 21
684.5021384922564
 31
0.0
1001
AcDbBlockRepETag
1070
     1
1071
       48
1005
142DA
  0
LINE
  5
142DB
330
13E17
100
AcDbEntity
  8
图框
370
    -3
100
AcDbLine
 10
842.6237321475781
 20
675.5347692601515
 30
0.0
 11
842.6237321475781
 21
685.0161882398658
 31
0.0
1001
AcDbBlockRepETag
1070
     1
1071
       49
1005
142DB
  0
LINE
  5
142DC
330
13E17
100
AcDbEntity
  8
图框
370
    -3
100
AcDbLine
 10
848.3346124496179
 20
675.5347692601515
 30
0.0
 11
848.3346124496179
 21
685.0161882398658
 31
0.0
1001
AcDbBlockRepETag
1070
     1
1071
       50
1005
142DC
  0
LINE
  5
142DD
330
13E17
100
AcDbEntity
  8
图框
370
    -3
100
AcDbLine
 10
854.0454927516588
 20
675.5347692601515
 30
0.0
 11
854.0454927516588
 21
685.0161882398658
 31
0.0
1001
AcDbBlockRepETag
1070
     1
1071
       51
1005
142DD
  0
LINE
  5
142DE
330
13E17
100
AcDbEntity
  8
图框
370
    -3
100
AcDbLine
 10
861.5351874539182
 20
675.5347692601515
 30
0.0
 11
861.5351874539182
 21
686.7901958362482
 31
0.0
1001
AcDbBlockRepETag
1070
     1
1071
       52
1005
142DE
  0
MTEXT
  5
142DF
330
13E17
100
AcDbEntity
  8
图框
 62
     6
100
AcDbMText
 10
1105.329704038389
 20
678.859919059449
 30
0.0
 40
2.651776162684904
 41
2.557913877927211
 46
0.0
 71
     1
 72
     5
  1
6
  7
Romans字体
 73
     1
 44
1.0
1001
AcDbBlockRepETag
1070
     1
1071
       53
1005
142DF
  0
LINE
  5
142E0
330
13E17
100
AcDbEntity
  8
图框
 62
     6
100
AcDbLine
 10
1081.088565155284
 20
679.0347692601516
 30
0.0
 11
1081.088565155284
 21
675.5347692601515
 31
0.0
1001
AcDbBlockRepETag
1070
     1
1071
       54
1005
142E0
  0
MTEXT
  5
142E1
330
13E17
100
AcDbEntity
  8
图框
 62
     6
100
AcDbMText
 10
1055.900596365941
 20
678.859919059449
 30
0.0
 40
2.651776162684904
 41
2.557913877927211
 46
0.0
 71
     1
 72
     5
  1
5
  7
Romans字体
 73
     1
 44
1.0
1001
AcDbBlockRepETag
1070
     1
1071
       55
1005
142E1
  0
LINE
  5
142E2
330
13E17
100
AcDbEntity
  8
图框
 62
     6
100
AcDbLine
 10
1031.553386436349
 20
679.0347692601516
 30
0.0
 11
1031.553386436349
 21
675.5347692601515
 31
0.0
1001
AcDbBlockRepETag
1070
     1
1071
       56
1005
142E2
  0
MTEXT
  5
142E3
330
13E17
100
AcDbEntity
  8
图框
 62
     6
100
AcDbMText
 10
1006.36541764698
 20
678.7312083656147
 30
0.0
 40
2.651776162684904
 41
2.557913877927211
 46
0.0
 71
     1
 72
     5
  1
4
  7
Romans字体
 73
     1
 44
1.0
1001
AcDbBlockRepETag
1070
     1
1071
       57
1005
142E3
  0
LINE
  5
142E4
330
13E17
100
AcDbEntity
  8
图框
 62
     6
100
AcDbLine
 10
982.0182077173887
 20
679.0347692601516
 30
0.0
 11
982.0182077173887
 21
675.5347692601515
 31
0.0
1001
AcDbBlockRepETag
1070
     1
1071
       58
1005
142E4
  0
MTEXT
  5
142E5
330
13E17
100
AcDbEntity
  8
图框
 62
     6
100
AcDbMText
 10
956.8302389280352
 20
678.859919059449
 30
0.0
 40
2.651776162684904
 41
2.557913877927211
 46
0.0
 71
     1
 72
     5
  1
3
  7
Romans字体
 73
     1
 44
1.0
1001
AcDbBlockRepETag
1070
     1
1071
       59
1005
142E5
  0
LINE
  5
142E6
330
13E17
100
AcDbEntity
  8
图框
 62
     6
100
AcDbLine
 10
932.4830289984245
 20
679.0347692601516
 30
0.0
 11
932.4830289984245
 21
675.5347692601515
 31
0.0
1001
AcDbBlockRepETag
1070
     1
1071
       60
1005
142E6
  0
MTEXT
  5
142E7
330
13E17
100
AcDbEntity
  8
图框
 62
     6
100
AcDbMText
 10
907.295060209082
 20
678.859919059449
 30
0.0
 40
2.651776162684904
 41
2.557913877927211
 46
0.0
 71
     1
 72
     5
  1
2
  7
Romans字体
 73
     1
 44
1.0
1001
AcDbBlockRepETag
1070
     1
1071
       61
1005
142E7
  0
LINE
  5
142E8
330
13E17
100
AcDbEntity
  8
图框
 62
     6
100
AcDbLine
 10
882.9478502794648
 20
678.7962435131815
 30
0.0
 11
882.9478502794648
 21
675.5347692601515
 31
0.0
1001
AcDbBlockRepETag
1070
     1
1071
       62
1005
142E8
  0
MTEXT
  5
142E9
330
13E17
100
AcDbEntity
  8
图框
 62
     6
100
AcDbMText
 10
862.6286629643733
 20
678.859919059449
 30
0.0
 40
2.651776162684904
 41
2.557913877927211
 46
0.0
 71
     1
 72
     5
  1
1
  7
Romans字体
 73
     1
 44
1.0
1001
AcDbBlockRepETag
1070
     1
1071
       63
1005
142E9
  0
LINE
  5
142EA
330
13E17
100
AcDbEntity
  8
图框
370
    -3
100
AcDbLine
 10
836.9128518455394
 20
675.0207195125422
 30
0.0
 11
836.9128518455394
 21
686.7901958362482
 31
0.0
1001
AcDbBlockRepETag
1070
     1
1071
       64
1005
142EA
  0
LINE
  5
142EB
330
13E17
100
AcDbEntity
  8
图框
370
    50
100
AcDbLine
 10
836.9128518455394
 20
675.5347692601515
 30
0.0
 11
1126.928502610363
 21
675.5347692601515
 31
0.0
1001
AcDbBlockRepETag
1070
     1
1071
       65
1005
142EB
  0
LINE
  5
142EC
330
13E17
100
AcDbEntity
  8
图框
370
    -3
100
AcDbLine
 10
842.6237321475781
 20
675.5347692601515
 30
0.0
 11
842.6237321475781
 21
686.7901958362482
 31
0.0
1001
AcDbBlockRepETag
1070
     1
1071
       66
1005
142EC
  0
LINE
  5
142ED
330
13E17
100
AcDbEntity
  8
图框
370
    -3
100
AcDbLine
 10
848.3346124496179
 20
675.5347692601515
 30
0.0
 11
848.3346124496179
 21
686.7901958362482
 31
0.0
1001
AcDbBlockRepETag
1070
     1
1071
       67
1005
142ED
  0
MTEXT
  5
142EE
102
{ACAD_XDICTIONARY
360
1434A
102
}
330
13E17
100
AcDbEntity
  8
图框
100
AcDbMText
 10
857.7903401027889
 20
686.7901958362482
 30
0.0
 40
1.958998408821398
 41
11.25542657609672
 46
7.489694702258906
 71
     4
 72
     5
  1
\pi2.6646;{\fSimSun|b0|i0|c134|p2;档案员\fFangSong_GB2312|b0|i0|c134|p49;\H0.7x;\P\pi1.4159;\Fromans|c134;Filing Clerk\fFangSong_GB2312|b0|i0|c134|p49; }
 11
-0.0000000000000002
 21
-1.0
 31
0.0
 73
     1
 44
1.0
1001
AcDbBlockRepETag
1070
     1
1071
       68
1005
142EE
1001
ACAD
1000
ACAD_MTEXT_DEFINED_HEIGHT_BEGIN
1070
    46
1040
7.489694702258906
1000
ACAD_MTEXT_DEFINED_HEIGHT_END
  0
MTEXT
  5
142EF
102
{ACAD_XDICTIONARY
360
1434C
102
}
330
13E17
100
AcDbEntity
  8
图框
100
AcDbMText
 10
845.479172298598
 20
686.7901958362482
 30
0.0
 40
1.958998408821398
 41
11.25542657609672
 46
5.710880302039671
 71
     4
 72
     5
  1
\pi0.63465;{\fSimSun|b0|i0|c134|p2;日期\Fromans|c134;/Date}
 11
-0.0000000000000002
 21
-1.0
 31
0.0
 73
     1
 44
1.0
1001
AcDbBlockRepETag
1070
     1
1071
       69
1005
142EF
1001
ACAD
1000
ACAD_MTEXT_DEFINED_HEIGHT_BEGIN
1070
    46
1040
5.710880302039671
1000
ACAD_MTEXT_DEFINED_HEIGHT_END
  0
LINE
  5
142F0
330
13E17
100
AcDbEntity
  8
图框
370
    -3
100
AcDbLine
 10
854.0454927516588
 20
675.5347692601515
 30
0.0
 11
854.0454927516588
 21
686.7901958362482
 31
0.0
1001
AcDbBlockRepETag
1070
     1
1071
       70
1005
142F0
  0
LINE
  5
142F1
330
13E17
100
AcDbEntity
  8
图框
370
    -3
100
AcDbLine
 10
1036.653967466372
 20
531.3291676047914
 30
0.0
 11
1036.653967466372
 21
484.0126019753161
 31
0.0
1001
AcDbBlockRepETag
1070
     1
1071
       71
1005
142F1
  0
LINE
  5
142F2
330
13E17
100
AcDbEntity
  8
图框
370
    -3
100
AcDbLine
 10
1047.483315900763
 20
507.6708838011533
 30
0.0
 11
1047.483315900763
 21
491.8986945987308
 31
0.0
1001
AcDbBlockRepETag
1070
     1
1071
       72
1005
142F2
  0
LINE
  5
142F3
330
13E17
100
AcDbEntity
  8
图框
370
    -3
100
AcDbLine
 10
1058.312664335153
 20
507.6708838011533
 30
0.0
 11
1058.312664335153
 21
484.0347692601515
 31
0.0
1001
AcDbBlockRepETag
1070
     1
1071
       73
1005
142F3
  0
LINE
  5
142F4
330
13E17
100
AcDbEntity
  8
图框
370
    25
100
AcDbLine
 10
1048.474135214456
 20
488.1095628329926
 30
0.0
 11
1054.946420288459
 21
488.1095628329926
 31
0.0
1001
AcDbBlockRepETag
1070
     1
1071
       74
1005
142F4
  0
LINE
  5
142F5
330
13E17
100
AcDbEntity
  8
图框
370
    25
100
AcDbLine
 10
1054.232527365989
 20
487.0761716842634
 30
0.0
 11
1049.156490914508
 21
486.4576273751
 31
0.0
1001
AcDbBlockRepETag
1070
     1
1071
       75
1005
142F5
  0
LINE
  5
142F6
330
13E17
100
AcDbEntity
  8
图框
370
    25
100
AcDbLine
 10
1054.232527365989
 20
489.1429539817209
 30
0.0
 11
1049.156490914508
 21
489.7614982908846
 31
0.0
1001
AcDbBlockRepETag
1070
     1
1071
       76
1005
142F6
  0
LINE
  5
142F7
330
13E17
100
AcDbEntity
  8
图框
370
    25
100
AcDbLine
 10
1049.156490914508
 20
489.7614982908846
 30
0.0
 11
1049.156490914508
 21
486.4576273751
 31
0.0
1001
AcDbBlockRepETag
1070
     1
1071
       77
1005
142F7
  0
LINE
  5
142F8
330
13E17
100
AcDbEntity
  8
图框
370
    25
100
AcDbLine
 10
1054.232527365989
 20
489.1429539817209
 30
0.0
 11
1054.232527365989
 21
487.0761716842634
 31
0.0
1001
AcDbBlockRepETag
1070
     1
1071
       78
1005
142F8
  0
CIRCLE
  5
142F9
330
13E17
100
AcDbEntity
  8
图框
370
    25
100
AcDbCircle
 10
1042.502700458579
 20
488.1095628329926
 30
0.0
 40
1.651935457891863
1001
AcDbBlockRepETag
1070
     1
1071
       79
1005
142F9
  0
CIRCLE
  5
142FA
330
13E17
100
AcDbEntity
  8
图框
370
    25
100
AcDbCircle
 10
1042.502700458579
 20
488.1095628329926
 30
0.0
 40
1.033391148728775
1001
AcDbBlockRepETag
1070
     1
1071
       80
1005
142FA
  0
LINE
  5
142FB
330
13E17
100
AcDbEntity
  8
图框
370
    25
100
AcDbLine
 10
1040.136872078216
 20
488.1095628329926
 30
0.0
 11
1044.868528838943
 21
488.1095628329926
 31
0.0
1001
AcDbBlockRepETag
1070
     1
1071
       81
1005
142FB
  0
LINE
  5
142FC
330
13E17
100
AcDbEntity
  8
图框
370
    25
100
AcDbLine
 10
1042.502700458579
 20
490.475391213355
 30
0.0
 11
1042.502700458579
 21
485.743734452629
 31
0.0
1001
AcDbBlockRepETag
1070
     1
1071
       82
1005
142FC
  0
LINE
  5
142FD
330
13E17
100
AcDbEntity
  8
图框
370
    -3
100
AcDbLine
 10
1069.142012769546
 20
507.6708838011533
 30
0.0
 11
1069.142012769546
 21
491.8986945987308
 31
0.0
1001
AcDbBlockRepETag
1070
     1
1071
       83
1005
142FD
  0
MTEXT
  5
142FE
330
13E17
100
AcDbEntity
  8
图框
100
AcDbMText
 10
1086.643735910939
 20
526.8006839312707
 30
0.0
 40
2.154898249703542
 41
13.34474941400573
 46
9.056967347041775
 71
     5
 72
     5
  1
图号{\Ftxt|c134;\P\Fromans|c134;\W0.65;Drawing No.}
 73
     1
 44
1.0
1001
AcDbBlockRepETag
1070
     1
1071
       84
1005
142FE
1001
ACAD
1000
ACAD_MTEXT_DEFINED_HEIGHT_BEGIN
1070
    46
1040
9.056967347041775
1000
ACAD_MTEXT_DEFINED_HEIGHT_END
  0
LINE
  5
142FF
330
13E17
100
AcDbEntity
  8
图框
370
    -3
100
AcDbLine
 10
1093.316110617942
 20
531.3291676047914
 30
0.0
 11
1093.316110617942
 21
495.8417418993347
 31
0.0
1001
AcDbBlockRepETag
1070
     1
1071
       85
1005
142FF
  0
LINE
  5
14300
330
13E17
100
AcDbEntity
  8
图框
370
    -3
100
AcDbLine
 10
1047.473969770481
 20
531.3291676047914
 30
0.0
 11
1047.473969770481
 21
507.6708838011533
 31
0.0
1001
AcDbBlockRepETag
1070
     1
1071
       86
1005
14300
  0
MTEXT
  5
14301
330
13E17
100
AcDbEntity
  8
图框
100
AcDbMText
 10
1063.72733855235
 20
503.7278365005473
 30
0.0
 40
2.252848170144607
 41
10.82934843439208
 46
7.886094601212128
 71
     5
 72
     5
  1
重量\P{\Fromans|c134;Weight}
 73
     1
 44
1.0
1001
AcDbBlockRepETag
1070
     1
1071
       87
1005
14301
1001
ACAD
1000
ACAD_MTEXT_DEFINED_HEIGHT_BEGIN
1070
    46
1040
7.886094601212128
1000
ACAD_MTEXT_DEFINED_HEIGHT_END
  0
LINE
  5
14302
330
13E17
100
AcDbEntity
  8
图框
370
    -3
100
AcDbLine
 10
1036.653967466372
 20
519.5000257029746
 30
0.0
 11
1079.971361203936
 21
519.5000257029746
 31
0.0
1001
AcDbBlockRepETag
1070
     1
1071
       88
1005
14302
  0
MTEXT
  5
14303
330
13E17
100
AcDbEntity
  8
图框
100
AcDbMText
 10
1074.556686986741
 20
503.7278365005473
 30
0.0
 40
2.252848170144607
 41
10.82934843438984
 46
7.886094601212141
 71
     5
 72
     5
  1
数量\P{\Fromans|c134;Qty.}
 73
     1
 44
1.0
1001
AcDbBlockRepETag
1070
     1
1071
       89
1005
14303
1001
ACAD
1000
ACAD_MTEXT_DEFINED_HEIGHT_BEGIN
1070
    46
1040
7.886094601212141
1000
ACAD_MTEXT_DEFINED_HEIGHT_END
  0
LINE
  5
14304
330
13E17
100
AcDbEntity
  8
图框
370
    -3
100
AcDbLine
 10
1079.971361203936
 20
495.8417418993347
 30
0.0
 11
1126.928502610363
 21
495.8417418993342
 31
0.0
1001
AcDbBlockRepETag
1070
     1
1071
       90
1005
14304
  0
LINE
  5
14305
330
13E17
100
AcDbEntity
  8
图框
370
    -3
100
AcDbLine
 10
1079.971361203936
 20
504.7132992040975
 30
0.0
 11
1126.928502610363
 21
504.7132992040975
 31
0.0
1001
AcDbBlockRepETag
1070
     1
1071
       91
1005
14305
  0
MTEXT
  5
14306
330
13E17
100
AcDbEntity
  8
图框
100
AcDbMText
 10
1052.893317052817
 20
503.7278365005473
 30
0.0
 40
2.252848170144607
 41
10.83869456467139
 46
7.886094601212101
 71
     5
 72
     5
  1
版本\P{\Fromans|c134;REV.}
 73
     1
 44
1.0
1001
AcDbBlockRepETag
1070
     1
1071
       92
1005
14306
1001
ACAD
1000
ACAD_MTEXT_DEFINED_HEIGHT_BEGIN
1070
    46
1040
7.886094601212101
1000
ACAD_MTEXT_DEFINED_HEIGHT_END
  0
MTEXT
  5
14307
330
13E17
100
AcDbEntity
  8
图框
100
AcDbMText
 10
1042.068641683568
 20
503.7278365005473
 30
0.0
 40
2.252848170144607
 41
10.8293484343908
 46
7.886094601212136
 71
     5
 72
     5
  1
比例\P{\Fromans|c134;Scale}
 73
     1
 44
1.0
1001
AcDbBlockRepETag
1070
     1
1071
       93
1005
14307
1001
ACAD
1000
ACAD_MTEXT_DEFINED_HEIGHT_BEGIN
1070
    46
1040
7.886094601212136
1000
ACAD_MTEXT_DEFINED_HEIGHT_END
  0
LINE
  5
14308
330
13E17
100
AcDbEntity
  8
图框
370
    -3
100
AcDbLine
 10
1036.653967466372
 20
507.6708838011533
 30
0.0
 11
1079.971361203936
 21
507.6708838011533
 31
0.0
1001
AcDbBlockRepETag
1070
     1
1071
       94
1005
14308
  0
LINE
  5
14309
330
13E17
100
AcDbEntity
  8
图框
370
    -3
100
AcDbLine
 10
1036.653967466372
 20
491.8986945987308
 30
0.0
 11
1079.971361203936
 21
491.8986945987308
 31
0.0
1001
AcDbBlockRepETag
1070
     1
1071
       95
1005
14309
  0
LINE
  5
1430A
330
13E17
100
AcDbEntity
  8
图框
370
    -3
100
AcDbLine
 10
1079.971361203936
 20
531.3291676047914
 30
0.0
 11
1079.971361203936
 21
484.0125999975168
 31
0.0
1001
AcDbBlockRepETag
1070
     1
1071
       96
1005
1430A
  0
MTEXT
  5
1430B
330
13E17
100
AcDbEntity
  8
图框
100
AcDbMText
 10
1042.063968618426
 20
525.4145966538832
 30
0.0
 40
2.252848170144607
 41
10.82000230410933
 46
11.82914190181708
 71
     5
 72
     5
  1
表面处理\P{\Fromans|c134;Finish}
 73
     1
 44
1.0
1001
AcDbBlockRepETag
1070
     1
1071
       97
1005
1430B
1001
ACAD
1000
ACAD_MTEXT_DEFINED_HEIGHT_BEGIN
1070
    46
1040
11.82914190181708
1000
ACAD_MTEXT_DEFINED_HEIGHT_END
  0
MTEXT
  5
1430C
330
13E17
100
AcDbEntity
  8
图框
100
AcDbMText
 10
1042.063968618426
 20
513.5854547520639
 30
0.0
 40
2.252848170144607
 41
10.82000230410933
 46
11.8291419018212
 71
     5
 72
     5
  1
材料\P{\Fromans|c134;Material}
 73
     1
 44
1.0
1001
AcDbBlockRepETag
1070
     1
1071
       98
1005
1430C
1001
ACAD
1000
ACAD_MTEXT_DEFINED_HEIGHT_BEGIN
1070
    46
1040
11.8291419018212
1000
ACAD_MTEXT_DEFINED_HEIGHT_END
  0
LINE
  5
1430D
330
13E17
100
AcDbEntity
  8
图框
370
    -3
100
AcDbLine
 10
1079.971361203936
 20
522.27220025775
 30
0.0
 11
1126.928502610363
 21
522.27220025775
 31
0.0
1001
AcDbBlockRepETag
1070
     1
1071
       99
1005
1430D
  0
LINE
  5
1430E
330
13E17
100
AcDbEntity
  8
图框
370
    -3
100
AcDbLine
 10
1079.971361203936
 20
513.5854547520641
 30
0.0
 11
1126.928502610363
 21
513.5854547520639
 31
0.0
1001
AcDbBlockRepETag
1070
     1
1071
      100
1005
1430E
  0
MTEXT
  5
1430F
330
13E17
100
AcDbEntity
  8
图框
100
AcDbMText
 10
1086.643735910939
 20
517.9288275049072
 30
0.0
 40
1.958998408821398
 41
13.34474941400573
 46
8.686745505685811
 71
     5
 72
     5
  1
产品代号\P{\Fromans|c134;Part Code}
 73
     1
 44
1.0
1001
AcDbBlockRepETag
1070
     1
1071
      101
1005
1430F
1001
ACAD
1000
ACAD_MTEXT_DEFINED_HEIGHT_BEGIN
1070
    46
1040
8.686745505685811
1000
ACAD_MTEXT_DEFINED_HEIGHT_END
  0
LINE
  5
14310
330
13E17
100
AcDbEntity
  8
图框
370
    -3
100
AcDbLine
 10
946.9285026103634
 20
525.7982263931411
 30
0.0
 11
1036.653967466372
 21
525.7982263931411
 31
0.0
1001
AcDbBlockRepETag
1070
     1
1071
      102
1005
14310
  0
LINE
  5
14311
330
13E17
100
AcDbEntity
  8
图框
370
    -3
100
AcDbLine
 10
946.9285026103634
 20
520.2672851814959
 30
0.0
 11
1036.653967466372
 21
520.2672851814959
 31
0.0
1001
AcDbBlockRepETag
1070
     1
1071
      103
1005
14311
  0
LINE
  5
14312
330
13E17
100
AcDbEntity
  8
图框
370
    35
100
AcDbLine
 10
946.9285026103634
 20
531.3291676047914
 30
0.0
 11
1126.928502610363
 21
531.3291676047914
 31
0.0
1001
AcDbBlockRepETag
1070
     1
1071
      104
1005
14312
  0
LINE
  5
14313
330
13E17
100
AcDbEntity
  8
图框
370
    -3
100
AcDbLine
 10
990.6727612856927
 20
509.2054027581959
 30
0.0
 11
990.6727612856927
 21
484.0347692601515
 31
0.0
1001
AcDbBlockRepETag
1070
     1
1071
      105
1005
14313
  0
MTEXT
  5
14314
102
{ACAD_XDICTIONARY
360
1434E
102
}
330
13E17
100
AcDbEntity
  8
图框
100
AcDbMText
 10
997.1628169651232
 20
499.816589978722
 30
0.0
 40
2.252848170144607
 41
12.98011135886052
 46
6.19230880992475
 71
     5
 72
     5
  1
{\fSimSun|b0|i0|c134|p2;标准化}\PStand.
  7
Romans字体
 73
     1
 44
1.0
1001
AcDbBlockRepETag
1070
     1
1071
      106
1005
14314
1001
ACAD
1000
ACAD_MTEXT_DEFINED_HEIGHT_BEGIN
1070
    46
1040
6.19230880992475
1000
ACAD_MTEXT_DEFINED_HEIGHT_END
  0
LINE
  5
14315
330
13E17
100
AcDbEntity
  8
图框
370
    -3
100
AcDbLine
 10
975.4103773808022
 20
509.2054027581959
 30
0.0
 11
975.4103773808022
 21
484.0347692601515
 31
0.0
1001
AcDbBlockRepETag
1070
     1
1071
      107
1005
14315
  0
MTEXT
  5
14316
330
13E17
100
AcDbEntity
  8
图框
100
AcDbMText
 10
984.5089229802068
 20
511.9708733640202
 30
0.0
 40
2.448748011026752
 41
38.287899328693
 46
5.530941211648832
 71
     5
 72
     5
  1
  变更描述{\Fromans|c134;/Description}
 73
     1
 44
1.0
1001
AcDbBlockRepETag
1070
     1
1071
      108
1005
14316
1001
ACAD
1000
ACAD_MTEXT_DEFINED_HEIGHT_BEGIN
1070
    46
1040
5.530941211648832
1000
ACAD_MTEXT_DEFINED_HEIGHT_END
  0
MTEXT
  5
14317
102
{ACAD_XDICTIONARY
360
14350
102
}
330
13E17
100
AcDbEntity
  8
图框
100
AcDbMText
 10
1012.477254728976
 20
511.9708733640202
 30
0.0
 40
1.958998408821398
 41
17.64876416884548
 46
5.530941211649166
 71
     5
 72
     5
  1
{\fSimSun|b0|i0|c134|p2;签名\P\Fromans|c134;Signature} 
 73
     1
 44
1.0
1001
AcDbBlockRepETag
1070
     1
1071
      109
1005
14317
1001
ACAD
1000
ACAD_MTEXT_DEFINED_HEIGHT_BEGIN
1070
    46
1040
5.530941211649166
1000
ACAD_MTEXT_DEFINED_HEIGHT_END
  0
MTEXT
  5
14318
102
{ACAD_XDICTIONARY
360
14352
102
}
330
13E17
100
AcDbEntity
  8
图框
100
AcDbMText
 10
960.7558556394856
 20
511.9708733640202
 30
0.0
 40
1.958998408821398
 41
9.218235352749283
 46
5.530941211648841
 71
     5
 72
     5
  1
{\fSimSun|b0|i0|c134|p2;处数\P\Fromans|c134;Number }
 73
     1
 44
1.0
1001
AcDbBlockRepETag
1070
     1
1071
      110
1005
14318
1001
ACAD
1000
ACAD_MTEXT_DEFINED_HEIGHT_BEGIN
1070
    46
1040
5.530941211648841
1000
ACAD_MTEXT_DEFINED_HEIGHT_END
  0
LINE
  5
14319
330
13E17
100
AcDbEntity
  8
图框
370
    -3
100
AcDbLine
 10
946.9285026103634
 20
514.7363439698449
 30
0.0
 11
1036.653967466372
 21
514.7363439698449
 31
0.0
1001
AcDbBlockRepETag
1070
     1
1071
      111
1005
14319
  0
LINE
  5
1431A
330
13E17
100
AcDbEntity
  8
图框
370
    -3
100
AcDbLine
 10
946.9285026103634
 20
509.2054027581959
 30
0.0
 11
1036.653967466372
 21
509.2054027581959
 31
0.0
1001
AcDbBlockRepETag
1070
     1
1071
      112
1005
1431A
  0
LINE
  5
1431B
330
13E17
100
AcDbEntity
  8
图框
370
    -3
100
AcDbLine
 10
946.9285026103634
 20
502.9127443836848
 30
0.0
 11
1036.653967466372
 21
502.9127443836848
 31
0.0
1001
AcDbBlockRepETag
1070
     1
1071
      113
1005
1431B
  0
LINE
  5
1431C
330
13E17
100
AcDbEntity
  8
图框
370
    -3
100
AcDbLine
 10
946.9285026103634
 20
496.620086009173
 30
0.0
 11
1036.653967466372
 21
496.620086009173
 31
0.0
1001
AcDbBlockRepETag
1070
     1
1071
      114
1005
1431C
  0
LINE
  5
1431D
330
13E17
100
AcDbEntity
  8
图框
370
    35
380
     1
100
AcDbLine
 10
946.9285026103634
 20
531.3291676047914
 30
0.0
 11
946.9285026103634
 21
484.0347692601515
 31
0.0
1001
AcDbBlockRepETag
1070
     1
1071
      115
1005
1431D
  0
LINE
  5
1431E
330
13E17
100
AcDbEntity
  8
图框
370
    -3
100
AcDbLine
 10
1021.301636813399
 20
531.3291676047914
 30
0.0
 11
1021.301636813399
 21
484.0347692601515
 31
0.0
1001
AcDbBlockRepETag
1070
     1
1071
      116
1005
1431E
  0
LINE
  5
1431F
330
13E17
100
AcDbEntity
  8
图框
370
    -3
100
AcDbLine
 10
1003.652872644553
 20
531.3291676047914
 30
0.0
 11
1003.652872644553
 21
484.0347692601515
 31
0.0
1001
AcDbBlockRepETag
1070
     1
1071
      117
1005
1431F
  0
LINE
  5
14320
330
13E17
100
AcDbEntity
  8
图框
370
    -3
100
AcDbLine
 10
965.3649733158603
 20
531.3291676047914
 30
0.0
 11
965.3649733158603
 21
509.2054027581959
 31
0.0
1001
AcDbBlockRepETag
1070
     1
1071
      118
1005
14320
  0
LINE
  5
14321
330
13E17
100
AcDbEntity
  8
图框
370
    -3
100
AcDbLine
 10
956.1467379631109
 20
531.3291676047914
 30
0.0
 11
956.1467379631109
 21
509.2054027581959
 31
0.0
1001
AcDbBlockRepETag
1070
     1
1071
      119
1005
14321
  0
MTEXT
  5
14322
102
{ACAD_XDICTIONARY
360
14354
102
}
330
13E17
100
AcDbEntity
  8
图框
100
AcDbMText
 10
951.537620286737
 20
511.9708733640202
 30
0.0
 40
1.958998408821398
 41
9.218235352747692
 46
5.530941211648832
 71
     5
 72
     5
  1
{\fSimSun|b0|i0|c134|p2;标记\P\Fromans|c134;Mark}
 73
     1
 44
1.0
1001
AcDbBlockRepETag
1070
     1
1071
      120
1005
14322
1001
ACAD
1000
ACAD_MTEXT_DEFINED_HEIGHT_BEGIN
1070
    46
1040
5.530941211648832
1000
ACAD_MTEXT_DEFINED_HEIGHT_END
  0
MTEXT
  5
14323
102
{ACAD_XDICTIONARY
360
14356
102
}
330
13E17
100
AcDbEntity
  8
图框
100
AcDbMText
 10
953.4185582897936
 20
493.4737568219182
 30
0.0
 40
2.252848170144607
 41
12.98011135886041
 46
6.292658374510382
 71
     5
 72
     5
  1
{\fSimSun|b0|i0|c134|p2;审核\P\Fromans|c134;Checked}
 73
     1
 44
1.0
1001
AcDbBlockRepETag
1070
     1
1071
      121
1005
14323
1001
ACAD
1000
ACAD_MTEXT_DEFINED_HEIGHT_BEGIN
1070
    46
1040
6.292658374510382
1000
ACAD_MTEXT_DEFINED_HEIGHT_END
  0
MTEXT
  5
14324
102
{ACAD_XDICTIONARY
360
14358
102
}
330
13E17
100
AcDbEntity
  8
图框
100
AcDbMText
 10
953.4185582897936
 20
499.8775635376777
 30
0.0
 40
2.252848170144607
 41
12.98011135886041
 46
6.070361692014189
 71
     5
 72
     5
  1
{\fSimSun|b0|i0|c134|p2;绘图\P\Fromans|c134;Drawn\Ftxt|c134; }
 73
     1
 44
1.0
1001
AcDbBlockRepETag
1070
     1
1071
      122
1005
14324
1001
ACAD
1000
ACAD_MTEXT_DEFINED_HEIGHT_BEGIN
1070
    46
1040
6.070361692014189
1000
ACAD_MTEXT_DEFINED_HEIGHT_END
  0
ARC
  5
14325
330
13E17
100
AcDbEntity
  8
图框
 62
     4
370
    35
100
AcDbCircle
 10
1086.900627017421
 20
490.0179944151195
 30
0.0
 40
4.063310408393665
100
AcDbArc
 50
18.95237904564806
 51
161.0476209543519
1001
AcDbBlockRepETag
1070
     1
1071
      123
1005
14325
  0
ARC
  5
14326
330
13E17
100
AcDbEntity
  8
图框
 62
     4
370
    35
100
AcDbCircle
 10
1086.900627017421
 20
490.0179944151195
 30
0.0
 40
4.063310408393665
100
AcDbArc
 50
198.952379045648
 51
341.0476209543519
1001
AcDbBlockRepETag
1070
     1
1071
      124
1005
14326
  0
LINE
  5
14327
330
13E17
100
AcDbEntity
  8
图框
 62
     4
370
    35
100
AcDbLine
 10
1083.057593369548
 20
488.6983035966752
 30
0.0
 11
1090.74366066529
 21
488.6983035966752
 31
0.0
1001
AcDbBlockRepETag
1070
     1
1071
      125
1005
14327
  0
LINE
  5
14328
330
13E17
100
AcDbEntity
  8
图框
 62
     4
370
    35
100
AcDbLine
 10
1083.057593369548
 20
491.3376852335652
 30
0.0
 11
1090.74366066529
 21
491.3376852335652
 31
0.0
1001
AcDbBlockRepETag
1070
     1
1071
      126
1005
14328
  0
MTEXT
  5
14329
330
13E17
100
AcDbEntity
  8
图框
 62
     1
370
    20
100
AcDbMText
 10
1083.034582879669
 20
491.0506288081688
 30
0.0
 40
2.005930044038334
 41
5.047240019334847
 46
0.0
 71
     1
 72
     5
  1
{\fArial|b0|i0|c0|p34;W}
  7
Chinese
 73
     1
 44
1.0
1001
AcDbBlockRepETag
1070
     1
1071
      127
1005
14329
  0
LINE
  5
1432A
330
13E17
100
AcDbEntity
  8
图框
370
    -3
100
AcDbLine
 10
946.9285026103634
 20
490.327427634663
 30
0.0
 11
1036.653967466372
 21
490.327427634663
 31
0.0
1001
AcDbBlockRepETag
1070
     1
1071
      128
1005
1432A
  0
LINE
  5
1432B
330
13E17
100
AcDbEntity
  8
图框
370
    -3
100
AcDbLine
 10
959.9086139692238
 20
509.2054027581959
 30
0.0
 11
959.9086139692238
 21
484.0347692601515
 31
0.0
1001
AcDbBlockRepETag
1070
     1
1071
      129
1005
1432B
  0
MTEXT
  5
1432C
330
13E17
100
AcDbEntity
  8
图框
100
AcDbMText
 10
967.6594956750129
 20
506.0590735709403
 30
0.0
 40
2.252848170144607
 41
15.50176341157869
 46
6.292658374511246
 71
     5
 72
     5
  1
姓名{\Fromans|c134;/Name\Ftxt|c134; }
 73
     1
 44
1.0
1001
AcDbBlockRepETag
1070
     1
1071
      130
1005
1432C
1001
ACAD
1000
ACAD_MTEXT_DEFINED_HEIGHT_BEGIN
1070
    46
1040
6.292658374511246
1000
ACAD_MTEXT_DEFINED_HEIGHT_END
  0
MTEXT
  5
1432D
330
13E17
100
AcDbEntity
  8
图框
100
AcDbMText
 10
983.0415693332477
 20
506.0590735709403
 30
0.0
 40
2.252848170144607
 41
15.26238390489042
 46
6.2926583745112
 71
     5
 72
     5
  1
日期{\Fromans|c134;/Date}
 73
     1
 44
1.0
1001
AcDbBlockRepETag
1070
     1
1071
      131
1005
1432D
1001
ACAD
1000
ACAD_MTEXT_DEFINED_HEIGHT_BEGIN
1070
    46
1040
6.2926583745112
1000
ACAD_MTEXT_DEFINED_HEIGHT_END
  0
LINE
  5
1432E
330
13E17
100
AcDbEntity
  8
图框
370
    -3
100
AcDbLine
 10
946.9285026103634
 20
509.2054027581959
 30
0.0
 11
959.9086139692238
 21
502.9127443836848
 31
0.0
1001
AcDbBlockRepETag
1070
     1
1071
      132
1005
1432E
  0
MTEXT
  5
1432F
330
13E17
100
AcDbEntity
  8
图框
100
AcDbMText
 10
1012.931405110086
 20
506.0185715840725
 30
0.0
 40
2.252848170144607
 41
16.93492221063566
 46
0.0
 71
     5
 72
     5
  1
姓名{\Fromans|c134;/Name}
 73
     1
 44
1.0
1001
AcDbBlockRepETag
1070
     1
1071
      133
1005
1432F
  0
MTEXT
  5
14330
330
13E17
100
AcDbEntity
  8
图框
100
AcDbMText
 10
1028.977802139886
 20
506.0590735709403
 30
0.0
 40
2.252848170144607
 41
15.35233065297283
 46
6.292658374511256
 71
     5
 72
     5
  1
日期{\Fromans|c134;/Date}
 73
     1
 44
1.0
1001
AcDbBlockRepETag
1070
     1
1071
      134
1005
14330
1001
ACAD
1000
ACAD_MTEXT_DEFINED_HEIGHT_BEGIN
1070
    46
1040
6.292658374511256
1000
ACAD_MTEXT_DEFINED_HEIGHT_END
  0
LINE
  5
14331
330
13E17
100
AcDbEntity
  8
图框
370
    -3
100
AcDbLine
 10
1003.652872644553
 20
502.9127443836848
 30
0.0
 11
990.6727612856927
 21
509.2054027581959
 31
0.0
1001
AcDbBlockRepETag
1070
     1
1071
      135
1005
14331
  0
MTEXT
  5
14332
102
{ACAD_XDICTIONARY
360
1435A
102
}
330
13E17
100
AcDbEntity
  8
图框
100
AcDbMText
 10
997.1628169651232
 20
487.1810984474071
 30
0.0
 40
2.252848170144607
 41
12.98011135886052
 46
6.292658374511517
 71
     5
 72
     5
  1
{\fSimSun|b0|i0|c134|p2;批准\P\Fromans|c134;Approved}
 73
     1
 44
1.0
1001
AcDbBlockRepETag
1070
     1
1071
      136
1005
14332
1001
ACAD
1000
ACAD_MTEXT_DEFINED_HEIGHT_BEGIN
1070
    46
1040
6.292658374511517
1000
ACAD_MTEXT_DEFINED_HEIGHT_END
  0
MTEXT
  5
14333
102
{ACAD_XDICTIONARY
360
1435C
102
}
330
13E17
100
AcDbEntity
  8
图框
100
AcDbMText
 10
953.4185582897936
 20
487.1810984474071
 30
0.0
 40
2.252848170144607
 41
12.98011135886041
 46
6.292658374511495
 71
     5
 72
     5
  1
{\fSimSun|b0|i0|c134|p2;工艺\P\Fromans|c134;Process}
 73
     1
 44
1.0
1001
AcDbBlockRepETag
1070
     1
1071
      137
1005
14333
1001
ACAD
1000
ACAD_MTEXT_DEFINED_HEIGHT_BEGIN
1070
    46
1040
6.292658374511495
1000
ACAD_MTEXT_DEFINED_HEIGHT_END
  0
MTEXT
  5
14334
102
{ACAD_XDICTIONARY
360
1435E
102
}
330
13E17
100
AcDbEntity
  8
图框
100
AcDbMText
 10
1028.977802139886
 20
511.9708733640202
 30
0.0
 40
1.958998408821398
 41
15.35233065297235
 46
5.530941211648912
 71
     5
 72
     5
  1
{\fSimSun|b0|i0|c134|p2;日期\P\Fromans|c134;Date}
 73
     1
 44
1.0
1001
AcDbBlockRepETag
1070
     1
1071
      138
1005
14334
1001
ACAD
1000
ACAD_MTEXT_DEFINED_HEIGHT_BEGIN
1070
    46
1040
5.530941211648912
1000
ACAD_MTEXT_DEFINED_HEIGHT_END
  0
MTEXT
  5
14335
330
13E17
100
AcDbEntity
  8
图框
100
AcDbMText
 10
1086.643735910939
 20
509.1493769780809
 30
0.0
 40
2.154898249703542
 41
13.34474941400573
 46
8.87215554796615
 71
     5
 72
     5
  1
产品料号\P{\Fromans|c134;Part No.}
 73
     1
 44
1.0
1001
AcDbBlockRepETag
1070
     1
1071
      139
1005
14335
1001
ACAD
1000
ACAD_MTEXT_DEFINED_HEIGHT_BEGIN
1070
    46
1040
8.87215554796615
1000
ACAD_MTEXT_DEFINED_HEIGHT_END
  0
MTEXT
  5
14336
330
13E17
100
AcDbEntity
  8
图框
100
AcDbMText
 10
1086.643735910939
 20
500.2775205517163
 30
0.0
 40
1.958998408821398
 41
13.34474941400573
 46
8.871557304763321
 71
     5
 72
     5
  1
产品名称\P{\Fromans|c134;Part Name}
 73
     1
 44
1.0
1001
AcDbBlockRepETag
1070
     1
1071
      140
1005
14336
1001
ACAD
1000
ACAD_MTEXT_DEFINED_HEIGHT_BEGIN
1070
    46
1040
8.871557304763321
1000
ACAD_MTEXT_DEFINED_HEIGHT_END
  0
LINE
  5
14337
330
13E17
100
AcDbEntity
  8
图框
 62
     1
370
    18
100
AcDbLine
 10
833.4128518455365
 20
690.5347692601515
 30
0.0
 11
833.4128518455365
 21
480.5347692601515
 31
0.0
1001
AcDbBlockRepETag
1070
     1
1071
      141
1005
14337
  0
LINE
  5
14338
330
13E17
100
AcDbEntity
  8
图框
 62
     1
370
    18
100
AcDbLine
 10
833.4128518455365
 20
480.5347692601515
 30
0.0
 11
1130.411601781236
 21
480.5347692601515
 31
0.0
1001
AcDbBlockRepETag
1070
     1
1071
      142
1005
14338
  0
LINE
  5
14339
330
13E17
100
AcDbEntity
  8
图框
 62
     1
370
    18
100
AcDbLine
 10
833.4128518455365
 20
690.5347692601515
 30
0.0
 11
1130.411601781236
 21
690.5347692601515
 31
0.0
1001
AcDbBlockRepETag
1070
     1
1071
      143
1005
14339
  0
LINE
  5
1433A
330
13E17
100
AcDbEntity
  8
图框
 62
     1
370
    18
100
AcDbLine
 10
1130.411601781236
 20
480.5347692601515
 30
0.0
 11
1130.411601781236
 21
690.5347692601515
 31
0.0
1001
AcDbBlockRepETag
1070
     1
1071
      144
1005
1433A
  0
LINE
  5
1433B
330
13E17
100
AcDbEntity
  8
图框
370
    18
100
AcDbLine
 10
836.9128518455394
 20
686.7901958362482
 30
0.0
 11
861.5351874539182
 21
686.7901958362482
 31
0.0
1001
AcDbBlockRepETag
1070
     1
1071
      145
1005
1433B
  0
LINE
  5
1433C
330
13E17
100
AcDbEntity
  8
图框
370
    50
100
AcDbLine
 10
1126.928502610363
 20
484.3410054693078
 30
0.0
 11
1126.928502610363
 21
675.5347692601515
 31
0.0
1001
AcDbBlockRepETag
1070
     1
1071
      146
1005
1433C
  0
MTEXT
  5
1433D
330
13E17
100
AcDbEntity
  8
图框
 62
     3
100
AcDbMText
 10
1052.897990117958
 20
495.8417418993364
 30
0.0
 40
2.985513575034151
 41
10.82934843439114
 46
7.886094601211307
 71
     5
 72
     5
  1
V1.1
  7
Romans字体
 73
     1
 44
1.0
1001
AcDbBlockRepETag
1070
     1
1071
      147
1005
1433D
1001
ACAD
1000
ACAD_MTEXT_DEFINED_HEIGHT_BEGIN
1070
    46
1040
7.886094601211307
1000
ACAD_MTEXT_DEFINED_HEIGHT_END
  0
LINE
  5
1433E
330
13E17
100
AcDbEntity
  8
图框
 62
     6
100
AcDbLine
 10
1126.911601781236
 20
531.714049199969
 30
0.0
 11
1130.411601781236
 21
531.714049199969
 31
0.0
1001
AcDbBlockRepETag
1070
     1
1071
      148
1005
1433E
  0
ENDBLK
  5
13EAE
330
13E17
100
AcDbEntity
  8
0
100
AcDbBlockEnd
  0
ENDSEC
  0
SECTION
  2
ENTITIES
  0
HATCH
  5
28AE
330
1F
100
AcDbEntity
  8
图层 1
 62
     7
100
AcDbHatch
 10
0.0
 20
0.0
 30
0.0
210
0.0
220
0.0
230
1.0
  2
SOLID
 70
     1
 71
     0
 91
        1
 92
        1
 93
        2
 72
     4
 94
        3
 73
     0
 74
     0
 95
       17
 96
       13
 40
0.0
 40
0.0
 40
0.0
 40
0.0
 40
0.3527780104152769
 40
0.3527780104152769
 40
0.3527780104152769
 40
0.7055560208305538
 40
0.7055560208305538
 40
0.7055560208305538
 40
1.058334031245828
 40
1.058334031245828
 40
1.058334031245828
 40
1.411112041661104
 40
1.411112041661104
 40
1.411112041661104
 40
1.411112041661104
 10
11.07013262565829
 20
29.50312817963231
 10
11.07013262565829
 20
29.50312817963231
 10
10.9431807732774
 20
29.50312817963231
 10
10.9431807732774
 20
29.50312817963231
 10
10.9431807732774
 20
29.50312817963231
 10
10.85843136843155
 20
29.22786486877117
 10
10.85843136843155
 20
29.22786486877117
 10
10.85843136843155
 20
29.22786486877117
 10
10.90080607085448
 20
29.2068497724476
 10
10.90080607085448
 20
29.2068497724476
 10
10.94455881238059
 20
29.31571486159919
 10
11.00346998404173
 20
29.40907701083995
 10
11.07013262565829
 20
29.50312817963231
 72
     1
 10
11.07013262565829
 20
29.50312817963231
 11
11.07013262565829
 21
29.50312817963231
 97
        0
 75
     0
 76
     1
 98
        0
450
        0
451
        0
460
0.0
461
0.0
452
        0
462
0.0
453
        0
470

  0
HATCH
  5
2C65
330
1F
100
AcDbEntity
  8
图层 1
 62
     7
100
AcDbHatch
 10
0.0
 20
0.0
 30
0.0
210
0.0
220
0.0
230
1.0
  2
SOLID
 70
     1
 71
     0
 91
        1
 92
        1
 93
        2
 72
     4
 94
        3
 73
     0
 74
     0
 95
       47
 96
       43
 40
0.0
 40
0.0
 40
0.0
 40
0.0
 40
0.3527780104152769
 40
0.3527780104152769
 40
0.3527780104152769
 40
0.7055560208305538
 40
0.7055560208305538
 40
0.7055560208305538
 40
1.058334031245828
 40
1.058334031245828
 40
1.058334031245828
 40
1.411112041661104
 40
1.411112041661104
 40
1.411112041661104
 40
1.763890052076384
 40
1.763890052076384
 40
1.763890052076384
 40
2.116668062491659
 40
2.116668062491659
 40
2.116668062491659
 40
2.469446072906936
 40
2.469446072906936
 40
2.469446072906936
 40
2.822224083322215
 40
2.822224083322215
 40
2.822224083322215
 40
3.175002093737492
 40
3.175002093737492
 40
3.175002093737492
 40
3.527780104152768
 40
3.527780104152768
 40
3.527780104152768
 40
3.880558114568044
 40
3.880558114568044
 40
3.880558114568044
 40
4.233336124983321
 40
4.233336124983321
 40
4.233336124983321
 40
4.586114135398599
 40
4.586114135398599
 40
4.586114135398599
 40
4.938892145813873
 40
4.938892145813873
 40
4.938892145813873
 40
4.938892145813873
 10
162.8986914070121
 20
257.4895347631509
 10
162.8986914070121
 20
257.4895347631509
 10
162.9200510131114
 20
257.4471600607279
 10
162.9200510131114
 20
257.4471600607279
 10
162.9200510131114
 20
257.4471600607279
 10
162.9200510131114
 20
257.404785358305
 10
162.9200510131114
 20
257.404785358305
 10
162.9200510131114
 20
257.404785358305
 10
162.8986914070121
 20
257.36258291077
 10
162.8986914070121
 20
257.36258291077
 10
162.8986914070121
 20
257.36258291077
 10
162.8986914070121
 20
257.320208208347
 10
162.8986914070121
 20
257.320208208347
 10
162.8986914070121
 20
257.320208208347
 10
162.8563167045891
 20
257.2990208571356
 10
162.8563167045891
 20
257.2990208571356
 10
162.8563167045891
 20
257.2990208571356
 10
162.8139420021662
 20
257.2563016449369
 10
162.8139420021662
 20
257.2563016449369
 10
162.8139420021662
 20
257.2563016449369
 10
162.7295371070961
 20
257.2563016449369
 10
162.7295371070961
 20
257.2563016449369
 10
162.7295371070961
 20
257.2563016449369
 10
162.6658027985738
 20
257.2778335059241
 10
162.6658027985738
 20
257.2778335059241
 10
162.6658027985738
 20
257.2778335059241
 10
162.6237726059267
 20
257.2990208571356
 10
162.6237726059267
 20
257.2990208571356
 10
162.6237726059267
 20
257.2990208571356
 10
162.5813979035038
 20
257.3413955595585
 10
162.5813979035038
 20
257.3413955595585
 10
162.5813979035038
 20
257.3413955595585
 10
162.5813979035038
 20
257.4895347631509
 10
162.5813979035038
 20
257.4895347631509
 10
162.5813979035038
 20
257.4895347631509
 10
162.6447877022503
 20
257.5525800521216
 10
162.6447877022503
 20
257.5525800521216
 10
162.6447877022503
 20
257.5525800521216
 10
162.7081775009967
 20
257.5525800521216
 10
162.7081775009967
 20
257.5525800521216
 10
162.8749202324821
 20
257.5424170137356
 10
162.7918933765152
 20
257.5939212252171
 10
162.8986914070121
 20
257.4895347631509
 72
     1
 10
162.8986914070121
 20
257.4895347631509
 11
162.8986914070121
 21
257.4895347631509
 97
        0
 75
     0
 76
     1
 98
        0
450
        0
451
        0
460
0.0
461
0.0
452
        0
462
0.0
453
        0
470

  0
HATCH
  5
2EE7
330
1F
100
AcDbEntity
  8
图层 1
 62
     7
100
AcDbHatch
 10
0.0
 20
0.0
 30
0.0
210
0.0
220
0.0
230
1.0
  2
SOLID
 70
     1
 71
     0
 91
        1
 92
        1
 93
        2
 72
     4
 94
        3
 73
     0
 74
     0
 95
       56
 96
       52
 40
0.0
 40
0.0
 40
0.0
 40
0.0
 40
0.3527780104152769
 40
0.3527780104152769
 40
0.3527780104152769
 40
0.7055560208305538
 40
0.7055560208305538
 40
0.7055560208305538
 40
1.058334031245828
 40
1.058334031245828
 40
1.058334031245828
 40
1.411112041661104
 40
1.411112041661104
 40
1.411112041661104
 40
1.763890052076384
 40
1.763890052076384
 40
1.763890052076384
 40
2.116668062491659
 40
2.116668062491659
 40
2.116668062491659
 40
2.469446072906936
 40
2.469446072906936
 40
2.469446072906936
 40
2.822224083322215
 40
2.822224083322215
 40
2.822224083322215
 40
3.175002093737492
 40
3.175002093737492
 40
3.175002093737492
 40
3.527780104152768
 40
3.527780104152768
 40
3.527780104152768
 40
3.880558114568044
 40
3.880558114568044
 40
3.880558114568044
 40
4.233336124983321
 40
4.233336124983321
 40
4.233336124983321
 40
4.586114135398599
 40
4.586114135398599
 40
4.586114135398599
 40
4.938892145813873
 40
4.938892145813873
 40
4.938892145813873
 40
5.291670156229153
 40
5.291670156229153
 40
5.291670156229153
 40
5.64444816664443
 40
5.64444816664443
 40
5.64444816664443
 40
5.997226177059705
 40
5.997226177059705
 40
5.997226177059705
 40
5.997226177059705
 10
185.4837187788815
 20
241.4451977396596
 10
185.4837187788815
 20
241.4451977396596
 10
185.4837187788815
 20
241.4028230372367
 10
185.4837187788815
 20
241.4028230372367
 10
185.4837187788815
 20
241.4028230372367
 10
185.5047338752051
 20
241.3604483348137
 10
185.5047338752051
 20
241.3604483348137
 10
185.4520238795082
 20
241.2782827532863
 10
185.4671823096433
 20
241.1897437409066
 10
185.335579575289
 20
241.2119646214456
 10
185.335579575289
 20
241.2119646214456
 10
185.2932048728662
 20
241.2119646214456
 10
185.2932048728662
 20
241.2119646214456
 10
185.2932048728662
 20
241.2119646214456
 10
185.2294705643439
 20
241.2334964824328
 10
185.2294705643439
 20
241.2334964824328
 10
185.2294705643439
 20
241.2334964824328
 10
185.1660807655974
 20
241.2543393238685
 10
185.1660807655974
 20
241.2543393238685
 10
185.1660807655974
 20
241.2543393238685
 10
185.1450656692739
 20
241.2758711848558
 10
185.1450656692739
 20
241.2758711848558
 10
185.1450656692739
 20
241.2758711848558
 10
185.1450656692739
 20
241.2967140262914
 10
185.1450656692739
 20
241.2967140262914
 10
185.1450656692739
 20
241.2967140262914
 10
185.1237060631745
 20
241.3604483348137
 10
185.1237060631745
 20
241.3604483348137
 10
185.1237060631745
 20
241.3604483348137
 10
185.1237060631745
 20
241.4028230372367
 10
185.1237060631745
 20
241.4028230372367
 10
185.1237060631745
 20
241.4028230372367
 10
185.1660807655974
 20
241.4875724420825
 10
185.1660807655974
 20
241.4875724420825
 10
185.1660807655974
 20
241.4875724420825
 10
185.2084554680203
 20
241.5085875384061
 10
185.2084554680203
 20
241.5085875384061
 10
185.2084554680203
 20
241.5085875384061
 10
185.2718452667668
 20
241.5297748896175
 10
185.2718452667668
 20
241.5297748896175
 10
185.2718452667668
 20
241.5297748896175
 10
185.3565946716127
 20
241.5297748896175
 10
185.3565946716127
 20
241.5297748896175
 10
185.3565946716127
 20
241.5297748896175
 10
185.4199844703592
 20
241.5085875384061
 10
185.4199844703592
 20
241.5085875384061
 10
185.4199844703592
 20
241.5085875384061
 10
185.4623591727821
 20
241.4875724420825
 10
185.4623591727821
 20
241.4875724420825
 10
185.4623591727821
 20
241.4875724420825
 10
185.4837187788815
 20
241.4451977396596
 10
185.4837187788815
 20
241.4451977396596
 72
     1
 10
185.4837187788815
 20
241.4451977396596
 11
185.4837187788815
 21
241.4451977396596
 97
        0
 75
     0
 76
     1
 98
        0
450
        0
451
        0
460
0.0
461
0.0
452
        0
462
0.0
453
        0
470

  0
HATCH
  5
2F93
330
1F
100
AcDbEntity
  8
图层 1
 62
     7
100
AcDbHatch
 10
0.0
 20
0.0
 30
0.0
210
0.0
220
0.0
230
1.0
  2
SOLID
 70
     1
 71
     0
 91
        1
 92
        1
 93
        2
 72
     4
 94
        3
 73
     0
 74
     0
 95
       38
 96
       34
 40
0.0
 40
0.0
 40
0.0
 40
0.0
 40
0.3527780104152769
 40
0.3527780104152769
 40
0.3527780104152769
 40
0.7055560208305538
 40
0.7055560208305538
 40
0.7055560208305538
 40
1.058334031245828
 40
1.058334031245828
 40
1.058334031245828
 40
1.411112041661104
 40
1.411112041661104
 40
1.411112041661104
 40
1.763890052076384
 40
1.763890052076384
 40
1.763890052076384
 40
2.116668062491659
 40
2.116668062491659
 40
2.116668062491659
 40
2.469446072906936
 40
2.469446072906936
 40
2.469446072906936
 40
2.822224083322215
 40
2.822224083322215
 40
2.822224083322215
 40
3.175002093737492
 40
3.175002093737492
 40
3.175002093737492
 40
3.527780104152768
 40
3.527780104152768
 40
3.527780104152768
 40
3.880558114568044
 40
3.880558114568044
 40
3.880558114568044
 40
3.880558114568044
 10
185.907121293335
 20
220.1937677098971
 10
185.9005756075949
 20
220.0449394867532
 10
185.9329595265197
 20
220.1136691870245
 10
185.864746590912
 20
219.9817219428946
 10
185.864746590912
 20
219.9817219428946
 10
185.822371888489
 20
219.9605345916831
 10
185.822371888489
 20
219.9605345916831
 10
185.822371888489
 20
219.9605345916831
 10
185.6528730787974
 20
219.9605345916831
 10
185.6528730787974
 20
219.9605345916831
 10
185.6528730787974
 20
219.9605345916831
 10
185.5894832800509
 20
220.002909294106
 10
185.5894832800509
 20
220.002909294106
 10
185.5894832800509
 20
220.002909294106
 10
185.5681236739515
 20
220.0240966453175
 10
185.5681236739515
 20
220.0240966453175
 10
185.5681236739515
 20
220.0240966453175
 10
185.5681236739515
 20
220.045283996529
 10
185.5681236739515
 20
220.045283996529
 10
185.5681236739515
 20
220.045283996529
 10
185.547108577628
 20
220.0876586989519
 10
185.547108577628
 20
220.0876586989519
 10
185.547108577628
 20
220.0876586989519
 10
185.547108577628
 20
220.1513930074742
 10
185.547108577628
 20
220.1513930074742
 10
185.547108577628
 20
220.1513930074742
 10
185.5894832800509
 20
220.23614241232
 10
185.5894832800509
 20
220.23614241232
 10
185.5894832800509
 20
220.23614241232
 10
185.6318579824738
 20
220.2573297635315
 10
185.6318579824738
 20
220.2573297635315
 10
185.7055830744942
 20
220.2566407439799
 10
185.8416644359337
 20
220.3310548555519
 10
185.907121293335
 20
220.1937677098971
 72
     1
 10
185.907121293335
 20
220.1937677098971
 11
185.907121293335
 21
220.1937677098971
 97
        0
 75
     0
 76
     1
 98
        0
450
        0
451
        0
460
0.0
461
0.0
452
        0
462
0.0
453
        0
470

  0
HATCH
  5
2FDE
330
1F
100
AcDbEntity
  8
图层 1
 62
     7
100
AcDbHatch
 10
0.0
 20
0.0
 30
0.0
210
0.0
220
0.0
230
1.0
  2
SOLID
 70
     1
 71
     0
 91
        1
 92
        1
 93
        2
 72
     4
 94
        3
 73
     0
 74
     0
 95
       50
 96
       46
 40
0.0
 40
0.0
 40
0.0
 40
0.0
 40
0.3527780104152769
 40
0.3527780104152769
 40
0.3527780104152769
 40
0.7055560208305538
 40
0.7055560208305538
 40
0.7055560208305538
 40
1.058334031245828
 40
1.058334031245828
 40
1.058334031245828
 40
1.411112041661104
 40
1.411112041661104
 40
1.411112041661104
 40
1.763890052076384
 40
1.763890052076384
 40
1.763890052076384
 40
2.116668062491659
 40
2.116668062491659
 40
2.116668062491659
 40
2.469446072906936
 40
2.469446072906936
 40
2.469446072906936
 40
2.822224083322215
 40
2.822224083322215
 40
2.822224083322215
 40
3.175002093737492
 40
3.175002093737492
 40
3.175002093737492
 40
3.527780104152768
 40
3.527780104152768
 40
3.527780104152768
 40
3.880558114568044
 40
3.880558114568044
 40
3.880558114568044
 40
4.233336124983321
 40
4.233336124983321
 40
4.233336124983321
 40
4.586114135398599
 40
4.586114135398599
 40
4.586114135398599
 40
4.938892145813873
 40
4.938892145813873
 40
4.938892145813873
 40
5.291670156229153
 40
5.291670156229153
 40
5.291670156229153
 40
5.291670156229153
 10
180.9117295442905
 20
208.9327766684477
 10
180.9117295442905
 20
208.9327766684477
 10
180.9117295442905
 20
208.7637946234197
 10
180.9117295442905
 20
208.7637946234197
 10
181.2273004989198
 20
208.6749111012643
 10
181.3833634273555
 20
208.6776671794706
 10
181.6948002646751
 20
208.5097186637701
 10
181.9542161258496
 20
208.4294478860095
 10
182.1388733656765
 20
208.2134402565853
 10
182.3297317814676
 20
208.02292635057
 10
182.3297317814676
 20
208.02292635057
 10
182.435496282637
 20
208.065301052993
 10
182.435496282637
 20
208.065301052993
 10
182.288390608372
 20
208.2733849575739
 10
182.3752070718726
 20
208.2134402565853
 10
182.1605774815516
 20
208.3824223016133
 10
182.1605774815516
 20
208.3824223016133
 10
182.1182027791287
 20
208.4247970040363
 10
182.1182027791287
 20
208.4247970040363
 10
182.1182027791287
 20
208.4247970040363
 10
182.0968431730294
 20
208.467516216235
 10
182.0968431730294
 20
208.467516216235
 10
182.0968431730294
 20
208.467516216235
 10
182.0544684706064
 20
208.4883590576707
 10
182.0544684706064
 20
208.4883590576707
 10
182.0544684706064
 20
208.4883590576707
 10
181.9910786718599
 20
208.5305615052057
 10
181.9910786718599
 20
208.5305615052057
 10
181.9910786718599
 20
208.5305615052057
 10
181.948703969437
 20
208.552093366193
 10
181.948703969437
 20
208.552093366193
 10
181.948703969437
 20
208.552093366193
 10
181.9063292670141
 20
208.5729362076286
 10
181.9063292670141
 20
208.5729362076286
 10
181.9063292670141
 20
208.5729362076286
 10
181.8639545645911
 20
208.6156554198274
 10
181.8639545645911
 20
208.6156554198274
 10
181.8639545645911
 20
208.6156554198274
 10
181.821924371944
 20
208.6368427710388
 10
181.821924371944
 20
208.6368427710388
 10
181.6637943848536
 20
208.6742220817127
 10
181.5452830219797
 20
208.8092699138248
 10
181.3771622513911
 20
208.8061693258427
 10
181.2803550043924
 20
208.8573290275484
 10
181.0126709085988
 20
208.8971199066528
 10
180.9117295442905
 20
208.9327766684477
 72
     1
 10
180.9117295442905
 20
208.9327766684477
 11
180.9117295442905
 21
208.9327766684477
 97
        0
 75
     0
 76
     1
 98
        0
450
        0
451
        0
460
0.0
461
0.0
452
        0
462
0.0
453
        0
470

  0
HATCH
  5
35C8
330
1F
100
AcDbEntity
  8
图层 1
 62
     7
100
AcDbHatch
 10
0.0
 20
0.0
 30
0.0
210
0.0
220
0.0
230
1.0
  2
SOLID
 70
     1
 71
     0
 91
        1
 92
        1
 93
        2
 72
     4
 94
        3
 73
     0
 74
     0
 95
       38
 96
       34
 40
0.0
 40
0.0
 40
0.0
 40
0.0
 40
0.3527780104152769
 40
0.3527780104152769
 40
0.3527780104152769
 40
0.7055560208305538
 40
0.7055560208305538
 40
0.7055560208305538
 40
1.058334031245828
 40
1.058334031245828
 40
1.058334031245828
 40
1.411112041661104
 40
1.411112041661104
 40
1.411112041661104
 40
1.763890052076384
 40
1.763890052076384
 40
1.763890052076384
 40
2.116668062491659
 40
2.116668062491659
 40
2.116668062491659
 40
2.469446072906936
 40
2.469446072906936
 40
2.469446072906936
 40
2.822224083322215
 40
2.822224083322215
 40
2.822224083322215
 40
3.175002093737492
 40
3.175002093737492
 40
3.175002093737492
 40
3.527780104152768
 40
3.527780104152768
 40
3.527780104152768
 40
3.880558114568044
 40
3.880558114568044
 40
3.880558114568044
 40
3.880558114568044
 10
189.145513185819
 20
166.8326485368285
 10
189.207869455238
 20
166.740492171803
 10
189.1317327947871
 20
166.6833035490209
 10
189.103138483396
 20
166.6209472796017
 10
189.103138483396
 20
166.6209472796017
 10
189.0607637809731
 20
166.5997599283903
 10
189.0607637809731
 20
166.5997599283903
 10
189.0607637809731
 20
166.5997599283903
 10
188.9973739822266
 20
166.5785725771788
 10
188.9973739822266
 20
166.5785725771788
 10
188.9973739822266
 20
166.5785725771788
 10
188.9549992798037
 20
166.5997599283903
 10
188.9549992798037
 20
166.5997599283903
 10
188.9549992798037
 20
166.5997599283903
 10
188.8916094810572
 20
166.5997599283903
 10
188.8916094810572
 20
166.5997599283903
 10
188.8916094810572
 20
166.5997599283903
 10
188.8492347786343
 20
166.6209472796017
 10
188.8492347786343
 20
166.6209472796017
 10
188.8492347786343
 20
166.6209472796017
 10
188.8278751725349
 20
166.6633219820247
 10
188.8278751725349
 20
166.6633219820247
 10
188.8278751725349
 20
166.6633219820247
 10
188.8068600762114
 20
166.6845093332361
 10
188.8068600762114
 20
166.6845093332361
 10
188.8068600762114
 20
166.6845093332361
 10
188.8068600762114
 20
166.8326485368285
 10
188.8068600762114
 20
166.8326485368285
 10
188.8068600762114
 20
166.8326485368285
 10
188.8702498749578
 20
166.896038335575
 10
188.8702498749578
 20
166.896038335575
 10
189.0228677056355
 20
166.8819134347673
 10
189.0686875058164
 20
166.9411691162043
 10
189.145513185819
 20
166.8326485368285
 72
     1
 10
189.145513185819
 20
166.8326485368285
 11
189.145513185819
 21
166.8326485368285
 97
        0
 75
     0
 76
     1
 98
        0
450
        0
451
        0
460
0.0
461
0.0
452
        0
462
0.0
453
        0
470

  0
HATCH
  5
35D8
330
1F
100
AcDbEntity
  8
图层 1
 62
     7
100
AcDbHatch
 10
0.0
 20
0.0
 30
0.0
210
0.0
220
0.0
230
1.0
  2
SOLID
 70
     1
 71
     0
 91
        1
 92
        1
 93
        2
 72
     4
 94
        3
 73
     0
 74
     0
 95
       68
 96
       64
 40
0.0
 40
0.0
 40
0.0
 40
0.0
 40
0.3527780104152769
 40
0.3527780104152769
 40
0.3527780104152769
 40
0.7055560208305538
 40
0.7055560208305538
 40
0.7055560208305538
 40
1.058334031245828
 40
1.058334031245828
 40
1.058334031245828
 40
1.411112041661104
 40
1.411112041661104
 40
1.411112041661104
 40
1.763890052076384
 40
1.763890052076384
 40
1.763890052076384
 40
2.116668062491659
 40
2.116668062491659
 40
2.116668062491659
 40
2.469446072906936
 40
2.469446072906936
 40
2.469446072906936
 40
2.822224083322215
 40
2.822224083322215
 40
2.822224083322215
 40
3.175002093737492
 40
3.175002093737492
 40
3.175002093737492
 40
3.527780104152768
 40
3.527780104152768
 40
3.527780104152768
 40
3.880558114568044
 40
3.880558114568044
 40
3.880558114568044
 40
4.233336124983321
 40
4.233336124983321
 40
4.233336124983321
 40
4.586114135398599
 40
4.586114135398599
 40
4.586114135398599
 40
4.938892145813873
 40
4.938892145813873
 40
4.938892145813873
 40
5.291670156229153
 40
5.291670156229153
 40
5.291670156229153
 40
5.64444816664443
 40
5.64444816664443
 40
5.64444816664443
 40
5.997226177059705
 40
5.997226177059705
 40
5.997226177059705
 40
6.350004187474984
 40
6.350004187474984
 40
6.350004187474984
 40
6.702782197890257
 40
6.702782197890257
 40
6.702782197890257
 40
7.055560208305537
 40
7.055560208305537
 40
7.055560208305537
 40
7.408338218720808
 40
7.408338218720808
 40
7.408338218720808
 40
7.408338218720808
 10
174.7732543591544
 20
135.4846705078077
 10
174.7732543591544
 20
135.4846705078077
 10
174.7732543591544
 20
135.3789060066383
 10
174.7732543591544
 20
135.3789060066383
 10
174.7732543591544
 20
135.3789060066383
 10
174.8156290615773
 20
135.3789060066383
 10
174.8156290615773
 20
135.3789060066383
 10
174.8156290615773
 20
135.3789060066383
 10
174.8580037640002
 20
135.3578909103147
 10
174.8580037640002
 20
135.3578909103147
 10
174.8580037640002
 20
135.3578909103147
 10
174.9213935627468
 20
135.3578909103147
 10
174.9213935627468
 20
135.3578909103147
 10
174.9213935627468
 20
135.3578909103147
 10
174.9637682651697
 20
135.3365313042154
 10
174.9637682651697
 20
135.3365313042154
 10
174.9637682651697
 20
135.3365313042154
 10
174.9847833614933
 20
135.3365313042154
 10
174.9847833614933
 20
135.3365313042154
 10
174.9847833614933
 20
135.3365313042154
 10
175.0271580639162
 20
135.3155162078918
 10
175.0271580639162
 20
135.3155162078918
 10
175.0271580639162
 20
135.3155162078918
 10
175.0485176700155
 20
135.2941566017924
 10
175.0485176700155
 20
135.2941566017924
 10
175.0485176700155
 20
135.2941566017924
 10
175.0695327663391
 20
135.2941566017924
 10
175.0695327663391
 20
135.2941566017924
 10
175.0695327663391
 20
135.2941566017924
 10
175.0908923724385
 20
135.2731415054689
 10
175.0908923724385
 20
135.2731415054689
 10
175.0908923724385
 20
135.2731415054689
 10
175.1332670748614
 20
135.2731415054689
 10
175.1332670748614
 20
135.2731415054689
 10
175.1332670748614
 20
135.2731415054689
 10
175.154282171185
 20
135.2517818993695
 10
175.154282171185
 20
135.2517818993695
 10
175.154282171185
 20
135.2517818993695
 10
175.154282171185
 20
135.3578909103147
 10
175.154282171185
 20
135.3578909103147
 10
175.154282171185
 20
135.3578909103147
 10
175.1332670748614
 20
135.3789060066383
 10
175.1332670748614
 20
135.3789060066383
 10
175.1332670748614
 20
135.3789060066383
 10
175.0908923724385
 20
135.3789060066383
 10
175.0908923724385
 20
135.3789060066383
 10
175.0908923724385
 20
135.3789060066383
 10
175.0908923724385
 20
135.3999211029619
 10
175.0908923724385
 20
135.3999211029619
 10
175.0908923724385
 20
135.3999211029619
 10
175.0695327663391
 20
135.3999211029619
 10
175.0695327663391
 20
135.3999211029619
 10
175.0695327663391
 20
135.3999211029619
 10
175.0271580639162
 20
135.4212807090612
 10
175.0271580639162
 20
135.4212807090612
 10
175.0271580639162
 20
135.4212807090612
 10
175.0061429675926
 20
135.4212807090612
 10
175.0061429675926
 20
135.4212807090612
 10
175.0061429675926
 20
135.4212807090612
 10
174.9637682651697
 20
135.4422958053848
 10
174.9637682651697
 20
135.4422958053848
 10
174.8996894468716
 20
135.4498750204523
 10
174.8394002361073
 20
135.4860485469109
 10
174.7732543591544
 20
135.4846705078077
 72
     1
 10
174.7732543591544
 20
135.4846705078077
 11
174.7732543591544
 21
135.4846705078077
 97
        0
 75
     0
 76
     1
 98
        0
450
        0
451
        0
460
0.0
461
0.0
452
        0
462
0.0
453
        0
470

  0
HATCH
  5
3807
330
1F
100
AcDbEntity
  8
图层 1
 62
     7
100
AcDbHatch
 10
0.0
 20
0.0
 30
0.0
210
0.0
220
0.0
230
1.0
  2
SOLID
 70
     1
 71
     0
 91
        1
 92
        1
 93
        2
 72
     4
 94
        3
 73
     0
 74
     0
 95
       29
 96
       25
 40
0.0
 40
0.0
 40
0.0
 40
0.0
 40
0.3527780104152769
 40
0.3527780104152769
 40
0.3527780104152769
 40
0.7055560208305538
 40
0.7055560208305538
 40
0.7055560208305538
 40
1.058334031245828
 40
1.058334031245828
 40
1.058334031245828
 40
1.411112041661104
 40
1.411112041661104
 40
1.411112041661104
 40
1.763890052076384
 40
1.763890052076384
 40
1.763890052076384
 40
2.116668062491659
 40
2.116668062491659
 40
2.116668062491659
 40
2.469446072906936
 40
2.469446072906936
 40
2.469446072906936
 40
2.822224083322215
 40
2.822224083322215
 40
2.822224083322215
 40
2.822224083322215
 10
175.4929352807925
 20
164.0174869039101
 10
175.4929352807925
 20
164.0174869039101
 10
175.5139503771161
 20
163.9751122014871
 10
175.5139503771161
 20
163.9751122014871
 10
175.5139503771161
 20
163.9751122014871
 10
175.5139503771161
 20
163.9327374990642
 10
175.5139503771161
 20
163.9327374990642
 10
175.5139503771161
 20
163.9327374990642
 10
175.4929352807925
 20
163.8903627966413
 10
175.4929352807925
 20
163.8903627966413
 10
175.4929352807925
 20
163.8903627966413
 10
175.471920184469
 20
163.8691754454298
 10
175.471920184469
 20
163.8691754454298
 10
175.471920184469
 20
163.8691754454298
 10
175.4505605783696
 20
163.8269729978948
 10
175.4505605783696
 20
163.8269729978948
 10
175.3571984291289
 20
163.7715069239916
 10
175.272449024283
 20
163.8195660377152
 10
175.1966568736079
 20
163.8691754454298
 10
175.208370205985
 20
163.9930267098286
 10
175.1563492298397
 20
164.0216210212197
 10
175.2600466723544
 20
164.0596893514451
 10
175.3330827448232
 20
164.1094710140476
 10
175.4357466580104
 20
164.0753645462439
 10
175.4929352807925
 20
164.0174869039101
 72
     1
 10
175.4929352807925
 20
164.0174869039101
 11
175.4929352807925
 21
164.0174869039101
 97
        0
 75
     0
 76
     1
 98
        0
450
        0
451
        0
460
0.0
461
0.0
452
        0
462
0.0
453
        0
470

  0
HATCH
  5
3895
330
1F
100
AcDbEntity
  8
图层 1
 62
     7
100
AcDbHatch
 10
0.0
 20
0.0
 30
0.0
210
0.0
220
0.0
230
1.0
  2
SOLID
 70
     1
 71
     0
 91
        1
 92
        1
 93
        2
 72
     4
 94
        3
 73
     0
 74
     0
 95
       11
 96
        7
 40
0.0
 40
0.0
 40
0.0
 40
0.0
 40
0.3527780104152769
 40
0.3527780104152769
 40
0.3527780104152769
 40
0.7055560208305538
 40
0.7055560208305538
 40
0.7055560208305538
 40
0.7055560208305538
 10
174.9213935627468
 20
174.5369206529582
 10
174.9213935627468
 20
174.5369206529582
 10
174.9213935627468
 20
174.3043765542958
 10
174.9213935627468
 20
174.3043765542958
 10
174.9213935627468
 20
174.3043765542958
 10
174.9213935627468
 20
174.5369206529582
 10
174.9213935627468
 20
174.5369206529582
 72
     1
 10
174.9213935627468
 20
174.5369206529582
 11
174.9213935627468
 21
174.5369206529582
 97
        0
 75
     0
 76
     1
 98
        0
450
        0
451
        0
460
0.0
461
0.0
452
        0
462
0.0
453
        0
470

  0
HATCH
  5
3943
330
1F
100
AcDbEntity
  8
图层 1
 62
     7
100
AcDbHatch
 10
0.0
 20
0.0
 30
0.0
210
0.0
220
0.0
230
1.0
  2
SOLID
 70
     1
 71
     0
 91
        1
 92
        1
 93
        2
 72
     4
 94
        3
 73
     0
 74
     0
 95
      131
 96
      127
 40
0.0
 40
0.0
 40
0.0
 40
0.0
 40
0.3527780104152769
 40
0.3527780104152769
 40
0.3527780104152769
 40
0.7055560208305538
 40
0.7055560208305538
 40
0.7055560208305538
 40
1.058334031245828
 40
1.058334031245828
 40
1.058334031245828
 40
1.411112041661104
 40
1.411112041661104
 40
1.411112041661104
 40
1.763890052076384
 40
1.763890052076384
 40
1.763890052076384
 40
2.116668062491659
 40
2.116668062491659
 40
2.116668062491659
 40
2.469446072906936
 40
2.469446072906936
 40
2.469446072906936
 40
2.822224083322215
 40
2.822224083322215
 40
2.822224083322215
 40
3.175002093737492
 40
3.175002093737492
 40
3.175002093737492
 40
3.527780104152768
 40
3.527780104152768
 40
3.527780104152768
 40
3.880558114568044
 40
3.880558114568044
 40
3.880558114568044
 40
4.233336124983321
 40
4.233336124983321
 40
4.233336124983321
 40
4.586114135398599
 40
4.586114135398599
 40
4.586114135398599
 40
4.938892145813873
 40
4.938892145813873
 40
4.938892145813873
 40
5.291670156229153
 40
5.291670156229153
 40
5.291670156229153
 40
5.64444816664443
 40
5.64444816664443
 40
5.64444816664443
 40
5.997226177059705
 40
5.997226177059705
 40
5.997226177059705
 40
6.350004187474984
 40
6.350004187474984
 40
6.350004187474984
 40
6.702782197890257
 40
6.702782197890257
 40
6.702782197890257
 40
7.055560208305537
 40
7.055560208305537
 40
7.055560208305537
 40
7.408338218720808
 40
7.408338218720808
 40
7.408338218720808
 40
7.76111622913609
 40
7.76111622913609
 40
7.76111622913609
 40
8.113894239551369
 40
8.113894239551369
 40
8.113894239551369
 40
8.466672249966642
 40
8.466672249966642
 40
8.466672249966642
 40
8.819450260381922
 40
8.819450260381922
 40
8.819450260381922
 40
9.172228270797198
 40
9.172228270797198
 40
9.172228270797198
 40
9.525006281212476
 40
9.525006281212476
 40
9.525006281212476
 40
9.877784291627751
 40
9.877784291627751
 40
9.877784291627751
 40
10.23056230204303
 40
10.23056230204303
 40
10.23056230204303
 40
10.58334031245831
 40
10.58334031245831
 40
10.58334031245831
 40
10.93611832287358
 40
10.93611832287358
 40
10.93611832287358
 40
11.28889633328886
 40
11.28889633328886
 40
11.28889633328886
 40
11.64167434370414
 40
11.64167434370414
 40
11.64167434370414
 40
11.99445235411941
 40
11.99445235411941
 40
11.99445235411941
 40
12.34723036453469
 40
12.34723036453469
 40
12.34723036453469
 40
12.70000837494997
 40
12.70000837494997
 40
12.70000837494997
 40
13.05278638536524
 40
13.05278638536524
 40
13.05278638536524
 40
13.40556439578052
 40
13.40556439578052
 40
13.40556439578052
 40
13.7583424061958
 40
13.7583424061958
 40
13.7583424061958
 40
14.11112041661107
 40
14.11112041661107
 40
14.11112041661107
 40
14.46389842702635
 40
14.46389842702635
 40
14.46389842702635
 40
14.81667643744163
 40
14.81667643744163
 40
14.81667643744163
 40
14.81667643744163
 10
173.3972823146245
 20
126.8274843518258
 10
173.3972823146245
 20
126.8274843518258
 10
173.3972823146245
 20
126.7217198506564
 10
173.3972823146245
 20
126.7217198506564
 10
173.3972823146245
 20
126.7217198506564
 10
173.4186419207238
 20
126.7217198506564
 10
173.4186419207238
 20
126.7217198506564
 10
173.4186419207238
 20
126.7217198506564
 10
173.4820317194703
 20
126.7007047543328
 10
173.4820317194703
 20
126.7007047543328
 10
173.4820317194703
 20
126.7007047543328
 10
173.5244064218933
 20
126.6793451482334
 10
173.5244064218933
 20
126.6793451482334
 10
173.5244064218933
 20
126.6793451482334
 10
173.5877962206398
 20
126.6793451482334
 10
173.5877962206398
 20
126.6793451482334
 10
173.5877962206398
 20
126.6793451482334
 10
173.6301709230627
 20
126.6583300519099
 10
173.6301709230627
 20
126.6583300519099
 10
173.7955356154449
 20
126.5911506456296
 10
173.759706598762
 20
126.6380039751379
 10
173.9478089363468
 20
126.5525655507404
 10
173.9478089363468
 20
126.5525655507404
 10
173.9688240326703
 20
126.4464565397952
 10
173.9688240326703
 20
126.4464565397952
 10
173.9688240326703
 20
126.4464565397952
 10
174.0325583411926
 20
126.5101908483175
 10
174.0325583411926
 20
126.5101908483175
 10
174.0325583411926
 20
126.5101908483175
 10
174.0749330436156
 20
126.5101908483175
 10
174.0749330436156
 20
126.5101908483175
 10
174.0749330436156
 20
126.5101908483175
 10
174.1593379386856
 20
126.4678161458946
 10
174.1593379386856
 20
126.4678161458946
 10
174.1593379386856
 20
126.4678161458946
 10
174.180697544785
 20
126.4464565397952
 10
174.180697544785
 20
126.4464565397952
 10
174.2464989119621
 20
126.3982251711837
 10
174.3298702777047
 20
126.3716979184474
 10
174.3922265471239
 20
126.3196769423022
 10
174.608234176548
 20
126.2059887162895
 10
174.7749769080334
 20
126.0278771622029
 10
174.9637682651697
 20
125.8749148217494
 10
174.9637682651697
 20
125.8749148217494
 10
175.0061429675926
 20
125.9172895241723
 10
175.0061429675926
 20
125.9172895241723
 10
174.961356696739
 20
125.9631093243532
 10
174.782211613325
 20
126.1246844092016
 10
174.7308796567315
 20
126.1501781326105
 10
174.7308796567315
 20
126.1501781326105
 10
174.6885049543085
 20
126.1925528350335
 10
174.6885049543085
 20
126.1925528350335
 10
174.6885049543085
 20
126.1925528350335
 10
174.667489857985
 20
126.2349275374564
 10
174.667489857985
 20
126.2349275374564
 10
174.667489857985
 20
126.2349275374564
 10
174.625115155562
 20
126.2559426337799
 10
174.625115155562
 20
126.2559426337799
 10
174.625115155562
 20
126.2559426337799
 10
174.5827404531391
 20
126.2983173362029
 10
174.5827404531391
 20
126.2983173362029
 10
174.5827404531391
 20
126.2983173362029
 10
174.5403657507162
 20
126.3196769423022
 10
174.5403657507162
 20
126.3196769423022
 10
174.5403657507162
 20
126.3196769423022
 10
174.4979910482932
 20
126.3620516447252
 10
174.4979910482932
 20
126.3620516447252
 10
174.4735308542117
 20
126.3875453681341
 10
174.3247026310678
 20
126.4695386947736
 10
174.2864620459544
 20
126.4888312422181
 10
174.2864620459544
 20
126.4888312422181
 10
174.2654469496308
 20
126.5101908483175
 10
174.2654469496308
 20
126.5101908483175
 10
174.2654469496308
 20
126.5101908483175
 10
174.2230722472079
 20
126.5312059446411
 10
174.2230722472079
 20
126.5312059446411
 10
174.2230722472079
 20
126.5312059446411
 10
174.2017126411085
 20
126.5525655507404
 10
174.2017126411085
 20
126.5525655507404
 10
174.2017126411085
 20
126.5525655507404
 10
174.1383228423621
 20
126.573580647064
 10
174.1383228423621
 20
126.573580647064
 10
174.1383228423621
 20
126.573580647064
 10
174.1169632362627
 20
126.5945957433876
 10
174.1169632362627
 20
126.5945957433876
 10
174.1169632362627
 20
126.5945957433876
 10
174.0959481399391
 20
126.7007047543328
 10
174.0959481399391
 20
126.7007047543328
 10
174.0959481399391
 20
126.7007047543328
 10
174.0325583411926
 20
126.6369704458105
 10
174.0325583411926
 20
126.6369704458105
 10
174.0325583411926
 20
126.6369704458105
 10
173.9901836387697
 20
126.6369704458105
 10
173.9901836387697
 20
126.6369704458105
 10
173.9901836387697
 20
126.6369704458105
 10
173.9054342339239
 20
126.6793451482334
 10
173.9054342339239
 20
126.6793451482334
 10
173.9054342339239
 20
126.6793451482334
 10
173.8420444351773
 20
126.7007047543328
 10
173.8420444351773
 20
126.7007047543328
 10
173.8420444351773
 20
126.7007047543328
 10
173.7996697327544
 20
126.7217198506564
 10
173.7996697327544
 20
126.7217198506564
 10
173.7996697327544
 20
126.7217198506564
 10
173.7572950303315
 20
126.7217198506564
 10
173.7572950303315
 20
126.7217198506564
 10
173.7572950303315
 20
126.7217198506564
 10
173.6725456254856
 20
126.7640945530793
 10
173.6725456254856
 20
126.7640945530793
 10
173.6725456254856
 20
126.7640945530793
 10
173.6515305291621
 20
126.7640945530793
 10
173.6515305291621
 20
126.7640945530793
 10
173.6515305291621
 20
126.7640945530793
 10
173.5667811243162
 20
126.7851096494029
 10
173.5667811243162
 20
126.7851096494029
 10
173.5667811243162
 20
126.7851096494029
 10
173.5033913255697
 20
126.8064692555022
 10
173.5033913255697
 20
126.8064692555022
 10
173.5033913255697
 20
126.8064692555022
 10
173.4396570170474
 20
126.8064692555022
 10
173.4396570170474
 20
126.8064692555022
 10
173.4396570170474
 20
126.8064692555022
 10
173.4186419207238
 20
126.8274843518258
 10
173.4186419207238
 20
126.8274843518258
 10
173.4186419207238
 20
126.8274843518258
 10
173.3972823146245
 20
126.8274843518258
 10
173.3972823146245
 20
126.8274843518258
 72
     1
 10
173.3972823146245
 20
126.8274843518258
 11
173.3972823146245
 21
126.8274843518258
 97
        0
 75
     0
 76
     1
 98
        0
450
        0
451
        0
460
0.0
461
0.0
452
        0
462
0.0
453
        0
470

  0
HATCH
  5
4842
330
1F
100
AcDbEntity
  8
图层 1
 62
     7
100
AcDbHatch
 10
0.0
 20
0.0
 30
0.0
210
0.0
220
0.0
230
1.0
  2
SOLID
 70
     1
 71
     0
 91
        1
 92
        1
 93
        2
 72
     4
 94
        3
 73
     0
 74
     0
 95
       47
 96
       43
 40
0.0
 40
0.0
 40
0.0
 40
0.0
 40
0.3527780104152769
 40
0.3527780104152769
 40
0.3527780104152769
 40
0.7055560208305538
 40
0.7055560208305538
 40
0.7055560208305538
 40
1.058334031245828
 40
1.058334031245828
 40
1.058334031245828
 40
1.411112041661104
 40
1.411112041661104
 40
1.411112041661104
 40
1.763890052076384
 40
1.763890052076384
 40
1.763890052076384
 40
2.116668062491659
 40
2.116668062491659
 40
2.116668062491659
 40
2.469446072906936
 40
2.469446072906936
 40
2.469446072906936
 40
2.822224083322215
 40
2.822224083322215
 40
2.822224083322215
 40
3.175002093737492
 40
3.175002093737492
 40
3.175002093737492
 40
3.527780104152768
 40
3.527780104152768
 40
3.527780104152768
 40
3.880558114568044
 40
3.880558114568044
 40
3.880558114568044
 40
4.233336124983321
 40
4.233336124983321
 40
4.233336124983321
 40
4.586114135398599
 40
4.586114135398599
 40
4.586114135398599
 40
4.938892145813873
 40
4.938892145813873
 40
4.938892145813873
 40
4.938892145813873
 10
180.1920486226523
 20
255.6479577566324
 10
180.1920486226523
 20
255.6479577566324
 10
180.2130637189759
 20
255.6055830542095
 10
180.2130637189759
 20
255.6055830542095
 10
180.2130637189759
 20
255.6055830542095
 10
180.2130637189759
 20
255.5210059042515
 10
180.2130637189759
 20
255.5210059042515
 10
180.2130637189759
 20
255.5210059042515
 10
180.1920486226523
 20
255.4786312018286
 10
180.1920486226523
 20
255.4786312018286
 10
180.1920486226523
 20
255.4786312018286
 10
180.1496739202294
 20
255.4359119896299
 10
180.1496739202294
 20
255.4359119896299
 10
180.1496739202294
 20
255.4359119896299
 10
180.1283143141301
 20
255.4147246384184
 10
180.1283143141301
 20
255.4147246384184
 10
180.1283143141301
 20
255.4147246384184
 10
180.0225498129606
 20
255.4147246384184
 10
180.0225498129606
 20
255.4147246384184
 10
180.0225498129606
 20
255.4147246384184
 10
179.9591600142141
 20
255.4359119896299
 10
179.9591600142141
 20
255.4359119896299
 10
179.9591600142141
 20
255.4359119896299
 10
179.9167853117912
 20
255.4570993408414
 10
179.9167853117912
 20
255.4570993408414
 10
179.9167853117912
 20
255.4570993408414
 10
179.8957702154676
 20
255.4786312018286
 10
179.8957702154676
 20
255.4786312018286
 10
179.8957702154676
 20
255.4786312018286
 10
179.8744106093683
 20
255.4994740432643
 10
179.8744106093683
 20
255.4994740432643
 10
179.8744106093683
 20
255.4994740432643
 10
179.8744106093683
 20
255.6479577566324
 10
179.8744106093683
 20
255.6479577566324
 10
179.9608825630931
 20
255.7323626517025
 10
180.045631967939
 20
255.7085914771726
 10
180.1496739202294
 20
255.7115198102668
 10
180.1496739202294
 20
255.7115198102668
 10
180.170689016553
 20
255.6688005980681
 10
180.170689016553
 20
255.6688005980681
 10
180.170689016553
 20
255.6688005980681
 10
180.1920486226523
 20
255.6479577566324
 10
180.1920486226523
 20
255.6479577566324
 72
     1
 10
180.1920486226523
 20
255.6479577566324
 11
180.1920486226523
 21
255.6479577566324
 97
        0
 75
     0
 76
     1
 98
        0
450
        0
451
        0
460
0.0
461
0.0
452
        0
462
0.0
453
        0
470

  0
LINE
  5
12A96
330
1F
100
AcDbEntity
  8
0
100
AcDbLine
 10
382.0611665243957
 20
201.435714504593
 30
0.0
 11
381.2477272259847
 21
199.7552488568849
 31
0.0
  0
LINE
  5
12A97
330
1F
100
AcDbEntity
  8
0
100
AcDbLine
 10
376.8137510227205
 20
197.5468172249286
 30
0.0
 11
376.3032809342115
 21
197.361461390225
 31
0.0
  0
LINE
  5
12A98
330
1F
100
AcDbEntity
  8
0
100
AcDbLine
 10
376.3032815506388
 20
197.3614319675155
 30
0.0
 11
376.2965826260026
 21
197.3613212446482
 31
0.0
  0
LINE
  5
12A99
330
1F
100
AcDbEntity
  8
0
100
AcDbLine
 10
378.9667159217509
 20
196.5448154863592
 30
0.0
 11
379.1254544054843
 21
195.9905933471866
 31
0.0
  0
LINE
  5
12A9A
330
1F
100
AcDbEntity
  8
0
100
AcDbLine
 10
376.0829065235313
 20
197.2787012710213
 30
0.0
 11
375.7572571657481
 21
196.6066347865364
 31
0.0
  0
LINE
  5
12A9B
330
1F
100
AcDbEntity
  8
0
100
AcDbLine
 10
384.1825677846584
 20
212.2333231250703
 30
0.0
 11
379.8137733877768
 21
203.2171214383737
 31
0.0
  0
LINE
  5
12A9C
330
1F
100
AcDbEntity
  8
0
100
AcDbLine
 10
379.456573488513
 20
203.2706578778285
 30
0.0
 11
379.3505835186486
 21
203.2573209300348
 31
0.0
  0
LINE
  5
12A9D
330
1F
100
AcDbEntity
  8
0
100
AcDbLine
 10
378.9847843501427
 20
203.1282032862736
 30
0.0
 11
378.849454435667
 21
203.1111959924755
 31
0.0
  0
LINE
  5
12A9E
330
1F
100
AcDbEntity
  8
0
100
AcDbLine
 10
379.3506638141855
 20
203.257347910443
 30
0.0
 11
378.849454435667
 21
203.1111959924755
 31
0.0
  0
LINE
  5
12A9F
330
1F
100
AcDbEntity
  8
0
100
AcDbLine
 10
381.8601844650759
 20
202.0413613841685
 30
0.0
 11
382.0560851192279
 21
201.5574252762182
 31
0.0
  0
LINE
  5
12AA0
330
1F
100
AcDbEntity
  8
0
100
AcDbLine
 10
385.9104137408774
 20
211.3960965421533
 30
0.0
 11
381.5415583664387
 21
202.379769008657
 31
0.0
  0
LINE
  5
12AA1
330
1F
100
AcDbEntity
  8
0
100
AcDbLine
 10
379.1930292443351
 20
195.7716934213802
 30
0.0
 11
378.8673798885027
 21
195.0996269388456
 31
0.0
  0
LWPOLYLINE
  5
12AA2
330
1F
100
AcDbEntity
  8
0
100
AcDbPolyline
 90
       17
 70
     0
 43
0.0
 10
385.9104137408774
 20
211.3960965421534
 10
385.9823485754785
 20
211.6007702337348
 10
386.0064880059092
 20
211.8124091915078
 10
385.988422643534
 20
212.000086023692
 10
385.9433444791818
 20
212.157132685549
 10
385.880514318066
 20
212.2901093606573
 10
385.809050231215
 20
212.3978933862471
 10
385.7333829084735
 20
212.4853656178654
 10
385.6588755170059
 20
212.5540236447146
 10
385.5877896806157
 20
212.6075499696865
 10
385.521175737176
 20
212.6491402837419
 10
385.4549415735612
 20
212.6834836456873
 10
385.3876786060703
 20
212.7120341085559
 10
385.3170349627914
 20
212.7357993167634
 10
385.2368887557179
 20
212.7556394832096
 10
385.1441161545124
 20
212.7697330177552
 10
385.0347855454371
 20
212.7746384718815
  0
LWPOLYLINE
  5
12AA3
330
1F
100
AcDbEntity
  8
0
100
AcDbPolyline
 90
        7
 70
     0
 43
0.0
 10
385.0347855454371
 20
212.7746384718815
 10
384.8862628784398
 20
212.7612440519753
 10
384.7238699660604
 20
212.7188756503314
 10
384.5572231205285
 20
212.6406742252668
 10
384.4074426721901
 20
212.5311018615108
 10
384.2809009697956
 20
212.3939095146719
 10
384.1825677846589
 20
212.2333231250705
  0
SPLINE
  5
12AA4
330
1F
100
AcDbEntity
  8
0
100
AcDbSpline
210
0.0
220
0.0
230
1.0
 70
     8
 71
     3
 72
    21
 73
    17
 74
    15
 42
0.0000000001
 43
0.0000000001
 44
0.0000000001
 12
0.9999256644601539
 22
0.0121928484744085
 32
0.0
 13
0.37368477419145
 23
-0.9275557608777409
 33
0.0
 40
0.0
 40
0.0
 40
0.0
 40
0.0
 40
0.1462832640887823
 40
0.3340262659180577
 40
0.5605622174825877
 40
0.8177362816515348
 40
1.09452665624667
 40
1.37945038338128
 40
1.663165296984093
 40
1.937463538322305
 40
2.194707741443161
 40
2.427914270270297
 40
2.630528634114833
 40
2.797030657884726
 40
2.923343988504909
 40
2.950943531880476
 40
2.950943531880476
 40
2.950943531880476
 40
2.950943531880476
 10
376.1259306753089
 20
196.5964505260813
 30
0.0
 10
376.1746881386566
 20
196.5970450626391
 30
0.0
 10
376.2860885318249
 20
196.5876004037619
 30
0.0
 10
376.4696593240525
 20
196.5518456067449
 30
0.0
 10
376.6856531042238
 20
196.4924559958092
 30
0.0
 10
376.9256689308979
 20
196.4105094163146
 30
0.0
 10
377.1793435843365
 20
196.3094453736837
 30
0.0
 10
377.4362584596532
 20
196.1934204134998
 30
0.0
 10
377.6872167070548
 20
196.0668599164828
 30
0.0
 10
377.9243829416384
 20
195.934000696912
 30
0.0
 10
378.1407102936303
 20
195.7989432511024
 30
0.0
 10
378.3297590776955
 20
195.6659156566873
 30
0.0
 10
378.4855391062005
 20
195.5388777176965
 30
0.0
 10
378.6033001747862
 20
195.4227030561366
 30
0.0
 10
378.6666694274023
 20
195.3354702524435
 30
0.0
 10
378.6887110312065
 20
195.2890460193825
 30
0.0
 10
378.6921488742512
 20
195.280512647564
 30
0.0
 11
376.1259306753089
 21
196.5964505260813
 31
0.0
 11
376.2718749742446
 21
196.5864978902187
 31
0.0
 11
376.4564625038345
 21
196.5522213872501
 31
0.0
 11
376.6751524951053
 21
196.4931178757703
 31
0.0
 11
376.918756701825
 21
196.410683115204
 31
0.0
 11
377.176020370827
 21
196.3085639882975
 31
0.0
 11
377.435745218387
 21
196.1914122326802
 31
0.0
 11
377.689037984201
 21
196.0635962439035
 31
0.0
 11
377.9282066379321
 21
195.929291068003
 31
0.0
 11
378.1461469460485
 21
195.7926287025273
 31
0.0
 11
378.3363392648355
 21
195.6576762406674
 31
0.0
 11
378.4925503026186
 21
195.5286386798146
 31
0.0
 11
378.6090730875865
 21
195.409704393325
 31
0.0
 11
378.6805360176597
 21
195.305550146567
 31
0.0
 11
378.6921488742512
 21
195.280512647564
 31
0.0
  0
SPLINE
  5
12AA5
330
1F
100
AcDbEntity
  8
0
100
AcDbSpline
210
0.0
220
0.0
230
1.0
 70
     8
 71
     3
 72
    19
 73
    15
 74
    13
 42
0.0000000001
 43
0.0000000001
 44
0.0000000001
 12
0.9999256634178744
 22
0.0121929339506097
 32
0.0
 13
0.3551913703474101
 23
-0.9347936084669862
 33
0.0
 40
0.0
 40
0.0
 40
0.0
 40
0.0
 40
0.1664325013649071
 40
0.3781656374940219
 40
0.6281094131566534
 40
0.906627647491226
 40
1.20246789075168
 40
1.503464136355757
 40
1.797185410556148
 40
2.071575443914726
 40
2.315605749557309
 40
2.519998309624245
 40
2.678238137894705
 40
2.761586212886217
 40
2.761586212886217
 40
2.761586212886217
 40
2.761586212886217
 10
379.456573488513
 20
203.2706578778286
 30
0.0
 10
379.5120468649602
 20
203.2713343113274
 30
0.0
 10
379.6381051296927
 20
203.258281951724
 30
0.0
 10
379.8427883272075
 20
203.213541313171
 30
0.0
 10
380.079157130441
 20
203.141952350729
 30
0.0
 10
380.3369180384644
 20
203.0464263522796
 30
0.0
 10
380.6049865110231
 20
202.9308836853146
 30
0.0
 10
380.8717048737796
 20
202.8002989370008
 30
0.0
 10
381.1254727629734
 20
202.6603244926064
 30
0.0
 10
381.3554442838431
 20
202.5171414652001
 30
0.0
 10
381.5514502848211
 20
202.376880511809
 30
0.0
 10
381.7065589010656
 20
202.2461921631647
 30
0.0
 10
381.8062543792478
 20
202.1358169105254
 30
0.0
 10
381.8511657844949
 20
202.0676180229084
 30
0.0
 10
381.8610339568189
 20
202.041646940315
 30
0.0
 11
379.456573488513
 21
203.2706578778286
 31
0.0
 11
379.6224574269607
 21
203.2571561566173
 31
0.0
 11
379.8297016076447
 21
203.2137883055327
 31
0.0
 11
380.0692484611184
 21
203.1424497045979
 31
0.0
 11
380.3306286448035
 21
203.0462581954425
 31
0.0
 11
380.6024185882732
 21
202.9294178078997
 31
0.0
 11
380.8727397663805
 21
202.797035027545
 31
0.0
 11
381.1297778463193
 21
202.6548956157717
 31
0.0
 11
381.3622990315068
 21
202.5092117496591
 31
0.0
 11
381.5601410304978
 21
202.3663505110139
 31
0.0
 11
381.7146571988639
 21
202.2325556220077
 31
0.0
 11
381.819094438524
 21
202.1136745628635
 31
0.0
 11
381.8610339568189
 21
202.041646940315
 31
0.0
  0
SPLINE
  5
12AA6
330
1F
100
AcDbEntity
  8
0
100
AcDbSpline
210
0.0
220
0.0
230
1.0
 70
     8
 71
     3
 72
     9
 73
     5
 74
     3
 42
0.0000000001
 43
0.0000000001
 44
0.0000000001
 12
0.956623549446682
 22
0.2913269377246665
 32
0.0
 13
0.9999256613236681
 23
0.012193105692364
 33
0.0
 40
0.0
 40
0.0
 40
0.0
 40
0.0
 40
0.0093949579383316
 40
0.119191220394551
 40
0.119191220394551
 40
0.119191220394551
 40
0.119191220394551
 10
376.0078668488507
 20
196.580924209154
 30
0.0
 10
376.0108626615207
 20
196.5818365439294
 30
0.0
 10
376.0490804567739
 20
196.5927249468416
 30
0.0
 10
376.0893346418597
 20
196.5960042736037
 30
0.0
 10
376.1259306753089
 20
196.5964505260813
 30
0.0
 11
376.0078668488507
 21
196.580924209154
 31
0.0
 11
376.0169001630476
 21
196.5835057724948
 31
0.0
 11
376.1259306753089
 21
196.5964505260813
 31
0.0
  0
SPLINE
  5
12AA7
330
1F
100
AcDbEntity
  8
0
100
AcDbSpline
210
0.0
220
0.0
230
1.0
 70
     8
 71
     3
 72
    20
 73
    16
 74
    14
 42
0.0000000001
 43
0.0000000001
 44
0.0000000001
 12
-0.4114360454886266
 22
-0.9114386323130487
 32
0.0
 13
0.9999256634150441
 23
0.0121929341827179
 33
0.0
 40
0.0
 40
0.0
 40
0.0
 40
0.0
 40
0.0829641327673183
 40
0.2156998274210404
 40
0.4055876213806723
 40
0.6508586940107179
 40
0.9436950591491724
 40
1.272963100171044
 40
1.625428629516655
 40
1.986624124934456
 40
2.341632415875939
 40
2.675854296442253
 40
2.97578682761082
 40
3.229866590966581
 40
3.42958559341394
 40
3.42958559341394
 40
3.42958559341394
 40
3.42958559341394
 10
375.75742365775
 20
196.6066033116688
 30
0.0
 10
375.7460455128489
 20
196.5813977397686
 30
0.0
 10
375.7467260526606
 20
196.5035144215558
 30
0.0
 10
375.8199204749173
 20
196.3865112693007
 30
0.0
 10
375.947084430032
 20
196.2463729809852
 30
0.0
 10
376.1331304356262
 20
196.0893867822169
 30
0.0
 10
376.3683671840206
 20
195.921129759172
 30
0.0
 10
376.6443235269227
 20
195.7492921163346
 30
0.0
 10
376.9488478245277
 20
195.5813281578717
 30
0.0
 10
377.2689090685019
 20
195.4246249569539
 30
0.0
 10
377.590591442036
 20
195.2859741488328
 30
0.0
 10
377.8999044806558
 20
195.1713428550974
 30
0.0
 10
378.183547056123
 20
195.0854361222625
 30
0.0
 10
378.4291668910563
 20
195.0317473514633
 30
0.0
 10
378.5804368093891
 20
195.0160845201838
 30
0.0
 10
378.6470048613953
 20
195.0168962404011
 30
0.0
 11
375.75742365775
 21
196.6066033116688
 31
0.0
 11
375.7522270411067
 21
196.5238020888439
 31
0.0
 11
375.8119797209912
 21
196.4052762187487
 31
0.0
 11
375.9373044081929
 21
196.262618947386
 31
0.0
 11
376.1227238106219
 21
196.1020650801888
 31
0.0
 11
376.3601342082418
 21
195.930631594984
 31
0.0
 11
376.6391596316374
 21
195.7558109556496
 31
0.0
 11
376.947605328344
 21
195.5852436623016
 31
0.0
 11
377.2719907424623
 21
195.4263843250961
 31
0.0
 11
377.5981386730657
 21
195.2861758588741
 31
0.0
 11
377.9117948930978
 21
195.1707460486671
 31
0.0
 11
378.199251117656
 21
195.0851397275457
 31
0.0
 11
378.4479441344777
 21
195.0330983062442
 31
0.0
 11
378.6470048613953
 21
195.0168962404011
 31
0.0
  0
SPLINE
  5
12AA8
330
1F
100
AcDbEntity
  8
0
100
AcDbSpline
210
0.0
220
0.0
230
1.0
 70
     8
 71
     3
 72
    10
 73
     6
 74
     4
 42
0.0000000001
 43
0.0000000001
 44
0.0000000001
 12
-0.9998571019693759
 22
-0.016904899922834
 32
0.0
 13
-0.4110129041068448
 23
-0.9116295259904967
 33
0.0
 40
0.0
 40
0.0
 40
0.0
 40
0.0
 40
0.1355502760879321
 40
0.2301538529295221
 40
0.2373760149305863
 40
0.2373760149305863
 40
0.2373760149305863
 40
0.2373760149305863
 10
376.2965823919163
 20
197.3613351454787
 30
0.0
 10
376.2514054231762
 20
197.3605713241948
 30
0.0
 10
376.1751557065235
 20
197.3547227470563
 30
0.0
 10
376.0993764186918
 20
197.3112386288256
 30
0.0
 10
376.0840461416102
 20
197.2808282186083
 30
0.0
 10
376.0830566743508
 20
197.2786335732345
 30
0.0
 11
376.2965823919163
 21
197.3613351454787
 31
0.0
 11
376.162553020514
 21
197.3410865665403
 31
0.0
 11
376.0863072000518
 21
197.2850828915424
 31
0.0
 11
376.0830566743508
 21
197.2786335732345
 31
0.0
  0
SPLINE
  5
12AA9
330
1F
100
AcDbEntity
  8
0
100
AcDbSpline
210
0.0
220
0.0
230
1.0
 70
     8
 71
     3
 72
     9
 73
     5
 74
     3
 42
0.0000000001
 43
0.0000000001
 44
0.0000000001
 12
0.3795996573556231
 22
-0.9251508526372839
 32
0.0
 13
-0.400986328427014
 23
-0.9160840378560379
 33
0.0
 40
0.0
 40
0.0
 40
0.0
 40
0.0
 40
0.0563409179441054
 40
0.1246332072183947
 40
0.1246332072183947
 40
0.1246332072183947
 40
0.1246332072183947
 10
382.057218298328
 20
201.5578902322808
 30
0.0
 10
382.0643472960435
 20
201.5405156161893
 30
0.0
 10
382.0754959211684
 20
201.4999865959432
 30
0.0
 10
382.0702946158415
 20
201.456568329964
 30
0.0
 10
382.0611665243962
 20
201.435714504593
 30
0.0
 11
382.057218298328
 21
201.5578902322808
 31
0.0
 11
382.0710857015098
 21
201.5032825939527
 31
0.0
 11
382.0611665243962
 21
201.435714504593
 31
0.0
  0
SPLINE
  5
12AAA
330
1F
100
AcDbEntity
  8
0
100
AcDbSpline
210
0.0
220
0.0
230
1.0
 70
     8
 71
     3
 72
    12
 73
     8
 74
     0
 42
0.0000000001
 43
0.0000000001
 40
0.0
 40
0.0
 40
0.0
 40
0.0
 40
0.0889856640041622
 40
0.2465144142572709
 40
0.4722187728986916
 40
0.7672091182016353
 40
0.9939334795552907
 40
0.9939334795552907
 40
0.9939334795552907
 40
0.9939334795552907
 10
377.9367051817478
 20
201.3596904380795
 30
0.0
 10
377.92756078973
 20
201.3388260298961
 30
0.0
 10
377.9195576681634
 20
201.2726354378165
 30
0.0
 10
377.9774792301944
 20
201.1610784644338
 30
0.0
 10
378.0872640689057
 20
201.0275248283415
 30
0.0
 10
378.2293454174066
 20
200.8979798396404
 30
0.0
 10
378.3341119057852
 20
200.8150709543951
 30
0.0
 10
378.3804575703413
 20
200.7801445324849
 30
0.0
  0
SPLINE
  5
12AAB
330
1F
100
AcDbEntity
  8
0
100
AcDbSpline
210
0.0
220
0.0
230
1.0
 70
     8
 71
     3
 72
    10
 73
     6
 74
     0
 42
0.0000000001
 43
0.0000000001
 40
0.5054477850608489
 40
0.5054477850608489
 40
0.5054477850608489
 40
0.5054477850608489
 40
0.5788698856249633
 40
0.9029706754363131
 40
1.160304674357875
 40
1.160304674357875
 40
1.160304674357875
 40
1.160304674357875
 10
380.5172469355369
 20
199.7447601591323
 30
0.0
 10
380.5354306968187
 20
199.7399916175313
 30
0.0
 10
380.6340731375588
 20
199.7149166285378
 30
0.0
 10
380.7983126446231
 20
199.6807042346089
 30
0.0
 10
380.9471944931114
 20
199.6663521686268
 30
0.0
 10
381.0130670997257
 20
199.6671554087289
 30
0.0
  0
SPLINE
  5
12AAC
330
1F
100
AcDbEntity
  8
0
100
AcDbSpline
210
0.0
220
0.0
230
1.0
 70
     8
 71
     3
 72
    10
 73
     6
 74
     4
 42
0.0000000001
 43
0.0000000001
 44
0.0000000001
 12
-0.9582549145839381
 22
-0.2859152298771951
 32
0.0
 13
-0.400986330957278
 23
-0.9160840367484963
 33
0.0
 40
0.0
 40
0.0
 40
0.0
 40
0.0
 40
0.0074380680144268
 40
0.1051893514705821
 40
0.1241161151355306
 40
0.1241161151355306
 40
0.1241161151355306
 40
0.1241161151355306
 10
378.8494439095818
 20
203.1112312712466
 30
0.0
 10
378.8470680545052
 20
203.1105223856045
 30
0.0
 10
378.8137069454515
 20
203.1001619652748
 30
0.0
 10
378.7721992499813
 20
203.0800565265769
 30
0.0
 10
378.7533381091515
 20
203.0455898987659
 30
0.0
 10
378.7508083179785
 20
203.0398103967457
 30
0.0
 11
378.8494439095818
 21
203.1112312712466
 31
0.0
 11
378.8423409596219
 21
203.1090237935789
 31
0.0
 11
378.7599876260109
 21
203.0563622149804
 31
0.0
 11
378.7508083179785
 21
203.0398103967457
 31
0.0
  0
SPLINE
  5
12AAD
330
1F
100
AcDbEntity
  8
0
100
AcDbSpline
210
0.0
220
0.0
230
1.0
 70
     8
 71
     3
 72
    10
 73
     6
 74
     4
 42
0.0000000001
 43
0.0000000001
 44
0.0000000001
 12
-0.4014161361486602
 22
-0.9158957831759463
 32
0.0
 13
-0.9999256634349974
 23
-0.0121929325463704
 33
0.0
 40
0.0
 40
0.0
 40
0.0
 40
0.0
 40
0.0188764956691546
 40
0.1166277791261107
 40
0.2603565947576699
 40
0.2603565947576699
 40
0.2603565947576699
 40
0.2603565947576699
 10
381.2470228756131
 20
199.7555020505877
 30
0.0
 10
381.2444970989612
 20
199.7497390829928
 30
0.0
 10
381.2255480493055
 20
199.7152741601165
 30
0.0
 10
381.1406914417757
 20
199.6736039854964
 30
0.0
 10
381.0609731435008
 20
199.6677395673135
 30
0.0
 10
381.0130670997257
 20
199.6671554087289
 30
0.0
 11
381.2470228756131
 21
199.7555020505877
 31
0.0
 11
381.2378638238577
 21
199.7389964800223
 31
0.0
 11
381.1555104902457
 21
199.6863349014239
 31
0.0
 11
381.0130670997257
 21
199.6671554087289
 31
0.0
  0
SPLINE
  5
12AAE
330
1F
100
AcDbEntity
  8
0
100
AcDbSpline
210
0.0
220
0.0
230
1.0
 70
     8
 71
     3
 72
    10
 73
     6
 74
     4
 42
0.0000000001
 43
0.0000000001
 44
0.0000000001
 12
0.610726956110227
 22
-0.7918412625522473
 32
0.0
 13
-0.4110129020184428
 23
-0.9116295269320636
 33
0.0
 40
0.0
 40
0.0
 40
0.0
 40
0.0
 40
0.021740504876235
 40
0.1544762004081127
 40
0.2374031610800503
 40
0.2374031610800503
 40
0.2374031610800503
 40
0.2374031610800503
 10
379.1252179567625
 20
195.9904109821768
 30
0.0
 10
379.1296437942183
 20
195.9846726392336
 30
0.0
 10
379.1606354332115
 20
195.9436577313382
 30
0.0
 10
379.2035745751932
 20
195.8747259981514
 30
0.0
 10
379.2042404437689
 20
195.7969606725257
 30
0.0
 10
379.1928790935151
 20
195.7717611172166
 30
0.0
 11
379.1252179567625
 21
195.9904109821768
 31
0.0
 11
379.1383066890919
 21
195.9730519891679
 31
0.0
 11
379.1980593709269
 21
195.8545261190726
 31
0.0
 11
379.1928790935151
 21
195.7717611172166
 31
0.0
  0
SPLINE
  5
12AAF
330
1F
100
AcDbEntity
  8
0
100
AcDbSpline
210
0.0
220
0.0
230
1.0
 70
     8
 71
     3
 72
    10
 73
     6
 74
     4
 42
0.0000000001
 43
0.0000000001
 44
0.0000000001
 12
-0.4114360484606885
 22
-0.9114386309714188
 32
0.0
 13
-0.9999256633886194
 23
-0.0121929363497685
 33
0.0
 40
0.0
 40
0.0
 40
0.0
 40
0.0
 40
0.0071824624599433
 40
0.1017860393011883
 40
0.2439776513320162
 40
0.2439776513320162
 40
0.2439776513320162
 40
0.2439776513320162
 10
378.8672133965017
 20
195.0996584137131
 30
0.0
 10
378.8662283551774
 20
195.0974762891292
 30
0.0
 10
378.8508966453238
 20
195.0670823622828
 30
0.0
 10
378.7730369313897
 20
195.0223808220096
 30
0.0
 10
378.6943985420581
 20
195.0174741514927
 30
0.0
 10
378.6470048613953
 20
195.0168962404011
 30
0.0
 11
378.8672133965017
 21
195.0996584137131
 31
0.0
 11
378.8639792119818
 21
195.0932453163741
 31
0.0
 11
378.7877333915201
 21
195.0372416413761
 31
0.0
 11
378.6470048613953
 21
195.0168962404011
 31
0.0
  0
SPLINE
  5
12AB0
330
1F
100
AcDbEntity
  8
0
100
AcDbSpline
210
0.0
220
0.0
230
1.0
 70
     8
 71
     3
 72
    20
 73
    16
 74
    14
 42
0.0000000001
 43
0.0000000001
 44
0.0000000001
 12
0.9999256634143661
 22
0.0121929342383116
 32
0.0
 13
0.3795996591407818
 23
-0.9251508519048135
 33
0.0
 40
0.0
 40
0.0
 40
0.0
 40
0.0
 40
0.1976325092270501
 40
0.4465419158017841
 40
0.7395673770279618
 40
1.066894294431922
 40
1.416970471404475
 40
1.777177472337256
 40
2.134437435477556
 40
2.475805304370383
 40
2.789064600499652
 40
3.063352955858772
 40
3.289905541051329
 40
3.463246487282193
 40
3.528791036210407
 40
3.528791036210407
 40
3.528791036210407
 40
3.528791036210407
 10
378.9847843501418
 20
203.1282032862736
 30
0.0
 10
379.0506569561089
 20
203.1290065263364
 30
0.0
 10
379.1995381032918
 20
203.1146546977458
 30
0.0
 10
379.4410592157818
 20
203.0643433978286
 30
0.0
 10
379.7195678396816
 20
202.9834501212591
 30
0.0
 10
380.0244154927835
 20
202.8748387514711
 30
0.0
 10
380.3440802470796
 20
202.742417917436
 30
0.0
 10
380.6663216478881
 20
202.5911793017718
 30
0.0
 10
380.978841873685
 20
202.4268884378329
 30
0.0
 10
381.2696951914319
 20
202.255827297334
 30
0.0
 10
381.5279839880381
 20
202.0846878229538
 30
0.0
 10
381.743762523674
 20
201.9198069071689
 30
0.0
 10
381.9104571352708
 20
201.7683140521703
 30
0.0
 10
382.0089572175107
 20
201.6474990443536
 30
0.0
 10
382.0489247355175
 20
201.5781030973737
 30
0.0
 10
382.057218298328
 20
201.5578902322808
 30
0.0
 11
378.9847843501418
 21
203.1282032862736
 31
0.0
 11
379.1818437768404
 21
203.1131636369221
 31
0.0
 11
379.4259463574074
 21
203.0644828106975
 31
0.0
 11
379.70771136807
 21
202.9840315851436
 31
0.0
 11
380.016310734695
 21
202.8749016544379
 31
0.0
 11
380.3398851564807
 21
202.7412868227397
 31
0.0
 11
380.6659998526678
 21
202.5883218318046
 31
0.0
 11
380.9821224167643
 21
202.4218850398021
 31
0.0
 11
381.2761044356569
 21
202.2483725201378
 31
0.0
 11
381.536648347628
 21
202.0744522609781
 31
0.0
 11
381.7537415926489
 21
201.9068079206264
 31
0.0
 11
381.919041399696
 21
201.7518819781648
 31
0.0
 11
382.026195391494
 21
201.6156281500279
 31
0.0
 11
382.057218298328
 21
201.5578902322808
 31
0.0
  0
SPLINE
  5
12AB1
330
1F
100
AcDbEntity
  8
0
100
AcDbSpline
210
0.0
220
0.0
230
1.0
 70
     8
 71
     3
 72
    11
 73
     7
 74
     5
 42
0.0000000001
 43
0.0000000001
 44
0.0000000001
 12
0.3736847752213957
 22
-0.9275557604628064
 32
0.0
 13
-0.9999256613984222
 23
-0.0121930995619666
 33
0.0
 40
0.0
 40
0.0
 40
0.0
 40
0.0
 40
0.060628024043738
 40
0.1273834243523164
 40
0.2060457849688825
 40
0.3158420474252153
 40
0.3158420474252153
 40
0.3158420474252153
 40
0.3158420474252153
 10
378.6921488742512
 20
195.280512647564
 30
0.0
 10
378.6997007974302
 20
195.2617673565816
 30
0.0
 10
378.7104156621852
 20
195.2189443504643
 30
0.0
 10
378.681339207575
 20
195.1492037971195
 30
0.0
 10
378.5976032645314
 20
195.115016143711
 30
0.0
 10
378.5353024123943
 20
195.1102574515537
 30
0.0
 10
378.4987063789424
 20
195.1098111993005
 30
0.0
 11
378.6921488742512
 21
195.280512647564
 31
0.0
 11
378.703401009552
 21
195.220937931865
 31
0.0
 11
378.6772893953491
 21
195.1595012402705
 31
0.0
 11
378.6077368912036
 21
195.1227559528875
 31
0.0
 11
378.4987063789424
 21
195.1098111993005
 31
0.0
  0
SPLINE
  5
12AB2
330
1F
100
AcDbEntity
  8
0
100
AcDbSpline
210
0.0
220
0.0
230
1.0
 70
     8
 71
     3
 72
    10
 73
     6
 74
     4
 42
0.0000000001
 43
0.0000000001
 44
0.0000000001
 12
-0.9999256634349974
 22
-0.0121929325463704
 32
0.0
 13
-0.4014161361486602
 23
-0.9158957831759463
 33
0.0
 40
0.0
 40
0.0
 40
0.0
 40
0.0
 40
0.1437288156316719
 40
0.241480098037191
 40
0.2603565937063177
 40
0.2603565937063177
 40
0.2603565937063177
 40
0.2603565937063177
 10
378.1706609576352
 20
201.4480370779871
 30
0.0
 10
378.1227549138602
 20
201.4474529194024
 30
0.0
 10
378.0430366165346
 20
201.4415885003379
 30
0.0
 10
377.9581800078104
 20
201.3999183283488
 30
0.0
 10
377.9392309583997
 20
201.3654534056743
 30
0.0
 10
377.9367051817478
 20
201.3596904380795
 30
0.0
 11
378.1706609576352
 21
201.4480370779871
 31
0.0
 11
378.0282175671152
 21
201.4288575852921
 31
0.0
 11
377.9458642335037
 21
201.3761960086446
 31
0.0
 11
377.9367051817478
 21
201.3596904380795
 31
0.0
  0
SPLINE
  5
12AB3
330
1F
100
AcDbEntity
  8
0
100
AcDbSpline
210
0.0
220
0.0
230
1.0
 70
     8
 71
     3
 72
     9
 73
     5
 74
     3
 42
0.0000000001
 43
0.0000000001
 44
0.0000000001
 12
-0.9999256633843135
 22
-0.0121929367029037
 32
0.0
 13
-0.4926331604757236
 23
-0.8702370764336004
 33
0.0
 40
0.0
 40
0.0
 40
0.0
 40
0.0
 40
0.0883485974866754
 40
0.1352299313949792
 40
0.1352299313949792
 40
0.1352299313949792
 40
0.1352299313949792
 10
384.3049983544072
 20
212.2792846242065
 30
0.0
 10
384.2755510110902
 20
212.2789255479208
 30
0.0
 10
384.2280983633763
 20
212.2774580759161
 30
0.0
 10
384.1908489077068
 20
212.2465925616761
 30
0.0
 10
384.1831504744766
 20
212.2329932700229
 30
0.0
 11
384.3049983544072
 21
212.2792846242065
 31
0.0
 11
384.2179023737606
 21
212.2644601568276
 31
0.0
 11
384.1831504744766
 21
212.2329932700229
 31
0.0
  0
SPLINE
  5
12AB4
330
1F
100
AcDbEntity
  8
0
100
AcDbSpline
210
0.0
220
0.0
230
1.0
 70
     8
 71
     3
 72
    23
 73
    19
 74
    17
 42
0.0000000001
 43
0.0000000001
 44
0.0000000001
 12
-0.9999256644602708
 22
-0.0121928484648233
 32
0.0
 13
0.9566235486271676
 23
0.2913269404156868
 33
0.0
 40
0.0
 40
0.0
 40
0.0
 40
0.0
 40
0.1462832640895685
 40
0.3340262659188803
 40
0.5605622174826613
 40
0.8177362816519034
 40
1.094526656247059
 40
1.379450383381559
 40
1.663165296984273
 40
1.937463538323083
 40
2.194707741443827
 40
2.427914270270301
 40
2.630528634115439
 40
2.797030657884926
 40
2.923343988505624
 40
3.010991205980141
 40
3.077746606288097
 40
3.147242882394206
 40
3.147242882394206
 40
3.147242882394206
 40
3.147242882394206
 10
378.4987063789424
 20
195.1098111993005
 30
0.0
 10
378.4499489155943
 20
195.1092166627432
 30
0.0
 10
378.3385485225519
 20
195.1186613213288
 30
0.0
 10
378.1549777295686
 20
195.1544161200852
 30
0.0
 10
377.9389839530479
 20
195.2138057226246
 30
0.0
 10
377.6989681100487
 20
195.295752339671
 30
0.0
 10
377.4452935242056
 20
195.3968162268115
 30
0.0
 10
377.1883783863099
 20
195.5128417910098
 30
0.0
 10
376.9374211091303
 20
195.6394000562096
 30
0.0
 10
376.7002514454735
 20
195.7722671637382
 30
0.0
 10
376.4839356741447
 20
195.9072979703322
 30
0.0
 10
376.2948497299999
 20
196.0404110447751
 30
0.0
 10
376.1391816633341
 20
196.1671914358542
 30
0.0
 10
376.0211098700037
 20
196.2840808633507
 30
0.0
 10
375.9466397527459
 20
196.385879069853
 30
0.0
 10
375.9106274178686
 20
196.4778791473877
 30
0.0
 10
375.9417059851859
 20
196.553948092385
 30
0.0
 10
375.9857062574291
 20
196.5741754966579
 30
0.0
 10
376.0078668488507
 20
196.580924209154
 30
0.0
 11
378.4987063789424
 21
195.1098111993005
 31
0.0
 11
378.3527620800058
 21
195.119763835163
 31
0.0
 11
378.1681745504159
 21
195.1540403381318
 31
0.0
 11
377.949484559146
 21
195.2131438496119
 31
0.0
 11
377.7058803524258
 21
195.2955786101779
 31
0.0
 11
377.4486166834238
 21
195.3976977370845
 31
0.0
 11
377.1888918358639
 21
195.5148494927017
 31
0.0
 11
376.9355990700503
 21
195.6426654814788
 31
0.0
 11
376.6964304163182
 21
195.7769706573789
 31
0.0
 11
376.4784901082019
 21
195.9136330228546
 31
0.0
 11
376.2882977894158
 21
196.0485854847145
 31
0.0
 11
376.1320867516321
 21
196.1776230455676
 31
0.0
 11
376.0155639666643
 21
196.2965573320567
 31
0.0
 11
375.9441010365907
 21
196.400711578815
 31
0.0
 11
375.9212360446988
 21
196.4853237935172
 31
0.0
 11
375.9473476589012
 21
196.5467604851112
 31
0.0
 11
376.0078668488507
 21
196.580924209154
 31
0.0
  0
SPLINE
  5
12AB5
330
1F
100
AcDbEntity
  8
0
100
AcDbSpline
210
0.0
220
0.0
230
1.0
 70
     8
 71
     3
 72
    19
 73
    15
 74
    13
 42
0.0000000001
 43
0.0000000001
 44
0.0000000001
 12
0.9999256634135294
 22
0.0121929343069467
 32
0.0
 13
-0.4926331677632292
 23
-0.8702370723082108
 33
0.0
 40
0.0
 40
0.0
 40
0.0
 40
0.0
 40
0.13075686833544
 40
0.3008784158517693
 40
0.5024326459004293
 40
0.7248495463130609
 40
0.9560432507989766
 40
1.183322386394302
 40
1.394263741954521
 40
1.577599628948403
 40
1.724216889497302
 40
1.828741883089785
 40
1.894471100223124
 40
1.90484970791691
 40
1.90484970791691
 40
1.90484970791691
 40
1.90484970791691
 10
384.3049983544072
 20
212.2792846242065
 30
0.0
 10
384.3485807371792
 20
212.2798160608418
 30
0.0
 10
384.4488121178319
 20
212.2676991795886
 30
0.0
 10
384.6116652568835
 20
212.2282365370108
 30
0.0
 10
384.7998467417473
 20
212.165839163067
 30
0.0
 10
385.0024217790856
 20
212.0839642524917
 30
0.0
 10
385.2078185304802
 20
211.9870935998388
 30
0.0
 10
385.4041547077742
 20
211.8808861078019
 30
0.0
 10
385.5802765600545
 20
211.7712481241588
 30
0.0
 10
385.726018706296
 20
211.6654287857648
 30
0.0
 10
385.8344956153548
 20
211.5672069302374
 30
0.0
 10
385.8999584812096
 20
211.4869312385971
 30
0.0
 10
385.9219938275246
 20
211.422982320014
 30
0.0
 10
385.9115353331885
 20
211.3994370135924
 30
0.0
 10
385.9098310510601
 20
211.3964263972011
 30
0.0
 11
384.3049983544072
 21
212.2792846242065
 31
0.0
 11
384.4351871775341
 21
212.2671096930065
 31
0.0
 11
384.6009027434864
 21
212.2286429264352
 31
0.0
 11
384.7925142656928
 21
212.1661198730209
 31
0.0
 11
384.9988859790549
 21
212.0831741467104
 31
0.0
 11
385.2080243088597
 21
211.9846262497244
 31
0.0
 11
385.4077748962006
 21
211.8762034277084
 31
0.0
 11
385.586528961491
 21
211.7642068222788
 31
0.0
 11
385.7338979707299
 21
211.6551452682106
 31
0.0
 11
385.8413173716386
 21
211.5553570254198
 31
0.0
 11
385.9025443393755
 21
211.4706414264592
 31
0.0
 11
385.9140205850943
 21
211.4059218330646
 31
0.0
 11
385.9098310510601
 21
211.3964263972011
 31
0.0
  0
SPLINE
  5
12AB6
330
1F
100
AcDbEntity
  8
0
100
AcDbSpline
210
0.0
220
0.0
230
1.0
 70
     8
 71
     3
 72
    20
 73
    16
 74
    14
 42
0.0000000001
 43
0.0000000001
 44
0.0000000001
 12
0.9999256634150441
 22
0.0121929341827179
 32
0.0
 13
-0.4114360454886266
 23
-0.9114386323130487
 33
0.0
 40
0.0
 40
0.0
 40
0.0
 40
0.0
 40
0.199719002447454
 40
0.4537987658027133
 40
0.7537312969714904
 40
1.08795317753706
 40
1.442961468478942
 40
1.804156963896869
 40
2.156622493242621
 40
2.485890534264457
 40
2.778726899402476
 40
3.023997972032865
 40
3.213885765991807
 40
3.346621460645811
 40
3.429585593413473
 40
3.429585593413473
 40
3.429585593413473
 40
3.429585593413473
 10
375.9776321928559
 20
196.689365484981
 30
0.0
 10
376.0442002448622
 20
196.6901772051983
 30
0.0
 10
376.1954701631951
 20
196.6745143739193
 30
0.0
 10
376.4410899981279
 20
196.6208256031188
 30
0.0
 10
376.7247325735948
 20
196.5349188702845
 30
0.0
 10
377.0340456122148
 20
196.4202875765493
 30
0.0
 10
377.3557279857489
 20
196.2816367684283
 30
0.0
 10
377.6757892297231
 20
196.1249335675102
 30
0.0
 10
377.9803135273281
 20
195.9569696090474
 30
0.0
 10
378.2562698702303
 20
195.7851319662099
 30
0.0
 10
378.491506618624
 20
195.6168749431646
 30
0.0
 10
378.6775526242188
 20
195.4598887443971
 30
0.0
 10
378.804716579333
 20
195.3197504560811
 30
0.0
 10
378.8779110015897
 20
195.2027473038265
 30
0.0
 10
378.8785915414028
 20
195.1248639856134
 30
0.0
 10
378.8672133965017
 20
195.0996584137131
 30
0.0
 11
375.9776321928559
 21
196.689365484981
 31
0.0
 11
376.1766929197737
 21
196.6731634191381
 31
0.0
 11
376.4253859365947
 21
196.6211219978361
 31
0.0
 11
376.7128421611531
 21
196.5355156767147
 31
0.0
 11
377.0264983811846
 21
196.4200858665082
 31
0.0
 11
377.3526463117884
 21
196.2798774002861
 31
0.0
 11
377.6770317259068
 21
196.1210180630804
 31
0.0
 11
377.9854774226135
 21
195.9504507697323
 31
0.0
 11
378.264502846009
 21
195.7756301303978
 31
0.0
 11
378.5019132436285
 21
195.6041966451931
 31
0.0
 11
378.6873326460579
 21
195.4436427779959
 31
0.0
 11
378.812657333259
 21
195.3009855066336
 31
0.0
 11
378.8724100131442
 21
195.1824596365384
 31
0.0
 11
378.8672133965017
 21
195.0996584137131
 31
0.0
  0
SPLINE
  5
12AB7
330
1F
100
AcDbEntity
  8
0
100
AcDbSpline
210
0.0
220
0.0
230
1.0
 70
     8
 71
     3
 72
    18
 73
    14
 74
    12
 42
0.0000000001
 43
0.0000000001
 44
0.0000000001
 12
0.999925663415844
 22
0.0121929341171191
 32
0.0
 13
0.6107269533955173
 23
-0.7918412646460336
 33
0.0
 40
0.0
 40
0.0
 40
0.0
 40
0.0
 40
0.1997190024474066
 40
0.4537987638930022
 40
0.7537312969315256
 40
1.087953177497382
 40
1.442961468439033
 40
1.804156963857333
 40
2.156622492258942
 40
2.48589053266374
 40
2.778726899382621
 40
3.023997970736282
 40
3.192213808799913
 40
3.192213808799913
 40
3.192213808799913
 40
3.192213808799913
 10
376.3032815506388
 20
197.3614319675154
 30
0.0
 10
376.3698496026452
 20
197.3622436877283
 30
0.0
 10
376.5211195207208
 20
197.3465808546251
 30
0.0
 10
376.7667393534292
 20
197.2928920951074
 30
0.0
 10
377.0503819385971
 20
197.2069853063443
 30
0.0
 10
377.3596949367926
 20
197.0923542605552
 30
0.0
 10
377.6813774764028
 20
196.9537024439752
 30
0.0
 10
378.0014380880696
 20
196.7970030819781
 30
0.0
 10
378.3059646455981
 20
196.6290253945548
 30
0.0
 10
378.5819134171798
 20
196.4572337737355
 30
0.0
 10
378.8171737497106
 20
196.2888333322347
 30
0.0
 10
378.9976159780591
 20
196.136917680573
 30
0.0
 10
379.0909733079979
 20
196.0348110628254
 30
0.0
 10
379.1252179567625
 20
195.9904109821768
 30
0.0
 11
376.3032815506388
 21
197.3614319675154
 31
0.0
 11
376.5023422775565
 21
197.3452299016724
 31
0.0
 11
376.7510352924265
 21
197.2931884803706
 31
0.0
 11
377.0384915189359
 21
197.2075821592493
 31
0.0
 11
377.3521477389676
 21
197.0921523490424
 31
0.0
 11
377.6782956695711
 21
196.9519438828204
 31
0.0
 11
378.0026810836901
 21
196.793084545615
 31
0.0
 11
378.3111267803964
 21
196.6225172542171
 31
0.0
 11
378.5901522018418
 21
196.4476966129324
 31
0.0
 11
378.8275626014113
 21
196.2762631277278
 31
0.0
 11
379.0129820038408
 21
196.1157092624811
 31
0.0
 11
379.1252179567625
 21
195.9904109821768
 31
0.0
  0
SPLINE
  5
12AB8
330
1F
100
AcDbEntity
  8
0
100
AcDbSpline
210
0.0
220
0.0
230
1.0
 70
     8
 71
     3
 72
    10
 73
     6
 74
     4
 42
0.0000000001
 43
0.0000000001
 44
0.0000000001
 12
-0.9999256633886194
 22
-0.0121929363497685
 32
0.0
 13
-0.4114360484606885
 23
-0.9114386309714188
 33
0.0
 40
0.0
 40
0.0
 40
0.0
 40
0.0
 40
0.1421916120308448
 40
0.236795188872317
 40
0.2439776513318254
 40
0.2439776513318254
 40
0.2439776513318254
 40
0.2439776513318254
 10
375.9776321928559
 20
196.689365484981
 30
0.0
 10
375.9302385121932
 20
196.6887875738893
 30
0.0
 10
375.8516001228654
 20
196.6838809033697
 30
0.0
 10
375.7737404089224
 20
196.6391793631015
 30
0.0
 10
375.7584086990742
 20
196.6087854362525
 30
0.0
 10
375.75742365775
 20
196.6066033116688
 30
0.0
 11
375.9776321928559
 21
196.689365484981
 31
0.0
 11
375.8369036627312
 21
196.6690200840055
 31
0.0
 11
375.760657842269
 21
196.6130164090078
 31
0.0
 11
375.75742365775
 21
196.6066033116688
 31
0.0
  0
SPLINE
  5
12AB9
330
1F
100
AcDbEntity
  8
0
100
AcDbSpline
210
0.0
220
0.0
230
1.0
 70
     8
 71
     3
 72
    21
 73
    17
 74
    15
 42
0.0000000001
 43
0.0000000001
 44
0.0000000001
 12
0.999925663413863
 22
0.0121929342795779
 32
0.0
 13
-0.4014161346043978
 23
-0.9158957838527614
 33
0.0
 40
0.0
 40
0.0
 40
0.0
 40
0.0
 40
0.197632509227041
 40
0.4465419158015855
 40
0.7395673751520216
 40
1.066894292556
 40
1.416970471331826
 40
1.777177472264256
 40
2.134437435404355
 40
2.47580530429734
 40
2.789064598804446
 40
3.063352952970543
 40
3.289905539587022
 40
3.4632464873514
 40
3.584228567545156
 40
3.652569555286004
 40
3.652569555286004
 40
3.652569555286004
 40
3.652569555286004
 10
378.1706609576352
 20
201.4480370779871
 30
0.0
 10
378.2365335636022
 20
201.4488403180526
 30
0.0
 10
378.3854147110405
 20
201.4344884884465
 30
0.0
 10
378.6269358214284
 20
201.3841771945472
 30
0.0
 10
378.9054444517029
 20
201.3032838907326
 30
0.0
 10
379.2102920732301
 20
201.19467263728
 30
0.0
 10
379.5299569578268
 20
201.0622513266297
 30
0.0
 10
379.8521978582717
 20
200.9110145600578
 30
0.0
 10
380.1647199204142
 20
200.746716913727
 30
0.0
 10
380.4555668684384
 20
200.5756792984838
 30
0.0
 10
380.7138764666205
 20
200.4044629906313
 30
0.0
 10
380.9295916095415
 20
200.2398162011021
 30
0.0
 10
381.0964636829161
 20
200.0876679543598
 30
0.0
 10
381.2062488750586
 20
199.9541139741811
 30
0.0
 10
381.2641703792758
 20
199.8425570560512
 30
0.0
 10
381.2561672673244
 20
199.7763664580997
 30
0.0
 10
381.2470228756131
 20
199.7555020505877
 30
0.0
 11
378.1706609576352
 21
201.4480370779871
 31
0.0
 11
378.3677203843337
 21
201.432997428635
 31
0.0
 11
378.6118229649006
 21
201.3843166024105
 31
0.0
 11
378.8935879736125
 21
201.3038653768568
 31
0.0
 11
379.2021873402375
 21
201.1947354461511
 31
0.0
 11
379.5257617639743
 21
201.061120614453
 31
0.0
 11
379.851876460161
 21
200.9081556235178
 31
0.0
 11
380.1679990242572
 21
200.7417188315153
 31
0.0
 11
380.4619810431498
 21
200.5682063118507
 31
0.0
 11
380.7225249531709
 21
200.3942860526914
 31
0.0
 11
380.9396181981908
 21
200.2266417142906
 31
0.0
 11
381.1049180071893
 21
200.0717157718288
 31
0.0
 11
381.2120719989874
 21
199.935461941741
 31
0.0
 11
381.2569623070524
 21
199.8231163856658
 31
0.0
 11
381.2470228756131
 21
199.7555020505877
 31
0.0
  0
LINE
  5
12ABA
330
1F
100
AcDbEntity
  8
0
100
AcDbLine
 10
380.6107210460807
 20
199.9376695427035
 30
0.0
 11
378.9667159217509
 21
196.5448154863592
 31
0.0
  0
LINE
  5
12ABB
330
1F
100
AcDbEntity
  8
0
100
AcDbLine
 10
378.4739595996823
 20
200.9731115340207
 30
0.0
 11
376.8137510227205
 21
197.5468172249286
 31
0.0
  0
ARC
  5
12ABC
330
1F
100
AcDbEntity
  8
0
100
AcDbCircle
 10
377.9864000491242
 20
197.2445519749699
 30
0.0
 40
3.868272023179656
100
AcDbArc
 50
47.98977559965589
 51
80.30149526875888
  0
ARC
  5
12ABD
330
1F
100
AcDbEntity
  8
0
100
AcDbCircle
 10
375.6019915047693
 20
192.1291535926865
 30
0.0
 40
5.551525948914012
100
AcDbArc
 50
52.69268098438281
 51
77.39226235053087
  0
ARC
  5
12ABE
330
1F
100
AcDbEntity
  8
0
100
AcDbCircle
 10
380.4724933695577
 20
200.0046476693053
 30
0.0
 40
0.1536
100
AcDbArc
 50
334.1475232371831
 51
47.98977559969102
  0
ARC
  5
12ABF
330
1F
100
AcDbEntity
  8
0
100
AcDbCircle
 10
378.6121872761912
 20
200.9061334073888
 30
0.0
 40
0.1536
100
AcDbArc
 50
80.30149526875888
 51
154.1475232247488
  0
SPLINE
  5
12AC0
330
1F
100
AcDbEntity
  8
0
  6
Continuous
 62
     7
370
    25
100
AcDbSpline
210
0.0
220
0.0
230
1.0
 70
     8
 71
     3
 72
    17
 73
    13
 74
    11
 42
0.0000000001
 43
0.0000000001
 44
0.0000000001
 12
-0.8474111911896812
 22
0.5309371648759253
 32
0.0
 13
0.9999260326804327
 23
0.0121626135337099
 33
0.0
 40
0.0
 40
0.0
 40
0.0
 40
0.0
 40
0.102817915589535
 40
0.2138520716783057
 40
0.3277910293726969
 40
0.4417048362771386
 40
0.5520004755560271
 40
0.6550121140813764
 40
0.7505876796822783
 40
0.8440333054172853
 40
0.9387999621490239
 40
1.029291490310906
 40
1.029291490310906
 40
1.029291490310906
 40
1.029291490310906
 10
379.3946096678627
 20
199.6590276225154
 30
0.0
 10
379.3655666504209
 20
199.6772242400492
 30
0.0
 10
379.3100791741641
 20
199.7232850617399
 30
0.0
 10
379.243621630056
 20
199.8111170616873
 30
0.0
 10
379.1969963672236
 20
199.9151514588418
 30
0.0
 10
379.1771277545632
 20
200.0274320864547
 30
0.0
 10
379.1887547955624
 20
200.1375117018203
 30
0.0
 10
379.2300699091118
 20
200.2335032076903
 30
0.0
 10
379.2930047151033
 20
200.3093144026206
 30
0.0
 10
379.3708811927448
 20
200.3647294743702
 30
0.0
 10
379.458190296162
 20
200.3989818090046
 30
0.0
 10
379.5200678813557
 20
200.4073575931514
 30
0.0
 10
379.5502294929378
 20
200.4077244643131
 30
0.0
 11
379.3946096678627
 21
199.6590276225154
 31
0.0
 11
379.3150150485232
 21
199.7241138755829
 31
0.0
 11
379.2477813496351
 21
199.8124779720938
 31
0.0
 11
379.2014841050576
 21
199.9165868152581
 31
0.0
 11
379.1823722795232
 21
200.0288859404916
 31
0.0
 11
379.194615423499
 21
200.1384999608974
 31
0.0
 11
379.2354327639748
 21
200.2330797810926
 31
0.0
 11
379.2963107276166
 21
200.3067585587885
 31
0.0
 11
379.3723211412355
 21
200.3611138896264
 31
0.0
 11
379.4605349125325
 21
200.3957411878413
 31
0.0
 11
379.5502294929378
 21
200.4077244643131
 31
0.0
  0
SPLINE
  5
12AC1
330
1F
100
AcDbEntity
  8
0
  6
Continuous
 62
     7
370
    25
100
AcDbSpline
210
0.0
220
0.0
230
1.0
 70
     8
 71
     3
 72
     8
 73
     4
 74
     2
 42
0.0000000001
 43
0.0000000001
 44
0.0000000001
 12
0.7643608278628531
 22
0.6447887443409771
 32
0.0
 13
0.7291284637508995
 23
0.6843768576948328
 33
0.0
 40
0.0
 40
0.0
 40
0.0
 40
0.0
 40
0.0127065682647279
 40
0.0127065682647279
 40
0.0127065682647279
 40
0.0127065682647279
 10
379.4101915059882
 20
199.6509463603358
 30
0.0
 10
379.4134289736675
 20
199.6536773777345
 30
0.0
 10
379.4165926368642
 20
199.6564980342462
 30
0.0
 10
379.4196808770636
 20
199.6593967279999
 30
0.0
 11
379.4101915059882
 21
199.6509463603358
 31
0.0
 11
379.4196808770636
 21
199.6593967279999
 31
0.0
  0
SPLINE
  5
12AC2
330
1F
100
AcDbEntity
  8
0
  6
Continuous
 62
     7
370
    25
100
AcDbSpline
210
0.0
220
0.0
230
1.0
 70
     8
 71
     3
 72
    17
 73
    13
 74
    11
 42
0.0000000001
 43
0.0000000001
 44
0.0000000001
 12
0.7291284902630572
 22
0.6843768294490361
 32
0.0
 13
-0.8474111924685566
 23
0.5309371628347549
 33
0.0
 40
0.0
 40
0.0
 40
0.0
 40
0.0
 40
0.0696670207301185
 40
0.1440173072801711
 40
0.2270136042826099
 40
0.3156353008706354
 40
0.4002477900158791
 40
0.4782937500593166
 40
0.5533923497085748
 40
0.6282183597935683
 40
0.7043974421257453
 40
0.7830441155569502
 40
0.7830441155569502
 40
0.7830441155569502
 40
0.7830441155569502
 10
379.4196808770636
 20
199.6593967279999
 30
0.0
 10
379.4366129469457
 20
199.675289559588
 30
0.0
 10
379.4669360202354
 20
199.7130770696712
 30
0.0
 10
379.5050607012021
 20
199.7785211045107
 30
0.0
 10
379.5405170637238
 20
199.852536057221
 30
0.0
 10
379.5718325958858
 20
199.932101916155
 30
0.0
 10
379.5943855387467
 20
200.0129860206937
 30
0.0
 10
379.6047445072645
 20
200.091894123257
 30
0.0
 10
379.6008213693259
 20
200.1683074046776
 30
0.0
 10
379.5795339700357
 20
200.2414899420777
 30
0.0
 10
379.5379603543363
 20
200.307083423026
 30
0.0
 10
379.4977886871095
 20
200.3409154566127
 30
0.0
 10
379.4755733300042
 20
200.3548342704987
 30
0.0
 11
379.4196808770636
 21
199.6593967279999
 31
0.0
 11
379.4645139102332
 21
199.7127211399913
 31
0.0
 11
379.5027728919629
 21
199.7764723394081
 31
0.0
 11
379.5388257818157
 21
199.8512291079938
 31
0.0
 11
379.5708507836577
 21
199.9338620576154
 31
0.0
 11
379.5929422097308
 21
200.0155397302892
 31
0.0
 11
379.6024555175061
 21
200.0930037145288
 31
0.0
 11
379.5979223873571
 21
200.1679653740644
 31
0.0
 11
379.5764400398559
 21
200.239641315154
 31
0.0
 11
379.5354671298509
 21
200.3038633770229
 31
0.0
 11
379.4755733300042
 21
200.3548342704987
 31
0.0
  0
SPLINE
  5
12AC3
330
1F
100
AcDbEntity
  8
0
  6
Continuous
 62
     7
370
    25
100
AcDbSpline
210
0.0
220
0.0
230
1.0
 70
     8
 71
     3
 72
    10
 73
     6
 74
     4
 42
0.0000000001
 43
0.0000000001
 44
0.0000000001
 12
-0.9999145175592413
 22
-0.013075074541643
 32
0.0
 13
-0.8474111885854107
 23
0.5309371690325153
 33
0.0
 40
0.0
 40
0.0
 40
0.0
 40
0.0
 40
0.0057953038793773
 40
0.0884480376080056
 40
0.1745545600763802
 40
0.1745545600763802
 40
0.1745545600763802
 40
0.1745545600763802
 10
379.5599290525317
 20
199.6090680907473
 30
0.0
 10
379.5579974497041
 20
199.6090428327372
 30
0.0
 10
379.5285157921839
 20
199.6089924956289
 30
0.0
 10
379.4701991549616
 20
199.6191228398244
 30
0.0
 10
379.4189322113794
 20
199.6437885714239
 30
0.0
 10
379.3946096678627
 20
199.6590276225154
 30
0.0
 11
379.5599290525317
 21
199.6090680907473
 31
0.0
 11
379.5541337566053
 21
199.6090584896941
 31
0.0
 11
379.4725796220539
 21
199.622489704471
 31
0.0
 11
379.3946096678627
 21
199.6590276225154
 31
0.0
  0
SPLINE
  5
12AC4
330
1F
100
AcDbEntity
  8
0
  6
Continuous
 62
     7
370
    25
100
AcDbSpline
210
0.0
220
0.0
230
1.0
 70
     8
 71
     3
 72
     8
 73
     4
 74
     2
 42
0.0000000001
 43
0.0000000001
 44
0.0000000001
 12
-0.8474111953547641
 22
0.5309371582281748
 32
0.0
 13
-0.9383748938965737
 23
0.3456190945312398
 33
0.0
 40
0.0
 40
0.0
 40
0.0
 40
0.0
 40
0.0625728290069257
 40
0.0625728290069257
 40
0.0625728290069257
 40
0.0625728290069257
 10
379.4755733300042
 20
200.3548342704987
 30
0.0
 10
379.4578983580624
 20
200.3659083505037
 30
0.0
 10
379.4388936628593
 20
200.3750313198598
 30
0.0
 10
379.4193214055992
 20
200.3822401080277
 30
0.0
 11
379.4755733300042
 21
200.3548342704987
 31
0.0
 11
379.4193214055992
 21
200.3822401080277
 31
0.0
  0
SPLINE
  5
12AC5
330
1F
100
AcDbEntity
  8
0
  6
Continuous
 62
     7
370
    25
100
AcDbSpline
210
0.0
220
0.0
230
1.0
 70
     8
 71
     3
 72
    10
 73
     6
 74
     4
 42
0.0000000001
 43
0.0000000001
 44
0.0000000001
 12
0.9999260326762072
 22
0.0121626138810892
 32
0.0
 13
0.8474111908074243
 23
-0.5309371654860329
 33
0.0
 40
0.0
 40
0.0
 40
0.0
 40
0.0
 40
0.0062251516378888
 40
0.1013404380579138
 40
0.1917130843204005
 40
0.1917130843204005
 40
0.1917130843204005
 40
0.1917130843204005
 10
379.5502294929378
 20
200.4077244643131
 30
0.0
 10
379.5523043899978
 20
200.4077497023517
 30
0.0
 10
379.5860803899103
 20
200.4078757448543
 30
0.0
 10
379.6502879437831
 20
200.3992242055794
 30
0.0
 10
379.7077574037099
 20
200.3739708298991
 30
0.0
 10
379.7332850009718
 20
200.3579767643511
 30
0.0
 11
379.5502294929378
 21
200.4077244643131
 31
0.0
 11
379.5564546021206
 21
200.4077474551082
 31
0.0
 11
379.650652776628
 21
200.3945708990243
 31
0.0
 11
379.7332850009718
 21
200.3579767643511
 31
0.0
  0
SPLINE
  5
12AC6
330
1F
100
AcDbEntity
  8
0
  6
Continuous
 62
     7
370
    25
100
AcDbSpline
210
0.0
220
0.0
230
1.0
 70
     8
 71
     3
 72
    11
 73
     7
 74
     5
 42
0.0000000001
 43
0.0000000001
 44
0.0000000001
 12
0.9139583593343104
 22
-0.4058079809502713
 32
0.0
 13
0.9812985592242005
 23
-0.1924919158419603
 33
0.0
 40
0.0
 40
0.0
 40
0.0
 40
0.0
 40
0.0660967357402036
 40
0.1965374646928633
 40
0.3068134890914957
 40
0.3078641914624884
 40
0.3078641914624884
 40
0.3078641914624884
 40
0.3078641914624884
 10
379.2950976727736
 20
200.3047854534965
 30
0.0
 10
379.3152342274917
 20
200.2958445925372
 30
0.0
 10
379.3755382560652
 20
200.2702181776203
 30
0.0
 10
379.4716097513384
 20
200.2349117737009
 30
0.0
 10
379.5495702067402
 20
200.2137524046039
 30
0.0
 10
379.5859803132594
 20
200.2065846178483
 30
0.0
 10
379.5863239975004
 20
200.2065172006108
 30
0.0
 11
379.2950976727736
 21
200.3047854534965
 31
0.0
 11
379.3559353632151
 21
200.278948389088
 31
0.0
 11
379.4785836077616
 21
200.2345390220652
 31
0.0
 11
379.5852930811897
 21
200.2067201464971
 31
0.0
 11
379.5863239975004
 21
200.2065172006108
 31
0.0
  0
SPLINE
  5
12AC7
330
1F
100
AcDbEntity
  8
0
  6
Continuous
 62
     7
370
    25
100
AcDbSpline
210
0.0
220
0.0
230
1.0
 70
     8
 71
     3
 72
    17
 73
    13
 74
    11
 42
0.0000000001
 43
0.0000000001
 44
0.0000000001
 12
0.8474111913805582
 22
-0.530937164571273
 32
0.0
 13
-0.9999145175536394
 23
-0.0130750749700659
 33
0.0
 40
0.0
 40
0.0
 40
0.0
 40
0.0
 40
0.0990508461846077
 40
0.2022133041161744
 40
0.3100890511958731
 40
0.4230309799418036
 40
0.5358879764739929
 40
0.6395388305920822
 40
0.7299024423216998
 40
0.8116066799457279
 40
0.8897306485668114
 40
0.9632055012547807
 40
0.9632055012547807
 40
0.9632055012547807
 40
0.9632055012547807
 10
379.7332850009718
 20
200.3579767643511
 30
0.0
 10
379.7612639328293
 20
200.3404468392106
 30
0.0
 10
379.8129628310604
 20
200.2950569127319
 30
0.0
 10
379.8656167277699
 20
200.2042158302664
 30
0.0
 10
379.8908148368619
 20
200.0978342934145
 30
0.0
 10
379.8891231944076
 20
199.9856588341709
 30
0.0
 10
379.8643055477444
 20
199.8779180233666
 30
0.0
 10
379.8223014773364
 20
199.7839441523968
 30
0.0
 10
379.7686561297553
 20
199.708523907628
 30
0.0
 10
379.7058410692781
 20
199.6524250407765
 30
0.0
 10
379.6351893176543
 20
199.6174005632143
 30
0.0
 10
379.584418576491
 20
199.609388320483
 30
0.0
 10
379.5599290525317
 20
199.6090680907473
 30
0.0
 11
379.7332850009718
 21
200.3579767643511
 31
0.0
 11
379.8077457142455
 21
200.2926569946894
 31
0.0
 11
379.8601756103159
 21
200.2038110678017
 31
0.0
 11
379.8860547661899
 21
200.0990854926099
 31
0.0
 11
379.8851535731499
 21
199.9861471593481
 31
0.0
 11
379.8599913162395
 21
199.8761309673878
 31
0.0
 11
379.8172883323688
 21
199.7816854554354
 31
0.0
 11
379.7642899732762
 21
199.7084955909847
 31
0.0
 11
379.7027801025663
 21
199.6547171729067
 31
0.0
 11
379.6324903015591
 21
199.6206188100797
 31
0.0
 11
379.5599290525317
 21
199.6090680907473
 31
0.0
  0
DIMENSION
  5
12AC8
330
1F
100
AcDbEntity
  8
DIM
100
AcDbDimension
  2
*D1
 10
407.5272650947233
 20
233.9136002700613
 30
0.0
 11
407.5272650947232
 21
236.1636002703065
 31
0.0
 70
   160
  1
%%C<>
 71
     5
 42
4.500000000490213
 73
     0
 74
     0
 75
     0
  3
01
100
AcDbAlignedDimension
 13
412.7155926693641
 23
238.4136002705516
 33
0.0
 14
412.7155926693641
 24
233.9136002700613
 34
0.0
 50
270.0
100
AcDbRotatedDimension
  0
LINE
  5
12AC9
330
1F
100
AcDbEntity
  8
hat
100
AcDbLine
 10
412.8009678408445
 20
237.9643088918518
 30
0.0
 11
413.2502592199633
 21
238.4136002709705
 31
0.0
1001
ACAD
1010
0.0
1020
0.0
1030
0.0
  0
LINE
  5
12ACA
330
1F
100
AcDbEntity
  8
hat
100
AcDbLine
 10
413.3702932657056
 20
237.635608704606
 30
0.0
 11
414.148284832065
 21
238.4136002709656
 31
0.0
1001
ACAD
1010
0.0
1020
0.0
1030
0.0
  0
LINE
  5
12ACB
330
1F
100
AcDbEntity
  8
hat
100
AcDbLine
 10
413.9396186905671
 20
237.3069085173604
 30
0.0
 11
414.6594967797406
 21
238.0267866065341
 31
0.0
1001
ACAD
1010
0.0
1020
0.0
1030
0.0
  0
LINE
  5
12ACC
330
1F
100
AcDbEntity
  8
hat
100
AcDbLine
 10
414.8193360562848
 20
237.2886002709712
 30
0.0
 11
415.4443360562988
 21
237.913600270985
 31
0.0
1001
ACAD
1010
0.0
1020
0.0
1030
0.0
  0
LINE
  5
12ACD
330
1F
100
AcDbEntity
  8
hat
100
AcDbLine
 10
412.7155926693636
 20
234.2868312719433
 30
0.0
 11
412.7789288028663
 21
234.3501674054456
 31
0.0
1001
ACAD
1010
0.0
1020
0.0
1030
0.0
  0
LINE
  5
12ACE
330
1F
100
AcDbEntity
  8
hat
100
AcDbLine
 10
415.7173616684118
 20
237.2886002709912
 30
0.0
 11
416.3423616684251
 21
237.9136002710049
 31
0.0
1001
ACAD
1010
0.0
1020
0.0
1030
0.0
  0
LINE
  5
12ACF
330
1F
100
AcDbEntity
  8
hat
100
AcDbLine
 10
413.2403872795888
 20
233.9136002700612
 30
0.0
 11
414.3653872804888
 21
235.0386002709612
 31
0.0
1001
ACAD
1010
0.0
1020
0.0
1030
0.0
  0
LINE
  5
12AD0
330
1F
100
AcDbEntity
  8
hat
100
AcDbLine
 10
416.6153872805388
 20
237.2886002710112
 30
0.0
 11
417.2403872805526
 21
237.913600271025
 31
0.0
1001
ACAD
1010
0.0
1020
0.0
1030
0.0
  0
LINE
  5
12AD1
330
1F
100
AcDbEntity
  8
hat
100
AcDbLine
 10
414.1384128916958
 20
233.9136002700612
 30
0.0
 11
415.2634128926155
 21
235.038600270981
 31
0.0
1001
ACAD
1010
0.0
1020
0.0
1030
0.0
  0
LINE
  5
12AD2
330
1F
100
AcDbEntity
  8
hat
100
AcDbLine
 10
417.5134128926655
 20
237.2886002710312
 30
0.0
 11
418.1384128926795
 21
237.9136002710451
 31
0.0
1001
ACAD
1010
0.0
1020
0.0
1030
0.0
  0
LINE
  5
12AD3
330
1F
100
AcDbEntity
  8
hat
100
AcDbLine
 10
415.5364385047286
 20
234.4136002709871
 30
0.0
 11
416.1614385047425
 21
235.0386002710011
 31
0.0
1001
ACAD
1010
0.0
1020
0.0
1030
0.0
  0
LINE
  5
12AD4
330
1F
100
AcDbEntity
  8
hat
100
AcDbLine
 10
418.4114385047926
 20
237.2886002710512
 30
0.0
 11
419.0364385048063
 21
237.913600271065
 31
0.0
1001
ACAD
1010
0.0
1020
0.0
1030
0.0
  0
LINE
  5
12AD5
330
1F
100
AcDbEntity
  8
hat
100
AcDbLine
 10
416.434464116855
 20
234.4136002710072
 30
0.0
 11
417.059464116869
 21
235.0386002710211
 31
0.0
1001
ACAD
1010
0.0
1020
0.0
1030
0.0
  0
LINE
  5
12AD6
330
1F
100
AcDbEntity
  8
hat
100
AcDbLine
 10
419.3094641169197
 20
237.2886002710714
 30
0.0
 11
420.4344641167791
 21
238.4136002709309
 31
0.0
1001
ACAD
1010
0.0
1020
0.0
1030
0.0
  0
LINE
  5
12AD7
330
1F
100
AcDbEntity
  8
hat
100
AcDbLine
 10
417.3324897289822
 20
234.4136002710271
 30
0.0
 11
417.9574897289962
 21
235.0386002710411
 31
0.0
1001
ACAD
1010
0.0
1020
0.0
1030
0.0
  0
LINE
  5
12AD8
330
1F
100
AcDbEntity
  8
hat
100
AcDbLine
 10
420.2074897290462
 20
237.2886002710913
 30
0.0
 11
421.3324897288813
 21
238.4136002709264
 31
0.0
1001
ACAD
1010
0.0
1020
0.0
1030
0.0
  0
LINE
  5
12AD9
330
1F
100
AcDbEntity
  8
hat
100
AcDbLine
 10
418.2305153411093
 20
234.4136002710472
 30
0.0
 11
418.6655926700304
 21
234.8486775999687
 31
0.0
1001
ACAD
1010
0.0
1020
0.0
1030
0.0
  0
LINE
  5
12ADA
330
1F
100
AcDbEntity
  8
hat
100
AcDbLine
 10
420.4793983500226
 20
236.6624832799606
 30
0.0
 11
421.7339258283399
 21
237.9170107582777
 31
0.0
1001
ACAD
1010
0.0
1020
0.0
1030
0.0
  0
LINE
  5
12ADB
330
1F
100
AcDbEntity
  8
hat
100
AcDbLine
 10
419.5655926700582
 20
234.8506519878891
 30
0.0
 11
419.7535409532478
 21
235.0386002710787
 31
0.0
1001
ACAD
1010
0.0
1020
0.0
1030
0.0
  0
LINE
  5
12ADC
330
1F
100
AcDbEntity
  8
hat
100
AcDbLine
 10
420.8785409532753
 20
236.1636002711062
 30
0.0
 11
421.5948904429236
 21
236.8799497607545
 31
0.0
1001
ACAD
1010
0.0
1020
0.0
1030
0.0
  0
LINE
  5
12ADD
330
1F
100
AcDbEntity
  8
hat
100
AcDbLine
 10
420.5520212160423
 20
235.8370805338733
 30
0.0
 11
420.8785409532753
 21
236.1636002711062
 31
0.0
1001
ACAD
1010
0.0
1020
0.0
1030
0.0
  0
LINE
  5
12ADE
330
1F
100
AcDbEntity
  8
hat
100
AcDbLine
 10
419.7155926693477
 20
234.102626375072
 30
0.0
 11
421.6227238092787
 21
236.0097575150027
 31
0.0
1001
ACAD
1010
0.0
1020
0.0
1030
0.0
  0
LINE
  5
12ADF
330
1F
100
AcDbEntity
  8
hat
100
AcDbLine
 10
420.4245921776434
 20
233.9136002712611
 30
0.0
 11
421.7256480247884
 21
235.2146561184059
 31
0.0
1001
ACAD
1010
0.0
1020
0.0
1030
0.0
  0
LINE
  5
12AE0
330
1F
100
AcDbEntity
  8
hat
100
AcDbLine
 10
421.3226177897958
 20
233.913600271306
 30
0.0
 11
421.6456525450984
 21
234.2366350266086
 31
0.0
1001
ACAD
1010
0.0
1020
0.0
1030
0.0
  0
LINE
  5
12AE1
330
1F
100
AcDbEntity
  8
0
100
AcDbLine
 10
412.7155926693641
 20
238.4136002705516
 30
0.0
 11
412.7155926693641
 21
233.9136002700613
 31
0.0
  0
LINE
  5
12AE2
330
1F
100
AcDbEntity
  8
0
100
AcDbLine
 10
422.6197378580287
 20
237.4136002703016
 30
0.0
 11
436.4655926699041
 21
237.4136002703014
 31
0.0
  0
LINE
  5
12AE3
330
1F
100
AcDbEntity
  8
0
100
AcDbLine
 10
422.6197378573978
 20
234.9136002703114
 30
0.0
 11
436.4655926699041
 21
234.9136002703114
 31
0.0
  0
LINE
  5
12AE4
330
1F
100
AcDbEntity
  8
0
100
AcDbLine
 10
436.4655926699041
 20
234.9136002703114
 30
0.0
 11
436.4655926699041
 21
237.4136002703014
 31
0.0
  0
ARC
  5
12AE5
102
{ACAD_REACTORS
330
12AF4
330
12B04
102
}
330
1F
100
AcDbEntity
  8
0
100
AcDbCircle
 10
436.4655926699041
 20
236.1636002709412
 30
0.0
 40
1.250000000629998
100
AcDbArc
 50
270.0
 51
90.0
  0
LINE
  5
12AE6
330
1F
100
AcDbEntity
  8
0
100
AcDbLine
 10
412.7155926693641
 20
233.9136002700613
 30
0.0
 11
414.4361698062533
 21
233.9136002700613
 31
0.0
  0
LINE
  5
12AE7
330
1F
100
AcDbEntity
  8
0
100
AcDbLine
 10
421.9155926693622
 20
238.4136002709213
 30
0.0
 11
421.9155926693264
 21
233.9136002709258
 31
0.0
  0
LINE
  5
12AE8
330
1F
100
AcDbEntity
  8
0
100
AcDbLine
 10
422.2155926693599
 20
238.1136002705952
 30
0.0
 11
422.2155926693288
 21
234.2136002709412
 31
0.0
  0
LINE
  5
12AE9
330
1F
100
AcDbEntity
  8
0
100
AcDbLine
 10
412.7155926693641
 20
238.4136002709734
 30
0.0
 11
414.4361698066729
 21
238.4136002709639
 31
0.0
  0
LINE
  5
12AEA
330
1F
100
AcDbEntity
  8
0
100
AcDbLine
 10
419.7155926692475
 20
238.4136002709349
 30
0.0
 11
420.2159534608448
 21
238.413600270932
 31
0.0
  0
LINE
  5
12AEB
330
1F
100
AcDbEntity
  8
0
100
AcDbLine
 10
419.7155926692468
 20
238.4136002709349
 30
0.0
 11
421.9155926693662
 21
238.4136002709226
 31
0.0
  0
LINE
  5
12AEC
330
1F
100
AcDbEntity
  8
0
100
AcDbLine
 10
421.6169636779588
 20
233.9136002709441
 30
0.0
 11
421.9155926693336
 21
233.9136002709431
 31
0.0
  0
LINE
  5
12AED
330
1F
100
AcDbEntity
  8
CEN
 48
2.0
100
AcDbLine
 10
438.5075570447788
 20
236.1636002714989
 30
0.0
 11
412.0297842518338
 21
236.163600270909
 31
0.0
  0
LINE
  5
12AEE
330
1F
100
AcDbEntity
  8
0
100
AcDbLine
 10
419.7155926693493
 20
234.4136002710802
 30
0.0
 11
419.5655926700585
 21
234.413600271077
 31
0.0
  0
LINE
  5
12AEF
102
{ACAD_REACTORS
330
12B15
102
}
330
1F
100
AcDbEntity
  8
0
100
AcDbLine
 10
418.6655926700312
 20
234.4136002710568
 30
0.0
 11
414.7248449410628
 21
234.413600270969
 31
0.0
  0
LINE
  5
12AF0
102
{ACAD_REACTORS
330
12C4A
102
}
330
1F
100
AcDbEntity
  8
0
100
AcDbLine
 10
418.6655926700121
 20
235.0386002710568
 30
0.0
 11
413.9713295035993
 21
235.0386002709522
 31
0.0
  0
LINE
  5
12AF1
330
1F
100
AcDbEntity
  8
0
100
AcDbLine
 10
419.7155926693493
 20
234.4136002710802
 30
0.0
 11
419.7155926693473
 21
233.9136002709512
 31
0.0
  0
DIMENSION
  5
12AF2
102
{ACAD_XDICTIONARY
360
12AF3
102
}
102
{ACAD_REACTORS
330
12AF4
102
}
330
1F
100
AcDbEntity
  8
DIM
100
AcDbDimension
  2
*D3
 10
412.7155926693641
 20
225.075775548548
 30
0.0
 11
425.2155926699491
 21
226.5757755485479
 31
0.0
 70
    32
 71
     5
 42
25.00000000117007
 73
     0
 74
     0
 75
     0
  3
01
100
AcDbAlignedDimension
 13
437.7155926705341
 23
236.1636002709412
 33
0.0
 14
412.7155926693641
 24
233.9136002700613
 34
0.0
100
AcDbRotatedDimension
1001
ACAD
1000
DSTYLE
1002
{
1070
    49
1040
0.2
1070
    50
1040
1.570796326794893
1002
}
  0
LINE
  5
12AF5
330
1F
100
AcDbEntity
  8
0
100
AcDbLine
 10
422.2155926693288
 20
234.2136002709412
 30
0.0
 11
422.6197378573978
 21
234.9136002703116
 31
0.0
  0
LINE
  5
12AF6
330
1F
100
AcDbEntity
  8
0
100
AcDbLine
 10
422.2155926693288
 20
234.213600270941
 30
0.0
 11
421.9155926693264
 21
233.9136002709431
 31
0.0
  0
LINE
  5
12AF7
330
1F
100
AcDbEntity
  8
0
100
AcDbLine
 10
422.2155926691891
 20
238.1136002708906
 30
0.0
 11
422.6197378573086
 21
237.413600271549
 31
0.0
  0
LINE
  5
12AF8
330
1F
100
AcDbEntity
  8
0
100
AcDbLine
 10
422.2155926691891
 20
238.1136002708906
 30
0.0
 11
421.9155926691652
 21
238.4136002708671
 31
0.0
  0
LINE
  5
12AF9
330
1F
100
AcDbEntity
  8
0
100
AcDbLine
 10
422.6197378573978
 20
234.9136002703114
 30
0.0
 11
422.6197378573086
 21
237.413600271549
 31
0.0
  0
LINE
  5
12AFA
330
1F
100
AcDbEntity
  8
0
100
AcDbLine
 10
414.7248449410623
 20
234.413600270969
 30
0.0
 11
414.4361698062533
 21
233.9136002700613
 31
0.0
  0
SPLINE
  5
12AFB
330
1F
100
AcDbEntity
  8
DIM
100
AcDbSpline
210
0.0
220
0.0
230
1.0
 70
     8
 71
     3
 72
    12
 73
     8
 74
     0
 42
0.0000000001
 43
0.0000000001
 40
0.1097508009489301
 40
0.1097508009489301
 40
0.1097508009489301
 40
0.1097508009489301
 40
0.9731890825994163
 40
2.296172464069607
 40
3.498731519394207
 40
4.260257059811703
 40
5.056556298535228
 40
5.056556298535228
 40
5.056556298535228
 40
5.056556298535228
 10
421.6295217640824
 20
238.4136002709253
 30
0.0
 10
421.7636966267778
 20
238.1204397175784
 30
0.0
 10
421.7134074653312
 20
237.5746764356907
 30
0.0
 10
421.4732793765766
 20
236.4449032978797
 30
0.0
 10
421.7896486046663
 20
235.3221680900971
 30
0.0
 10
421.6541979471355
 20
234.7047013391779
 30
0.0
 10
421.5978572294693
 20
234.1811958494296
 30
0.0
 10
421.7655926693399
 20
233.9136002709436
 30
0.0
  0
LINE
  5
12AFC
330
1F
100
AcDbEntity
  8
0
100
AcDbLine
 10
420.2155926685071
 20
236.1636002710914
 30
0.0
 11
420.2155926685071
 21
235.0386002710826
 31
0.0
  0
LINE
  5
12AFD
330
1F
100
AcDbEntity
  8
CEN
 48
0.03
100
AcDbLine
 10
419.1089343860848
 20
235.4089344432108
 30
0.0
 11
419.1089343860848
 21
234.2660997886111
 31
0.0
  0
LINE
  5
12AFE
330
1F
100
AcDbEntity
  8
0
100
AcDbLine
 10
418.6655926700304
 20
235.0386002710568
 30
0.0
 11
418.6655926700312
 21
234.4136002710568
 31
0.0
  0
LINE
  5
12AFF
330
1F
100
AcDbEntity
  8
0
100
AcDbLine
 10
419.5655926700577
 20
235.038600271077
 30
0.0
 11
419.5655926700582
 21
234.4136002710769
 31
0.0
  0
ARC
  5
12B00
330
1F
100
AcDbEntity
  8
0
100
AcDbCircle
 10
419.1155926700629
 20
234.0057663766959
 30
0.0
 40
1.126608118817876
100
AcDbArc
 50
66.4575101022199
 51
113.5424899034358
  0
ARC
  5
12B01
330
1F
100
AcDbEntity
  8
0
100
AcDbCircle
 10
419.1155926700747
 20
233.3807663766717
 30
0.0
 40
1.126608118817876
100
AcDbArc
 50
66.4575101022199
 51
113.5424899034358
  0
DIMENSION
  5
12B02
102
{ACAD_XDICTIONARY
360
12B03
102
}
102
{ACAD_REACTORS
330
12B04
102
}
330
1F
100
AcDbEntity
  8
DIM
100
AcDbDimension
  2
*D5
 10
442.6370968699607
 20
234.9136002703112
 30
0.0
 11
441.1370968699606
 21
229.127885984597
 31
0.0
 70
    32
  1
{\Fromand,hztxt|c134;%%C}<>
 71
     5
 42
2.500000001259989
 73
     0
 74
     0
 75
     0
  3
01
100
AcDbAlignedDimension
 13
436.4655926699041
 23
237.4136002715712
 33
0.0
 14
436.4655926699041
 24
234.9136002703112
 34
0.0
 50
90.0
100
AcDbRotatedDimension
1001
ACAD
1000
DSTYLE
1002
{
1070
    49
1040
0.18
1070
    50
1040
1.570796326794893
1002
}
  0
LINE
  5
12B05
330
1F
100
AcDbEntity
  8
0
100
AcDbLine
 10
413.9713295035988
 20
235.0386002709522
 30
0.0
 11
412.7155926684594
 21
234.3136002711984
 31
0.0
  0
LINE
  5
12B06
330
1F
100
AcDbEntity
  8
0
100
AcDbLine
 10
420.2155926685426
 20
235.0386002710826
 30
0.0
 11
419.5655926700672
 21
235.038600271077
 31
0.0
  0
LINE
  5
12B07
330
1F
100
AcDbEntity
  8
0
100
AcDbLine
 10
420.2155926685071
 20
235.0386002710826
 30
0.0
 11
420.689595763663
 21
236.163600271102
 31
0.0
  0
DIMENSION
  5
12B08
330
1F
100
AcDbEntity
  8
DIM
100
AcDbDimension
  2
*D2
 10
420.2155926693373
 20
227.9903017713706
 30
0.0
 11
416.4655926693509
 21
229.4903017713707
 31
0.0
 70
    32
 71
     5
 42
7.499999999973168
 73
     0
 74
     0
 75
     0
  3
01
100
AcDbAlignedDimension
 13
412.7155926693641
 23
233.460510985133
 33
0.0
 14
420.2155926693373
 24
235.0386002710826
 34
0.0
100
AcDbRotatedDimension
  0
LINE
  5
12B09
330
1F
100
AcDbEntity
  8
0
100
AcDbLine
 10
413.9713295035988
 20
235.0386002709522
 30
0.0
 11
413.9713295035738
 21
236.1636002709522
 31
0.0
  0
LINE
  5
12B0A
102
{ACAD_REACTORS
330
12C4A
102
}
330
1F
100
AcDbEntity
  8
0
100
AcDbLine
 10
420.2155926684571
 20
237.2886002710914
 30
0.0
 11
413.9713295035493
 21
237.2886002709522
 31
0.0
  0
LINE
  5
12B0B
330
1F
100
AcDbEntity
  8
0
100
AcDbLine
 10
420.2155926685071
 20
236.1636002710914
 30
0.0
 11
420.2155926684571
 21
237.2886002711002
 31
0.0
  0
LINE
  5
12B0C
330
1F
100
AcDbEntity
  8
0
100
AcDbLine
 10
413.9713295035488
 20
237.2886002709522
 30
0.0
 11
412.7155926683768
 21
238.01360027065
 31
0.0
  0
LINE
  5
12B0D
330
1F
100
AcDbEntity
  8
0
100
AcDbLine
 10
413.9713295035488
 20
237.2886002709522
 30
0.0
 11
413.9713295035738
 21
236.1636002709522
 31
0.0
  0
LINE
  5
12B0E
330
1F
100
AcDbEntity
  8
0
100
AcDbLine
 10
420.2155926684566
 20
237.2886002711004
 30
0.0
 11
420.6895957636628
 21
236.1636002711021
 31
0.0
  0
LINE
  5
12B0F
330
1F
100
AcDbEntity
  8
0
100
AcDbLine
 10
378.7518492950673
 20
203.0438474800845
 30
0.0
 11
377.9384099966561
 21
201.3633818323765
 31
0.0
  0
LINE
  5
12B10
102
{ACAD_REACTORS
330
12B15
102
}
330
1F
100
AcDbEntity
  8
0
100
AcDbLine
 10
419.7155926692706
 20
237.9136002710799
 30
0.0
 11
414.724844940985
 21
237.9136002709689
 31
0.0
  0
LINE
  5
12B11
330
1F
100
AcDbEntity
  8
0
100
AcDbLine
 10
414.7248449409848
 20
237.9136002709689
 30
0.0
 11
414.4361698061532
 21
238.4136002718638
 31
0.0
  0
LINE
  5
12B12
330
1F
100
AcDbEntity
  8
0
100
AcDbLine
 10
419.715592669271
 20
237.9136002710803
 30
0.0
 11
419.7155926692468
 21
238.4136002712092
 31
0.0
  0
DIMENSION
  5
12B13
102
{ACAD_XDICTIONARY
360
12B14
102
}
102
{ACAD_REACTORS
330
12B15
102
}
330
1F
100
AcDbEntity
  8
DIM
100
AcDbDimension
  2
*D6
 10
416.2327022548137
 20
237.9136002710244
 30
0.0
 11
416.2327022548137
 21
242.6278859853102
 31
0.0
 70
   160
  1
%%CD
 71
     5
 42
3.500000000011481
 73
     0
 74
     0
 75
     0
  3
01
100
AcDbAlignedDimension
 13
416.695218805547
 23
234.4136002710129
 33
0.0
 14
417.2202188051275
 24
237.9136002710244
 34
0.0
 50
90.0
100
AcDbRotatedDimension
1001
ACAD
1000
DSTYLE
1002
{
1070
    49
1040
0.18
1070
    50
1040
1.570796326794893
1002
}
  0
LINE
  5
12B16
330
1F
100
AcDbEntity
  8
图框
370
    -3
100
AcDbLine
 10
385.2092584876153
 20
279.3691361588869
 30
0.0
 11
406.7477128303826
 21
279.3691361588869
 31
0.0
  0
LINE
  5
12B17
330
1F
100
AcDbEntity
  8
图框
370
    -3
100
AcDbLine
 10
363.9652432364341
 20
276.6646917852563
 30
0.0
 11
449.1993189494221
 21
276.6646917852587
 31
0.0
  0
LINE
  5
12B18
330
1F
100
AcDbEntity
  8
图框
370
    -3
100
AcDbLine
 10
363.9652432364341
 20
273.9602474116243
 30
0.0
 11
449.1993189494221
 21
273.9602474116243
 31
0.0
  0
MTEXT
  5
12B19
330
1F
100
AcDbEntity
  8
图框
100
AcDbMText
 10
399.8882650501483
 20
280.721358345772
 30
0.0
 40
1.200004709114095
 41
13.71936813429339
 46
2.704444373770122
 71
     5
 72
     5
  1
{\fFangSong_GB2312|b0|i0|c134|p49;\C4;线径\Fromans|c134;/Wire Gauge}
  7
Romans字体
 73
     1
 44
1.0
1001
ACAD
1000
ACAD_MTEXT_DEFINED_HEIGHT_BEGIN
1070
    46
1040
2.704444373770122
1000
ACAD_MTEXT_DEFINED_HEIGHT_END
  0
LINE
  5
12B1A
330
1F
100
AcDbEntity
  8
图框
370
    -3
100
AcDbLine
 10
363.9652432364341
 20
271.2558030379941
 30
0.0
 11
449.1993189494221
 21
271.2558030379938
 31
0.0
  0
MTEXT
  5
12B1B
330
1F
100
AcDbEntity
  8
图框
100
AcDbMText
 10
403.797808152385
 20
278.0168439041535
 30
0.0
 40
1.200004709114095
 41
5.899809355995848
 46
2.704304237791748
 71
     5
 72
     5
  1
{\C4;AWG}
  7
Romans字体
 73
     1
 44
1.0
1001
ACAD
1000
ACAD_MTEXT_DEFINED_HEIGHT_BEGIN
1070
    46
1040
2.704304237791748
1000
ACAD_MTEXT_DEFINED_HEIGHT_END
  0
MTEXT
  5
12B1C
330
1F
100
AcDbEntity
  8
图框
100
AcDbMText
 10
396.9382422280273
 20
278.0169139720721
 30
0.0
 40
1.200004709114095
 41
7.819322492718732
 46
2.704444373629514
 71
     5
 72
     5
  1
\A1;{\C4;mm\H0.7x;\S2^  ;}
  7
Romans字体
 73
     1
 44
1.0
1001
ACAD
1000
ACAD_MTEXT_DEFINED_HEIGHT_BEGIN
1070
    46
1040
2.704444373629514
1000
ACAD_MTEXT_DEFINED_HEIGHT_END
  0
MTEXT
  5
12B1D
330
1F
100
AcDbEntity
  8
图框
100
AcDbMText
 10
396.9382422286943
 20
275.3124695984407
 30
0.0
 40
1.200004709114095
 41
7.819322494052451
 46
2.704444373633005
 71
     5
 72
     5
  1
{\C4;0.14-0.37}
  7
Romans字体
 73
     1
 44
1.0
1001
ACAD
1000
ACAD_MTEXT_DEFINED_HEIGHT_BEGIN
1070
    46
1040
2.704444373633005
1000
ACAD_MTEXT_DEFINED_HEIGHT_END
  0
MTEXT
  5
12B1E
330
1F
100
AcDbEntity
  8
图框
100
AcDbMText
 10
396.9382422286943
 20
272.608025224809
 30
0.0
 40
1.200004709114095
 41
7.819322494052451
 46
2.704444373630458
 71
     5
 72
     5
  1
{\C4;0.5}
  7
Romans字体
 73
     1
 44
1.0
1001
ACAD
1000
ACAD_MTEXT_DEFINED_HEIGHT_BEGIN
1070
    46
1040
2.704444373630458
1000
ACAD_MTEXT_DEFINED_HEIGHT_END
  0
MTEXT
  5
12B1F
330
1F
100
AcDbEntity
  8
图框
100
AcDbMText
 10
403.7978081530516
 20
275.3124695984409
 30
0.0
 40
1.200004709114095
 41
5.899809357329709
 46
2.704444373633271
 71
     5
 72
     5
  1
{\C4;26-22}
  7
Romans字体
 73
     1
 44
1.0
1001
ACAD
1000
ACAD_MTEXT_DEFINED_HEIGHT_BEGIN
1070
    46
1040
2.704444373633271
1000
ACAD_MTEXT_DEFINED_HEIGHT_END
  0
MTEXT
  5
12B20
330
1F
100
AcDbEntity
  8
图框
100
AcDbMText
 10
403.7978081537186
 20
272.608025224809
 30
0.0
 40
1.200004709114095
 41
5.899809355996247
 46
2.704444373630328
 71
     5
 72
     5
  1
{\C4;20}
  7
Romans字体
 73
     1
 44
1.0
1001
ACAD
1000
ACAD_MTEXT_DEFINED_HEIGHT_BEGIN
1070
    46
1040
2.704444373630328
1000
ACAD_MTEXT_DEFINED_HEIGHT_END
  0
MTEXT
  5
12B21
330
1F
100
AcDbEntity
  8
图框
100
AcDbMText
 10
379.1424244894323
 20
279.3690560874694
 30
0.0
 40
1.200004709114095
 41
12.13366799636653
 46
5.408728604425681
 71
     5
 72
     5
  1
{\fFangSong_GB2312|b0|i0|c134|p49;\C4;产品料号\Fromans|c134;\PPart NO.}
  7
Romans字体
 73
     1
 44
1.0
1001
ACAD
1000
ACAD_MTEXT_DEFINED_HEIGHT_BEGIN
1070
    46
1040
5.408728604425681
1000
ACAD_MTEXT_DEFINED_HEIGHT_END
  0
MTEXT
  5
12B22
330
1F
100
AcDbEntity
  8
图框
100
AcDbMText
 10
409.1806165561122
 20
279.3690560874701
 30
0.0
 40
1.200004709114095
 41
4.86580745145943
 46
5.408728604424871
 71
     5
 72
     5
  1
{\C4;d}
  7
Romans字体
 73
     1
 44
1.0
1001
ACAD
1000
ACAD_MTEXT_DEFINED_HEIGHT_BEGIN
1070
    46
1040
5.408728604424871
1000
ACAD_MTEXT_DEFINED_HEIGHT_END
  0
MTEXT
  5
12B23
330
1F
100
AcDbEntity
  8
图框
100
AcDbMText
 10
368.5204168645084
 20
275.31246959844
 30
0.0
 40
1.200004709114095
 41
9.110347256148227
 46
2.7044443736324
 71
     5
 72
     5
  1
{\C4;CESM-0.37}
  7
Romans字体
 73
     1
 44
1.0
1001
ACAD
1000
ACAD_MTEXT_DEFINED_HEIGHT_BEGIN
1070
    46
1040
2.7044443736324
1000
ACAD_MTEXT_DEFINED_HEIGHT_END
  0
MTEXT
  5
12B24
330
1F
100
AcDbEntity
  8
图框
100
AcDbMText
 10
409.1806165561123
 20
275.3124695984408
 30
0.0
 40
1.200004709114095
 41
4.865807451458961
 46
2.704444373633339
 71
     5
 72
     5
  1
{\C4;0.90}
  7
Romans字体
 73
     1
 44
1.0
1001
ACAD
1000
ACAD_MTEXT_DEFINED_HEIGHT_BEGIN
1070
    46
1040
2.704444373633339
1000
ACAD_MTEXT_DEFINED_HEIGHT_END
  0
MTEXT
  5
12B25
330
1F
100
AcDbEntity
  8
图框
100
AcDbMText
 10
409.1806165561123
 20
272.6080252248089
 30
0.0
 40
1.200004709114095
 41
4.865807451458945
 46
2.704444373630395
 71
     5
 72
     5
  1
{\C4;1.15}
  7
Romans字体
 73
     1
 44
1.0
1001
ACAD
1000
ACAD_MTEXT_DEFINED_HEIGHT_BEGIN
1070
    46
1040
2.704444373630395
1000
ACAD_MTEXT_DEFINED_HEIGHT_END
  0
LINE
  5
12B26
330
1F
100
AcDbEntity
  8
图框
370
    35
100
AcDbLine
 10
363.9652432364341
 20
263.1366004552543
 30
0.0
 11
449.1993189494221
 21
263.1366004552567
 31
0.0
  0
MTEXT
  5
12B27
330
1F
100
AcDbEntity
  8
图框
100
AcDbMText
 10
368.5204168645082
 20
272.6080252248086
 30
0.0
 40
1.200004709114095
 41
9.110347256148321
 46
2.704444373630384
 71
     5
 72
     5
  1
{\C4;CESM-0.5}
  7
Romans字体
 73
     1
 44
1.0
1001
ACAD
1000
ACAD_MTEXT_DEFINED_HEIGHT_BEGIN
1070
    46
1040
2.704444373630384
1000
ACAD_MTEXT_DEFINED_HEIGHT_END
  0
MTEXT
  5
12B28
330
1F
100
AcDbEntity
  8
图框
100
AcDbMText
 10
414.0464240069045
 20
279.3690560874701
 30
0.0
 40
1.200004709114095
 41
4.865807450125148
 46
5.408728604424871
 71
     5
 72
     5
  1
{\C4;D}
  7
Romans字体
 73
     1
 44
1.0
1001
ACAD
1000
ACAD_MTEXT_DEFINED_HEIGHT_BEGIN
1070
    46
1040
5.408728604424871
1000
ACAD_MTEXT_DEFINED_HEIGHT_END
  0
MTEXT
  5
12B29
330
1F
100
AcDbEntity
  8
图框
100
AcDbMText
 10
414.0464240069045
 20
272.6080252248089
 30
0.0
 40
1.200004709114095
 41
4.865807450125021
 46
2.704444373630395
 71
     5
 72
     5
  1
{\C4;2.6}
  7
Romans字体
 73
     1
 44
1.0
1001
ACAD
1000
ACAD_MTEXT_DEFINED_HEIGHT_BEGIN
1070
    46
1040
2.704444373630395
1000
ACAD_MTEXT_DEFINED_HEIGHT_END
  0
MTEXT
  5
12B2A
330
1F
100
AcDbEntity
  8
图框
100
AcDbMText
 10
414.0464240069045
 20
261.7814435375192
 30
0.0
 40
1.200004709114095
 41
4.865807450125076
 46
2.710313835473184
 71
     5
 72
     5
  1
{\C4;3.5}
  7
Romans字体
 73
     1
 44
1.0
1001
ACAD
1000
ACAD_MTEXT_DEFINED_HEIGHT_BEGIN
1070
    46
1040
2.710313835473184
1000
ACAD_MTEXT_DEFINED_HEIGHT_END
  0
MTEXT
  5
12B2B
330
1F
100
AcDbEntity
  8
图框
100
AcDbMText
 10
368.5204168641137
 20
261.7814435375182
 30
0.0
 40
1.200004709114095
 41
9.110347256937489
 46
2.7103138354722
 71
     5
 72
     5
  1
{\C4;CESM-2.5}
  7
Romans字体
 73
     1
 44
1.0
1001
ACAD
1000
ACAD_MTEXT_DEFINED_HEIGHT_BEGIN
1070
    46
1040
2.7103138354722
1000
ACAD_MTEXT_DEFINED_HEIGHT_END
  0
LINE
  5
12B2C
330
1F
100
AcDbEntity
  8
图框
370
    -3
100
AcDbLine
 10
363.9652432364341
 20
260.4262866197825
 30
0.0
 11
449.1993189494221
 21
260.4262866197827
 31
0.0
  0
MTEXT
  5
12B2D
330
1F
100
AcDbEntity
  8
图框
100
AcDbMText
 10
443.2304983941937
 20
279.3690560874704
 30
0.0
 40
1.200004709114095
 41
11.93764111045651
 46
5.408728604424148
 71
     5
 72
     5
  1
{\fFangSong_GB2312|b0|i0|c134|p49;\C4;标识图\Fromans|c134;\PIdentification No.}
  7
Romans字体
 73
     1
 44
1.0
1001
ACAD
1000
ACAD_MTEXT_DEFINED_HEIGHT_BEGIN
1070
    46
1040
5.408728604424148
1000
ACAD_MTEXT_DEFINED_HEIGHT_END
  0
MTEXT
  5
12B2E
330
1F
100
AcDbEntity
  8
图框
100
AcDbMText
 10
443.2304983941937
 20
275.3124695984413
 30
0.0
 40
1.200004709114095
 41
11.93764111045679
 46
2.70444437363395
 71
     5
 72
     5
  1
{\C4;No.1}
  7
Romans字体
 73
     1
 44
1.0
1001
ACAD
1000
ACAD_MTEXT_DEFINED_HEIGHT_BEGIN
1070
    46
1040
2.70444437363395
1000
ACAD_MTEXT_DEFINED_HEIGHT_END
  0
MTEXT
  5
12B2F
330
1F
100
AcDbEntity
  8
图框
100
AcDbMText
 10
443.2304983941937
 20
272.608025224809
 30
0.0
 40
1.200004709114095
 41
11.93764111045679
 46
2.704444373630574
 71
     5
 72
     5
  1
{\C4;No.1}
  7
Romans字体
 73
     1
 44
1.0
1001
ACAD
1000
ACAD_MTEXT_DEFINED_HEIGHT_BEGIN
1070
    46
1040
2.704444373630574
1000
ACAD_MTEXT_DEFINED_HEIGHT_END
  0
MTEXT
  5
12B30
330
1F
100
AcDbEntity
  8
图框
100
AcDbMText
 10
443.2304983941937
 20
261.7814435375197
 30
0.0
 40
1.200004709114095
 41
11.93764111045645
 46
2.710313835473673
 71
     5
 72
     5
  1
{\C4;No.5}
  7
Romans字体
 73
     1
 44
1.0
1001
ACAD
1000
ACAD_MTEXT_DEFINED_HEIGHT_BEGIN
1070
    46
1040
2.710313835473673
1000
ACAD_MTEXT_DEFINED_HEIGHT_END
  0
MTEXT
  5
12B31
330
1F
100
AcDbEntity
  8
图框
100
AcDbMText
 10
403.7978081537188
 20
261.7814435375191
 30
0.0
 40
1.200004709114095
 41
5.899809355997454
 46
2.710313835473137
 71
     5
 72
     5
  1
{\C4;14}
  7
Romans字体
 73
     1
 44
1.0
1001
ACAD
1000
ACAD_MTEXT_DEFINED_HEIGHT_BEGIN
1070
    46
1040
2.710313835473137
1000
ACAD_MTEXT_DEFINED_HEIGHT_END
  0
MTEXT
  5
12B32
330
1F
100
AcDbEntity
  8
图框
100
AcDbMText
 10
396.9382422286941
 20
261.7814435375188
 30
0.0
 40
1.200004709114095
 41
7.819322494052181
 46
2.710313835472669
 71
     5
 72
     5
  1
{\C4;2.5}
  7
Romans字体
 73
     1
 44
1.0
1001
ACAD
1000
ACAD_MTEXT_DEFINED_HEIGHT_BEGIN
1070
    46
1040
2.710313835472669
1000
ACAD_MTEXT_DEFINED_HEIGHT_END
  0
MTEXT
  5
12B33
330
1F
100
AcDbEntity
  8
图框
100
AcDbMText
 10
409.1806165561129
 20
261.7814435375191
 30
0.0
 40
1.200004709114095
 41
4.865807451457888
 46
2.710313835473069
 71
     5
 72
     5
  1
{\C4;2.25}
  7
Romans字体
 73
     1
 44
1.0
1001
ACAD
1000
ACAD_MTEXT_DEFINED_HEIGHT_BEGIN
1070
    46
1040
2.710313835473069
1000
ACAD_MTEXT_DEFINED_HEIGHT_END
  0
MTEXT
  5
12B34
330
1F
100
AcDbEntity
  8
图框
100
AcDbMText
 10
414.0464240069045
 20
275.312469598441
 30
0.0
 40
1.200004709114095
 41
4.865807450125195
 46
2.70444437363364
 71
     5
 72
     5
  1
{\C4;1.8}
  7
Romans字体
 73
     1
 44
1.0
1001
ACAD
1000
ACAD_MTEXT_DEFINED_HEIGHT_BEGIN
1070
    46
1040
2.70444437363364
1000
ACAD_MTEXT_DEFINED_HEIGHT_END
  0
MTEXT
  5
12B35
330
1F
100
AcDbEntity
  8
图框
100
AcDbMText
 10
432.6992055307528
 20
279.3690560874704
 30
0.0
 40
1.200004709114095
 41
9.124944616424542
 46
5.408728604424235
 71
     5
 72
     5
  1
{\fFangSong_GB2312|b0|i0|c134|p49;\C4;标识\Fromans|c134;\PIdentification}
  7
Romans字体
 73
     1
 44
1.0
1001
ACAD
1000
ACAD_MTEXT_DEFINED_HEIGHT_BEGIN
1070
    46
1040
5.408728604424235
1000
ACAD_MTEXT_DEFINED_HEIGHT_END
  0
MTEXT
  5
12B36
330
1F
100
AcDbEntity
  8
图框
100
AcDbMText
 10
432.69920553142
 20
275.3124695984411
 30
0.0
 40
1.200004709114095
 41
9.124944615091004
 46
2.704444373633752
 71
     5
 72
     5
  1
{\C4;no groove}
  7
Romans字体
 73
     1
 44
1.0
1001
ACAD
1000
ACAD_MTEXT_DEFINED_HEIGHT_BEGIN
1070
    46
1040
2.704444373633752
1000
ACAD_MTEXT_DEFINED_HEIGHT_END
  0
MTEXT
  5
12B37
330
1F
100
AcDbEntity
  8
图框
100
AcDbMText
 10
432.6992055320871
 20
272.6080252248091
 30
0.0
 40
1.200004709114095
 41
9.124944613757117
 46
2.704444373630574
 71
     5
 72
     5
  1
{\C4;no groove}
  7
Romans字体
 73
     1
 44
1.0
1001
ACAD
1000
ACAD_MTEXT_DEFINED_HEIGHT_BEGIN
1070
    46
1040
2.704444373630574
1000
ACAD_MTEXT_DEFINED_HEIGHT_END
  0
MTEXT
  5
12B38
330
1F
100
AcDbEntity
  8
图框
100
AcDbMText
 10
432.6992055310864
 20
261.7814435375194
 30
0.0
 40
1.200004709114095
 41
9.124944614424226
 46
2.710313835473451
 71
     5
 72
     5
  1
{\C4;3 groove}
  7
Romans字体
 73
     1
 44
1.0
1001
ACAD
1000
ACAD_MTEXT_DEFINED_HEIGHT_BEGIN
1070
    46
1040
2.710313835473451
1000
ACAD_MTEXT_DEFINED_HEIGHT_END
  0
LINE
  5
12B39
330
1F
100
AcDbEntity
  8
0
100
AcDbLine
 10
494.3220061907391
 20
268.7744766033313
 30
0.0
 11
494.3220061907402
 21
268.9833565368285
 31
0.0
  0
LINE
  5
12B3A
330
1F
100
AcDbEntity
  8
0
100
AcDbLine
 10
494.3220061907408
 20
269.0877965036476
 30
0.0
 11
494.3220061907418
 21
269.2966764372151
 31
0.0
  0
LINE
  5
12B3B
330
1F
100
AcDbEntity
  8
0
100
AcDbLine
 10
496.671905442569
 20
268.7744766033229
 30
0.0
 11
496.6719054425698
 21
268.9833565368198
 31
0.0
  0
LINE
  5
12B3C
330
1F
100
AcDbEntity
  8
0
100
AcDbLine
 10
496.6719054425706
 20
269.0877965036388
 30
0.0
 11
496.6719054425714
 21
269.2966764372064
 31
0.0
  0
LINE
  5
12B3D
330
1F
100
AcDbEntity
  8
0
100
AcDbLine
 10
494.3220061907385
 20
268.6700366365128
 30
0.0
 11
496.6719054425687
 21
268.6700366365038
 31
0.0
  0
LINE
  5
12B3E
330
1F
100
AcDbEntity
  8
0
100
AcDbLine
 10
494.4264461568232
 20
268.6700366365138
 30
0.0
 11
494.4264461568232
 21
268.7744766032619
 31
0.0
  0
LINE
  5
12B3F
330
1F
100
AcDbEntity
  8
0
100
AcDbLine
 10
496.5674654764303
 20
268.6700366365748
 30
0.0
 11
496.5674654764246
 21
268.7744766033233
 31
0.0
  0
LINE
  5
12B40
330
1F
100
AcDbEntity
  8
0
100
AcDbLine
 10
494.3220061907322
 20
268.7744766033313
 30
0.0
 11
496.6719054425627
 21
268.7744766033229
 31
0.0
  0
LINE
  5
12B41
330
1F
100
AcDbEntity
  8
0
100
AcDbLine
 10
494.322006190733
 20
268.9833565368285
 30
0.0
 11
496.6719054425633
 21
268.9833565368198
 31
0.0
  0
LINE
  5
12B42
330
1F
100
AcDbEntity
  8
0
100
AcDbLine
 10
494.3220061907338
 20
269.0877965036476
 30
0.0
 11
496.6719054425636
 21
269.0877965036388
 31
0.0
  0
LINE
  5
12B43
330
1F
100
AcDbEntity
  8
0
100
AcDbLine
 10
494.426446156824
 20
268.9833565368295
 30
0.0
 11
494.426446156824
 21
269.0877965035781
 31
0.0
  0
LINE
  5
12B44
330
1F
100
AcDbEntity
  8
0
100
AcDbLine
 10
494.3220061907352
 20
269.2966764372156
 30
0.0
 11
496.671905442565
 21
269.2966764372064
 31
0.0
  0
LINE
  5
12B45
330
1F
100
AcDbEntity
  8
0
100
AcDbLine
 10
494.3220061907352
 20
269.4011164040345
 30
0.0
 11
496.6719054425658
 21
269.4011164040255
 31
0.0
  0
LINE
  5
12B46
330
1F
100
AcDbEntity
  8
0
100
AcDbLine
 10
494.4264461568258
 20
269.296676437216
 30
0.0
 11
494.4264461568258
 21
269.4011164039645
 31
0.0
  0
LINE
  5
12B47
330
1F
100
AcDbEntity
  8
0
100
AcDbLine
 10
496.5674654763867
 20
269.2966764372783
 30
0.0
 11
496.5674654763811
 21
269.4011164040269
 31
0.0
  0
LINE
  5
12B48
330
1F
100
AcDbEntity
  8
0
100
AcDbLine
 10
496.5674654764312
 20
268.9833565368908
 30
0.0
 11
496.5674654764255
 21
269.0877965036388
 31
0.0
  0
LINE
  5
12B49
330
1F
100
AcDbEntity
  8
0
100
AcDbLine
 10
458.4121197876608
 20
264.7535378834472
 30
0.0
 11
460.7631397210941
 21
264.7535378834472
 31
0.0
  0
LINE
  5
12B4A
330
1F
100
AcDbEntity
  8
0
100
AcDbLine
 10
458.9345686618305
 20
269.9279473855884
 30
0.0
 11
458.9345686618305
 21
277.1616986421666
 31
0.0
  0
LINE
  5
12B4B
330
1F
100
AcDbEntity
  8
0
100
AcDbLine
 10
460.2406908469243
 20
269.9279473852588
 30
0.0
 11
460.2406908469243
 21
277.1616986421666
 31
0.0
  0
LINE
  5
12B4C
330
1F
100
AcDbEntity
  8
0
100
AcDbLine
 10
460.2406908469243
 20
277.1616986421666
 30
0.0
 11
458.9345686618305
 21
277.1616986421666
 31
0.0
  0
ARC
  5
12B4D
330
1F
100
AcDbEntity
  8
0
100
AcDbCircle
 10
459.5876297540455
 20
277.1616986421666
 30
0.0
 40
0.6530610928784773
100
AcDbArc
 50
0.0
 51
180.0
  0
LINE
  5
12B4E
330
1F
100
AcDbEntity
  8
0
100
AcDbLine
 10
460.7631397210941
 20
264.7535378834472
 30
0.0
 11
460.7631397210933
 21
265.907282674647
 31
0.0
  0
LINE
  5
12B4F
330
1F
100
AcDbEntity
  8
0
100
AcDbLine
 10
458.4121197876608
 20
264.7535378834472
 30
0.0
 11
458.4121197876608
 21
265.907282674647
 31
0.0
  0
LINE
  5
12B50
330
1F
100
AcDbEntity
  8
0
100
AcDbLine
 10
458.6733442248084
 20
266.0596600685458
 30
0.0
 11
458.6733442248084
 21
268.4106800017224
 31
0.0
  0
LINE
  5
12B51
330
1F
100
AcDbEntity
  8
0
100
AcDbLine
 10
460.5019152839465
 20
266.0596600683385
 30
0.0
 11
460.5019152839465
 21
268.4106800017156
 31
0.0
  0
LINE
  5
12B52
330
1F
100
AcDbEntity
  8
0
100
AcDbLine
 10
458.4121197874676
 20
269.5600675246092
 30
0.0
 11
460.7631397206429
 21
269.5600675245904
 31
0.0
  0
LINE
  5
12B53
330
1F
100
AcDbEntity
  8
0
100
AcDbLine
 10
458.5688544498496
 20
269.7168021868197
 30
0.0
 11
460.6064050584229
 21
269.7168021868035
 31
0.0
  0
LINE
  5
12B54
330
1F
100
AcDbEntity
  8
0
100
AcDbLine
 10
458.4121197874605
 20
268.4106800017229
 30
0.0
 11
458.412119787467
 21
269.5600675246112
 31
0.0
  0
LINE
  5
12B55
330
1F
100
AcDbEntity
  8
0
100
AcDbLine
 10
460.7631397206296
 20
268.4106800017139
 30
0.0
 11
460.7631397206337
 21
269.5600675245941
 31
0.0
  0
LINE
  5
12B56
330
1F
100
AcDbEntity
  8
0
100
AcDbLine
 10
458.4121197874605
 20
268.4106800017234
 30
0.0
 11
460.7631397206296
 21
268.4106800017147
 31
0.0
  0
LINE
  5
12B57
330
1F
100
AcDbEntity
  8
0
100
AcDbLine
 10
460.7631397210941
 20
265.907282674647
 30
0.0
 11
458.4121197876608
 21
265.907282674647
 31
0.0
  0
LINE
  5
12B58
330
1F
100
AcDbEntity
  8
0
100
AcDbLine
 10
458.6733442248084
 20
266.0596600685458
 30
0.0
 11
460.5019152839465
 21
266.0596600683385
 31
0.0
  0
LINE
  5
12B59
330
1F
100
AcDbEntity
  8
0
100
AcDbLine
 10
460.6064050584229
 20
269.7168021868035
 30
0.0
 11
460.2406908469243
 21
269.9279473852588
 31
0.0
  0
LINE
  5
12B5A
330
1F
100
AcDbEntity
  8
0
100
AcDbLine
 10
460.6064050584233
 20
269.7168021868035
 30
0.0
 11
460.7631397206337
 21
269.5600675245904
 31
0.0
  0
LINE
  5
12B5B
330
1F
100
AcDbEntity
  8
0
100
AcDbLine
 10
458.5688544496952
 20
269.7168021867307
 30
0.0
 11
458.9345686611792
 21
269.9279473852121
 31
0.0
  0
LINE
  5
12B5C
330
1F
100
AcDbEntity
  8
0
100
AcDbLine
 10
458.5688544496952
 20
269.7168021867307
 30
0.0
 11
458.4121197874956
 21
269.5600675245064
 31
0.0
  0
LINE
  5
12B5D
330
1F
100
AcDbEntity
  8
0
100
AcDbLine
 10
460.2406908469243
 20
269.9279473852588
 30
0.0
 11
458.9345686611792
 21
269.9279473852121
 31
0.0
  0
LINE
  5
12B5E
330
1F
100
AcDbEntity
  8
0
100
AcDbLine
 10
458.6746947007001
 20
266.0588803712347
 30
0.0
 11
458.4121197876608
 21
265.907282674647
 31
0.0
  0
LINE
  5
12B5F
330
1F
100
AcDbEntity
  8
0
100
AcDbLine
 10
460.5005648076796
 20
266.0588803713003
 30
0.0
 11
460.7631397207303
 21
265.9072826747314
 31
0.0
  0
CIRCLE
  5
12B60
330
1F
100
AcDbEntity
  8
0
100
AcDbCircle
 10
459.5876484442305
 20
268.0972106772997
 30
0.0
 40
0.2351019933177603
  0
LINE
  5
12B61
330
1F
100
AcDbEntity
  8
0
100
AcDbLine
 10
467.1125110876777
 20
264.7535378834472
 30
0.0
 11
469.4635310211117
 21
264.7535378834472
 31
0.0
  0
LINE
  5
12B62
330
1F
100
AcDbEntity
  8
0
100
AcDbLine
 10
467.6349599618482
 20
269.9279473855884
 30
0.0
 11
467.6349599618482
 21
277.1616986421666
 31
0.0
  0
LINE
  5
12B63
330
1F
100
AcDbEntity
  8
0
100
AcDbLine
 10
468.9410821469413
 20
269.9279473852588
 30
0.0
 11
468.9410821469413
 21
277.1616986421666
 31
0.0
  0
LINE
  5
12B64
330
1F
100
AcDbEntity
  8
0
100
AcDbLine
 10
468.9410821469413
 20
277.1616986421666
 30
0.0
 11
467.6349599618482
 21
277.1616986421666
 31
0.0
  0
ARC
  5
12B65
330
1F
100
AcDbEntity
  8
0
100
AcDbCircle
 10
468.2880210540628
 20
277.1616986421666
 30
0.0
 40
0.6530610928784773
100
AcDbArc
 50
0.0
 51
180.0
  0
LINE
  5
12B66
330
1F
100
AcDbEntity
  8
0
100
AcDbLine
 10
469.4635310211117
 20
264.7535378834472
 30
0.0
 11
469.4635310211117
 21
265.1192520952748
 31
0.0
  0
LINE
  5
12B67
330
1F
100
AcDbEntity
  8
0
100
AcDbLine
 10
469.4635310211117
 20
265.2237418700827
 30
0.0
 11
469.4635310211117
 21
265.907282674647
 31
0.0
  0
LINE
  5
12B68
330
1F
100
AcDbEntity
  8
0
100
AcDbLine
 10
467.1125110876777
 20
264.7535378834472
 30
0.0
 11
467.1125110876777
 21
265.1192520952748
 31
0.0
  0
LINE
  5
12B69
330
1F
100
AcDbEntity
  8
0
100
AcDbLine
 10
467.1125110876775
 20
265.2237418700827
 30
0.0
 11
467.1125110876784
 21
265.907282674647
 31
0.0
  0
LINE
  5
12B6A
330
1F
100
AcDbEntity
  8
0
100
AcDbLine
 10
467.3737355248255
 20
266.0596600685458
 30
0.0
 11
467.3737355248255
 21
268.4106800017224
 31
0.0
  0
LINE
  5
12B6B
330
1F
100
AcDbEntity
  8
0
100
AcDbLine
 10
469.2023065839637
 20
266.0596600683385
 30
0.0
 11
469.2023065839637
 21
268.4106800017156
 31
0.0
  0
LINE
  5
12B6C
330
1F
100
AcDbEntity
  8
0
100
AcDbLine
 10
467.1125110874847
 20
269.5600675246092
 30
0.0
 11
469.4635310206603
 21
269.5600675245904
 31
0.0
  0
LINE
  5
12B6D
330
1F
100
AcDbEntity
  8
0
100
AcDbLine
 10
467.2692457498667
 20
269.7168021868197
 30
0.0
 11
469.3067963584404
 21
269.7168021868035
 31
0.0
  0
LINE
  5
12B6E
330
1F
100
AcDbEntity
  8
0
100
AcDbLine
 10
467.1125110874773
 20
268.4106800017229
 30
0.0
 11
467.1125110874842
 21
269.5600675246112
 31
0.0
  0
LINE
  5
12B6F
330
1F
100
AcDbEntity
  8
0
100
AcDbLine
 10
469.4635310206463
 20
268.4106800017139
 30
0.0
 11
469.4635310206508
 21
269.5600675245941
 31
0.0
  0
LINE
  5
12B70
330
1F
100
AcDbEntity
  8
0
100
AcDbLine
 10
467.1125110874773
 20
268.4106800017234
 30
0.0
 11
469.4635310206463
 21
268.4106800017147
 31
0.0
  0
LINE
  5
12B71
330
1F
100
AcDbEntity
  8
0
100
AcDbLine
 10
469.4635310211117
 20
265.907282674647
 30
0.0
 11
467.1125110876784
 21
265.907282674647
 31
0.0
  0
LINE
  5
12B72
330
1F
100
AcDbEntity
  8
0
100
AcDbLine
 10
467.3737355248255
 20
266.0596600685458
 30
0.0
 11
469.2023065839637
 21
266.0596600683385
 31
0.0
  0
LINE
  5
12B73
330
1F
100
AcDbEntity
  8
0
100
AcDbLine
 10
469.3067963584404
 20
269.7168021868035
 30
0.0
 11
468.9410821469413
 21
269.9279473852588
 31
0.0
  0
LINE
  5
12B74
330
1F
100
AcDbEntity
  8
0
100
AcDbLine
 10
469.3067963584404
 20
269.7168021868035
 30
0.0
 11
469.4635310206508
 21
269.5600675245904
 31
0.0
  0
LINE
  5
12B75
330
1F
100
AcDbEntity
  8
0
100
AcDbLine
 10
467.2692457497126
 20
269.7168021867307
 30
0.0
 11
467.6349599611961
 21
269.9279473852121
 31
0.0
  0
LINE
  5
12B76
330
1F
100
AcDbEntity
  8
0
100
AcDbLine
 10
467.2692457497126
 20
269.7168021867307
 30
0.0
 11
467.1125110875133
 21
269.5600675245064
 31
0.0
  0
LINE
  5
12B77
330
1F
100
AcDbEntity
  8
0
100
AcDbLine
 10
468.9410821469413
 20
269.9279473852588
 30
0.0
 11
467.6349599611961
 21
269.9279473852121
 31
0.0
  0
LINE
  5
12B78
330
1F
100
AcDbEntity
  8
0
100
AcDbLine
 10
467.3750860007171
 20
266.0588803712347
 30
0.0
 11
467.1125110876784
 21
265.907282674647
 31
0.0
  0
LINE
  5
12B79
330
1F
100
AcDbEntity
  8
0
100
AcDbLine
 10
469.2009561076976
 20
266.0588803713003
 30
0.0
 11
469.4635310207472
 21
265.9072826747314
 31
0.0
  0
CIRCLE
  5
12B7A
330
1F
100
AcDbEntity
  8
0
100
AcDbCircle
 10
468.2880397442477
 20
268.0972106772997
 30
0.0
 40
0.2351019933177603
  0
LINE
  5
12B7B
330
1F
100
AcDbEntity
  8
0
100
AcDbLine
 10
467.1125110870978
 20
265.1192520952748
 30
0.0
 11
469.4635310205311
 21
265.1192520952748
 31
0.0
  0
LINE
  5
12B7C
330
1F
100
AcDbEntity
  8
0
100
AcDbLine
 10
467.1125110870978
 20
265.2237418700825
 30
0.0
 11
469.4635310205311
 21
265.2237418700825
 31
0.0
  0
LINE
  5
12B7D
330
1F
100
AcDbEntity
  8
0
100
AcDbLine
 10
469.3590412457238
 20
265.1192520952748
 30
0.0
 11
469.3590412457238
 21
265.2237418700825
 31
0.0
  0
LINE
  5
12B7E
330
1F
100
AcDbEntity
  8
0
100
AcDbLine
 10
467.2170008619056
 20
265.1192520952748
 30
0.0
 11
467.2170008619056
 21
265.2237418700825
 31
0.0
  0
LINE
  5
12B7F
330
1F
100
AcDbEntity
  8
0
100
AcDbLine
 10
476.2824834946796
 20
264.7535378834472
 30
0.0
 11
478.6335034281135
 21
264.7535378834472
 31
0.0
  0
LINE
  5
12B80
330
1F
100
AcDbEntity
  8
0
100
AcDbLine
 10
476.8049323688495
 20
269.9279473855884
 30
0.0
 11
476.8049323688495
 21
277.1616986421666
 31
0.0
  0
LINE
  5
12B81
330
1F
100
AcDbEntity
  8
0
100
AcDbLine
 10
478.1110545539433
 20
269.9279473852588
 30
0.0
 11
478.1110545539433
 21
277.1616986421666
 31
0.0
  0
LINE
  5
12B82
330
1F
100
AcDbEntity
  8
0
100
AcDbLine
 10
478.1110545539433
 20
277.1616986421666
 30
0.0
 11
476.8049323688495
 21
277.1616986421666
 31
0.0
  0
ARC
  5
12B83
330
1F
100
AcDbEntity
  8
0
100
AcDbCircle
 10
477.4579934610649
 20
277.1616986421666
 30
0.0
 40
0.6530610928784773
100
AcDbArc
 50
0.0
 51
180.0
  0
LINE
  5
12B84
330
1F
100
AcDbEntity
  8
0
100
AcDbLine
 10
478.6335034281135
 20
264.7535378834472
 30
0.0
 11
478.6335034281135
 21
265.907282674647
 31
0.0
  0
LINE
  5
12B85
330
1F
100
AcDbEntity
  8
0
100
AcDbLine
 10
476.2824834946796
 20
264.7535378834472
 30
0.0
 11
476.2824834946796
 21
265.907282674647
 31
0.0
  0
LINE
  5
12B86
330
1F
100
AcDbEntity
  8
0
100
AcDbLine
 10
476.5437079318274
 20
266.0596600685458
 30
0.0
 11
476.5437079318277
 21
268.4106800017224
 31
0.0
  0
LINE
  5
12B87
330
1F
100
AcDbEntity
  8
0
100
AcDbLine
 10
478.3722789909655
 20
266.0596600683385
 30
0.0
 11
478.3722789909658
 21
268.4106800017156
 31
0.0
  0
LINE
  5
12B88
330
1F
100
AcDbEntity
  8
0
100
AcDbLine
 10
476.2824834944868
 20
269.5600675246092
 30
0.0
 11
478.6335034276616
 21
269.5600675245904
 31
0.0
  0
LINE
  5
12B89
330
1F
100
AcDbEntity
  8
0
100
AcDbLine
 10
476.4392181568688
 20
269.7168021868197
 30
0.0
 11
478.476768765442
 21
269.7168021868035
 31
0.0
  0
LINE
  5
12B8A
330
1F
100
AcDbEntity
  8
0
100
AcDbLine
 10
476.2824834944797
 20
268.4106800017229
 30
0.0
 11
476.2824834944825
 21
268.9331288757584
 31
0.0
  0
LINE
  5
12B8B
330
1F
100
AcDbEntity
  8
0
100
AcDbLine
 10
476.2824834944828
 20
269.0376186505664
 30
0.0
 11
476.2824834944858
 21
269.5600675246112
 31
0.0
  0
LINE
  5
12B8C
330
1F
100
AcDbEntity
  8
0
100
AcDbLine
 10
478.6335034276483
 20
268.4106800017139
 30
0.0
 11
478.6335034276502
 21
268.9331288757584
 31
0.0
  0
LINE
  5
12B8D
330
1F
100
AcDbEntity
  8
0
100
AcDbLine
 10
478.6335034276507
 20
269.0376186505664
 30
0.0
 11
478.6335034276524
 21
269.5600675245941
 31
0.0
  0
LINE
  5
12B8E
330
1F
100
AcDbEntity
  8
0
100
AcDbLine
 10
476.2824834944797
 20
268.4106800017234
 30
0.0
 11
478.6335034276483
 21
268.4106800017147
 31
0.0
  0
LINE
  5
12B8F
330
1F
100
AcDbEntity
  8
0
100
AcDbLine
 10
478.6335034281135
 20
265.907282674647
 30
0.0
 11
476.2824834946798
 21
265.907282674647
 31
0.0
  0
LINE
  5
12B90
330
1F
100
AcDbEntity
  8
0
100
AcDbLine
 10
476.5437079318274
 20
266.0596600685458
 30
0.0
 11
478.3722789909655
 21
266.0596600683385
 31
0.0
  0
LINE
  5
12B91
330
1F
100
AcDbEntity
  8
0
100
AcDbLine
 10
478.476768765442
 20
269.7168021868035
 30
0.0
 11
478.1110545539433
 21
269.9279473852588
 31
0.0
  0
LINE
  5
12B92
330
1F
100
AcDbEntity
  8
0
100
AcDbLine
 10
478.476768765442
 20
269.7168021868035
 30
0.0
 11
478.6335034276524
 21
269.5600675245904
 31
0.0
  0
LINE
  5
12B93
330
1F
100
AcDbEntity
  8
0
100
AcDbLine
 10
476.4392181567139
 20
269.7168021867307
 30
0.0
 11
476.8049323681976
 21
269.9279473852121
 31
0.0
  0
LINE
  5
12B94
330
1F
100
AcDbEntity
  8
0
100
AcDbLine
 10
476.4392181567139
 20
269.7168021867307
 30
0.0
 11
476.2824834945146
 21
269.5600675245064
 31
0.0
  0
LINE
  5
12B95
330
1F
100
AcDbEntity
  8
0
100
AcDbLine
 10
478.1110545539433
 20
269.9279473852588
 30
0.0
 11
476.8049323681976
 21
269.9279473852121
 31
0.0
  0
LINE
  5
12B96
330
1F
100
AcDbEntity
  8
0
100
AcDbLine
 10
476.5450584077187
 20
266.0588803712347
 30
0.0
 11
476.2824834946798
 21
265.907282674647
 31
0.0
  0
LINE
  5
12B97
330
1F
100
AcDbEntity
  8
0
100
AcDbLine
 10
478.3709285146994
 20
266.0588803713003
 30
0.0
 11
478.633503427749
 21
265.9072826747314
 31
0.0
  0
CIRCLE
  5
12B98
330
1F
100
AcDbEntity
  8
0
100
AcDbCircle
 10
477.4580121512496
 20
268.0972106772997
 30
0.0
 40
0.2351019933177603
  0
LINE
  5
12B99
330
1F
100
AcDbEntity
  8
0
100
AcDbLine
 10
476.282483494679
 20
268.9331288757584
 30
0.0
 11
478.6335034274483
 21
268.9331288757584
 31
0.0
  0
LINE
  5
12B9A
330
1F
100
AcDbEntity
  8
0
100
AcDbLine
 10
478.5290136531129
 20
268.9331288757586
 30
0.0
 11
478.5290136531129
 21
269.0376186505664
 31
0.0
  0
LINE
  5
12B9B
330
1F
100
AcDbEntity
  8
0
100
AcDbLine
 10
478.6335034279207
 20
268.9331288757584
 30
0.0
 11
476.2824834944871
 21
268.9331288757584
 31
0.0
  0
LINE
  5
12B9C
330
1F
100
AcDbEntity
  8
0
100
AcDbLine
 10
478.6335034279207
 20
269.0376186505664
 30
0.0
 11
476.2824834944871
 21
269.0376186505664
 31
0.0
  0
LINE
  5
12B9D
330
1F
100
AcDbEntity
  8
0
100
AcDbLine
 10
476.3869732682912
 20
268.9331288756712
 30
0.0
 11
476.3869732682831
 21
269.037618650479
 31
0.0
  0
LINE
  5
12B9E
330
1F
100
AcDbEntity
  8
0
100
AcDbLine
 10
485.5784225995479
 20
264.7535378834472
 30
0.0
 11
487.9294425329818
 21
264.7535378834472
 31
0.0
  0
LINE
  5
12B9F
330
1F
100
AcDbEntity
  8
0
100
AcDbLine
 10
486.1008714737182
 20
269.9279473855884
 30
0.0
 11
486.1008714737182
 21
277.1616986421666
 31
0.0
  0
LINE
  5
12BA0
330
1F
100
AcDbEntity
  8
0
100
AcDbLine
 10
487.406993658812
 20
269.9279473852588
 30
0.0
 11
487.406993658812
 21
277.1616986421666
 31
0.0
  0
LINE
  5
12BA1
330
1F
100
AcDbEntity
  8
0
100
AcDbLine
 10
487.406993658812
 20
277.1616986421666
 30
0.0
 11
486.1008714737182
 21
277.1616986421666
 31
0.0
  0
ARC
  5
12BA2
330
1F
100
AcDbEntity
  8
0
100
AcDbCircle
 10
486.7539325659334
 20
277.1616986421666
 30
0.0
 40
0.6530610928784773
100
AcDbArc
 50
0.0
 51
180.0
  0
LINE
  5
12BA3
330
1F
100
AcDbEntity
  8
0
100
AcDbLine
 10
487.9294425329818
 20
264.7535378834472
 30
0.0
 11
487.9294425329818
 21
265.907282674647
 31
0.0
  0
LINE
  5
12BA4
330
1F
100
AcDbEntity
  8
0
100
AcDbLine
 10
485.5784225995479
 20
264.7535378834472
 30
0.0
 11
485.5784225995479
 21
265.907282674647
 31
0.0
  0
LINE
  5
12BA5
330
1F
100
AcDbEntity
  8
0
100
AcDbLine
 10
485.8396470366954
 20
266.0596600685458
 30
0.0
 11
485.8396470366962
 21
268.4106800017224
 31
0.0
  0
LINE
  5
12BA6
330
1F
100
AcDbEntity
  8
0
100
AcDbLine
 10
487.6682180958338
 20
266.0596600683385
 30
0.0
 11
487.6682180958343
 21
268.4106800017156
 31
0.0
  0
LINE
  5
12BA7
330
1F
100
AcDbEntity
  8
0
100
AcDbLine
 10
485.5784225993548
 20
269.5600675246092
 30
0.0
 11
487.92944253253
 21
269.5600675245904
 31
0.0
  0
LINE
  5
12BA8
330
1F
100
AcDbEntity
  8
0
100
AcDbLine
 10
485.7351572617377
 20
269.7168021868197
 30
0.0
 11
487.7727078703107
 21
269.7168021868035
 31
0.0
  0
LINE
  5
12BA9
330
1F
100
AcDbEntity
  8
0
100
AcDbLine
 10
485.578422599348
 20
268.4106800017229
 30
0.0
 11
485.5784225993502
 21
268.7755737192248
 31
0.0
  0
LINE
  5
12BAA
330
1F
100
AcDbEntity
  8
0
100
AcDbLine
 10
485.5784225993502
 20
268.8800634940327
 30
0.0
 11
485.5784225993525
 21
269.1927123244514
 31
0.0
  0
LINE
  5
12BAB
330
1F
100
AcDbEntity
  8
0
100
AcDbLine
 10
485.5784225993525
 20
269.2972020992593
 30
0.0
 11
485.5784225993543
 21
269.5600675246112
 31
0.0
  0
LINE
  5
12BAC
330
1F
100
AcDbEntity
  8
0
100
AcDbLine
 10
487.9294425325165
 20
268.4106800017139
 30
0.0
 11
487.9294425325181
 21
268.7755737192248
 31
0.0
  0
LINE
  5
12BAD
330
1F
100
AcDbEntity
  8
0
100
AcDbLine
 10
487.9294425325189
 20
268.8800634940327
 30
0.0
 11
487.9294425325197
 21
269.1927123244514
 31
0.0
  0
LINE
  5
12BAE
330
1F
100
AcDbEntity
  8
0
100
AcDbLine
 10
487.9294425325205
 20
269.2972020992593
 30
0.0
 11
487.9294425325213
 21
269.5600675245941
 31
0.0
  0
LINE
  5
12BAF
330
1F
100
AcDbEntity
  8
0
100
AcDbLine
 10
485.578422599348
 20
268.4106800017234
 30
0.0
 11
487.9294425325165
 21
268.4106800017147
 31
0.0
  0
LINE
  5
12BB0
330
1F
100
AcDbEntity
  8
0
100
AcDbLine
 10
487.9294425329818
 20
265.907282674647
 30
0.0
 11
485.5784225995479
 21
265.907282674647
 31
0.0
  0
LINE
  5
12BB1
330
1F
100
AcDbEntity
  8
0
100
AcDbLine
 10
485.8396470366954
 20
266.0596600685458
 30
0.0
 11
487.6682180958338
 21
266.0596600683385
 31
0.0
  0
LINE
  5
12BB2
330
1F
100
AcDbEntity
  8
0
100
AcDbLine
 10
487.7727078703107
 20
269.7168021868035
 30
0.0
 11
487.406993658812
 21
269.9279473852588
 31
0.0
  0
LINE
  5
12BB3
330
1F
100
AcDbEntity
  8
0
100
AcDbLine
 10
487.7727078703107
 20
269.7168021868035
 30
0.0
 11
487.9294425325213
 21
269.5600675245904
 31
0.0
  0
LINE
  5
12BB4
330
1F
100
AcDbEntity
  8
0
100
AcDbLine
 10
485.7351572615828
 20
269.7168021867307
 30
0.0
 11
486.1008714730663
 21
269.9279473852121
 31
0.0
  0
LINE
  5
12BB5
330
1F
100
AcDbEntity
  8
0
100
AcDbLine
 10
485.7351572615828
 20
269.7168021867307
 30
0.0
 11
485.5784225993835
 21
269.5600675245064
 31
0.0
  0
LINE
  5
12BB6
330
1F
100
AcDbEntity
  8
0
100
AcDbLine
 10
487.406993658812
 20
269.9279473852588
 30
0.0
 11
486.1008714730663
 21
269.9279473852121
 31
0.0
  0
LINE
  5
12BB7
330
1F
100
AcDbEntity
  8
0
100
AcDbLine
 10
485.8409975125873
 20
266.0588803712347
 30
0.0
 11
485.5784225995479
 21
265.907282674647
 31
0.0
  0
LINE
  5
12BB8
330
1F
100
AcDbEntity
  8
0
100
AcDbLine
 10
487.6668676195682
 20
266.0588803713003
 30
0.0
 11
487.9294425326173
 21
265.9072826747314
 31
0.0
  0
CIRCLE
  5
12BB9
330
1F
100
AcDbEntity
  8
0
100
AcDbCircle
 10
486.753951256118
 20
268.0972106772997
 30
0.0
 40
0.2351019933177603
  0
LINE
  5
12BBA
330
1F
100
AcDbEntity
  8
0
100
AcDbLine
 10
485.5784225987703
 20
268.8808839880374
 30
0.0
 11
485.5784225987723
 21
269.1927123244514
 31
0.0
  0
LINE
  5
12BBB
330
1F
100
AcDbEntity
  8
0
100
AcDbLine
 10
487.9294425319383
 20
268.8808839880374
 30
0.0
 11
487.9294425319396
 21
269.1927123244514
 31
0.0
  0
LINE
  5
12BBC
330
1F
100
AcDbEntity
  8
0
100
AcDbLine
 10
487.9294425317371
 20
269.1927123244514
 30
0.0
 11
487.9294425317371
 21
268.8800634940327
 31
0.0
  0
LINE
  5
12BBD
330
1F
100
AcDbEntity
  8
0
100
AcDbLine
 10
485.5784225989673
 20
269.1927123244514
 30
0.0
 11
485.5784225989673
 21
268.8800634940327
 31
0.0
  0
LINE
  5
12BBE
330
1F
100
AcDbEntity
  8
0
100
AcDbLine
 10
487.9294425322087
 20
269.2972020992593
 30
0.0
 11
485.5784225989672
 21
269.2972020992593
 31
0.0
  0
LINE
  5
12BBF
330
1F
100
AcDbEntity
  8
0
100
AcDbLine
 10
487.9294425322087
 20
268.8800634940327
 30
0.0
 11
485.5784225989672
 21
268.8800634940327
 31
0.0
  0
LINE
  5
12BC0
330
1F
100
AcDbEntity
  8
0
100
AcDbLine
 10
487.8249527574006
 20
269.1927123244514
 30
0.0
 11
487.8249527574006
 21
269.2972020992593
 31
0.0
  0
LINE
  5
12BC1
330
1F
100
AcDbEntity
  8
0
100
AcDbLine
 10
487.9294425322087
 20
269.1927123244514
 30
0.0
 11
485.5784225987758
 21
269.1927123244514
 31
0.0
  0
LINE
  5
12BC2
330
1F
100
AcDbEntity
  8
0
100
AcDbLine
 10
485.6829123729196
 20
269.1927123244526
 30
0.0
 11
485.6829123729196
 21
269.2972020992603
 31
0.0
  0
LINE
  5
12BC3
330
1F
100
AcDbEntity
  8
0
100
AcDbLine
 10
487.8249527574006
 20
268.7755737192248
 30
0.0
 11
487.8249527574006
 21
268.8800634940327
 31
0.0
  0
LINE
  5
12BC4
330
1F
100
AcDbEntity
  8
0
100
AcDbLine
 10
487.9294425322087
 20
268.7755737192248
 30
0.0
 11
485.5784225987758
 21
268.7755737192248
 31
0.0
  0
LINE
  5
12BC5
330
1F
100
AcDbEntity
  8
0
100
AcDbLine
 10
485.6829123729196
 20
268.7755737192258
 30
0.0
 11
485.6829123729196
 21
268.8800634940337
 31
0.0
  0
LINE
  5
12BC6
330
1F
100
AcDbEntity
  8
0
100
AcDbLine
 10
494.322006191512
 20
264.7535378834472
 30
0.0
 11
496.6719054436068
 21
264.7535378834472
 31
0.0
  0
LINE
  5
12BC7
330
1F
100
AcDbEntity
  8
0
100
AcDbLine
 10
494.8442060253846
 20
269.9254808543251
 30
0.0
 11
494.8442060253846
 21
277.1557839351027
 31
0.0
  0
LINE
  5
12BC8
330
1F
100
AcDbEntity
  8
0
100
AcDbLine
 10
496.1497056097345
 20
269.9254808539956
 30
0.0
 11
496.1497056097345
 21
277.1557839351027
 31
0.0
  0
LINE
  5
12BC9
330
1F
100
AcDbEntity
  8
0
100
AcDbLine
 10
496.1497056097345
 20
277.1557839351027
 30
0.0
 11
494.8442060253846
 21
277.1557839351027
 31
0.0
  0
ARC
  5
12BCA
330
1F
100
AcDbEntity
  8
0
100
AcDbCircle
 10
495.4969558172278
 20
277.1557839351027
 30
0.0
 40
0.6527497925065371
100
AcDbArc
 50
0.0
 51
180.0
  0
LINE
  5
12BCB
330
1F
100
AcDbEntity
  8
0
100
AcDbLine
 10
496.6719054436068
 20
264.7535378834472
 30
0.0
 11
496.6719054436068
 21
265.9067327089754
 31
0.0
  0
LINE
  5
12BCC
330
1F
100
AcDbEntity
  8
0
100
AcDbLine
 10
494.3220061915122
 20
264.7535378834472
 30
0.0
 11
494.3220061915122
 21
265.9067327089754
 31
0.0
  0
LINE
  5
12BCD
330
1F
100
AcDbEntity
  8
0
100
AcDbLine
 10
494.5831061085105
 20
266.0590374678021
 30
0.0
 11
494.5831061085113
 21
268.4089367196403
 31
0.0
  0
LINE
  5
12BCE
330
1F
100
AcDbEntity
  8
0
100
AcDbLine
 10
496.4108055266081
 20
266.0590374675952
 30
0.0
 11
496.4108055266087
 21
268.4089367196337
 31
0.0
  0
LINE
  5
12BCF
330
1F
100
AcDbEntity
  8
0
100
AcDbLine
 10
494.3220061913192
 20
269.5577763538729
 30
0.0
 11
496.6719054431556
 21
269.5577763538543
 31
0.0
  0
LINE
  5
12BD0
330
1F
100
AcDbEntity
  8
0
100
AcDbLine
 10
494.4786661416115
 20
269.7144363039943
 30
0.0
 11
496.5152454930254
 21
269.7144363039781
 31
0.0
  0
LINE
  5
12BD1
330
1F
100
AcDbEntity
  8
0
100
AcDbLine
 10
494.3220061913121
 20
268.4089367196409
 30
0.0
 11
494.3220061913129
 21
268.6700366365128
 31
0.0
  0
LINE
  5
12BD2
330
1F
100
AcDbEntity
  8
0
100
AcDbLine
 10
494.3220061913142
 20
268.7744766033313
 30
0.0
 11
494.3220061913151
 21
268.9833565368285
 31
0.0
  0
LINE
  5
12BD3
330
1F
100
AcDbEntity
  8
0
100
AcDbLine
 10
494.3220061913151
 20
269.0877965036476
 30
0.0
 11
494.3220061913168
 21
269.2966764372156
 31
0.0
  0
LINE
  5
12BD4
330
1F
100
AcDbEntity
  8
0
100
AcDbLine
 10
494.3220061913175
 20
269.4011164040345
 30
0.0
 11
494.3220061913183
 21
269.5577763538748
 31
0.0
  0
LINE
  5
12BD5
330
1F
100
AcDbEntity
  8
0
100
AcDbLine
 10
496.6719054431423
 20
268.4089367196319
 30
0.0
 11
496.6719054431431
 21
268.6700366365038
 31
0.0
  0
LINE
  5
12BD6
330
1F
100
AcDbEntity
  8
0
100
AcDbLine
 10
496.6719054431437
 20
268.7744766033229
 30
0.0
 11
496.6719054431441
 21
268.9833565368198
 31
0.0
  0
LINE
  5
12BD7
330
1F
100
AcDbEntity
  8
0
100
AcDbLine
 10
496.6719054431447
 20
269.0877965036388
 30
0.0
 11
496.6719054431455
 21
269.2966764372064
 31
0.0
  0
LINE
  5
12BD8
330
1F
100
AcDbEntity
  8
0
100
AcDbLine
 10
496.6719054431461
 20
269.4011164040255
 30
0.0
 11
496.6719054431464
 21
269.5577763538576
 31
0.0
  0
LINE
  5
12BD9
330
1F
100
AcDbEntity
  8
0
100
AcDbLine
 10
494.3220061913121
 20
268.4089367196413
 30
0.0
 11
496.6719054431423
 21
268.4089367196327
 31
0.0
  0
LINE
  5
12BDA
330
1F
100
AcDbEntity
  8
0
100
AcDbLine
 10
496.6719054436068
 20
265.9067327089754
 30
0.0
 11
494.3220061915122
 21
265.9067327089754
 31
0.0
  0
LINE
  5
12BDB
330
1F
100
AcDbEntity
  8
0
100
AcDbLine
 10
494.5831061085105
 20
266.0590374678021
 30
0.0
 11
496.4108055266081
 21
266.0590374675952
 31
0.0
  0
LINE
  5
12BDC
330
1F
100
AcDbEntity
  8
0
100
AcDbLine
 10
496.5152454930254
 20
269.7144363039781
 30
0.0
 11
496.1497056097345
 21
269.9254808539956
 31
0.0
  0
LINE
  5
12BDD
330
1F
100
AcDbEntity
  8
0
100
AcDbLine
 10
496.5152454930254
 20
269.7144363039781
 30
0.0
 11
496.6719054431464
 21
269.5577763538543
 31
0.0
  0
LINE
  5
12BDE
330
1F
100
AcDbEntity
  8
0
100
AcDbLine
 10
494.4786661414575
 20
269.7144363039054
 30
0.0
 11
494.8442060247331
 21
269.9254808539489
 31
0.0
  0
LINE
  5
12BDF
330
1F
100
AcDbEntity
  8
0
100
AcDbLine
 10
494.4786661414575
 20
269.7144363039054
 30
0.0
 11
494.322006191347
 21
269.5577763537701
 31
0.0
  0
LINE
  5
12BE0
330
1F
100
AcDbEntity
  8
0
100
AcDbLine
 10
496.1497056097345
 20
269.9254808539956
 30
0.0
 11
494.8442060247331
 21
269.9254808539489
 31
0.0
  0
LINE
  5
12BE1
330
1F
100
AcDbEntity
  8
0
100
AcDbLine
 10
494.5844559406599
 20
266.0582581421564
 30
0.0
 11
494.3220061915122
 21
265.9067327089754
 31
0.0
  0
LINE
  5
12BE2
330
1F
100
AcDbEntity
  8
0
100
AcDbLine
 10
496.4094556940848
 20
266.058258142222
 30
0.0
 11
496.6719054432426
 21
265.9067327090601
 31
0.0
  0
CIRCLE
  5
12BE3
330
1F
100
AcDbEntity
  8
0
100
AcDbCircle
 10
495.4969744985036
 20
268.0956168193966
 30
0.0
 40
0.2349899251839184
  0
LINE
  5
12BE4
330
1F
100
AcDbEntity
  8
0
100
AcDbLine
 10
503.4991897451332
 20
264.7535378834472
 30
0.0
 11
505.8502096785671
 21
264.7535378834472
 31
0.0
  0
LINE
  5
12BE5
330
1F
100
AcDbEntity
  8
0
100
AcDbLine
 10
504.0216386193029
 20
269.9279473855884
 30
0.0
 11
504.0216386193034
 21
277.1616986421666
 31
0.0
  0
LINE
  5
12BE6
330
1F
100
AcDbEntity
  8
0
100
AcDbLine
 10
505.3277608043969
 20
269.9279473852588
 30
0.0
 11
505.3277608043969
 21
277.1616986421666
 31
0.0
  0
LINE
  5
12BE7
330
1F
100
AcDbEntity
  8
0
100
AcDbLine
 10
505.3277608043969
 20
277.1616986421666
 30
0.0
 11
504.0216386193034
 21
277.1616986421666
 31
0.0
  0
ARC
  5
12BE8
330
1F
100
AcDbEntity
  8
0
100
AcDbCircle
 10
504.6746997115183
 20
277.1616986421666
 30
0.0
 40
0.6530610928784773
100
AcDbArc
 50
0.0
 51
180.0
  0
LINE
  5
12BE9
330
1F
100
AcDbEntity
  8
0
100
AcDbLine
 10
505.8502096785653
 20
264.7535378834472
 30
0.0
 11
505.8502096785671
 21
265.907282674647
 31
0.0
  0
LINE
  5
12BEA
330
1F
100
AcDbEntity
  8
0
100
AcDbLine
 10
503.4991897451332
 20
264.7535378834472
 30
0.0
 11
503.4991897451332
 21
265.907282674647
 31
0.0
  0
LINE
  5
12BEB
330
1F
100
AcDbEntity
  8
0
100
AcDbLine
 10
503.7604141822813
 20
266.0596600685458
 30
0.0
 11
503.7604141822813
 21
268.4106800017224
 31
0.0
  0
LINE
  5
12BEC
330
1F
100
AcDbEntity
  8
0
100
AcDbLine
 10
505.5889852414193
 20
266.0596600683385
 30
0.0
 11
505.5889852414193
 21
268.4106800017156
 31
0.0
  0
LINE
  5
12BED
330
1F
100
AcDbEntity
  8
0
100
AcDbLine
 10
503.4991897449399
 20
269.5600675246092
 30
0.0
 11
505.850209678115
 21
269.5600675245904
 31
0.0
  0
LINE
  5
12BEE
330
1F
100
AcDbEntity
  8
0
100
AcDbLine
 10
503.6559244073223
 20
269.7168021868197
 30
0.0
 11
505.693475015895
 21
269.7168021868035
 31
0.0
  0
LINE
  5
12BEF
330
1F
100
AcDbEntity
  8
0
100
AcDbLine
 10
503.4991897449327
 20
268.4106800017229
 30
0.0
 11
503.4991897449348
 21
268.7763942137666
 31
0.0
  0
LINE
  5
12BF0
330
1F
100
AcDbEntity
  8
0
100
AcDbLine
 10
503.4991897449375
 20
269.298843087806
 30
0.0
 11
503.4991897449391
 21
269.5600675246112
 31
0.0
  0
LINE
  5
12BF1
330
1F
100
AcDbEntity
  8
0
100
AcDbLine
 10
505.8502096781022
 20
268.4106800017139
 30
0.0
 11
505.8502096781035
 21
268.7763942137578
 31
0.0
  0
LINE
  5
12BF2
330
1F
100
AcDbEntity
  8
0
100
AcDbLine
 10
505.8502096781054
 20
269.2988430877973
 30
0.0
 11
505.8502096781062
 21
269.5600675245941
 31
0.0
  0
LINE
  5
12BF3
330
1F
100
AcDbEntity
  8
0
100
AcDbLine
 10
503.4991897449327
 20
268.4106800017234
 30
0.0
 11
505.8502096781022
 21
268.4106800017147
 31
0.0
  0
LINE
  5
12BF4
330
1F
100
AcDbEntity
  8
0
100
AcDbLine
 10
505.8502096785671
 20
265.907282674647
 30
0.0
 11
503.4991897451332
 21
265.907282674647
 31
0.0
  0
LINE
  5
12BF5
330
1F
100
AcDbEntity
  8
0
100
AcDbLine
 10
503.7604141822813
 20
266.0596600685458
 30
0.0
 11
505.5889852414193
 21
266.0596600683385
 31
0.0
  0
LINE
  5
12BF6
330
1F
100
AcDbEntity
  8
0
100
AcDbLine
 10
505.693475015895
 20
269.7168021868035
 30
0.0
 11
505.3277608043969
 21
269.9279473852588
 31
0.0
  0
LINE
  5
12BF7
330
1F
100
AcDbEntity
  8
0
100
AcDbLine
 10
505.693475015895
 20
269.7168021868035
 30
0.0
 11
505.8502096781062
 21
269.5600675245904
 31
0.0
  0
LINE
  5
12BF8
330
1F
100
AcDbEntity
  8
0
100
AcDbLine
 10
503.6559244071677
 20
269.7168021867307
 30
0.0
 11
504.0216386186513
 21
269.9279473852121
 31
0.0
  0
LINE
  5
12BF9
330
1F
100
AcDbEntity
  8
0
100
AcDbLine
 10
503.6559244071677
 20
269.7168021867307
 30
0.0
 11
503.4991897449685
 21
269.5600675245064
 31
0.0
  0
LINE
  5
12BFA
330
1F
100
AcDbEntity
  8
0
100
AcDbLine
 10
505.3277608043969
 20
269.9279473852588
 30
0.0
 11
504.0216386186513
 21
269.9279473852121
 31
0.0
  0
LINE
  5
12BFB
330
1F
100
AcDbEntity
  8
0
100
AcDbLine
 10
503.7617646581725
 20
266.0588803712347
 30
0.0
 11
503.4991897451332
 21
265.907282674647
 31
0.0
  0
LINE
  5
12BFC
330
1F
100
AcDbEntity
  8
0
100
AcDbLine
 10
505.587634765153
 20
266.0588803713003
 30
0.0
 11
505.850209678203
 21
265.9072826747314
 31
0.0
  0
CIRCLE
  5
12BFD
330
1F
100
AcDbEntity
  8
0
100
AcDbCircle
 10
504.6747184017029
 20
268.0972106772997
 30
0.0
 40
0.2351019933177603
  0
LINE
  5
12BFE
330
1F
100
AcDbEntity
  8
0
100
AcDbLine
 10
503.6298019627974
 20
268.7763942137662
 30
0.0
 11
503.6298019628008
 21
269.2988430878054
 31
0.0
  0
LINE
  5
12BFF
330
1F
100
AcDbEntity
  8
0
100
AcDbLine
 10
505.7195974589475
 20
268.7763942137583
 30
0.0
 11
505.7195974589489
 21
269.2988430877978
 31
0.0
  0
LINE
  5
12C00
330
1F
100
AcDbEntity
  8
0
100
AcDbLine
 10
503.4991897442878
 20
268.7763942137666
 30
0.0
 11
505.8502096774565
 21
268.7763942137577
 31
0.0
  0
LINE
  5
12C01
330
1F
100
AcDbEntity
  8
0
100
AcDbLine
 10
503.4991897442899
 20
269.298843087806
 30
0.0
 11
505.8502096774585
 21
269.2988430877973
 31
0.0
  0
MTEXT
  5
12C02
330
1F
100
AcDbEntity
  8
文本
100
AcDbMText
 10
451.9654819704816
 20
280.9367711868093
 30
0.0
 40
1.177278524477582
 41
5.532326046938671
 46
2.273298405747158
 71
     5
 72
     5
  1
No.
  7
Romans字体
 73
     1
 44
1.0
1001
ACAD
1000
ACAD_MTEXT_DEFINED_HEIGHT_BEGIN
1070
    46
1040
2.273298405747158
1000
ACAD_MTEXT_DEFINED_HEIGHT_END
  0
LINE
  5
12C03
330
1F
100
AcDbEntity
  8
图框
 62
     1
100
AcDbLine
 10
449.1993189494221
 20
279.8001219839358
 30
0.0
 11
508.9730686188461
 21
279.8001219839358
 31
0.0
  0
MTEXT
  5
12C04
330
1F
100
AcDbEntity
  8
图框
100
AcDbMText
 10
451.9654819716866
 20
271.1719731434569
 30
0.0
 40
1.200004709114095
 41
5.532326044529081
 46
17.25629768095771
 71
     5
 72
     5
  1
{\fFangSong_GB2312|b0|i0|c134|p49;\C4;标示图\Fromans|c134;\PMarked\PGraph}
  7
Romans字体
 73
     1
 44
1.0
1001
ACAD
1000
ACAD_MTEXT_DEFINED_HEIGHT_BEGIN
1070
    46
1040
17.25629768095771
1000
ACAD_MTEXT_DEFINED_HEIGHT_END
  0
LINE
  5
12C05
330
1F
100
AcDbEntity
  8
图框
 62
     1
100
AcDbLine
 10
463.7718822647671
 20
282.0735805324943
 30
0.0
 11
463.7718822647671
 21
262.5438243029781
 31
0.0
  0
LINE
  5
12C06
330
1F
100
AcDbEntity
  8
图框
 62
     1
100
AcDbLine
 10
472.8121195355829
 20
282.0735805324943
 30
0.0
 11
472.8121195355829
 21
262.5438243029781
 31
0.0
  0
LINE
  5
12C07
330
1F
100
AcDbEntity
  8
图框
 62
     1
100
AcDbLine
 10
481.8523568063985
 20
282.0735805324943
 30
0.0
 11
481.8523568063985
 21
262.5438243029781
 31
0.0
  0
LINE
  5
12C08
330
1F
100
AcDbEntity
  8
图框
 62
     1
100
AcDbLine
 10
490.8925940772141
 20
282.0735805324943
 30
0.0
 11
490.8925940772141
 21
262.5438243029781
 31
0.0
  0
LINE
  5
12C09
330
1F
100
AcDbEntity
  8
图框
 62
     1
100
AcDbLine
 10
499.9328313480301
 20
282.0735805324943
 30
0.0
 11
499.9328313480301
 21
262.5438243029781
 31
0.0
  0
MTEXT
  5
12C0A
330
1F
100
AcDbEntity
  8
文本
100
AcDbMText
 10
459.2517636293591
 20
281.2091980277827
 30
0.0
 40
1.177278524477582
 41
9.040237270815783
 46
1.728444723799678
 71
     5
 72
     5
  1
No.1
  7
Romans字体
 73
     1
 44
1.0
1001
ACAD
1000
ACAD_MTEXT_DEFINED_HEIGHT_BEGIN
1070
    46
1040
1.728444723799678
1000
ACAD_MTEXT_DEFINED_HEIGHT_END
  0
LINE
  5
12C0B
330
1F
100
AcDbEntity
  8
图框
 62
     1
100
AcDbLine
 10
449.1993189494221
 20
262.5438243029781
 30
0.0
 11
508.973068618845
 21
262.5438243029781
 31
0.0
  0
MTEXT
  5
12C0C
330
1F
100
AcDbEntity
  8
文本
100
AcDbMText
 10
468.2920009001752
 20
280.9367711868091
 30
0.0
 40
1.177278524477582
 41
9.040237270815904
 46
2.273298405746809
 71
     5
 72
     5
  1
No.2
  7
Romans字体
 73
     1
 44
1.0
1001
ACAD
1000
ACAD_MTEXT_DEFINED_HEIGHT_BEGIN
1070
    46
1040
2.273298405746809
1000
ACAD_MTEXT_DEFINED_HEIGHT_END
  0
MTEXT
  5
12C0D
330
1F
100
AcDbEntity
  8
文本
100
AcDbMText
 10
477.332238170991
 20
280.9367711868091
 30
0.0
 40
1.177278524477582
 41
9.040237270815904
 46
2.273298405746809
 71
     5
 72
     5
  1
No.3
  7
Romans字体
 73
     1
 44
1.0
1001
ACAD
1000
ACAD_MTEXT_DEFINED_HEIGHT_BEGIN
1070
    46
1040
2.273298405746809
1000
ACAD_MTEXT_DEFINED_HEIGHT_END
  0
MTEXT
  5
12C0E
330
1F
100
AcDbEntity
  8
文本
100
AcDbMText
 10
486.3724754418065
 20
280.9367711868091
 30
0.0
 40
1.177278524477582
 41
9.040237270815564
 46
2.273298405746754
 71
     5
 72
     5
  1
No.4
  7
Romans字体
 73
     1
 44
1.0
1001
ACAD
1000
ACAD_MTEXT_DEFINED_HEIGHT_BEGIN
1070
    46
1040
2.273298405746754
1000
ACAD_MTEXT_DEFINED_HEIGHT_END
  0
MTEXT
  5
12C0F
330
1F
100
AcDbEntity
  8
文本
100
AcDbMText
 10
495.4127127126223
 20
280.9367711868091
 30
0.0
 40
1.177278524477582
 41
9.040237270815904
 46
2.273298405746865
 71
     5
 72
     5
  1
No.5
  7
Romans字体
 73
     1
 44
1.0
1001
ACAD
1000
ACAD_MTEXT_DEFINED_HEIGHT_BEGIN
1070
    46
1040
2.273298405746865
1000
ACAD_MTEXT_DEFINED_HEIGHT_END
  0
MTEXT
  5
12C10
330
1F
100
AcDbEntity
  8
文本
100
AcDbMText
 10
504.4529499834379
 20
280.9367711868091
 30
0.0
 40
1.177278524477582
 41
9.040237270815904
 46
2.273298405746865
 71
     5
 72
     5
  1
No.6
  7
Romans字体
 73
     1
 44
1.0
1001
ACAD
1000
ACAD_MTEXT_DEFINED_HEIGHT_BEGIN
1070
    46
1040
2.273298405746865
1000
ACAD_MTEXT_DEFINED_HEIGHT_END
  0
LINE
  5
12C11
330
1F
100
AcDbEntity
  8
0
100
AcDbLine
 10
419.715592669246
 20
238.4136002709349
 30
0.0
 11
420.2159534608448
 21
238.4136002709333
 31
0.0
  0
LINE
  5
12C12
330
1F
100
AcDbEntity
  8
0
100
AcDbLine
 10
419.7155926693477
 20
233.9136002712258
 30
0.0
 11
420.215953460945
 21
233.9136002712508
 31
0.0
  0
LINE
  5
12C13
330
1F
100
AcDbEntity
  8
0
100
AcDbLine
 10
421.6169636779585
 20
233.913600271321
 30
0.0
 11
421.9155926694667
 21
233.913600271336
 31
0.0
  0
LINE
  5
12C14
330
1F
100
AcDbEntity
  8
0
100
AcDbLine
 10
419.7155926693461
 20
233.9136002712258
 30
0.0
 11
421.6169636779588
 21
233.9136002709441
 31
0.0
  0
LINE
  5
12C15
330
1F
100
AcDbEntity
  8
图框
370
    35
380
     1
100
AcDbLine
 10
411.6135202818417
 20
282.073580532657
 30
0.0
 11
411.6135202818417
 21
255.0117286110716
 31
0.0
  0
LINE
  5
12C16
330
1F
100
AcDbEntity
  8
图框
370
    -3
100
AcDbLine
 10
406.7477128317158
 20
282.073580532657
 30
0.0
 11
406.7477128317182
 21
255.0117286110713
 31
0.0
  0
LINE
  5
12C17
330
1F
100
AcDbEntity
  8
图框
370
    -3
100
AcDbLine
 10
400.8479034757206
 20
279.3691561660238
 30
0.0
 11
400.84790347572
 21
255.0117286110712
 31
0.0
  0
LINE
  5
12C18
330
1F
100
AcDbEntity
  8
图框
370
    -3
100
AcDbLine
 10
373.0755904925825
 20
255.0117286110704
 30
0.0
 11
373.0755904925825
 21
279.3691561660223
 31
0.0
  0
LINE
  5
12C19
330
1F
100
AcDbEntity
  8
图框
370
    -3
100
AcDbLine
 10
385.209258488949
 20
255.0117286110708
 30
0.0
 11
385.209258488949
 21
282.0735805326567
 31
0.0
  0
MTEXT
  5
12C1B
330
1F
100
AcDbEntity
  8
图框
100
AcDbMText
 10
396.9382422293611
 20
269.9035808511786
 30
0.0
 40
1.19999583169232
 41
7.819322492718757
 46
2.704444373630559
 71
     5
 72
     5
  1
{\C4;0.75}
  7
Romans字体
 73
     1
 44
1.0
1001
ACAD
1000
ACAD_MTEXT_DEFINED_HEIGHT_BEGIN
1070
    46
1040
2.704444373630559
1000
ACAD_MTEXT_DEFINED_HEIGHT_END
  0
MTEXT
  5
12C1C
330
1F
100
AcDbEntity
  8
图框
100
AcDbMText
 10
403.7978081537186
 20
269.9035808511786
 30
0.0
 40
1.19999583169232
 41
5.899809355996548
 46
2.704444373630423
 71
     5
 72
     5
  1
{\C4;18}
  7
Romans字体
 73
     1
 44
1.0
1001
ACAD
1000
ACAD_MTEXT_DEFINED_HEIGHT_BEGIN
1070
    46
1040
2.704444373630423
1000
ACAD_MTEXT_DEFINED_HEIGHT_END
  0
MTEXT
  5
12C1D
330
1F
100
AcDbEntity
  8
图框
100
AcDbMText
 10
409.1806165567794
 20
269.9035808511786
 30
0.0
 40
1.19999583169232
 41
4.865807450125251
 46
2.704444373630491
 71
     5
 72
     5
  1
{\C4;1.30}
  7
Romans字体
 73
     1
 44
1.0
1001
ACAD
1000
ACAD_MTEXT_DEFINED_HEIGHT_BEGIN
1070
    46
1040
2.704444373630491
1000
ACAD_MTEXT_DEFINED_HEIGHT_END
  0
MTEXT
  5
12C1E
330
1F
100
AcDbEntity
  8
图框
100
AcDbMText
 10
368.520416863447
 20
269.9035808511784
 30
0.0
 40
1.19999583169232
 41
9.110347255603928
 46
2.704444373630491
 71
     5
 72
     5
  1
{\C4;CESM-0.75}
  7
Romans字体
 73
     1
 44
1.0
1001
ACAD
1000
ACAD_MTEXT_DEFINED_HEIGHT_BEGIN
1070
    46
1040
2.704444373630491
1000
ACAD_MTEXT_DEFINED_HEIGHT_END
  0
MTEXT
  5
12C1F
330
1F
100
AcDbEntity
  8
图框
100
AcDbMText
 10
368.520416863447
 20
267.1991364775478
 30
0.0
 40
1.19999583169232
 41
9.110347258271113
 46
2.704444373630491
 71
     5
 72
     5
  1
{\C4;CESM-1.0}
  7
Romans字体
 73
     1
 44
1.0
1001
ACAD
1000
ACAD_MTEXT_DEFINED_HEIGHT_BEGIN
1070
    46
1040
2.704444373630491
1000
ACAD_MTEXT_DEFINED_HEIGHT_END
  0
MTEXT
  5
12C20
330
1F
100
AcDbEntity
  8
图框
100
AcDbMText
 10
368.5204168641138
 20
264.4917573729935
 30
0.0
 40
1.19999583169232
 41
9.110347256937654
 46
2.710313835478121
 71
     5
 72
     5
  1
{\C4;CESM-1.5}
  7
Romans字体
 73
     1
 44
1.0
1001
ACAD
1000
ACAD_MTEXT_DEFINED_HEIGHT_BEGIN
1070
    46
1040
2.710313835478121
1000
ACAD_MTEXT_DEFINED_HEIGHT_END
  0
MTEXT
  5
12C21
330
1F
100
AcDbEntity
  8
图框
100
AcDbMText
 10
396.9382422293611
 20
267.1947844312986
 30
0.0
 40
1.19999583169232
 41
7.819322492718757
 46
2.695740281131214
 71
     5
 72
     5
  1
{\C4;1.0}
  7
Romans字体
 73
     1
 44
1.0
1001
ACAD
1000
ACAD_MTEXT_DEFINED_HEIGHT_BEGIN
1070
    46
1040
2.695740281131214
1000
ACAD_MTEXT_DEFINED_HEIGHT_END
  0
MTEXT
  5
12C22
330
1F
100
AcDbEntity
  8
图框
100
AcDbMText
 10
396.9382422286941
 20
264.4917573729943
 30
0.0
 40
1.19999583169232
 41
7.819322494052218
 46
2.710313835477585
 71
     5
 72
     5
  1
{\C4;1.5}
  7
Romans字体
 73
     1
 44
1.0
1001
ACAD
1000
ACAD_MTEXT_DEFINED_HEIGHT_BEGIN
1070
    46
1040
2.710313835477585
1000
ACAD_MTEXT_DEFINED_HEIGHT_END
  0
MTEXT
  5
12C23
330
1F
100
AcDbEntity
  8
图框
100
AcDbMText
 10
403.7978081530519
 20
267.1947043598113
 30
0.0
 40
1.19999583169232
 41
5.899809354663361
 46
2.695580138156738
 71
     5
 72
     5
  1
{\C4;18}
  7
Romans字体
 73
     1
 44
1.0
1001
ACAD
1000
ACAD_MTEXT_DEFINED_HEIGHT_BEGIN
1070
    46
1040
2.695580138156738
1000
ACAD_MTEXT_DEFINED_HEIGHT_END
  0
MTEXT
  5
12C24
330
1F
100
AcDbEntity
  8
图框
100
AcDbMText
 10
403.7978081537188
 20
264.4917573729942
 30
0.0
 40
1.19999583169232
 41
5.899809355997221
 46
2.710313835477518
 71
     5
 72
     5
  1
{\C4;16}
  7
Romans字体
 73
     1
 44
1.0
1001
ACAD
1000
ACAD_MTEXT_DEFINED_HEIGHT_BEGIN
1070
    46
1040
2.710313835477518
1000
ACAD_MTEXT_DEFINED_HEIGHT_END
  0
MTEXT
  5
12C25
330
1F
100
AcDbEntity
  8
图框
100
AcDbMText
 10
414.0464240069045
 20
269.9035808511785
 30
0.0
 40
1.19999583169232
 41
4.865807450125076
 46
2.704444373630188
 71
     5
 72
     5
  1
{\C4;2.6}
  7
Romans字体
 73
     1
 44
1.0
1001
ACAD
1000
ACAD_MTEXT_DEFINED_HEIGHT_BEGIN
1070
    46
1040
2.704444373630188
1000
ACAD_MTEXT_DEFINED_HEIGHT_END
  0
MTEXT
  5
12C26
330
1F
100
AcDbEntity
  8
图框
100
AcDbMText
 10
409.1806165561128
 20
267.1991364775481
 30
0.0
 40
1.19999583169232
 41
4.865807451458461
 46
2.704444373630491
 71
     5
 72
     5
  1
{\C4;1.45}
  7
Romans字体
 73
     1
 44
1.0
1001
ACAD
1000
ACAD_MTEXT_DEFINED_HEIGHT_BEGIN
1070
    46
1040
2.704444373630491
1000
ACAD_MTEXT_DEFINED_HEIGHT_END
  0
MTEXT
  5
12C27
330
1F
100
AcDbEntity
  8
图框
100
AcDbMText
 10
409.1806165561129
 20
264.4917573729943
 30
0.0
 40
1.19999583169232
 41
4.865807451458196
 46
2.710313835477184
 71
     5
 72
     5
  1
{\C4;1.75}
  7
Romans字体
 73
     1
 44
1.0
1001
ACAD
1000
ACAD_MTEXT_DEFINED_HEIGHT_BEGIN
1070
    46
1040
2.710313835477184
1000
ACAD_MTEXT_DEFINED_HEIGHT_END
  0
MTEXT
  5
12C28
330
1F
100
AcDbEntity
  8
图框
100
AcDbMText
 10
414.0464240069045
 20
267.1991364775482
 30
0.0
 40
1.19999583169232
 41
4.865807450125188
 46
2.704444373630594
 71
     5
 72
     5
  1
{\C4;2.6}
  7
Romans字体
 73
     1
 44
1.0
1001
ACAD
1000
ACAD_MTEXT_DEFINED_HEIGHT_BEGIN
1070
    46
1040
2.704444373630594
1000
ACAD_MTEXT_DEFINED_HEIGHT_END
  0
MTEXT
  5
12C29
330
1F
100
AcDbEntity
  8
图框
100
AcDbMText
 10
414.0464240069043
 20
264.4917573729944
 30
0.0
 40
1.19999583169232
 41
4.865807450125188
 46
2.71031383547714
 71
     5
 72
     5
  1
{\C4;3.0}
  7
Romans字体
 73
     1
 44
1.0
1001
ACAD
1000
ACAD_MTEXT_DEFINED_HEIGHT_BEGIN
1070
    46
1040
2.71031383547714
1000
ACAD_MTEXT_DEFINED_HEIGHT_END
  0
MTEXT
  5
12C2A
330
1F
100
AcDbEntity
  8
图框
100
AcDbMText
 10
443.2304983941937
 20
269.9035808511786
 30
0.0
 40
1.19999583169232
 41
11.93764111045662
 46
2.704444373630626
 71
     5
 72
     5
  1
{\C4;No.2}
  7
Romans字体
 73
     1
 44
1.0
1001
ACAD
1000
ACAD_MTEXT_DEFINED_HEIGHT_BEGIN
1070
    46
1040
2.704444373630626
1000
ACAD_MTEXT_DEFINED_HEIGHT_END
  0
MTEXT
  5
12C2B
330
1F
100
AcDbEntity
  8
图框
100
AcDbMText
 10
443.2304983941937
 20
267.1947043598117
 30
0.0
 40
1.19999583169232
 41
11.93764111045663
 46
2.695580138157247
 71
     5
 72
     5
  1
{\C4;No.3}
  7
Romans字体
 73
     1
 44
1.0
1001
ACAD
1000
ACAD_MTEXT_DEFINED_HEIGHT_BEGIN
1070
    46
1040
2.695580138157247
1000
ACAD_MTEXT_DEFINED_HEIGHT_END
  0
MTEXT
  5
12C2C
330
1F
100
AcDbEntity
  8
图框
100
AcDbMText
 10
443.2304983941937
 20
264.4917573729947
 30
0.0
 40
1.19999583169232
 41
11.93764111045673
 46
2.710313835476715
 71
     5
 72
     5
  1
{\C4;No.4}
  7
Romans字体
 73
     1
 44
1.0
1001
ACAD
1000
ACAD_MTEXT_DEFINED_HEIGHT_BEGIN
1070
    46
1040
2.710313835476715
1000
ACAD_MTEXT_DEFINED_HEIGHT_END
  0
MTEXT
  5
12C2D
330
1F
100
AcDbEntity
  8
图框
100
AcDbMText
 10
432.69920553142
 20
269.899148733442
 30
0.0
 40
1.200004709114095
 41
9.124944615090775
 46
2.713308609103588
 71
     5
 72
     5
  1
{\C4;1 groove}
  7
Romans字体
 73
     1
 44
1.0
1001
ACAD
1000
ACAD_MTEXT_DEFINED_HEIGHT_BEGIN
1070
    46
1040
2.713308609103588
1000
ACAD_MTEXT_DEFINED_HEIGHT_END
  0
MTEXT
  5
12C2E
330
1F
100
AcDbEntity
  8
图框
100
AcDbMText
 10
432.69920553142
 20
267.1947043598116
 30
0.0
 40
1.200004709114095
 41
9.124944615091004
 46
2.695580138157307
 71
     5
 72
     5
  1
{\C4;1 groove}
  7
Romans字体
 73
     1
 44
1.0
1001
ACAD
1000
ACAD_MTEXT_DEFINED_HEIGHT_BEGIN
1070
    46
1040
2.695580138157307
1000
ACAD_MTEXT_DEFINED_HEIGHT_END
  0
MTEXT
  5
12C2F
330
1F
100
AcDbEntity
  8
图框
100
AcDbMText
 10
432.69920553142
 20
264.4917573729947
 30
0.0
 40
1.200004709114095
 41
9.124944615091004
 46
2.710313835476464
 71
     5
 72
     5
  1
{\C4;2 groove}
  7
Romans字体
 73
     1
 44
1.0
1001
ACAD
1000
ACAD_MTEXT_DEFINED_HEIGHT_BEGIN
1070
    46
1040
2.710313835476464
1000
ACAD_MTEXT_DEFINED_HEIGHT_END
  0
LINE
  5
12C31
330
1F
100
AcDbEntity
  8
图框
370
    -3
100
AcDbLine
 10
406.7477128303825
 20
282.0734203896825
 30
0.0
 11
406.7477128303846
 21
255.0115684680968
 31
0.0
  0
LINE
  5
12C32
330
1F
100
AcDbEntity
  8
图框
370
    -3
100
AcDbLine
 10
400.8479034743869
 20
279.3689960230492
 30
0.0
 11
400.8479034743865
 21
255.0115684680966
 31
0.0
  0
LINE
  5
12C33
330
1F
100
AcDbEntity
  8
图框
370
    -3
100
AcDbLine
 10
373.0755904912489
 20
255.0115684680958
 30
0.0
 11
373.0755904912489
 21
282.0734203896823
 31
0.0
  0
LINE
  5
12C34
330
1F
100
AcDbEntity
  8
图框
370
    -3
100
AcDbLine
 10
385.2092584876153
 20
255.0115684680963
 30
0.0
 11
385.2092584876153
 21
282.0734203896824
 31
0.0
  0
MTEXT
  5
12C35
330
1F
100
AcDbEntity
  8
图框
100
AcDbMText
 10
368.5204168645082
 20
259.074074436465
 30
0.0
 40
1.19999583169232
 41
9.110347256148527
 46
2.704424366633923
 71
     5
 72
     5
  1
{\C4;CESM-3.0}
  7
Romans字体
 73
     1
 44
1.0
1001
ACAD
1000
ACAD_MTEXT_DEFINED_HEIGHT_BEGIN
1070
    46
1040
2.704424366633923
1000
ACAD_MTEXT_DEFINED_HEIGHT_END
  0
MTEXT
  5
12C36
330
1F
100
AcDbEntity
  8
图框
100
AcDbMText
 10
368.5204168645082
 20
256.3667954321092
 30
0.0
 40
1.19999583169232
 41
9.110347256148527
 46
2.710133642077454
 71
     5
 72
     5
  1
{\C4;CESM-4.0}
  7
Romans字体
 73
     1
 44
1.0
1001
ACAD
1000
ACAD_MTEXT_DEFINED_HEIGHT_BEGIN
1070
    46
1040
2.710133642077454
1000
ACAD_MTEXT_DEFINED_HEIGHT_END
  0
LINE
  5
12C37
330
1F
100
AcDbEntity
  8
图框
370
    35
100
AcDbLine
 10
363.9652432364339
 20
257.7218622531479
 30
0.0
 11
449.1993189494221
 21
257.7218622531502
 31
0.0
  0
LINE
  5
12C38
330
1F
100
AcDbEntity
  8
图框
370
    35
380
     1
100
AcDbLine
 10
428.1367332238747
 20
282.0734203896829
 30
0.0
 11
428.1367332238747
 21
255.0115684680974
 31
0.0
  0
MTEXT
  5
12C39
330
1F
100
AcDbEntity
  8
图框
100
AcDbMText
 10
443.2304983941937
 20
259.0740744364663
 30
0.0
 40
1.19999583169232
 41
11.9376411104566
 46
2.704424366632986
 71
     5
 72
     5
  1
{\C4;No.6}
  7
Romans字体
 73
     1
 44
1.0
1001
ACAD
1000
ACAD_MTEXT_DEFINED_HEIGHT_BEGIN
1070
    46
1040
2.704424366632986
1000
ACAD_MTEXT_DEFINED_HEIGHT_END
  0
MTEXT
  5
12C3A
330
1F
100
AcDbEntity
  8
图框
100
AcDbMText
 10
443.2304983941937
 20
256.3667954321111
 30
0.0
 40
1.19999583169232
 41
11.93764111045665
 46
2.710133642078213
 71
     5
 72
     5
  1
{\C4;No.1}
  7
Romans字体
 73
     1
 44
1.0
1001
ACAD
1000
ACAD_MTEXT_DEFINED_HEIGHT_BEGIN
1070
    46
1040
2.710133642078213
1000
ACAD_MTEXT_DEFINED_HEIGHT_END
  0
MTEXT
  5
12C3B
330
1F
100
AcDbEntity
  8
图框
100
AcDbMText
 10
403.7978081537191
 20
259.0740744364657
 30
0.0
 40
1.19999583169232
 41
5.899809355997754
 46
2.704424366633519
 71
     5
 72
     5
  1
{\C4;12}
  7
Romans字体
 73
     1
 44
1.0
1001
ACAD
1000
ACAD_MTEXT_DEFINED_HEIGHT_BEGIN
1070
    46
1040
2.704424366633519
1000
ACAD_MTEXT_DEFINED_HEIGHT_END
  0
MTEXT
  5
12C3C
330
1F
100
AcDbEntity
  8
图框
100
AcDbMText
 10
403.7978081537191
 20
256.3667954321101
 30
0.0
 40
1.19999583169232
 41
5.899809355998018
 46
2.710133642077916
 71
     5
 72
     5
  1
{\C4;12}
  7
Romans字体
 73
     1
 44
1.0
1001
ACAD
1000
ACAD_MTEXT_DEFINED_HEIGHT_BEGIN
1070
    46
1040
2.710133642077916
1000
ACAD_MTEXT_DEFINED_HEIGHT_END
  0
MTEXT
  5
12C3D
330
1F
100
AcDbEntity
  8
图框
100
AcDbMText
 10
396.9382422286941
 20
259.0740744364657
 30
0.0
 40
1.19999583169232
 41
7.819322494052077
 46
2.704424366633519
 71
     5
 72
     5
  1
{\C4;3.0}
  7
Romans字体
 73
     1
 44
1.0
1001
ACAD
1000
ACAD_MTEXT_DEFINED_HEIGHT_BEGIN
1070
    46
1040
2.704424366633519
1000
ACAD_MTEXT_DEFINED_HEIGHT_END
  0
MTEXT
  5
12C3E
330
1F
100
AcDbEntity
  8
图框
100
AcDbMText
 10
396.9382422286941
 20
256.36679543211
 30
0.0
 40
1.19999583169232
 41
7.819322494052077
 46
2.710133642077654
 71
     5
 72
     5
  1
{\C4;4.0}
  7
Romans字体
 73
     1
 44
1.0
1001
ACAD
1000
ACAD_MTEXT_DEFINED_HEIGHT_BEGIN
1070
    46
1040
2.710133642077654
1000
ACAD_MTEXT_DEFINED_HEIGHT_END
  0
MTEXT
  5
12C3F
330
1F
100
AcDbEntity
  8
图框
100
AcDbMText
 10
409.1806165554458
 20
259.0740744364659
 30
0.0
 40
1.19999583169232
 41
4.865807450124131
 46
2.704424366633253
 71
     5
 72
     5
  1
{\C4;2.55}
  7
Romans字体
 73
     1
 44
1.0
1001
ACAD
1000
ACAD_MTEXT_DEFINED_HEIGHT_BEGIN
1070
    46
1040
2.704424366633253
1000
ACAD_MTEXT_DEFINED_HEIGHT_END
  0
MTEXT
  5
12C40
330
1F
100
AcDbEntity
  8
图框
100
AcDbMText
 10
409.1806165554463
 20
256.366715360623
 30
0.0
 40
1.19999583169232
 41
4.865807450123996
 46
2.710293785052129
 71
     5
 72
     5
  1
{\C4;2.85}
  7
Romans字体
 73
     1
 44
1.0
1001
ACAD
1000
ACAD_MTEXT_DEFINED_HEIGHT_BEGIN
1070
    46
1040
2.710293785052129
1000
ACAD_MTEXT_DEFINED_HEIGHT_END
  0
MTEXT
  5
12C41
330
1F
100
AcDbEntity
  8
图框
100
AcDbMText
 10
414.0464240069045
 20
259.074074436466
 30
0.0
 40
1.19999583169232
 41
4.86580745012518
 46
2.704424366632995
 71
     5
 72
     5
  1
{\C4;3.7}
  7
Romans字体
 73
     1
 44
1.0
1001
ACAD
1000
ACAD_MTEXT_DEFINED_HEIGHT_BEGIN
1070
    46
1040
2.704424366632995
1000
ACAD_MTEXT_DEFINED_HEIGHT_END
  0
MTEXT
  5
12C42
330
1F
100
AcDbEntity
  8
图框
100
AcDbMText
 10
414.0464240069045
 20
256.3667954321105
 30
0.0
 40
1.19999583169232
 41
4.86580745012518
 46
2.710133642077511
 71
     5
 72
     5
  1
{\C4;3.9}
  7
Romans字体
 73
     1
 44
1.0
1001
ACAD
1000
ACAD_MTEXT_DEFINED_HEIGHT_BEGIN
1070
    46
1040
2.710133642077511
1000
ACAD_MTEXT_DEFINED_HEIGHT_END
  0
LINE
  5
12C43
330
1F
100
AcDbEntity
  8
图框
370
    35
380
     1
100
AcDbLine
 10
437.2616778389656
 20
282.073420389683
 30
0.0
 11
437.2616778389656
 21
255.0115684680975
 31
0.0
  0
MTEXT
  5
12C44
330
1F
100
AcDbEntity
  8
图框
100
AcDbMText
 10
432.69920553142
 20
259.0740744364662
 30
0.0
 40
1.200004709114095
 41
9.124944614424226
 46
2.704424366632895
 71
     5
 72
     5
  1
{\C4;wide groove}
  7
Romans字体
 73
     1
 44
1.0
1001
ACAD
1000
ACAD_MTEXT_DEFINED_HEIGHT_BEGIN
1070
    46
1040
2.704424366632895
1000
ACAD_MTEXT_DEFINED_HEIGHT_END
  0
MTEXT
  5
12C45
330
1F
100
AcDbEntity
  8
图框
100
AcDbMText
 10
432.69920553142
 20
256.3667153606236
 30
0.0
 40
1.200004709114095
 41
9.124944615091056
 46
2.710293785052181
 71
     5
 72
     5
  1
{\C4;no groove}
  7
Romans字体
 73
     1
 44
1.0
1001
ACAD
1000
ACAD_MTEXT_DEFINED_HEIGHT_BEGIN
1070
    46
1040
2.710293785052181
1000
ACAD_MTEXT_DEFINED_HEIGHT_END
  0
LINE
  5
12C46
330
1F
100
AcDbEntity
  8
图框
370
    -3
100
AcDbLine
 10
363.9652432364341
 20
268.5513586643637
 30
0.0
 11
449.1993189494221
 21
268.5513586643633
 31
0.0
  0
LINE
  5
12C47
330
1F
100
AcDbEntity
  8
图框
370
    -3
100
AcDbLine
 10
363.9652432364341
 20
265.8469142907332
 30
0.0
 11
449.1993189494221
 21
265.8469142907328
 31
0.0
  0
DIMENSION
  5
12C48
102
{ACAD_XDICTIONARY
360
12C49
102
}
102
{ACAD_REACTORS
330
12C4A
102
}
330
1F
100
AcDbEntity
  8
DIM
100
AcDbDimension
  2
*D4
 10
410.9808532674295
 20
235.0386002709522
 30
0.0
 11
410.9808532674292
 21
236.1636002709523
 31
0.0
 70
   160
  1
%%Cd
 71
     5
 42
2.250000000000055
 73
     0
 74
     0
 75
     0
  3
01
100
AcDbAlignedDimension
 13
413.9713295035493
 23
237.2886002709522
 33
0.0
 14
413.9713295035996
 24
235.0386002709522
 34
0.0
 50
90.0
100
AcDbRotatedDimension
1001
ACAD
1000
DSTYLE
1002
{
1070
    49
1040
0.18
1070
    50
1040
1.570796326794893
1002
}
  0
MTEXT
  5
12C4B
102
{ACAD_XDICTIONARY
360
14346
102
}
330
1F
100
AcDbEntity
  8
打标文字
 62
     3
100
AcDbMText
 10
465.8456595971053
 20
251.0690766020604
 30
0.0
 40
1.5
 41
43.12740902174065
 46
53.91180554791946
 71
     1
 72
     5
  3
\A1;{\f仿宋_GB2312|b0|i0|c134|p49;技术参数}:\P- {\f仿宋_GB2312|b0|i0|c134|p49;材料}: {\f仿宋_GB2312|b0|i0|c134|p49;铜合金}\P- {\f仿宋_GB2312|b0|i0|c134|p49;表面处理}: {\f仿宋_GB2312|b0|i0|c134|p49;镀银}\P- {\f仿宋_GB2312|b0|i0|c134|p49;额定电流}: 16A\P- {\f仿宋_GB2312|b0|i0|c134|p49
  3
;接触电阻}: ≤1mΩ\P- {\f仿宋_GB2312|b0|i0|c134|p49;线径范围}: 0.75mm{\H0.7x;\S2^ ;}(18 AWG)\P- {\f仿宋_GB2312|b0|i0|c134|p49;可插拔次数}: {\f仿宋_GB2312|b0|i0|c134|p49;≥}500\P\PTechnical specification:\P- Material: copper alloy\P- Surface: hard-silver plated\P- Rated cur
  1
rent: 16A\P- Contact resistance: ≤1mΩ\P- Wire gauge: 0.75mm{\H0.7x;\S2^ ;}(18 AWG)\P- Mating cycles: {\f仿宋_GB2312|b0|i0|c134|p49;≥}500
  7
Romans字体
 73
     1
 44
1.0
1001
ACAD
1000
ACAD_MTEXT_DEFINED_HEIGHT_BEGIN
1070
    46
1040
53.91180554791946
1000
ACAD_MTEXT_DEFINED_HEIGHT_END
  0
LINE
  5
12C4C
330
1F
100
AcDbEntity
  8
图框
370
    35
100
AcDbLine
 10
363.9652432364339
 20
255.0117286110701
 30
0.0
 11
449.1993189494221
 21
255.0117286110724
 31
0.0
  0
MTEXT
  5
12C4D
330
1F
100
AcDbEntity
  8
图框
100
AcDbMText
 10
368.5204168638418
 20
279.3691461624544
 30
0.0
 40
1.200004709114095
 41
9.110347254814612
 46
5.408548454455798
 71
     5
 72
     5
  1
{\fFangSong_GB2312|b0|i0|c134|p49;\C4;产品代号\P\Fromans|c134;Part code}
  7
Romans字体
 73
     1
 44
1.0
1001
ACAD
1000
ACAD_MTEXT_DEFINED_HEIGHT_BEGIN
1070
    46
1040
5.408548454455798
1000
ACAD_MTEXT_DEFINED_HEIGHT_END
  0
MTEXT
  5
12C4E
330
1F
100
AcDbEntity
  8
图框
100
AcDbMText
 10
379.1424244907657
 20
275.3124695984401
 30
0.0
 40
1.200004709114095
 41
12.13366799636653
 46
2.704444373632686
 71
     5
 72
     5
  1
{\C4;1010191100301}
  7
Romans字体
 73
     1
 44
1.0
1001
ACAD
1000
ACAD_MTEXT_DEFINED_HEIGHT_BEGIN
1070
    46
1040
2.704444373632686
1000
ACAD_MTEXT_DEFINED_HEIGHT_END
  0
MTEXT
  5
12C4F
330
1F
100
AcDbEntity
  8
图框
100
AcDbMText
 10
379.1424244907657
 20
272.6080252248071
 30
0.0
 40
1.200004709114095
 41
12.13366799636653
 46
2.704444373632686
 71
     5
 72
     5
  1
{\C4;1010191100401}
  7
Romans字体
 73
     1
 44
1.0
1001
ACAD
1000
ACAD_MTEXT_DEFINED_HEIGHT_BEGIN
1070
    46
1040
2.704444373632686
1000
ACAD_MTEXT_DEFINED_HEIGHT_END
  0
MTEXT
  5
12C50
330
1F
100
AcDbEntity
  8
图框
100
AcDbMText
 10
379.1424244907657
 20
269.9035808511767
 30
0.0
 40
1.200004709114095
 41
12.13366799636653
 46
2.704444373632686
 71
     5
 72
     5
  1
{\C4;1010191100601}
  7
Romans字体
 73
     1
 44
1.0
1001
ACAD
1000
ACAD_MTEXT_DEFINED_HEIGHT_BEGIN
1070
    46
1040
2.704444373632686
1000
ACAD_MTEXT_DEFINED_HEIGHT_END
  0
MTEXT
  5
12C51
330
1F
100
AcDbEntity
  8
图框
100
AcDbMText
 10
379.1424244907657
 20
267.1991364775463
 30
0.0
 40
1.200004709114095
 41
12.13366799636653
 46
2.704444373632686
 71
     5
 72
     5
  1
{\C4;1010191100801}
  7
Romans字体
 73
     1
 44
1.0
1001
ACAD
1000
ACAD_MTEXT_DEFINED_HEIGHT_BEGIN
1070
    46
1040
2.704444373632686
1000
ACAD_MTEXT_DEFINED_HEIGHT_END
  0
MTEXT
  5
12C52
330
1F
100
AcDbEntity
  8
图框
100
AcDbMText
 10
379.1424244907657
 20
264.4946921039159
 30
0.0
 40
1.200004709114095
 41
12.13366799636653
 46
2.704444373632686
 71
     5
 72
     5
  1
{\C4;1010191100901}
  7
Romans字体
 73
     1
 44
1.0
1001
ACAD
1000
ACAD_MTEXT_DEFINED_HEIGHT_BEGIN
1070
    46
1040
2.704444373632686
1000
ACAD_MTEXT_DEFINED_HEIGHT_END
  0
MTEXT
  5
12C53
330
1F
100
AcDbEntity
  8
图框
100
AcDbMText
 10
379.1424244907661
 20
261.7843782684381
 30
0.0
 40
1.200004709114095
 41
12.13366799636653
 46
2.704444373632686
 71
     5
 72
     5
  1
{\C4;1010191101001}
  7
Romans字体
 73
     1
 44
1.0
1001
ACAD
1000
ACAD_MTEXT_DEFINED_HEIGHT_BEGIN
1070
    46
1040
2.704444373632686
1000
ACAD_MTEXT_DEFINED_HEIGHT_END
  0
MTEXT
  5
12C54
330
1F
100
AcDbEntity
  8
图框
100
AcDbMText
 10
379.1424244907661
 20
259.0799338948078
 30
0.0
 40
1.200004709114095
 41
12.13366799636653
 46
2.704444373632686
 71
     5
 72
     5
  1
{\C4;1010191101101}
  7
Romans字体
 73
     1
 44
1.0
1001
ACAD
1000
ACAD_MTEXT_DEFINED_HEIGHT_BEGIN
1070
    46
1040
2.704444373632686
1000
ACAD_MTEXT_DEFINED_HEIGHT_END
  0
MTEXT
  5
12C55
330
1F
100
AcDbEntity
  8
图框
100
AcDbMText
 10
379.1424244907663
 20
256.3696400663317
 30
0.0
 40
1.200004709114095
 41
12.13366799636653
 46
2.704444373632686
 71
     5
 72
     5
  1
{\C4;1010191101201}
  7
Romans字体
 73
     1
 44
1.0
1001
ACAD
1000
ACAD_MTEXT_DEFINED_HEIGHT_BEGIN
1070
    46
1040
2.704444373632686
1000
ACAD_MTEXT_DEFINED_HEIGHT_END
  0
MTEXT
  5
12C56
330
1F
100
AcDbEntity
  8
图框
100
AcDbMText
 10
389.1189197353084
 20
275.3124695984401
 30
0.0
 40
1.200004709114095
 41
7.819322492718905
 46
2.704444373633061
 71
     5
 72
     5
  1
{\C4;1.25}
  7
Romans字体
 73
     1
 44
1.0
1001
ACAD
1000
ACAD_MTEXT_DEFINED_HEIGHT_BEGIN
1070
    46
1040
2.704444373633061
1000
ACAD_MTEXT_DEFINED_HEIGHT_END
  0
MTEXT
  5
12C57
330
1F
100
AcDbEntity
  8
图框
100
AcDbMText
 10
389.1189197353085
 20
280.7212782742846
 30
0.0
 40
1.200004709114095
 41
7.819322492718882
 46
2.704284230795455
 71
     5
 72
     5
  1
{\fFangSong_GB2312|b0|i0|c134|p49;\C4;重量\Fromans|c134;/Weight}
  7
Romans字体
 73
     1
 44
1.0
1001
ACAD
1000
ACAD_MTEXT_DEFINED_HEIGHT_BEGIN
1070
    46
1040
2.704284230795455
1000
ACAD_MTEXT_DEFINED_HEIGHT_END
  0
MTEXT
  5
12C58
330
1F
100
AcDbEntity
  8
图框
100
AcDbMText
 10
389.1189197353085
 20
278.016913972072
 30
0.0
 40
1.200004709114095
 41
7.819322492718764
 46
2.704444373629943
 71
     5
 72
     5
  1
{\C4;g}
  7
Romans字体
 73
     1
 44
1.0
1001
ACAD
1000
ACAD_MTEXT_DEFINED_HEIGHT_BEGIN
1070
    46
1040
2.704444373629943
1000
ACAD_MTEXT_DEFINED_HEIGHT_END
  0
LINE
  5
12C59
330
1F
100
AcDbEntity
  8
图框
370
    -3
100
AcDbLine
 10
393.0285809816681
 20
282.0734203896823
 30
0.0
 11
393.0285809816675
 21
255.0115684680966
 31
0.0
  0
MTEXT
  5
12C5A
330
1F
100
AcDbEntity
  8
图框
100
AcDbMText
 10
389.1189197353083
 20
272.6080252248071
 30
0.0
 40
1.200004709114095
 41
7.819322492718905
 46
2.704444373633061
 71
     5
 72
     5
  1
{\C4;1.33}
  7
Romans字体
 73
     1
 44
1.0
1001
ACAD
1000
ACAD_MTEXT_DEFINED_HEIGHT_BEGIN
1070
    46
1040
2.704444373633061
1000
ACAD_MTEXT_DEFINED_HEIGHT_END
  0
MTEXT
  5
12C5B
330
1F
100
AcDbEntity
  8
图框
100
AcDbMText
 10
389.1189197353084
 20
269.9035808511768
 30
0.0
 40
1.200004709114095
 41
7.819322492718905
 46
2.704444373633061
 71
     5
 72
     5
  1
{\C4;1.30}
  7
Romans字体
 73
     1
 44
1.0
1001
ACAD
1000
ACAD_MTEXT_DEFINED_HEIGHT_BEGIN
1070
    46
1040
2.704444373633061
1000
ACAD_MTEXT_DEFINED_HEIGHT_END
  0
MTEXT
  5
12C5C
330
1F
100
AcDbEntity
  8
图框
100
AcDbMText
 10
389.1189197353084
 20
267.1991364775463
 30
0.0
 40
1.200004709114095
 41
7.819322492718905
 46
2.704444373633061
 71
     5
 72
     5
  1
{\C4;1.29}
  7
Romans字体
 73
     1
 44
1.0
1001
ACAD
1000
ACAD_MTEXT_DEFINED_HEIGHT_BEGIN
1070
    46
1040
2.704444373633061
1000
ACAD_MTEXT_DEFINED_HEIGHT_END
  0
MTEXT
  5
12C5D
330
1F
100
AcDbEntity
  8
图框
100
AcDbMText
 10
389.1189197353083
 20
264.4946921039159
 30
0.0
 40
1.200004709114095
 41
7.819322492718905
 46
2.704444373633061
 71
     5
 72
     5
  1
{\C4;1.33}
  7
Romans字体
 73
     1
 44
1.0
1001
ACAD
1000
ACAD_MTEXT_DEFINED_HEIGHT_BEGIN
1070
    46
1040
2.704444373633061
1000
ACAD_MTEXT_DEFINED_HEIGHT_END
  0
MTEXT
  5
12C5E
330
1F
100
AcDbEntity
  8
图框
100
AcDbMText
 10
389.1189197353087
 20
261.7843782684383
 30
0.0
 40
1.200004709114095
 41
7.819322492718905
 46
2.704444373633061
 71
     5
 72
     5
  1
{\C4;1.36}
  7
Romans字体
 73
     1
 44
1.0
1001
ACAD
1000
ACAD_MTEXT_DEFINED_HEIGHT_BEGIN
1070
    46
1040
2.704444373633061
1000
ACAD_MTEXT_DEFINED_HEIGHT_END
  0
MTEXT
  5
12C5F
330
1F
100
AcDbEntity
  8
图框
100
AcDbMText
 10
389.1189197353089
 20
259.0799539018046
 30
0.0
 40
1.200004709114095
 41
7.819322492718905
 46
2.704444373633061
 71
     5
 72
     5
  1
{\C4;1.27}
  7
Romans字体
 73
     1
 44
1.0
1001
ACAD
1000
ACAD_MTEXT_DEFINED_HEIGHT_BEGIN
1070
    46
1040
2.704444373633061
1000
ACAD_MTEXT_DEFINED_HEIGHT_END
  0
MTEXT
  5
12C60
330
1F
100
AcDbEntity
  8
图框
100
AcDbMText
 10
389.1189197353089
 20
256.3698202597269
 30
0.0
 40
1.200004709114095
 41
7.819322492718905
 46
2.704444373633061
 71
     5
 72
     5
  1
{\C4;1.32}
  7
Romans字体
 73
     1
 44
1.0
1001
ACAD
1000
ACAD_MTEXT_DEFINED_HEIGHT_BEGIN
1070
    46
1040
2.704444373633061
1000
ACAD_MTEXT_DEFINED_HEIGHT_END
  0
LINE
  5
12C61
330
1F
100
AcDbEntity
  8
图框
370
    35
380
     1
100
AcDbLine
 10
449.1993189494221
 20
282.073420389683
 30
0.0
 11
449.1993189494221
 21
255.0115684680975
 31
0.0
  0
LINE
  5
12C62
330
1F
100
AcDbEntity
  8
图框
 62
     1
100
AcDbLine
 10
454.7316449939513
 20
282.0735805324944
 30
0.0
 11
454.7316449939513
 21
262.5438243029781
 31
0.0
  0
LINE
  5
12C63
330
1F
100
AcDbEntity
  8
图框
 62
     1
100
AcDbLine
 10
508.9730686188461
 20
282.0735805324943
 30
0.0
 11
508.9730686188461
 21
262.5438243029781
 31
0.0
  0
MTEXT
  5
13003
330
1F
100
AcDbEntity
  8
图框
100
AcDbMText
 10
422.3080304779206
 20
279.3690560874701
 30
0.0
 40
1.200004709114095
 41
11.65740549190757
 46
5.408728604424518
 71
     5
 72
     5
  1
{\fFangSong_GB2312|b0|i0|c134|p49;\C4;剥线长度\Fromans|c134;\PStripping length}
  7
Romans字体
 73
     1
 44
1.0
1001
ACAD
1000
ACAD_MTEXT_DEFINED_HEIGHT_BEGIN
1070
    46
1040
5.408728604424518
1000
ACAD_MTEXT_DEFINED_HEIGHT_END
  0
LINE
  5
13093
330
1F
100
AcDbEntity
  8
图框
 62
     1
370
    18
100
AcDbLine
 10
362.2152432364329
 20
289.5734203896823
 30
0.0
 11
510.7146182042826
 21
289.5734203896823
 31
0.0
1001
AcDbBlockRepETag
1070
     1
1071
      143
1005
13093
  0
LINE
  5
1309A
330
1F
100
AcDbEntity
  8
图框
370
    35
380
     1
100
AcDbLine
 10
416.4793277319668
 20
282.0734203896825
 30
0.0
 11
416.4793277319668
 21
255.011568468097
 31
0.0
  0
MTEXT
  5
1309B
330
1F
100
AcDbEntity
  8
图框
100
AcDbMText
 10
422.3080304779206
 20
275.3124695984411
 30
0.0
 40
1.200004709114095
 41
11.65740549190751
 46
2.70444437363364
 71
     5
 72
     5
  1
{\C4;7.5}
  7
Romans字体
 73
     1
 44
1.0
1001
ACAD
1000
ACAD_MTEXT_DEFINED_HEIGHT_BEGIN
1070
    46
1040
2.70444437363364
1000
ACAD_MTEXT_DEFINED_HEIGHT_END
  0
MTEXT
  5
1309C
330
1F
100
AcDbEntity
  8
图框
100
AcDbMText
 10
422.3080304779206
 20
272.6080252248074
 30
0.0
 40
1.200004709114095
 41
11.65740549190751
 46
2.704444373633473
 71
     5
 72
     5
  1
{\C4;7.5}
  7
Romans字体
 73
     1
 44
1.0
1001
ACAD
1000
ACAD_MTEXT_DEFINED_HEIGHT_BEGIN
1070
    46
1040
2.704444373633473
1000
ACAD_MTEXT_DEFINED_HEIGHT_END
  0
MTEXT
  5
1309D
330
1F
100
AcDbEntity
  8
图框
100
AcDbMText
 10
422.3080304779206
 20
269.903580851177
 30
0.0
 40
1.200004709114095
 41
11.65740549190751
 46
2.704444373633473
 71
     5
 72
     5
  1
{\C4;7.5}
  7
Romans字体
 73
     1
 44
1.0
1001
ACAD
1000
ACAD_MTEXT_DEFINED_HEIGHT_BEGIN
1070
    46
1040
2.704444373633473
1000
ACAD_MTEXT_DEFINED_HEIGHT_END
  0
MTEXT
  5
1309E
330
1F
100
AcDbEntity
  8
图框
100
AcDbMText
 10
422.3080304779206
 20
267.1991364775466
 30
0.0
 40
1.200004709114095
 41
11.65740549190751
 46
2.704444373633358
 71
     5
 72
     5
  1
{\C4;7.5}
  7
Romans字体
 73
     1
 44
1.0
1001
ACAD
1000
ACAD_MTEXT_DEFINED_HEIGHT_BEGIN
1070
    46
1040
2.704444373633358
1000
ACAD_MTEXT_DEFINED_HEIGHT_END
  0
MTEXT
  5
1309F
330
1F
100
AcDbEntity
  8
图框
100
AcDbMText
 10
422.3080304779206
 20
264.4917573729945
 30
0.0
 40
1.200004709114095
 41
11.65740549190757
 46
2.71031383547689
 71
     5
 72
     5
  1
{\C4;7.5}
  7
Romans字体
 73
     1
 44
1.0
1001
ACAD
1000
ACAD_MTEXT_DEFINED_HEIGHT_BEGIN
1070
    46
1040
2.71031383547689
1000
ACAD_MTEXT_DEFINED_HEIGHT_END
  0
MTEXT
  5
130A0
330
1F
100
AcDbEntity
  8
图框
100
AcDbMText
 10
422.3080304779206
 20
261.7814435375193
 30
0.0
 40
1.200004709114095
 41
11.65740549190757
 46
2.710313835473252
 71
     5
 72
     5
  1
{\C4;7.5}
  7
Romans字体
 73
     1
 44
1.0
1001
ACAD
1000
ACAD_MTEXT_DEFINED_HEIGHT_BEGIN
1070
    46
1040
2.710313835473252
1000
ACAD_MTEXT_DEFINED_HEIGHT_END
  0
MTEXT
  5
130A1
330
1F
100
AcDbEntity
  8
图框
100
AcDbMText
 10
422.3080304779206
 20
259.0740644329658
 30
0.0
 40
1.200004709114095
 41
11.65740549190757
 46
2.704444373633585
 71
     5
 72
     5
  1
{\C4;7.5}
  7
Romans字体
 73
     1
 44
1.0
1001
ACAD
1000
ACAD_MTEXT_DEFINED_HEIGHT_BEGIN
1070
    46
1040
2.704444373633585
1000
ACAD_MTEXT_DEFINED_HEIGHT_END
  0
MTEXT
  5
130A2
330
1F
100
AcDbEntity
  8
图框
100
AcDbMText
 10
422.3080304779206
 20
256.3696400663326
 30
0.0
 40
1.200004709114095
 41
11.65740549190757
 46
2.704444373633358
 71
     5
 72
     5
  1
{\C4;7.5}
  7
Romans字体
 73
     1
 44
1.0
1001
ACAD
1000
ACAD_MTEXT_DEFINED_HEIGHT_BEGIN
1070
    46
1040
2.704444373633358
1000
ACAD_MTEXT_DEFINED_HEIGHT_END
  0
MTEXT
  5
13EBA
330
1F
100
AcDbEntity
  8
图框
 62
     3
100
AcDbMText
 10
500.5699706088269
 20
203.270449343129
 30
0.0
 40
1.492756789270166
 41
16.80619601594785
 46
4.343372757943781
 71
     5
 72
     5
  1
CESM-0.75
  7
Romans字体
 73
     1
 44
1.0
1001
ACAD
1000
ACAD_MTEXT_DEFINED_HEIGHT_BEGIN
1070
    46
1040
4.343372757943781
1000
ACAD_MTEXT_DEFINED_HEIGHT_END
  0
MTEXT
  5
13EBB
330
1F
100
AcDbEntity
  8
图框
 62
     3
100
AcDbMText
 10
500.5699706088269
 20
198.8807240745606
 30
0.0
 40
1.492756789270166
 41
16.80619601594785
 46
4.436077779192771
 71
     5
 72
     5
  1
{\C4;1010191100601}
  7
Romans字体
 73
     1
 44
1.0
1001
ACAD
1000
ACAD_MTEXT_DEFINED_HEIGHT_BEGIN
1070
    46
1040
4.436077779192771
1000
ACAD_MTEXT_DEFINED_HEIGHT_END
  0
MTEXT
  5
13EBC
330
1F
100
AcDbEntity
  8
图框
 62
     3
100
AcDbMText
 10
466.5431381035733
 20
192.2269065273738
 30
0.0
 40
1.492756789270166
 41
5.414674223554219
 46
3.943047305235955
 71
     5
 72
     5
  1
2:1 
  7
Romans字体
 73
     1
 44
1.0
1001
ACAD
1000
ACAD_MTEXT_DEFINED_HEIGHT_BEGIN
1070
    46
1040
3.943047305235955
1000
ACAD_MTEXT_DEFINED_HEIGHT_END
  0
MTEXT
  5
13EBD
330
1F
100
AcDbEntity
  8
图框
 62
     3
100
AcDbMText
 10
477.3496686217917
 20
191.9989549813175
 30
0.0
 40
1.492756789270166
 41
5.414674223555065
 46
3.943047305235904
 71
     5
 72
     5
  1
1.30g
  7
Romans字体
 73
     1
 44
1.0
1001
ACAD
1000
ACAD_MTEXT_DEFINED_HEIGHT_BEGIN
1070
    46
1040
3.943047305235904
1000
ACAD_MTEXT_DEFINED_HEIGHT_END
  0
INSERT
  5
13EBE
330
1F
100
AcDbEntity
  8
DIM
100
AcDbBlockReference
  2
A4图框-NEW
 10
-54.49118335011199
 20
-55.69396471345189
 30
0.0
 41
0.5000000005871926
 42
0.5000000005871926
 43
0.5000000005871991
  0
ENDSEC
  0
SECTION
  2
OBJECTS
  0
DICTIONARY
  5
C
330
0
100
AcDbDictionary
281
     1
  3
ACAD_COLOR
350
4FFE
  3
ACAD_GROUP
350
D
  3
ACAD_LAYOUT
350
1A
  3
ACAD_MATERIAL
350
4FE5
  3
ACAD_MLEADERSTYLE
350
5022
  3
ACAD_MLINESTYLE
350
17
  3
ACAD_PLOTSETTINGS
350
19
  3
ACAD_PLOTSTYLENAME
350
E
  3
ACAD_RENDER_PLOT_SETTINGS
350
6537
  3
ACAD_SCALELIST
350
5000
  3
ACAD_TABLESTYLE
350
4FE3
  3
ACAD_VISUALSTYLE
350
2A
  3
ACDB_RECOMPOSE_DATA
350
50EC
  3
AcDbVariableDictionary
350
5108
  3
ASE_INDEX_DICTIONARY
350
14143
  0
DICTIONARY
  5
50EE
330
8
100
AcDbDictionary
280
     1
281
     1
  0
DICTIONARY
  5
50B8
330
2
100
AcDbDictionary
280
     1
281
     1
  3
ACAD_LAYERFILTERS
360
67BE
  3
ACAD_LAYERSTATES
360
50B9
  3
ACLYDICTIONARY
360
67BD
  0
DICTIONARY
  5
50D0
330
10
100
AcDbDictionary
280
     1
281
     1
  3
ADSK_XREC_LAYER_RECONCILED
360
50D1
  0
DICTIONARY
  5
50D2
330
3B
100
AcDbDictionary
280
     1
281
     1
  3
ADSK_XREC_LAYER_RECONCILED
360
50D3
  0
DICTIONARY
  5
50AF
330
50AE
100
AcDbDictionary
280
     1
281
     1
  3
ADSK_XREC_LAYER_RECONCILED
360
50D4
  0
DICTIONARY
  5
67C0
330
1F
100
AcDbDictionary
280
     1
281
     1
  3
ACAD_SORTENTS
360
67C1
  0
DICTIONARY
  5
1433F
330
13E17
100
AcDbDictionary
280
     1
281
     1
  0
DICTIONARY
  5
14348
330
142AA
100
AcDbDictionary
280
     1
281
     1
  3
ACAD_MTEXT_2008_RT
360
14349
  0
DICTIONARY
  5
1434A
330
142EE
100
AcDbDictionary
280
     1
281
     1
  3
ACAD_MTEXT_2008_RT
360
1434B
  0
DICTIONARY
  5
1434C
330
142EF
100
AcDbDictionary
280
     1
281
     1
  3
ACAD_MTEXT_2008_RT
360
1434D
  0
DICTIONARY
  5
1434E
330
14314
100
AcDbDictionary
280
     1
281
     1
  3
ACAD_MTEXT_2008_RT
360
1434F
  0
DICTIONARY
  5
14350
330
14317
100
AcDbDictionary
280
     1
281
     1
  3
ACAD_MTEXT_2008_RT
360
14351
  0
DICTIONARY
  5
14352
330
14318
100
AcDbDictionary
280
     1
281
     1
  3
ACAD_MTEXT_2008_RT
360
14353
  0
DICTIONARY
  5
14354
330
14322
100
AcDbDictionary
280
     1
281
     1
  3
ACAD_MTEXT_2008_RT
360
14355
  0
DICTIONARY
  5
14356
330
14323
100
AcDbDictionary
280
     1
281
     1
  3
ACAD_MTEXT_2008_RT
360
14357
  0
DICTIONARY
  5
14358
330
14324
100
AcDbDictionary
280
     1
281
     1
  3
ACAD_MTEXT_2008_RT
360
14359
  0
DICTIONARY
  5
1435A
330
14332
100
AcDbDictionary
280
     1
281
     1
  3
ACAD_MTEXT_2008_RT
360
1435B
  0
DICTIONARY
  5
1435C
330
14333
100
AcDbDictionary
280
     1
281
     1
  3
ACAD_MTEXT_2008_RT
360
1435D
  0
DICTIONARY
  5
1435E
330
14334
100
AcDbDictionary
280
     1
281
     1
  3
ACAD_MTEXT_2008_RT
360
1435F
  0
DICTIONARY
  5
12AF3
330
12AF2
100
AcDbDictionary
280
     1
281
     1
  3
ACAD_DIMASSOC
360
12AF4
  0
DICTIONARY
  5
12B03
330
12B02
100
AcDbDictionary
280
     1
281
     1
  3
ACAD_DIMASSOC
360
12B04
  0
DICTIONARY
  5
12B14
330
12B13
100
AcDbDictionary
280
     1
281
     1
  3
ACAD_DIMASSOC
360
12B15
  0
DICTIONARY
  5
12C49
330
12C48
100
AcDbDictionary
280
     1
281
     1
  3
ACAD_DIMASSOC
360
12C4A
  0
DICTIONARY
  5
14346
330
12C4B
100
AcDbDictionary
280
     1
281
     1
  3
ACAD_MTEXT_2008_RT
360
14347
  0
DICTIONARY
  5
4FFE
102
{ACAD_REACTORS
330
C
102
}
330
C
100
AcDbDictionary
281
     1
  0
DICTIONARY
  5
D
102
{ACAD_REACTORS
330
C
102
}
330
C
100
AcDbDictionary
281
     1
  0
DICTIONARY
  5
1A
102
{ACAD_REACTORS
330
C
102
}
330
C
100
AcDbDictionary
281
     1
  3
Layout1
350
1E
  3
Layout2
350
26
  3
Model
350
22
  0
DICTIONARY
  5
4FE5
102
{ACAD_REACTORS
330
C
102
}
330
C
100
AcDbDictionary
281
     1
  3
ByBlock
350
4FEE
  3
ByLayer
350
4FE6
  3
Global
350
4FF6
  0
DICTIONARY
  5
5022
102
{ACAD_REACTORS
330
C
102
}
330
C
100
AcDbDictionary
281
     1
  3
Standard
350
5023
  0
DICTIONARY
  5
17
102
{ACAD_REACTORS
330
C
102
}
330
C
100
AcDbDictionary
281
     1
  3
Standard
350
18
  0
DICTIONARY
  5
19
102
{ACAD_REACTORS
330
C
102
}
330
C
100
AcDbDictionary
281
     1
  0
ACDBDICTIONARYWDFLT
  5
E
102
{ACAD_REACTORS
330
C
102
}
330
C
100
AcDbDictionary
281
     1
  3
Normal
350
F
  3
Style 1
350
11B6F
100
AcDbDictionaryWithDefault
340
F
  0
DICTIONARY
  5
6537
102
{ACAD_REACTORS
330
C
102
}
330
C
100
AcDbDictionary
281
     1
  3
{1DC63513-1B1A-422F-9880-65CFD2B8D533}
350
6538
  0
DICTIONARY
  5
5000
102
{ACAD_REACTORS
330
C
102
}
330
C
100
AcDbDictionary
281
     1
  3
A0
350
5001
  3
A1
350
5002
  3
A2
350
5003
  3
A3
350
5004
  3
A4
350
5005
  3
A5
350
5006
  3
A6
350
5007
  3
A7
350
5008
  3
A8
350
5009
  3
A9
350
500A
  3
B0
350
500B
  3
B1
350
500C
  3
B2
350
500D
  3
B3
350
500E
  3
B4
350
500F
  3
B5
350
5010
  3
B6
350
5011
  3
B7
350
5012
  3
B8
350
5013
  3
B9
350
5014
  3
C0
350
5015
  3
C1
350
5016
  3
C2
350
5017
  3
C3
350
5018
  3
C4
350
5019
  3
C5
350
501A
  3
C6
350
501B
  3
C7
350
501C
  3
C8
350
501D
  3
C9
350
501E
  3
D0
350
501F
  3
D1
350
5020
  3
D2
350
5021
  0
DICTIONARY
  5
4FE3
102
{ACAD_REACTORS
330
C
102
}
330
C
100
AcDbDictionary
281
     1
  3
Standard
350
4FFF
  0
DICTIONARY
  5
2A
102
{ACAD_REACTORS
330
C
102
}
330
C
100
AcDbDictionary
281
     1
  3
2dWireframe
350
2F
  3
3D Hidden
350
31
  3
3dWireframe
350
30
  3
Basic
350
32
  3
Brighten
350
36
  3
ColorChange
350
3A
  3
Conceptual
350
34
  3
Dim
350
35
  3
Facepattern
350
39
  3
Flat
350
2B
  3
FlatWithEdges
350
2C
  3
Gouraud
350
2D
  3
GouraudWithEdges
350
2E
  3
Linepattern
350
38
  3
Realistic
350
33
  3
Thicken
350
37
  0
XRECORD
  5
50EC
102
{ACAD_REACTORS
330
C
102
}
330
C
100
AcDbXrecord
280
     1
 90
        1
330
4FFF
330
12C4B
330
142AA
330
142EE
330
142EF
330
14314
330
14317
330
14318
330
14322
330
14323
330
14324
330
14332
330
14333
330
14334
  0
DICTIONARY
  5
5108
102
{ACAD_REACTORS
330
C
102
}
330
C
100
AcDbDictionary
281
     1
  3
CANNOSCALE
350
510B
  3
CMLEADERSTYLE
350
510A
  3
CTABLESTYLE
350
5109
  3
DIMASSOC
350
510E
  3
INDEXCTL
350
510D
  3
LIGHTINGUNITS
350
14344
  3
MSLTSCALE
350
14343
  3
SORTENTS
350
510C
  0
DICTIONARY
  5
14143
102
{ACAD_REACTORS
330
C
102
}
330
C
100
AcDbDictionary
281
     1
  3
ASEBlockHierarchyIndexRecord
350
14144
1001
DCO15
1040
1903428632.093
  0
DICTIONARY
  5
67BE
102
{ACAD_REACTORS
330
50B8
102
}
330
50B8
100
AcDbDictionary
281
     1
  0
DICTIONARY
  5
50B9
102
{ACAD_REACTORS
330
50B8
102
}
330
50B8
100
AcDbDictionary
281
     1
  0
DICTIONARY
  5
67BD
102
{ACAD_REACTORS
330
50B8
102
}
330
50B8
100
AcDbDictionary
281
     1
1001
ACAD
1000
<All
  0
XRECORD
  5
50D1
102
{ACAD_REACTORS
330
50D0
102
}
330
50D0
100
AcDbXrecord
280
     1
290
     1
  0
XRECORD
  5
50D3
102
{ACAD_REACTORS
330
50D2
102
}
330
50D2
100
AcDbXrecord
280
     1
290
     1
  0
XRECORD
  5
50D4
102
{ACAD_REACTORS
330
50AF
102
}
330
50AF
100
AcDbXrecord
280
     1
290
     1
  0
SORTENTSTABLE
  5
67C1
102
{ACAD_REACTORS
330
67C0
102
}
330
67C0
100
AcDbSortentsTable
330
1F
331
12AD0
  5
12B6A
331
12B37
  5
12BCC
331
12B6E
  5
12C03
331
12A99
  5
12B33
331
12AD8
  5
12B72
331
12BAD
  5
12C42
331
12BE0
  5
13016
331
12BB5
  5
12C4C
331
12AE0
  5
12B7A
331
12B3F
  5
12BD4
331
12AA1
  5
12B3B
331
12B76
  5
12C0B
331
12BE8
  5
1301E
331
12BBD
  5
12C54
331
12C27
  5
1305D
331
12AE8
  5
12B82
331
12B47
  5
12BDC
331
12AA9
  5
12B43
331
12B7E
  5
12C13
331
12BF0
  5
13026
331
12B86
  5
12C1B
331
12BC5
  5
12C5C
331
12B4F
  5
12BE4
331
12C2F
  5
13065
331
12C37
  5
1306D
331
12BF8
  5
1302E
331
12C3F
  5
13075
331
12B11
  5
12BA7
331
12C61
  5
13095
331
12ACA
  5
12B64
331
12AB1
  5
12B4B
331
12AF8
  5
12B90
331
12B57
  5
12BEC
331
12B8E
  5
12C23
331
12AB9
  5
12B53
331
12B18
  5
12BAD
331
12BCD
  5
13003
331
12BD5
  5
1300B
331
12B5F
  5
12BF4
331
12B96
  5
12C2B
331
12AC1
  5
12B5B
331
12B20
  5
12BB5
331
12C00
  5
13036
331
12C08
  5
1303E
331
12BDD
  5
13013
331
12C47
  5
1307D
331
12B28
  5
12BBD
331
4842
  5
4E94
331
12B67
  5
12BFC
331
12B9E
  5
12C33
331
12BA6
  5
12C3B
331
12C10
  5
13046
331
12C57
  5
1308B
331
12C5F
  5
13093
331
12C18
  5
1304E
331
12AF2
  5
12B8C
331
12B02
  5
12B9A
331
12B0A
  5
12BA0
331
2EE7
  5
2F93
331
12AD1
  5
12B6B
331
2F93
  5
2FDE
331
12B30
  5
12BC5
331
12B6F
  5
12C04
331
12BAE
  5
12C43
331
12AD9
  5
12B73
331
12B38
  5
12BCD
331
12A9A
  5
12B34
331
12BE1
  5
13017
331
12B77
  5
12C0C
331
12BB6
  5
12C4D
331
12AA2
  5
12B3C
331
12AE1
  5
12B7B
331
12B40
  5
12BD5
331
12C20
  5
13056
331
12C28
  5
1305E
331
12BE9
  5
1301F
331
12B48
  5
12BDD
331
12B7F
  5
12C14
331
12AAA
  5
12B44
331
12AE9
  5
12B83
331
12BBE
  5
12C55
331
12BF1
  5
13027
331
12BC6
  5
12C5D
331
12B87
  5
12C1C
331
12BF9
  5
1302F
331
12C38
  5
1306E
331
12B12
  5
12BA8
331
12C62
  5
13096
331
12ACB
  5
12B65
331
12AF9
  5
12B91
331
12B50
  5
12BE5
331
12AB2
  5
12B4C
331
12BCE
  5
13004
331
12B19
  5
12BAE
331
12B58
  5
12BED
331
12ABA
  5
12B54
331
12B8F
  5
12C24
331
12C01
  5
13037
331
12B97
  5
12C2C
331
12BD6
  5
1300C
331
12AC2
  5
12B5C
331
12B21
  5
12BB6
331
3943
  5
4842
331
12B60
  5
12BF5
331
12C40
  5
13076
331
12C50
  5
13084
331
12C09
  5
1303F
331
12B9F
  5
12C34
331
12B29
  5
12BBE
331
12BDE
  5
13014
331
12C58
  5
1308C
331
12BA7
  5
12C3C
331
12C11
  5
13047
331
12C19
  5
1304F
331
12C4B
  5
1307F
331
12B0B
  5
12BA1
331
12B68
  5
12BFD
331
12AD2
  5
12B6C
331
12B31
  5
12BC6
331
12B39
  5
12BCE
331
12B70
  5
12C05
331
12A9B
  5
12B35
331
12ADA
  5
12B74
331
12BAF
  5
12C44
331
12BE2
  5
13018
331
12BB7
  5
12C4E
331
12C21
  5
13057
331
12AE2
  5
12B7C
331
12B41
  5
12BD6
331
12AA3
  5
12B3D
331
12B78
  5
12C0D
331
12BEA
  5
13020
331
12B80
  5
12C15
331
12BBF
  5
12C56
331
12AEA
  5
12B84
331
12B49
  5
12BDE
331
12C29
  5
1305F
331
12AAB
  5
12B45
331
12BF2
  5
13028
331
12BC7
  5
12C5E
331
12C31
  5
13067
331
12C39
  5
1306F
331
12BFA
  5
13030
331
12B13
  5
12BA9
331
12C63
  5
13097
331
12ACC
  5
12B66
331
12B88
  5
12C1D
331
12AB3
  5
12B4D
331
12AFA
  5
12B92
331
12B51
  5
12BE6
331
12B59
  5
12BEE
331
12B90
  5
12C25
331
12ABB
  5
12B55
331
12B1A
  5
12BAF
331
12BCF
  5
13005
331
12C02
  5
13038
331
12BD7
  5
1300D
331
12C41
  5
13077
331
12B22
  5
12BB7
331
12B61
  5
12BF6
331
12AC3
  5
12B5D
331
12B98
  5
12C2D
331
12C0A
  5
13040
331
12BDF
  5
13015
331
12C51
  5
13085
331
12B2A
  5
12BBF
331
12BA0
  5
12C35
331
12C12
  5
13048
331
12C59
  5
1308D
331
12C4C
  5
13080
331
12B0C
  5
12BA2
331
12BA8
  5
12C3D
331
12AD3
  5
12B6D
331
12B32
  5
12BC7
331
12B69
  5
12BFE
331
12B71
  5
12C06
331
12BB0
  5
12C45
331
12A9C
  5
12B36
331
12ADB
  5
12B75
331
12B3A
  5
12BCF
331
12BE3
  5
13019
331
12B79
  5
12C0E
331
12BB8
  5
12C4F
331
12C22
  5
13058
331
12AA4
  5
12B3E
331
12AE3
  5
12B7D
331
12B42
  5
12BD7
331
12C2A
  5
13060
331
12BEB
  5
13021
331
12B4A
  5
12BDF
331
12B81
  5
12C16
331
12AAC
  5
12B46
331
12AEB
  5
12B85
331
12BC0
  5
12C57
331
12BF3
  5
13029
331
12C32
  5
13068
331
12BFB
  5
13031
331
12C3A
  5
13070
331
12ACD
  5
12B67
331
12BC8
  5
12C5F
331
12AFB
  5
12B93
331
12B52
  5
12BE7
331
12AB4
  5
12B4E
331
12B89
  5
12C1E
331
12B91
  5
12C26
331
12BD0
  5
13006
331
12B1B
  5
12BB0
331
12B5A
  5
12BEF
331
3895
  5
3943
331
12ABC
  5
12B56
331
12C03
  5
13039
331
12B99
  5
12C2E
331
12BD8
  5
1300E
331
12C42
  5
13078
331
12AC4
  5
12B5E
331
12B23
  5
12BB8
331
12B62
  5
12BF7
331
12C52
  5
13086
331
12BA1
  5
12C36
331
12B2B
  5
12BC0
331
12C0B
  5
13041
331
12C13
  5
13049
331
12C5A
  5
1308E
331
12C1B
  5
13051
331
12AF5
  5
12B8D
331
12C4D
  5
13081
331
12B05
  5
12B9B
331
12B0D
  5
12BA3
331
12B33
  5
12BC8
331
12B6A
  5
12BFF
331
12AD4
  5
12B6E
331
12BA9
  5
12C3E
331
12B3B
  5
12BD0
331
12B72
  5
12C07
331
2FDE
  5
35C8
331
12A9D
  5
12B37
331
12ADC
  5
12B76
331
12BB1
  5
12C46
331
12BE4
  5
1301A
331
12BB9
  5
12C50
331
12C23
  5
13059
331
12AE4
  5
12B7E
331
12B43
  5
12BD8
331
12AA5
  5
12B3F
331
12B7A
  5
12C0F
331
12BEC
  5
13022
331
12B82
  5
12C17
331
12BC1
  5
12C58
331
12AAD
  5
12B47
331
12AEC
  5
12B86
331
12B4B
  5
12BE0
331
12C2B
  5
13061
331
12BF4
  5
1302A
331
12C33
  5
13069
331
12C3B
  5
13071
331
12BFC
  5
13032
331
12ACE
  5
12B68
331
12B8A
  5
12C1F
331
12BC9
  5
12C60
331
12AB5
  5
12B4F
331
12AFC
  5
12B94
331
12B53
  5
12BE8
331
12B5B
  5
12BF0
331
12B92
  5
12C27
331
12ABD
  5
12B57
331
12B1C
  5
12BB1
331
12BD1
  5
13007
331
12C04
  5
1303A
331
12BD9
  5
1300F
331
12C43
  5
13079
331
12B24
  5
12BB9
331
12B63
  5
12BF8
331
12AC5
  5
12B5F
331
12B9A
  5
12C2F
331
12BA2
  5
12C37
331
12B2C
  5
12BC1
331
12C0C
  5
13042
331
12C53
  5
13087
331
12C14
  5
1304A
331
12C5B
  5
1308F
331
12C1C
  5
13052
331
12AF6
  5
12B8E
331
12C4E
  5
13082
331
12B06
  5
12B9C
331
12B0E
  5
12BA4
331
12BAA
  5
12C3F
331
12AD5
  5
12B6F
331
12B34
  5
12BC9
331
12A96
  5
12B30
331
12B6B
  5
12C00
331
12B73
  5
12C08
331
12BB2
  5
12C47
331
12A9E
  5
12B38
331
12ADD
  5
12B77
331
12B3C
  5
12BD1
331
12C24
  5
1305A
331
13003
  5
13098
331
12BE5
  5
1301B
331
12B44
  5
12BD9
331
12B7B
  5
12C10
331
12AA6
  5
12B40
331
12AE5
  5
12B7F
331
12BBA
  5
12C51
331
12C2C
  5
13062
331
13093
  5
12B2B
331
12BED
  5
13023
331
12B4C
  5
12BE1
331
12B83
  5
12C18
331
12AAE
  5
12B48
331
12AED
  5
12B87
331
12BC2
  5
12C59
331
12BF5
  5
1302B
331
12C34
  5
1306A
331
12BFD
  5
13033
331
12C3C
  5
13072
331
12B16
  5
12BAA
331
12ACF
  5
12B69
331
12BCA
  5
12C61
331
12AFD
  5
12B95
331
12B54
  5
12BE9
331
3807
  5
3895
331
12AB6
  5
12B50
331
12B8B
  5
12C20
331
12B93
  5
12C28
331
12BD2
  5
13008
331
12ABE
  5
12B58
331
12B1D
  5
12BB2
331
12B5C
  5
12BF1
331
12C05
  5
1303B
331
12B9B
  5
12C30
331
12BDA
  5
13010
331
12AC6
  5
12B60
331
12B25
  5
12BBA
331
12B64
  5
12BF9
331
12C44
  5
1307A
331
12C54
  5
13088
331
12BA3
  5
12C38
331
12B2D
  5
12BC2
331
12C0D
  5
13043
331
12C15
  5
1304B
331
12C5C
  5
13090
331
12C1D
  5
13053
331
12AF7
  5
12B8F
331
12C4F
  5
13083
331
12B07
  5
12B9D
331
12B0F
  5
12BA5
331
12B35
  5
12BCA
331
12B6C
  5
12C01
331
12A97
  5
12B31
331
12AD6
  5
12B70
331
12BAB
  5
12C40
331
12BB3
  5
12C48
331
12B3D
  5
12BD2
331
12B74
  5
12C09
331
35C8
  5
35D8
331
12A9F
  5
12B39
331
12ADE
  5
12B78
331
12BE6
  5
1301C
331
12BBB
  5
12C52
331
12C25
  5
1305B
331
12AE6
  5
12B80
331
12B45
  5
12BDA
331
35D8
  5
3807
331
12AA7
  5
12B41
331
12B7C
  5
12C11
331
12BEE
  5
13024
331
12B84
  5
12C19
331
12BC3
  5
12C5A
331
12AAF
  5
12B49
331
12AEE
  5
12B88
331
12B4D
  5
12BE2
331
12C2D
  5
13063
331
12C35
  5
1306B
331
12BF6
  5
1302C
331
12C3D
  5
13073
331
12BFE
  5
13034
331
12B17
  5
12BAC
331
12AC8
  5
12B62
331
12B55
  5
12BEA
331
12B8C
  5
12C21
331
12AB7
  5
12B51
331
12AFE
  5
12B96
331
12BCB
  5
12C62
331
12B5D
  5
12BF2
331
12B94
  5
12C29
331
12ABF
  5
12B59
331
12B1E
  5
12BB3
331
12BD3
  5
13009
331
12C06
  5
1303C
331
12BDB
  5
13011
331
12C45
  5
1307B
331
12B26
  5
12BBB
331
12B65
  5
12BFA
331
12AC7
  5
12B61
331
12B9C
  5
12C31
331
12BA4
  5
12C39
331
12B2E
  5
12BC3
331
12C0E
  5
13044
331
12C55
  5
13089
331
12C16
  5
1304C
331
12C5D
  5
13091
331
12C1E
  5
13054
331
12AF0
  5
12B8A
331
12C48
  5
1307E
331
12B00
  5
12B98
331
2C65
  5
2EE7
331
12B08
  5
12B9E
331
12BAC
  5
12C41
331
12AD7
  5
12B71
331
12B36
  5
12BCB
331
12A98
  5
12B32
331
12B6D
  5
12C02
331
12B75
  5
12C0A
331
12BB4
  5
12C4B
331
12AA0
  5
12B3A
331
12ADF
  5
12B79
331
12B3E
  5
12BD3
331
12C26
  5
1305C
331
12BE7
  5
1301D
331
12B46
  5
12BDB
331
12B7D
  5
12C12
331
12AA8
  5
12B42
331
12AE7
  5
12B81
331
12BBC
  5
12C53
331
12C2E
  5
13064
331
12BC4
  5
12C5B
331
12B4E
  5
12BE3
331
12B85
  5
12C1A
331
12AEF
  5
12B89
331
12BEF
  5
13025
331
12BF7
  5
1302D
331
12C36
  5
1306C
331
12BFF
  5
13035
331
12C3E
  5
13074
331
12B10
  5
12BA6
331
12C60
  5
13094
331
12AC9
  5
12B63
331
12AB0
  5
12B4A
331
12BCC
  5
12C63
331
12AFF
  5
12B97
331
12B56
  5
12BEB
331
12AB8
  5
12B52
331
12B8D
  5
12C22
331
12B95
  5
12C2A
331
12BD4
  5
1300A
331
12AC0
  5
12B5A
331
12B1F
  5
12BB4
331
12B5E
  5
12BF3
331
12C46
  5
1307C
331
12C07
  5
1303D
331
12B66
  5
12BFB
331
12B9D
  5
12C32
331
12B27
  5
12BBC
331
12BDC
  5
13012
331
12C56
  5
1308A
331
12BA5
  5
12C3A
331
12B2F
  5
12BC4
331
12C0F
  5
13045
331
12C17
  5
1304D
331
12C5E
  5
13092
331
12C1F
  5
13055
331
12AF1
  5
12B8B
331
28AE
  5
2A38
331
12B01
  5
12B99
331
12B09
  5
12B9F
  0
XRECORD
  5
14349
102
{ACAD_REACTORS
330
14348
102
}
330
14348
100
AcDbXrecord
280
     1
 40
1527.0
  1
\pxqc;BQ LUO
  0
XRECORD
  5
1434B
102
{ACAD_REACTORS
330
1434A
102
}
330
1434A
100
AcDbXrecord
280
     1
 40
3624820.0
  1
\pxqc;档案员{\H0.7x;\P\Fromans|c134;Filing Clerk\fFangSong_GB2312|b0|i0|c134|p49; }
  0
XRECORD
  5
1434D
102
{ACAD_REACTORS
330
1434C
102
}
330
1434C
100
AcDbXrecord
280
     1
 40
2054623.0
  1
\pxqc;日期{\Fromans|c134;/Date}
  0
XRECORD
  5
1434F
102
{ACAD_REACTORS
330
1434E
102
}
330
1434E
100
AcDbXrecord
280
     1
 40
1836818.0
  1
\pxsm0.7;{\fFangSong_GB2312|b0|i0|c134|p49;标准化}\PStand.
  0
XRECORD
  5
14351
102
{ACAD_REACTORS
330
14350
102
}
330
14350
100
AcDbXrecord
280
     1
 40
1476476.0
  1
\pxsm0.7;签名\P{\Fromans|c134;Signature} 
  0
XRECORD
  5
14353
102
{ACAD_REACTORS
330
14352
102
}
330
14352
100
AcDbXrecord
280
     1
 40
1354713.0
  1
\pxsm0.7,qc;处数\P{\Fromans|c134;Number }
  0
XRECORD
  5
14355
102
{ACAD_REACTORS
330
14354
102
}
330
14354
100
AcDbXrecord
280
     1
 40
1692934.0
  1
\pxsm0.7;标记\P{\Fromans|c134;Mark}
  0
XRECORD
  5
14357
102
{ACAD_REACTORS
330
14356
102
}
330
14356
100
AcDbXrecord
280
     1
 40
1391581.0
  1
\pxsm0.7;审核\P{\Fromans|c134;Checked}
  0
XRECORD
  5
14359
102
{ACAD_REACTORS
330
14358
102
}
330
14358
100
AcDbXrecord
280
     1
 40
1546703.0
  1
\pxsm0.7;绘图\P{\Fromans|c134;Drawn\Ftxt|c134; }
  0
XRECORD
  5
1435B
102
{ACAD_REACTORS
330
1435A
102
}
330
1435A
100
AcDbXrecord
280
     1
 40
1293614.0
  1
\pxsm0.7;批准\P{\Fromans|c134;Approved}
  0
XRECORD
  5
1435D
102
{ACAD_REACTORS
330
1435C
102
}
330
1435C
100
AcDbXrecord
280
     1
 40
1583427.0
  1
\pxsm0.7;工艺\P{\Fromans|c134;Process}
  0
XRECORD
  5
1435F
102
{ACAD_REACTORS
330
1435E
102
}
330
1435E
100
AcDbXrecord
280
     1
 40
1435325.0
  1
\pxsm0.7;日期\P{\Fromans|c134;Date}
  0
DIMASSOC
  5
12AF4
102
{ACAD_REACTORS
330
12AF3
102
}
330
12AF3
100
AcDbDimAssoc
330
12AF2
 90
        1
 70
     0
 71
     0
  1
AcDbOsnapPointRef
 72
     2
331
12AE5
 73
     2
 91
        0
 40
1.570796326794893
 10
0.0
 20
0.0
 30
0.0
 75
     0
  0
DIMASSOC
  5
12B04
102
{ACAD_REACTORS
330
12B03
102
}
330
12B03
100
AcDbDimAssoc
330
12B02
 90
        3
 70
     0
 71
     0
  1
AcDbOsnapPointRef
 72
     1
331
12AE5
 73
     2
 91
        0
 40
7.853981633974481
 10
0.0
 20
0.0
 30
2.000000000000000E+50
 75
     0
  1
AcDbOsnapPointRef
 72
    13
331
12AE5
 73
     2
 91
        0
 40
4.712388980384687
 10
0.0
 20
0.0
 30
2.000000000000000E+50
 75
     0
  0
DIMASSOC
  5
12B15
102
{ACAD_REACTORS
330
12B14
102
}
330
12B14
100
AcDbDimAssoc
330
12B13
 90
        3
 70
     0
 71
     0
  1
AcDbOsnapPointRef
 72
     2
331
12AEF
 73
     2
 91
        0
 40
0.4999999999999424
 10
0.0
 20
0.0
 30
0.0
 75
     0
  1
AcDbOsnapPointRef
 72
     2
331
12B10
 73
     2
 91
        0
 40
0.5000000000000455
 10
0.0
 20
0.0
 30
0.0
 75
     0
  0
DIMASSOC
  5
12C4A
102
{ACAD_REACTORS
330
12C49
102
}
330
12C49
100
AcDbDimAssoc
330
12C48
 90
        3
 70
     0
 71
     0
  1
AcDbOsnapPointRef
 72
     1
331
12B0A
 73
     2
 91
        0
 40
1.0
 10
0.0
 20
0.0
 30
2.000000000000000E+50
 75
     0
  1
AcDbOsnapPointRef
 72
     8
331
12AF0
 73
     2
 91
        0
 40
0.9999999999999516
 10
0.0
 20
0.0
 30
0.0
 75
     1
  1
AcDbOsnapPointRef
 72
     1
331
12B0A
 73
     2
 91
        0
 40
1.0
 10
0.0
 20
0.0
 30
2.000000000000000E+50
 75
     0
  0
XRECORD
  5
14347
102
{ACAD_REACTORS
330
14346
102
}
330
14346
100
AcDbXrecord
280
     1
 40
322818569.0
  1
\A1;\pxql;{\f仿宋_GB2312|b0|i0|c134|p49;技术参数}:\P\pq*;- {\f仿宋_GB2312|b0|i0|c134|p49;材料}: {\f仿宋_GB2312|b0|i0|c134|p49;铜合金}\P- {\f仿宋_GB2312|b0|i0|c134|p49;表面处理}: {\f仿宋_GB2312|b0|i0|c134|p49;镀银}\P\pql;- {\f仿宋_GB2312|b0|i0|c134|p49;额定电流}: 16A\P- {\f仿宋_GB231
  1
2|b0|i0|c134|p49;接触电阻}: ≤1mΩ\P- {\f仿宋_GB2312|b0|i0|c134|p49;线径范围}: 0.75mm{\H0.7x;\S2^ ;}(18 AWG)\P\pq*;- {\f仿宋_GB2312|b0|i0|c134|p49;可插拔次数}: {\f仿宋_GB2312|b0|i0|c134|p49;≥}500\P\P\pql;Technical specification:\P- Material: copper alloy\P- Surface: hard-
  1
silver plated\P- Rated current: 16A\P- Contact resistance: ≤1mΩ\P- Wire gauge: 0.75mm{\H0.7x;\S2^ ;}(18 AWG)\P- Mating cycles: {\f仿宋_GB2312|b0|i0|c134|p49;≥}500
  0
LAYOUT
  5
1E
102
{ACAD_REACTORS
330
1A
102
}
330
1A
100
AcDbPlotSettings
  1

  2
none_device
  4

  6

 40
0.0
 41
0.0
 42
0.0
 43
0.0
 44
0.0
 45
0.0
 46
0.0
 47
0.0
 48
0.0
 49
0.0
140
0.0
141
0.0
142
1.0
143
1.0
 70
   688
 72
     0
 73
     0
 74
     5
  7

 75
    16
147
1.0
 76
     0
 77
     2
 78
   300
148
0.0
149
0.0
100
AcDbLayout
  1
Layout1
 70
     1
 71
     1
 10
0.0
 20
0.0
 11
12.0
 21
9.0
 12
0.0
 22
0.0
 32
0.0
 14
1.000000000000000E+20
 24
1.000000000000000E+20
 34
1.000000000000000E+20
 15
-1.000000000000000E+20
 25
-1.000000000000000E+20
 35
-1.000000000000000E+20
146
0.0
 13
0.0
 23
0.0
 33
0.0
 16
1.0
 26
0.0
 36
0.0
 17
0.0
 27
1.0
 37
0.0
 76
     0
330
1B
  0
LAYOUT
  5
26
102
{ACAD_REACTORS
330
1A
102
}
330
1A
100
AcDbPlotSettings
  1

  2
none_device
  4

  6

 40
0.0
 41
0.0
 42
0.0
 43
0.0
 44
0.0
 45
0.0
 46
0.0
 47
0.0
 48
0.0
 49
0.0
140
0.0
141
0.0
142
1.0
143
1.0
 70
   688
 72
     0
 73
     0
 74
     5
  7

 75
    16
147
1.0
 76
     0
 77
     2
 78
   300
148
0.0
149
0.0
100
AcDbLayout
  1
Layout2
 70
     1
 71
     2
 10
0.0
 20
0.0
 11
0.0
 21
0.0
 12
0.0
 22
0.0
 32
0.0
 14
0.0
 24
0.0
 34
0.0
 15
0.0
 25
0.0
 35
0.0
146
0.0
 13
0.0
 23
0.0
 33
0.0
 16
1.0
 26
0.0
 36
0.0
 17
0.0
 27
1.0
 37
0.0
 76
     0
330
23
  0
LAYOUT
  5
22
102
{ACAD_REACTORS
330
1A
102
}
330
1A
100
AcDbPlotSettings
  1

  2
Adobe PDF Converter.pc3
  4
A4
  6

 40
3.174999952316281
 41
3.174999952316281
 42
3.17498779296875
 43
3.175003051757812
 44
297.0318298339844
 45
209.9733276367186
 46
0.0000000000000076
 47
1.630241740247063
 48
246.9897427644609
 49
39.36804549891383
140
544.952097801264
141
244.7492402188181
142
1.0
143
1.025046328645055
 70
  3764
 72
     1
 73
     0
 74
     4
  7
monochrome.ctb
 75
     0
147
0.9755656618192436
 76
     1
 77
     2
 78
   300
148
-246.9897427644609
149
-39.36804549891383
100
AcDbLayout
  1
Model
 70
     1
 71
     0
 10
0.0
 20
0.0
 11
12.0
 21
9.0
 12
0.0
 22
0.0
 32
0.0
 14
1.000000000000000E+20
 24
1.000000000000000E+20
 34
1.000000000000000E+20
 15
-1.000000000000000E+20
 25
-1.000000000000000E+20
 35
-1.000000000000000E+20
146
0.0
 13
0.0
 23
0.0
 33
0.0
 16
1.0
 26
0.0
 36
0.0
 17
0.0
 27
1.0
 37
0.0
 76
     0
330
1F
331
29
1001
ACAD_PSEXT
1000
Adobe PDF Converter.pc3
1000
Adobe PDF Converter
1000
桌面\*.pdf
1000

1070
     0
  0
MATERIAL
  5
4FEE
102
{ACAD_XDICTIONARY
360
4FEF
102
}
102
{ACAD_REACTORS
330
4FE5
102
}
330
4FE5
100
AcDbMaterial
  1
ByBlock
 72
     0
 43
0.0208333333333333
 43
0.0
 43
0.0
 43
0.0
 43
0.0
 43
0.0208333333333333
 43
0.0
 43
0.0
 43
0.0
 43
0.0
 43
1.0
 43
0.0
 43
0.0
 43
0.0
 43
0.0
 43
1.0
 77
     0
 47
0.0208333333333333
 47
0.0
 47
0.0
 47
0.0
 47
0.0
 47
0.0208333333333333
 47
0.0
 47
0.0
 47
0.0
 47
0.0
 47
1.0
 47
0.0
 47
0.0
 47
0.0
 47
0.0
 47
1.0
171
     0
 49
0.0208333333333333
 49
0.0
 49
0.0
 49
0.0
 49
0.0
 49
0.0208333333333333
 49
0.0
 49
0.0
 49
0.0
 49
0.0
 49
1.0
 49
0.0
 49
0.0
 49
0.0
 49
0.0
 49
1.0
175
     0
142
0.0208333333333333
142
0.0
142
0.0
142
0.0
142
0.0
142
0.0208333333333333
142
0.0
142
0.0
142
0.0
142
0.0
142
1.0
142
0.0
142
0.0
142
0.0
142
0.0
142
1.0
179
     0
144
0.0208333333333333
144
0.0
144
0.0
144
0.0
144
0.0
144
0.0208333333333333
144
0.0
144
0.0
144
0.0
144
0.0
144
1.0
144
0.0
144
0.0
144
0.0
144
0.0
144
1.0
147
0.0208333333333333
147
0.0
147
0.0
147
0.0
147
0.0
147
0.0208333333333333
147
0.0
147
0.0
147
0.0
147
0.0
147
1.0
147
0.0
147
0.0
147
0.0
147
0.0
147
1.0
  0
MATERIAL
  5
4FE6
102
{ACAD_XDICTIONARY
360
4FE7
102
}
102
{ACAD_REACTORS
330
4FE5
102
}
330
4FE5
100
AcDbMaterial
  1
ByLayer
 72
     0
 43
0.0208333333333333
 43
0.0
 43
0.0
 43
0.0
 43
0.0
 43
0.0208333333333333
 43
0.0
 43
0.0
 43
0.0
 43
0.0
 43
1.0
 43
0.0
 43
0.0
 43
0.0
 43
0.0
 43
1.0
 77
     0
 47
0.0208333333333333
 47
0.0
 47
0.0
 47
0.0
 47
0.0
 47
0.0208333333333333
 47
0.0
 47
0.0
 47
0.0
 47
0.0
 47
1.0
 47
0.0
 47
0.0
 47
0.0
 47
0.0
 47
1.0
171
     0
 49
0.0208333333333333
 49
0.0
 49
0.0
 49
0.0
 49
0.0
 49
0.0208333333333333
 49
0.0
 49
0.0
 49
0.0
 49
0.0
 49
1.0
 49
0.0
 49
0.0
 49
0.0
 49
0.0
 49
1.0
175
     0
142
0.0208333333333333
142
0.0
142
0.0
142
0.0
142
0.0
142
0.0208333333333333
142
0.0
142
0.0
142
0.0
142
0.0
142
1.0
142
0.0
142
0.0
142
0.0
142
0.0
142
1.0
179
     0
144
0.0208333333333333
144
0.0
144
0.0
144
0.0
144
0.0
144
0.0208333333333333
144
0.0
144
0.0
144
0.0
144
0.0
144
1.0
144
0.0
144
0.0
144
0.0
144
0.0
144
1.0
147
0.0208333333333333
147
0.0
147
0.0
147
0.0
147
0.0
147
0.0208333333333333
147
0.0
147
0.0
147
0.0
147
0.0
147
1.0
147
0.0
147
0.0
147
0.0
147
0.0
147
1.0
  0
MATERIAL
  5
4FF6
102
{ACAD_XDICTIONARY
360
4FF7
102
}
102
{ACAD_REACTORS
330
4FE5
102
}
330
4FE5
100
AcDbMaterial
  1
Global
 72
     0
 43
0.0208333333333333
 43
0.0
 43
0.0
 43
0.0
 43
0.0
 43
0.0208333333333333
 43
0.0
 43
0.0
 43
0.0
 43
0.0
 43
1.0
 43
0.0
 43
0.0
 43
0.0
 43
0.0
 43
1.0
 77
     0
 47
0.0208333333333333
 47
0.0
 47
0.0
 47
0.0
 47
0.0
 47
0.0208333333333333
 47
0.0
 47
0.0
 47
0.0
 47
0.0
 47
1.0
 47
0.0
 47
0.0
 47
0.0
 47
0.0
 47
1.0
171
     0
 49
0.0208333333333333
 49
0.0
 49
0.0
 49
0.0
 49
0.0
 49
0.0208333333333333
 49
0.0
 49
0.0
 49
0.0
 49
0.0
 49
1.0
 49
0.0
 49
0.0
 49
0.0
 49
0.0
 49
1.0
175
     0
142
0.0208333333333333
142
0.0
142
0.0
142
0.0
142
0.0
142
0.0208333333333333
142
0.0
142
0.0
142
0.0
142
0.0
142
1.0
142
0.0
142
0.0
142
0.0
142
0.0
142
1.0
179
     0
144
0.0208333333333333
144
0.0
144
0.0
144
0.0
144
0.0
144
0.0208333333333333
144
0.0
144
0.0
144
0.0
144
0.0
144
1.0
144
0.0
144
0.0
144
0.0
144
0.0
144
1.0
147
0.0208333333333333
147
0.0
147
0.0
147
0.0
147
0.0
147
0.0208333333333333
147
0.0
147
0.0
147
0.0
147
0.0
147
1.0
147
0.0
147
0.0
147
0.0
147
0.0
147
1.0
  0
MLEADERSTYLE
  5
5023
102
{ACAD_REACTORS
330
5022
102
}
330
5022
100
AcDbMLeaderStyle
170
     2
171
     1
172
     0
 90
        2
 40
0.0
 41
0.0
173
     1
 91
-1056964608
340
14
 92
       -2
290
     1
 42
0.09
291
     1
 43
0.36
  3
Standard
 44
0.18
300

342
11
174
     1
178
     6
175
     1
176
     0
 93
-1056964608
 45
0.18
292
     0
297
     0
 46
0.18
 94
-1056964608
 47
1.0
 49
1.0
140
1.0
293
     1
141
0.0
294
     1
177
     0
142
1.0
295
     0
296
     0
143
0.125
1001
ACAD_MLEADERVER
1070
     2
  0
MLINESTYLE
  5
18
102
{ACAD_REACTORS
330
17
102
}
330
17
100
AcDbMlineStyle
  2
STANDARD
 70
     0
  3

 62
   256
 51
90.0
 52
90.0
 71
     2
 49
0.5
 62
   256
  6
BYLAYER
 49
-0.5
 62
   256
  6
BYLAYER
  0
ACDBPLACEHOLDER
  5
F
102
{ACAD_REACTORS
330
E
102
}
330
E
  0
ACDBPLACEHOLDER
  5
11B6F
102
{ACAD_REACTORS
330
E
102
}
330
E
  0
MENTALRAYRENDERSETTINGS
  5
6538
102
{ACAD_REACTORS
330
6537
102
}
330
6537
100
AcDbRenderSettings
 90
        2
  1
中
290
     1
290
     1
290
     1
290
     1
  1

  1
渲染质量好于“低级”。包括纹理过滤并且强制双面处于激活状态。处理中等级反锯齿和 5 反射/折射的光线跟踪深度。
 90
        0
100
AcDbMentalRayRenderSettings
 90
        2
 90
        0
 90
        1
 70
     2
 40
3.0
 40
3.0
 40
0.0500000007450581
 40
0.0500000007450581
 40
0.0500000007450581
 40
0.0500000007450581
 70
     0
290
     0
290
     1
 90
        5
 90
        5
 90
        5
290
     0
 90
      500
290
     0
 40
1.0
 90
    10000
 90
        5
 90
        5
 90
        5
290
     0
 90
      200
290
     0
290
     0
290
     0
 40
0.1
 40
1.0
 40
1500.0
 70
     0
 70
     0
 40
10.0
 70
     0
 70
     0
290
     0
  1

 90
       32
 70
     0
 90
     1048
290
     0
 40
1.0
  0
SCALE
  5
5001
102
{ACAD_REACTORS
330
5000
102
}
330
5000
100
AcDbScale
 70
     0
300
1:1
140
1.0
141
1.0
290
     1
  0
SCALE
  5
5002
102
{ACAD_REACTORS
330
5000
102
}
330
5000
100
AcDbScale
 70
     0
300
1:2
140
1.0
141
2.0
290
     0
  0
SCALE
  5
5003
102
{ACAD_REACTORS
330
5000
102
}
330
5000
100
AcDbScale
 70
     0
300
1:4
140
1.0
141
4.0
290
     0
  0
SCALE
  5
5004
102
{ACAD_REACTORS
330
5000
102
}
330
5000
100
AcDbScale
 70
     0
300
1:5
140
1.0
141
5.0
290
     0
  0
SCALE
  5
5005
102
{ACAD_REACTORS
330
5000
102
}
330
5000
100
AcDbScale
 70
     0
300
1:8
140
1.0
141
8.0
290
     0
  0
SCALE
  5
5006
102
{ACAD_REACTORS
330
5000
102
}
330
5000
100
AcDbScale
 70
     0
300
1:10
140
1.0
141
10.0
290
     0
  0
SCALE
  5
5007
102
{ACAD_REACTORS
330
5000
102
}
330
5000
100
AcDbScale
 70
     0
300
1:16
140
1.0
141
16.0
290
     0
  0
SCALE
  5
5008
102
{ACAD_REACTORS
330
5000
102
}
330
5000
100
AcDbScale
 70
     0
300
1:20
140
1.0
141
20.0
290
     0
  0
SCALE
  5
5009
102
{ACAD_REACTORS
330
5000
102
}
330
5000
100
AcDbScale
 70
     0
300
1:30
140
1.0
141
30.0
290
     0
  0
SCALE
  5
500A
102
{ACAD_REACTORS
330
5000
102
}
330
5000
100
AcDbScale
 70
     0
300
1:40
140
1.0
141
40.0
290
     0
  0
SCALE
  5
500B
102
{ACAD_REACTORS
330
5000
102
}
330
5000
100
AcDbScale
 70
     0
300
1:50
140
1.0
141
50.0
290
     0
  0
SCALE
  5
500C
102
{ACAD_REACTORS
330
5000
102
}
330
5000
100
AcDbScale
 70
     0
300
1:100
140
1.0
141
100.0
290
     0
  0
SCALE
  5
500D
102
{ACAD_REACTORS
330
5000
102
}
330
5000
100
AcDbScale
 70
     0
300
2:1
140
2.0
141
1.0
290
     0
  0
SCALE
  5
500E
102
{ACAD_REACTORS
330
5000
102
}
330
5000
100
AcDbScale
 70
     0
300
4:1
140
4.0
141
1.0
290
     0
  0
SCALE
  5
500F
102
{ACAD_REACTORS
330
5000
102
}
330
5000
100
AcDbScale
 70
     0
300
8:1
140
8.0
141
1.0
290
     0
  0
SCALE
  5
5010
102
{ACAD_REACTORS
330
5000
102
}
330
5000
100
AcDbScale
 70
     0
300
10:1
140
10.0
141
1.0
290
     0
  0
SCALE
  5
5011
102
{ACAD_REACTORS
330
5000
102
}
330
5000
100
AcDbScale
 70
     0
300
100:1
140
100.0
141
1.0
290
     0
  0
SCALE
  5
5012
102
{ACAD_REACTORS
330
5000
102
}
330
5000
100
AcDbScale
 70
     0
300
1/128" = 1'-0"
140
0.0078125
141
12.0
290
     0
  0
SCALE
  5
5013
102
{ACAD_REACTORS
330
5000
102
}
330
5000
100
AcDbScale
 70
     0
300
1/64" = 1'-0"
140
0.015625
141
12.0
290
     0
  0
SCALE
  5
5014
102
{ACAD_REACTORS
330
5000
102
}
330
5000
100
AcDbScale
 70
     0
300
1/32" = 1'-0"
140
0.03125
141
12.0
290
     0
  0
SCALE
  5
5015
102
{ACAD_REACTORS
330
5000
102
}
330
5000
100
AcDbScale
 70
     0
300
1/16" = 1'-0"
140
0.0625
141
12.0
290
     0
  0
SCALE
  5
5016
102
{ACAD_REACTORS
330
5000
102
}
330
5000
100
AcDbScale
 70
     0
300
3/32" = 1'-0"
140
0.09375
141
12.0
290
     0
  0
SCALE
  5
5017
102
{ACAD_REACTORS
330
5000
102
}
330
5000
100
AcDbScale
 70
     0
300
1/8" = 1'-0"
140
0.125
141
12.0
290
     0
  0
SCALE
  5
5018
102
{ACAD_REACTORS
330
5000
102
}
330
5000
100
AcDbScale
 70
     0
300
3/16" = 1'-0"
140
0.1875
141
12.0
290
     0
  0
SCALE
  5
5019
102
{ACAD_REACTORS
330
5000
102
}
330
5000
100
AcDbScale
 70
     0
300
1/4" = 1'-0"
140
0.25
141
12.0
290
     0
  0
SCALE
  5
501A
102
{ACAD_REACTORS
330
5000
102
}
330
5000
100
AcDbScale
 70
     0
300
3/8" = 1'-0"
140
0.375
141
12.0
290
     0
  0
SCALE
  5
501B
102
{ACAD_REACTORS
330
5000
102
}
330
5000
100
AcDbScale
 70
     0
300
1/2" = 1'-0"
140
0.5
141
12.0
290
     0
  0
SCALE
  5
501C
102
{ACAD_REACTORS
330
5000
102
}
330
5000
100
AcDbScale
 70
     0
300
3/4" = 1'-0"
140
0.75
141
12.0
290
     0
  0
SCALE
  5
501D
102
{ACAD_REACTORS
330
5000
102
}
330
5000
100
AcDbScale
 70
     0
300
1" = 1'-0"
140
1.0
141
12.0
290
     0
  0
SCALE
  5
501E
102
{ACAD_REACTORS
330
5000
102
}
330
5000
100
AcDbScale
 70
     0
300
1-1/2" = 1'-0"
140
1.5
141
12.0
290
     0
  0
SCALE
  5
501F
102
{ACAD_REACTORS
330
5000
102
}
330
5000
100
AcDbScale
 70
     0
300
3" = 1'-0"
140
3.0
141
12.0
290
     0
  0
SCALE
  5
5020
102
{ACAD_REACTORS
330
5000
102
}
330
5000
100
AcDbScale
 70
     0
300
6" = 1'-0"
140
6.0
141
12.0
290
     0
  0
SCALE
  5
5021
102
{ACAD_REACTORS
330
5000
102
}
330
5000
100
AcDbScale
 70
     0
300
1'-0" = 1'-0"
140
12.0
141
12.0
290
     0
  0
TABLESTYLE
  5
4FFF
102
{ACAD_XDICTIONARY
360
50D6
102
}
102
{ACAD_REACTORS
330
4FE3
102
}
330
4FE3
100
AcDbTableStyle
  3
Standard
 70
     0
 71
     0
 40
0.06
 41
0.06
280
     0
281
     0
  7
Standard
140
0.18
170
     2
 62
     0
 63
     7
283
     0
 90
      512
 91
        0
  1

274
    -2
284
     1
 64
     0
275
    -2
285
     1
 65
     0
276
    -2
286
     1
 66
     0
277
    -2
287
     1
 67
     0
278
    -2
288
     1
 68
     0
279
    -2
289
     1
 69
     0
  7
Standard
140
0.25
170
     5
 62
     0
 63
     7
283
     0
 90
      512
 91
        0
  1

274
    -2
284
     1
 64
     0
275
    -2
285
     1
 65
     0
276
    -2
286
     1
 66
     0
277
    -2
287
     1
 67
     0
278
    -2
288
     1
 68
     0
279
    -2
289
     1
 69
     0
  7
Standard
140
0.18
170
     5
 62
     0
 63
     7
283
     0
 90
      512
 91
        0
  1

274
    -2
284
     1
 64
     0
275
    -2
285
     1
 65
     0
276
    -2
286
     1
 66
     0
277
    -2
287
     1
 67
     0
278
    -2
288
     1
 68
     0
279
    -2
289
     1
 69
     0
  0
VISUALSTYLE
  5
2F
102
{ACAD_REACTORS
330
2A
102
}
330
2A
100
AcDbVisualStyle
  2
2dWireframe
 70
     4
 71
     0
 72
     2
 73
     0
 90
        0
 40
-0.6
 41
-30.0
 62
     5
 63
     7
 74
     1
 91
        4
 64
     7
 65
   257
 75
     1
175
     1
 42
1.0
 92
        0
 66
   257
 43
1.0
 76
     1
 77
     6
 78
     2
 67
     7
 79
     5
170
     0
171
     0
290
     0
174
     0
 93
        1
 44
0.0
173
     0
291
     0
 45
0.0
1001
ACAD
1000
AcDbSavedByObjectVersion
1070
     0
1000
AcDbSavedByObjectVersion
1070
     0
1000
AcDbSavedByObjectVersion
1070
     0
1000
AcDbSavedByObjectVersion
1070
     0
1000
AcDbSavedByObjectVersion
1070
     0
1000
AcDbSavedByObjectVersion
1070
     0
1000
AcDbSavedByObjectVersion
1070
     0
1000
AcDbSavedByObjectVersion
1070
     0
1000
AcDbSavedByObjectVersion
1070
     0
1000
AcDbSavedByObjectVersion
1070
     0
1000
AcDbSavedByObjectVersion
1070
     0
1000
AcDbSavedByObjectVersion
1070
     0
1000
AcDbSavedByObjectVersion
1070
     0
1000
AcDbSavedByObjectVersion
1070
     0
1000
AcDbSavedByObjectVersion
1070
     0
1000
AcDbSavedByObjectVersion
1070
     0
1000
AcDbSavedByObjectVersion
1070
     0
1000
AcDbSavedByObjectVersion
1070
     0
1000
AcDbSavedByObjectVersion
1070
     0
1000
AcDbSavedByObjectVersion
1070
     0
1000
AcDbSavedByObjectVersion
1070
     0
1000
AcDbSavedByObjectVersion
1070
     0
1000
AcDbSavedByObjectVersion
1070
     0
1000
AcDbSavedByObjectVersion
1070
     0
1000
AcDbSavedByObjectVersion
1070
     0
1000
AcDbSavedByObjectVersion
1070
     0
1000
AcDbSavedByObjectVersion
1070
     0
1000
AcDbSavedByObjectVersion
1070
     0
1000
AcDbSavedByObjectVersion
1070
     0
1000
AcDbSavedByObjectVersion
1070
     0
1000
AcDbSavedByObjectVersion
1070
     0
1000
AcDbSavedByObjectVersion
1070
     0
1000
AcDbSavedByObjectVersion
1070
     0
1000
AcDbSavedByObjectVersion
1070
     0
1000
AcDbSavedByObjectVersion
1070
     0
1000
AcDbSavedByObjectVersion
1070
     0
1000
AcDbSavedByObjectVersion
1070
     0
1000
AcDbSavedByObjectVersion
1070
     0
1000
AcDbSavedByObjectVersion
1070
     0
1000
AcDbSavedByObjectVersion
1070
     0
1000
AcDbSavedByObjectVersion
1070
     0
1000
AcDbSavedByObjectVersion
1070
     0
1000
AcDbSavedByObjectVersion
1070
     0
1000
AcDbSavedByObjectVersion
1070
     0
1000
AcDbSavedByObjectVersion
1070
     0
1000
AcDbSavedByObjectVersion
1070
     0
1000
AcDbSavedByObjectVersion
1070
     0
1000
AcDbSavedByObjectVersion
1070
     0
1000
AcDbSavedByObjectVersion
1070
     0
1000
AcDbSavedByObjectVersion
1070
     0
1000
AcDbSavedByObjectVersion
1070
     0
1000
AcDbSavedByObjectVersion
1070
     0
1000
AcDbSavedByObjectVersion
1070
     0
  0
VISUALSTYLE
  5
31
102
{ACAD_REACTORS
330
2A
102
}
330
2A
100
AcDbVisualStyle
  2
3D Hidden
 70
     6
 71
     1
 72
     2
 73
     2
 90
        0
 40
-0.6
 41
-30.0
 62
     5
 63
     7
 74
     2
 91
        2
 64
     7
 65
   257
 75
     2
175
     1
 42
40.0
 92
        0
 66
   257
 43
1.0
 76
     1
 77
     6
 78
     2
 67
     7
 79
     3
170
     0
171
     0
290
     0
174
     0
 93
        1
 44
0.0
173
     0
291
     0
 45
0.0
1001
ACAD
1000
AcDbSavedByObjectVersion
1070
     0
1000
AcDbSavedByObjectVersion
1070
     0
1000
AcDbSavedByObjectVersion
1070
     0
1000
AcDbSavedByObjectVersion
1070
     0
1000
AcDbSavedByObjectVersion
1070
     0
1000
AcDbSavedByObjectVersion
1070
     0
1000
AcDbSavedByObjectVersion
1070
     0
1000
AcDbSavedByObjectVersion
1070
     0
1000
AcDbSavedByObjectVersion
1070
     0
1000
AcDbSavedByObjectVersion
1070
     0
1000
AcDbSavedByObjectVersion
1070
     0
1000
AcDbSavedByObjectVersion
1070
     0
1000
AcDbSavedByObjectVersion
1070
     0
1000
AcDbSavedByObjectVersion
1070
     0
1000
AcDbSavedByObjectVersion
1070
     0
1000
AcDbSavedByObjectVersion
1070
     0
1000
AcDbSavedByObjectVersion
1070
     0
1000
AcDbSavedByObjectVersion
1070
     0
1000
AcDbSavedByObjectVersion
1070
     0
1000
AcDbSavedByObjectVersion
1070
     0
1000
AcDbSavedByObjectVersion
1070
     0
1000
AcDbSavedByObjectVersion
1070
     0
1000
AcDbSavedByObjectVersion
1070
     0
1000
AcDbSavedByObjectVersion
1070
     0
1000
AcDbSavedByObjectVersion
1070
     0
1000
AcDbSavedByObjectVersion
1070
     0
1000
AcDbSavedByObjectVersion
1070
     0
1000
AcDbSavedByObjectVersion
1070
     0
1000
AcDbSavedByObjectVersion
1070
     0
1000
AcDbSavedByObjectVersion
1070
     0
1000
AcDbSavedByObjectVersion
1070
     0
1000
AcDbSavedByObjectVersion
1070
     0
1000
AcDbSavedByObjectVersion
1070
     0
1000
AcDbSavedByObjectVersion
1070
     0
1000
AcDbSavedByObjectVersion
1070
     0
1000
AcDbSavedByObjectVersion
1070
     0
1000
AcDbSavedByObjectVersion
1070
     0
1000
AcDbSavedByObjectVersion
1070
     0
1000
AcDbSavedByObjectVersion
1070
     0
1000
AcDbSavedByObjectVersion
1070
     0
1000
AcDbSavedByObjectVersion
1070
     0
1000
AcDbSavedByObjectVersion
1070
     0
1000
AcDbSavedByObjectVersion
1070
     0
1000
AcDbSavedByObjectVersion
1070
     0
1000
AcDbSavedByObjectVersion
1070
     0
1000
AcDbSavedByObjectVersion
1070
     0
1000
AcDbSavedByObjectVersion
1070
     0
1000
AcDbSavedByObjectVersion
1070
     0
1000
AcDbSavedByObjectVersion
1070
     0
1000
AcDbSavedByObjectVersion
1070
     0
1000
AcDbSavedByObjectVersion
1070
     0
1000
AcDbSavedByObjectVersion
1070
     0
1000
AcDbSavedByObjectVersion
1070
     0
  0
VISUALSTYLE
  5
30
102
{ACAD_REACTORS
330
2A
102
}
330
2A
100
AcDbVisualStyle
  2
3dWireframe
 70
     5
 71
     0
 72
     2
 73
     0
 90
        0
 40
-0.6
 41
-30.0
 62
     5
 63
     7
 74
     1
 91
        4
 64
     7
 65
   257
 75
     1
175
     1
 42
1.0
 92
        0
 66
   257
 43
1.0
 76
     1
 77
     6
 78
     2
 67
     7
 79
     5
170
     0
171
     0
290
     0
174
     0
 93
        1
 44
0.0
173
     0
291
     0
 45
0.0
1001
ACAD
1000
AcDbSavedByObjectVersion
1070
     0
1000
AcDbSavedByObjectVersion
1070
     0
1000
AcDbSavedByObjectVersion
1070
     0
1000
AcDbSavedByObjectVersion
1070
     0
1000
AcDbSavedByObjectVersion
1070
     0
1000
AcDbSavedByObjectVersion
1070
     0
1000
AcDbSavedByObjectVersion
1070
     0
1000
AcDbSavedByObjectVersion
1070
     0
1000
AcDbSavedByObjectVersion
1070
     0
1000
AcDbSavedByObjectVersion
1070
     0
1000
AcDbSavedByObjectVersion
1070
     0
1000
AcDbSavedByObjectVersion
1070
     0
1000
AcDbSavedByObjectVersion
1070
     0
1000
AcDbSavedByObjectVersion
1070
     0
1000
AcDbSavedByObjectVersion
1070
     0
1000
AcDbSavedByObjectVersion
1070
     0
1000
AcDbSavedByObjectVersion
1070
     0
1000
AcDbSavedByObjectVersion
1070
     0
1000
AcDbSavedByObjectVersion
1070
     0
1000
AcDbSavedByObjectVersion
1070
     0
1000
AcDbSavedByObjectVersion
1070
     0
1000
AcDbSavedByObjectVersion
1070
     0
1000
AcDbSavedByObjectVersion
1070
     0
1000
AcDbSavedByObjectVersion
1070
     0
1000
AcDbSavedByObjectVersion
1070
     0
1000
AcDbSavedByObjectVersion
1070
     0
1000
AcDbSavedByObjectVersion
1070
     0
1000
AcDbSavedByObjectVersion
1070
     0
1000
AcDbSavedByObjectVersion
1070
     0
1000
AcDbSavedByObjectVersion
1070
     0
1000
AcDbSavedByObjectVersion
1070
     0
1000
AcDbSavedByObjectVersion
1070
     0
1000
AcDbSavedByObjectVersion
1070
     0
1000
AcDbSavedByObjectVersion
1070
     0
1000
AcDbSavedByObjectVersion
1070
     0
1000
AcDbSavedByObjectVersion
1070
     0
1000
AcDbSavedByObjectVersion
1070
     0
1000
AcDbSavedByObjectVersion
1070
     0
1000
AcDbSavedByObjectVersion
1070
     0
1000
AcDbSavedByObjectVersion
1070
     0
1000
AcDbSavedByObjectVersion
1070
     0
1000
AcDbSavedByObjectVersion
1070
     0
1000
AcDbSavedByObjectVersion
1070
     0
1000
AcDbSavedByObjectVersion
1070
     0
1000
AcDbSavedByObjectVersion
1070
     0
1000
AcDbSavedByObjectVersion
1070
     0
1000
AcDbSavedByObjectVersion
1070
     0
1000
AcDbSavedByObjectVersion
1070
     0
1000
AcDbSavedByObjectVersion
1070
     0
1000
AcDbSavedByObjectVersion
1070
     0
1000
AcDbSavedByObjectVersion
1070
     0
1000
AcDbSavedByObjectVersion
1070
     0
1000
AcDbSavedByObjectVersion
1070
     0
  0
VISUALSTYLE
  5
32
102
{ACAD_REACTORS
330
2A
102
}
330
2A
100
AcDbVisualStyle
  2
Basic
 70
     7
 71
     1
 72
     0
 73
     1
 90
        0
 40
-0.6
 41
-30.0
 62
     5
 63
     7
 74
     0
 91
        4
 64
     7
 65
   257
 75
     1
175
     1
 42
1.0
 92
        8
 66
     7
 43
1.0
 76
     1
 77
     6
 78
     2
 67
     7
 79
     5
170
     0
171
     0
290
     0
174
     0
 93
        1
 44
0.0
173
     0
291
     1
 45
0.0
1001
ACAD
1000
AcDbSavedByObjectVersion
1070
     0
1000
AcDbSavedByObjectVersion
1070
     0
1000
AcDbSavedByObjectVersion
1070
     0
1000
AcDbSavedByObjectVersion
1070
     0
1000
AcDbSavedByObjectVersion
1070
     0
1000
AcDbSavedByObjectVersion
1070
     0
1000
AcDbSavedByObjectVersion
1070
     0
1000
AcDbSavedByObjectVersion
1070
     0
1000
AcDbSavedByObjectVersion
1070
     0
1000
AcDbSavedByObjectVersion
1070
     0
1000
AcDbSavedByObjectVersion
1070
     0
1000
AcDbSavedByObjectVersion
1070
     0
1000
AcDbSavedByObjectVersion
1070
     0
1000
AcDbSavedByObjectVersion
1070
     0
1000
AcDbSavedByObjectVersion
1070
     0
1000
AcDbSavedByObjectVersion
1070
     0
1000
AcDbSavedByObjectVersion
1070
     0
1000
AcDbSavedByObjectVersion
1070
     0
1000
AcDbSavedByObjectVersion
1070
     0
1000
AcDbSavedByObjectVersion
1070
     0
1000
AcDbSavedByObjectVersion
1070
     0
1000
AcDbSavedByObjectVersion
1070
     0
1000
AcDbSavedByObjectVersion
1070
     0
1000
AcDbSavedByObjectVersion
1070
     0
1000
AcDbSavedByObjectVersion
1070
     0
1000
AcDbSavedByObjectVersion
1070
     0
1000
AcDbSavedByObjectVersion
1070
     0
1000
AcDbSavedByObjectVersion
1070
     0
1000
AcDbSavedByObjectVersion
1070
     0
1000
AcDbSavedByObjectVersion
1070
     0
1000
AcDbSavedByObjectVersion
1070
     0
1000
AcDbSavedByObjectVersion
1070
     0
1000
AcDbSavedByObjectVersion
1070
     0
1000
AcDbSavedByObjectVersion
1070
     0
1000
AcDbSavedByObjectVersion
1070
     0
1000
AcDbSavedByObjectVersion
1070
     0
1000
AcDbSavedByObjectVersion
1070
     0
1000
AcDbSavedByObjectVersion
1070
     0
1000
AcDbSavedByObjectVersion
1070
     0
1000
AcDbSavedByObjectVersion
1070
     0
1000
AcDbSavedByObjectVersion
1070
     0
1000
AcDbSavedByObjectVersion
1070
     0
1000
AcDbSavedByObjectVersion
1070
     0
1000
AcDbSavedByObjectVersion
1070
     0
1000
AcDbSavedByObjectVersion
1070
     0
1000
AcDbSavedByObjectVersion
1070
     0
1000
AcDbSavedByObjectVersion
1070
     0
1000
AcDbSavedByObjectVersion
1070
     0
1000
AcDbSavedByObjectVersion
1070
     0
1000
AcDbSavedByObjectVersion
1070
     0
1000
AcDbSavedByObjectVersion
1070
     0
1000
AcDbSavedByObjectVersion
1070
     0
1000
AcDbSavedByObjectVersion
1070
     0
  0
VISUALSTYLE
  5
36
102
{ACAD_REACTORS
330
2A
102
}
330
2A
100
AcDbVisualStyle
  2
Brighten
 70
    12
 71
     2
 72
     2
 73
     0
 90
        0
 40
-0.6
 41
-30.0
 62
     5
 63
     7
 74
     1
 91
        4
 64
     7
 65
   257
 75
     1
175
     1
 42
1.0
 92
        8
 66
     7
 43
1.0
 76
     1
 77
     6
 78
     2
 67
     7
 79
     5
170
     0
171
     0
290
     0
174
     0
 93
        1
 44
50.0
173
     0
291
     1
 45
0.0
1001
ACAD
1000
AcDbSavedByObjectVersion
1070
     0
1000
AcDbSavedByObjectVersion
1070
     0
1000
AcDbSavedByObjectVersion
1070
     0
1000
AcDbSavedByObjectVersion
1070
     0
1000
AcDbSavedByObjectVersion
1070
     0
1000
AcDbSavedByObjectVersion
1070
     0
1000
AcDbSavedByObjectVersion
1070
     0
1000
AcDbSavedByObjectVersion
1070
     0
1000
AcDbSavedByObjectVersion
1070
     0
1000
AcDbSavedByObjectVersion
1070
     0
1000
AcDbSavedByObjectVersion
1070
     0
1000
AcDbSavedByObjectVersion
1070
     0
1000
AcDbSavedByObjectVersion
1070
     0
1000
AcDbSavedByObjectVersion
1070
     0
1000
AcDbSavedByObjectVersion
1070
     0
1000
AcDbSavedByObjectVersion
1070
     0
1000
AcDbSavedByObjectVersion
1070
     0
1000
AcDbSavedByObjectVersion
1070
     0
1000
AcDbSavedByObjectVersion
1070
     0
1000
AcDbSavedByObjectVersion
1070
     0
1000
AcDbSavedByObjectVersion
1070
     0
1000
AcDbSavedByObjectVersion
1070
     0
1000
AcDbSavedByObjectVersion
1070
     0
1000
AcDbSavedByObjectVersion
1070
     0
1000
AcDbSavedByObjectVersion
1070
     0
1000
AcDbSavedByObjectVersion
1070
     0
1000
AcDbSavedByObjectVersion
1070
     0
1000
AcDbSavedByObjectVersion
1070
     0
1000
AcDbSavedByObjectVersion
1070
     0
1000
AcDbSavedByObjectVersion
1070
     0
1000
AcDbSavedByObjectVersion
1070
     0
1000
AcDbSavedByObjectVersion
1070
     0
1000
AcDbSavedByObjectVersion
1070
     0
1000
AcDbSavedByObjectVersion
1070
     0
1000
AcDbSavedByObjectVersion
1070
     0
1000
AcDbSavedByObjectVersion
1070
     0
1000
AcDbSavedByObjectVersion
1070
     0
1000
AcDbSavedByObjectVersion
1070
     0
1000
AcDbSavedByObjectVersion
1070
     0
1000
AcDbSavedByObjectVersion
1070
     0
1000
AcDbSavedByObjectVersion
1070
     0
1000
AcDbSavedByObjectVersion
1070
     0
1000
AcDbSavedByObjectVersion
1070
     0
1000
AcDbSavedByObjectVersion
1070
     0
1000
AcDbSavedByObjectVersion
1070
     0
1000
AcDbSavedByObjectVersion
1070
     0
1000
AcDbSavedByObjectVersion
1070
     0
1000
AcDbSavedByObjectVersion
1070
     0
1000
AcDbSavedByObjectVersion
1070
     0
1000
AcDbSavedByObjectVersion
1070
     0
1000
AcDbSavedByObjectVersion
1070
     0
1000
AcDbSavedByObjectVersion
1070
     0
1000
AcDbSavedByObjectVersion
1070
     0
  0
VISUALSTYLE
  5
3A
102
{ACAD_REACTORS
330
2A
102
}
330
2A
100
AcDbVisualStyle
  2
ColorChange
 70
    16
 71
     2
 72
     2
 73
     3
 90
        0
 40
-0.6
 41
-30.0
 62
     5
 63
     8
 74
     1
 91
        4
 64
     7
 65
   257
 75
     1
175
     1
 42
1.0
 92
        8
 66
     8
 43
1.0
 76
     1
 77
     6
 78
     2
 67
     7
 79
     5
170
     0
171
     0
290
     0
174
     0
 93
        1
 44
0.0
173
     0
291
     1
 45
0.0
1001
ACAD
1000
AcDbSavedByObjectVersion
1070
     0
1000
AcDbSavedByObjectVersion
1070
     0
1000
AcDbSavedByObjectVersion
1070
     0
1000
AcDbSavedByObjectVersion
1070
     0
1000
AcDbSavedByObjectVersion
1070
     0
1000
AcDbSavedByObjectVersion
1070
     0
1000
AcDbSavedByObjectVersion
1070
     0
1000
AcDbSavedByObjectVersion
1070
     0
1000
AcDbSavedByObjectVersion
1070
     0
1000
AcDbSavedByObjectVersion
1070
     0
1000
AcDbSavedByObjectVersion
1070
     0
1000
AcDbSavedByObjectVersion
1070
     0
1000
AcDbSavedByObjectVersion
1070
     0
1000
AcDbSavedByObjectVersion
1070
     0
1000
AcDbSavedByObjectVersion
1070
     0
1000
AcDbSavedByObjectVersion
1070
     0
1000
AcDbSavedByObjectVersion
1070
     0
1000
AcDbSavedByObjectVersion
1070
     0
1000
AcDbSavedByObjectVersion
1070
     0
1000
AcDbSavedByObjectVersion
1070
     0
1000
AcDbSavedByObjectVersion
1070
     0
1000
AcDbSavedByObjectVersion
1070
     0
1000
AcDbSavedByObjectVersion
1070
     0
1000
AcDbSavedByObjectVersion
1070
     0
1000
AcDbSavedByObjectVersion
1070
     0
1000
AcDbSavedByObjectVersion
1070
     0
1000
AcDbSavedByObjectVersion
1070
     0
1000
AcDbSavedByObjectVersion
1070
     0
1000
AcDbSavedByObjectVersion
1070
     0
1000
AcDbSavedByObjectVersion
1070
     0
1000
AcDbSavedByObjectVersion
1070
     0
1000
AcDbSavedByObjectVersion
1070
     0
1000
AcDbSavedByObjectVersion
1070
     0
1000
AcDbSavedByObjectVersion
1070
     0
1000
AcDbSavedByObjectVersion
1070
     0
1000
AcDbSavedByObjectVersion
1070
     0
1000
AcDbSavedByObjectVersion
1070
     0
1000
AcDbSavedByObjectVersion
1070
     0
1000
AcDbSavedByObjectVersion
1070
     0
1000
AcDbSavedByObjectVersion
1070
     0
1000
AcDbSavedByObjectVersion
1070
     0
1000
AcDbSavedByObjectVersion
1070
     0
1000
AcDbSavedByObjectVersion
1070
     0
1000
AcDbSavedByObjectVersion
1070
     0
1000
AcDbSavedByObjectVersion
1070
     0
1000
AcDbSavedByObjectVersion
1070
     0
1000
AcDbSavedByObjectVersion
1070
     0
1000
AcDbSavedByObjectVersion
1070
     0
1000
AcDbSavedByObjectVersion
1070
     0
1000
AcDbSavedByObjectVersion
1070
     0
1000
AcDbSavedByObjectVersion
1070
     0
1000
AcDbSavedByObjectVersion
1070
     0
1000
AcDbSavedByObjectVersion
1070
     0
  0
VISUALSTYLE
  5
34
102
{ACAD_REACTORS
330
2A
102
}
330
2A
100
AcDbVisualStyle
  2
Conceptual
 70
     9
 71
     3
 72
     2
 73
     0
 90
        0
 40
-0.6
 41
-30.0
 62
     5
 63
     7
 74
     2
 91
        2
 64
     7
 65
   257
 75
     1
175
     1
 42
40.0
 92
        8
 66
     7
 43
1.0
 76
     1
 77
     6
 78
     2
 67
     7
 79
     3
170
     0
171
     0
290
     0
174
     0
 93
        1
 44
0.0
173
     0
291
     0
 45
0.0
1001
ACAD
1000
AcDbSavedByObjectVersion
1070
     0
1000
AcDbSavedByObjectVersion
1070
     0
1000
AcDbSavedByObjectVersion
1070
     0
1000
AcDbSavedByObjectVersion
1070
     0
1000
AcDbSavedByObjectVersion
1070
     0
1000
AcDbSavedByObjectVersion
1070
     0
1000
AcDbSavedByObjectVersion
1070
     0
1000
AcDbSavedByObjectVersion
1070
     0
1000
AcDbSavedByObjectVersion
1070
     0
1000
AcDbSavedByObjectVersion
1070
     0
1000
AcDbSavedByObjectVersion
1070
     0
1000
AcDbSavedByObjectVersion
1070
     0
1000
AcDbSavedByObjectVersion
1070
     0
1000
AcDbSavedByObjectVersion
1070
     0
1000
AcDbSavedByObjectVersion
1070
     0
1000
AcDbSavedByObjectVersion
1070
     0
1000
AcDbSavedByObjectVersion
1070
     0
1000
AcDbSavedByObjectVersion
1070
     0
1000
AcDbSavedByObjectVersion
1070
     0
1000
AcDbSavedByObjectVersion
1070
     0
1000
AcDbSavedByObjectVersion
1070
     0
1000
AcDbSavedByObjectVersion
1070
     0
1000
AcDbSavedByObjectVersion
1070
     0
1000
AcDbSavedByObjectVersion
1070
     0
1000
AcDbSavedByObjectVersion
1070
     0
1000
AcDbSavedByObjectVersion
1070
     0
1000
AcDbSavedByObjectVersion
1070
     0
1000
AcDbSavedByObjectVersion
1070
     0
1000
AcDbSavedByObjectVersion
1070
     0
1000
AcDbSavedByObjectVersion
1070
     0
1000
AcDbSavedByObjectVersion
1070
     0
1000
AcDbSavedByObjectVersion
1070
     0
1000
AcDbSavedByObjectVersion
1070
     0
1000
AcDbSavedByObjectVersion
1070
     0
1000
AcDbSavedByObjectVersion
1070
     0
1000
AcDbSavedByObjectVersion
1070
     0
1000
AcDbSavedByObjectVersion
1070
     0
1000
AcDbSavedByObjectVersion
1070
     0
1000
AcDbSavedByObjectVersion
1070
     0
1000
AcDbSavedByObjectVersion
1070
     0
1000
AcDbSavedByObjectVersion
1070
     0
1000
AcDbSavedByObjectVersion
1070
     0
1000
AcDbSavedByObjectVersion
1070
     0
1000
AcDbSavedByObjectVersion
1070
     0
1000
AcDbSavedByObjectVersion
1070
     0
1000
AcDbSavedByObjectVersion
1070
     0
1000
AcDbSavedByObjectVersion
1070
     0
1000
AcDbSavedByObjectVersion
1070
     0
1000
AcDbSavedByObjectVersion
1070
     0
1000
AcDbSavedByObjectVersion
1070
     0
1000
AcDbSavedByObjectVersion
1070
     0
1000
AcDbSavedByObjectVersion
1070
     0
1000
AcDbSavedByObjectVersion
1070
     0
  0
VISUALSTYLE
  5
35
102
{ACAD_REACTORS
330
2A
102
}
330
2A
100
AcDbVisualStyle
  2
Dim
 70
    11
 71
     2
 72
     2
 73
     0
 90
        0
 40
-0.6
 41
-30.0
 62
     5
 63
     7
 74
     1
 91
        4
 64
     7
 65
   257
 75
     1
175
     1
 42
1.0
 92
        8
 66
     7
 43
1.0
 76
     1
 77
     6
 78
     2
 67
     7
 79
     5
170
     0
171
     0
290
     0
174
     0
 93
        1
 44
-50.0
173
     0
291
     1
 45
0.0
1001
ACAD
1000
AcDbSavedByObjectVersion
1070
     0
1000
AcDbSavedByObjectVersion
1070
     0
1000
AcDbSavedByObjectVersion
1070
     0
1000
AcDbSavedByObjectVersion
1070
     0
1000
AcDbSavedByObjectVersion
1070
     0
1000
AcDbSavedByObjectVersion
1070
     0
1000
AcDbSavedByObjectVersion
1070
     0
1000
AcDbSavedByObjectVersion
1070
     0
1000
AcDbSavedByObjectVersion
1070
     0
1000
AcDbSavedByObjectVersion
1070
     0
1000
AcDbSavedByObjectVersion
1070
     0
1000
AcDbSavedByObjectVersion
1070
     0
1000
AcDbSavedByObjectVersion
1070
     0
1000
AcDbSavedByObjectVersion
1070
     0
1000
AcDbSavedByObjectVersion
1070
     0
1000
AcDbSavedByObjectVersion
1070
     0
1000
AcDbSavedByObjectVersion
1070
     0
1000
AcDbSavedByObjectVersion
1070
     0
1000
AcDbSavedByObjectVersion
1070
     0
1000
AcDbSavedByObjectVersion
1070
     0
1000
AcDbSavedByObjectVersion
1070
     0
1000
AcDbSavedByObjectVersion
1070
     0
1000
AcDbSavedByObjectVersion
1070
     0
1000
AcDbSavedByObjectVersion
1070
     0
1000
AcDbSavedByObjectVersion
1070
     0
1000
AcDbSavedByObjectVersion
1070
     0
1000
AcDbSavedByObjectVersion
1070
     0
1000
AcDbSavedByObjectVersion
1070
     0
1000
AcDbSavedByObjectVersion
1070
     0
1000
AcDbSavedByObjectVersion
1070
     0
1000
AcDbSavedByObjectVersion
1070
     0
1000
AcDbSavedByObjectVersion
1070
     0
1000
AcDbSavedByObjectVersion
1070
     0
1000
AcDbSavedByObjectVersion
1070
     0
1000
AcDbSavedByObjectVersion
1070
     0
1000
AcDbSavedByObjectVersion
1070
     0
1000
AcDbSavedByObjectVersion
1070
     0
1000
AcDbSavedByObjectVersion
1070
     0
1000
AcDbSavedByObjectVersion
1070
     0
1000
AcDbSavedByObjectVersion
1070
     0
1000
AcDbSavedByObjectVersion
1070
     0
1000
AcDbSavedByObjectVersion
1070
     0
1000
AcDbSavedByObjectVersion
1070
     0
1000
AcDbSavedByObjectVersion
1070
     0
1000
AcDbSavedByObjectVersion
1070
     0
1000
AcDbSavedByObjectVersion
1070
     0
1000
AcDbSavedByObjectVersion
1070
     0
1000
AcDbSavedByObjectVersion
1070
     0
1000
AcDbSavedByObjectVersion
1070
     0
1000
AcDbSavedByObjectVersion
1070
     0
1000
AcDbSavedByObjectVersion
1070
     0
1000
AcDbSavedByObjectVersion
1070
     0
1000
AcDbSavedByObjectVersion
1070
     0
  0
VISUALSTYLE
  5
39
102
{ACAD_REACTORS
330
2A
102
}
330
2A
100
AcDbVisualStyle
  2
Facepattern
 70
    15
 71
     2
 72
     2
 73
     0
 90
        0
 40
-0.6
 41
-30.0
 62
     5
 63
     7
 74
     1
 91
        4
 64
     7
 65
   257
 75
     1
175
     1
 42
1.0
 92
        8
 66
     7
 43
1.0
 76
     1
 77
     6
 78
     2
 67
     7
 79
     5
170
     0
171
     0
290
     0
174
     0
 93
        1
 44
0.0
173
     0
291
     1
 45
0.0
1001
ACAD
1000
AcDbSavedByObjectVersion
1070
     0
1000
AcDbSavedByObjectVersion
1070
     0
1000
AcDbSavedByObjectVersion
1070
     0
1000
AcDbSavedByObjectVersion
1070
     0
1000
AcDbSavedByObjectVersion
1070
     0
1000
AcDbSavedByObjectVersion
1070
     0
1000
AcDbSavedByObjectVersion
1070
     0
1000
AcDbSavedByObjectVersion
1070
     0
1000
AcDbSavedByObjectVersion
1070
     0
1000
AcDbSavedByObjectVersion
1070
     0
1000
AcDbSavedByObjectVersion
1070
     0
1000
AcDbSavedByObjectVersion
1070
     0
1000
AcDbSavedByObjectVersion
1070
     0
1000
AcDbSavedByObjectVersion
1070
     0
1000
AcDbSavedByObjectVersion
1070
     0
1000
AcDbSavedByObjectVersion
1070
     0
1000
AcDbSavedByObjectVersion
1070
     0
1000
AcDbSavedByObjectVersion
1070
     0
1000
AcDbSavedByObjectVersion
1070
     0
1000
AcDbSavedByObjectVersion
1070
     0
1000
AcDbSavedByObjectVersion
1070
     0
1000
AcDbSavedByObjectVersion
1070
     0
1000
AcDbSavedByObjectVersion
1070
     0
1000
AcDbSavedByObjectVersion
1070
     0
1000
AcDbSavedByObjectVersion
1070
     0
1000
AcDbSavedByObjectVersion
1070
     0
1000
AcDbSavedByObjectVersion
1070
     0
1000
AcDbSavedByObjectVersion
1070
     0
1000
AcDbSavedByObjectVersion
1070
     0
1000
AcDbSavedByObjectVersion
1070
     0
1000
AcDbSavedByObjectVersion
1070
     0
1000
AcDbSavedByObjectVersion
1070
     0
1000
AcDbSavedByObjectVersion
1070
     0
1000
AcDbSavedByObjectVersion
1070
     0
1000
AcDbSavedByObjectVersion
1070
     0
1000
AcDbSavedByObjectVersion
1070
     0
1000
AcDbSavedByObjectVersion
1070
     0
1000
AcDbSavedByObjectVersion
1070
     0
1000
AcDbSavedByObjectVersion
1070
     0
1000
AcDbSavedByObjectVersion
1070
     0
1000
AcDbSavedByObjectVersion
1070
     0
1000
AcDbSavedByObjectVersion
1070
     0
1000
AcDbSavedByObjectVersion
1070
     0
1000
AcDbSavedByObjectVersion
1070
     0
1000
AcDbSavedByObjectVersion
1070
     0
1000
AcDbSavedByObjectVersion
1070
     0
1000
AcDbSavedByObjectVersion
1070
     0
1000
AcDbSavedByObjectVersion
1070
     0
1000
AcDbSavedByObjectVersion
1070
     0
1000
AcDbSavedByObjectVersion
1070
     0
1000
AcDbSavedByObjectVersion
1070
     0
1000
AcDbSavedByObjectVersion
1070
     0
1000
AcDbSavedByObjectVersion
1070
     0
  0
VISUALSTYLE
  5
2B
102
{ACAD_REACTORS
330
2A
102
}
330
2A
100
AcDbVisualStyle
  2
Flat
 70
     0
 71
     2
 72
     1
 73
     1
 90
        2
 40
-0.6
 41
30.0
 62
     5
 63
     7
 74
     0
 91
        4
 64
     7
 65
   257
 75
     1
175
     1
 42
1.0
 92
        8
 66
     7
 43
1.0
 76
     1
 77
     6
 78
     2
 67
     7
 79
     5
170
     0
171
     0
290
     0
174
     0
 93
       13
 44
0.0
173
     0
291
     1
 45
0.0
1001
ACAD
1000
AcDbSavedByObjectVersion
1070
     0
1000
AcDbSavedByObjectVersion
1070
     0
1000
AcDbSavedByObjectVersion
1070
     0
1000
AcDbSavedByObjectVersion
1070
     0
1000
AcDbSavedByObjectVersion
1070
     0
1000
AcDbSavedByObjectVersion
1070
     0
1000
AcDbSavedByObjectVersion
1070
     0
1000
AcDbSavedByObjectVersion
1070
     0
1000
AcDbSavedByObjectVersion
1070
     0
1000
AcDbSavedByObjectVersion
1070
     0
1000
AcDbSavedByObjectVersion
1070
     0
1000
AcDbSavedByObjectVersion
1070
     0
1000
AcDbSavedByObjectVersion
1070
     0
1000
AcDbSavedByObjectVersion
1070
     0
1000
AcDbSavedByObjectVersion
1070
     0
1000
AcDbSavedByObjectVersion
1070
     0
1000
AcDbSavedByObjectVersion
1070
     0
1000
AcDbSavedByObjectVersion
1070
     0
1000
AcDbSavedByObjectVersion
1070
     0
1000
AcDbSavedByObjectVersion
1070
     0
1000
AcDbSavedByObjectVersion
1070
     0
1000
AcDbSavedByObjectVersion
1070
     0
1000
AcDbSavedByObjectVersion
1070
     0
1000
AcDbSavedByObjectVersion
1070
     0
1000
AcDbSavedByObjectVersion
1070
     0
1000
AcDbSavedByObjectVersion
1070
     0
1000
AcDbSavedByObjectVersion
1070
     0
1000
AcDbSavedByObjectVersion
1070
     0
1000
AcDbSavedByObjectVersion
1070
     0
1000
AcDbSavedByObjectVersion
1070
     0
1000
AcDbSavedByObjectVersion
1070
     0
1000
AcDbSavedByObjectVersion
1070
     0
1000
AcDbSavedByObjectVersion
1070
     0
1000
AcDbSavedByObjectVersion
1070
     0
1000
AcDbSavedByObjectVersion
1070
     0
1000
AcDbSavedByObjectVersion
1070
     0
1000
AcDbSavedByObjectVersion
1070
     0
1000
AcDbSavedByObjectVersion
1070
     0
1000
AcDbSavedByObjectVersion
1070
     0
1000
AcDbSavedByObjectVersion
1070
     0
1000
AcDbSavedByObjectVersion
1070
     0
1000
AcDbSavedByObjectVersion
1070
     0
1000
AcDbSavedByObjectVersion
1070
     0
1000
AcDbSavedByObjectVersion
1070
     0
1000
AcDbSavedByObjectVersion
1070
     0
1000
AcDbSavedByObjectVersion
1070
     0
1000
AcDbSavedByObjectVersion
1070
     0
1000
AcDbSavedByObjectVersion
1070
     0
1000
AcDbSavedByObjectVersion
1070
     0
1000
AcDbSavedByObjectVersion
1070
     0
1000
AcDbSavedByObjectVersion
1070
     0
1000
AcDbSavedByObjectVersion
1070
     0
1000
AcDbSavedByObjectVersion
1070
     0
  0
VISUALSTYLE
  5
2C
102
{ACAD_REACTORS
330
2A
102
}
330
2A
100
AcDbVisualStyle
  2
FlatWithEdges
 70
     1
 71
     2
 72
     1
 73
     1
 90
        2
 40
-0.6
 41
30.0
 62
     5
 63
     7
 74
     1
 91
        4
 64
     7
 65
   257
 75
     1
175
     1
 42
1.0
 92
        0
 66
   257
 43
1.0
 76
     1
 77
     6
 78
     2
 67
     7
 79
     5
170
     0
171
     0
290
     0
174
     0
 93
       13
 44
0.0
173
     0
291
     1
 45
0.0
1001
ACAD
1000
AcDbSavedByObjectVersion
1070
     0
1000
AcDbSavedByObjectVersion
1070
     0
1000
AcDbSavedByObjectVersion
1070
     0
1000
AcDbSavedByObjectVersion
1070
     0
1000
AcDbSavedByObjectVersion
1070
     0
1000
AcDbSavedByObjectVersion
1070
     0
1000
AcDbSavedByObjectVersion
1070
     0
1000
AcDbSavedByObjectVersion
1070
     0
1000
AcDbSavedByObjectVersion
1070
     0
1000
AcDbSavedByObjectVersion
1070
     0
1000
AcDbSavedByObjectVersion
1070
     0
1000
AcDbSavedByObjectVersion
1070
     0
1000
AcDbSavedByObjectVersion
1070
     0
1000
AcDbSavedByObjectVersion
1070
     0
1000
AcDbSavedByObjectVersion
1070
     0
1000
AcDbSavedByObjectVersion
1070
     0
1000
AcDbSavedByObjectVersion
1070
     0
1000
AcDbSavedByObjectVersion
1070
     0
1000
AcDbSavedByObjectVersion
1070
     0
1000
AcDbSavedByObjectVersion
1070
     0
1000
AcDbSavedByObjectVersion
1070
     0
1000
AcDbSavedByObjectVersion
1070
     0
1000
AcDbSavedByObjectVersion
1070
     0
1000
AcDbSavedByObjectVersion
1070
     0
1000
AcDbSavedByObjectVersion
1070
     0
1000
AcDbSavedByObjectVersion
1070
     0
1000
AcDbSavedByObjectVersion
1070
     0
1000
AcDbSavedByObjectVersion
1070
     0
1000
AcDbSavedByObjectVersion
1070
     0
1000
AcDbSavedByObjectVersion
1070
     0
1000
AcDbSavedByObjectVersion
1070
     0
1000
AcDbSavedByObjectVersion
1070
     0
1000
AcDbSavedByObjectVersion
1070
     0
1000
AcDbSavedByObjectVersion
1070
     0
1000
AcDbSavedByObjectVersion
1070
     0
1000
AcDbSavedByObjectVersion
1070
     0
1000
AcDbSavedByObjectVersion
1070
     0
1000
AcDbSavedByObjectVersion
1070
     0
1000
AcDbSavedByObjectVersion
1070
     0
1000
AcDbSavedByObjectVersion
1070
     0
1000
AcDbSavedByObjectVersion
1070
     0
1000
AcDbSavedByObjectVersion
1070
     0
1000
AcDbSavedByObjectVersion
1070
     0
1000
AcDbSavedByObjectVersion
1070
     0
1000
AcDbSavedByObjectVersion
1070
     0
1000
AcDbSavedByObjectVersion
1070
     0
1000
AcDbSavedByObjectVersion
1070
     0
1000
AcDbSavedByObjectVersion
1070
     0
1000
AcDbSavedByObjectVersion
1070
     0
1000
AcDbSavedByObjectVersion
1070
     0
1000
AcDbSavedByObjectVersion
1070
     0
1000
AcDbSavedByObjectVersion
1070
     0
1000
AcDbSavedByObjectVersion
1070
     0
  0
VISUALSTYLE
  5
2D
102
{ACAD_REACTORS
330
2A
102
}
330
2A
100
AcDbVisualStyle
  2
Gouraud
 70
     2
 71
     2
 72
     2
 73
     1
 90
        2
 40
-0.6
 41
30.0
 62
     5
 63
     7
 74
     0
 91
        4
 64
     7
 65
   257
 75
     1
175
     1
 42
1.0
 92
        0
 66
     7
 43
1.0
 76
     1
 77
     6
 78
     2
 67
     7
 79
     5
170
     0
171
     0
290
     0
174
     0
 93
       13
 44
0.0
173
     0
291
     1
 45
0.0
1001
ACAD
1000
AcDbSavedByObjectVersion
1070
     0
1000
AcDbSavedByObjectVersion
1070
     0
1000
AcDbSavedByObjectVersion
1070
     0
1000
AcDbSavedByObjectVersion
1070
     0
1000
AcDbSavedByObjectVersion
1070
     0
1000
AcDbSavedByObjectVersion
1070
     0
1000
AcDbSavedByObjectVersion
1070
     0
1000
AcDbSavedByObjectVersion
1070
     0
1000
AcDbSavedByObjectVersion
1070
     0
1000
AcDbSavedByObjectVersion
1070
     0
1000
AcDbSavedByObjectVersion
1070
     0
1000
AcDbSavedByObjectVersion
1070
     0
1000
AcDbSavedByObjectVersion
1070
     0
1000
AcDbSavedByObjectVersion
1070
     0
1000
AcDbSavedByObjectVersion
1070
     0
1000
AcDbSavedByObjectVersion
1070
     0
1000
AcDbSavedByObjectVersion
1070
     0
1000
AcDbSavedByObjectVersion
1070
     0
1000
AcDbSavedByObjectVersion
1070
     0
1000
AcDbSavedByObjectVersion
1070
     0
1000
AcDbSavedByObjectVersion
1070
     0
1000
AcDbSavedByObjectVersion
1070
     0
1000
AcDbSavedByObjectVersion
1070
     0
1000
AcDbSavedByObjectVersion
1070
     0
1000
AcDbSavedByObjectVersion
1070
     0
1000
AcDbSavedByObjectVersion
1070
     0
1000
AcDbSavedByObjectVersion
1070
     0
1000
AcDbSavedByObjectVersion
1070
     0
1000
AcDbSavedByObjectVersion
1070
     0
1000
AcDbSavedByObjectVersion
1070
     0
1000
AcDbSavedByObjectVersion
1070
     0
1000
AcDbSavedByObjectVersion
1070
     0
1000
AcDbSavedByObjectVersion
1070
     0
1000
AcDbSavedByObjectVersion
1070
     0
1000
AcDbSavedByObjectVersion
1070
     0
1000
AcDbSavedByObjectVersion
1070
     0
1000
AcDbSavedByObjectVersion
1070
     0
1000
AcDbSavedByObjectVersion
1070
     0
1000
AcDbSavedByObjectVersion
1070
     0
1000
AcDbSavedByObjectVersion
1070
     0
1000
AcDbSavedByObjectVersion
1070
     0
1000
AcDbSavedByObjectVersion
1070
     0
1000
AcDbSavedByObjectVersion
1070
     0
1000
AcDbSavedByObjectVersion
1070
     0
1000
AcDbSavedByObjectVersion
1070
     0
1000
AcDbSavedByObjectVersion
1070
     0
1000
AcDbSavedByObjectVersion
1070
     0
1000
AcDbSavedByObjectVersion
1070
     0
1000
AcDbSavedByObjectVersion
1070
     0
1000
AcDbSavedByObjectVersion
1070
     0
1000
AcDbSavedByObjectVersion
1070
     0
1000
AcDbSavedByObjectVersion
1070
     0
1000
AcDbSavedByObjectVersion
1070
     0
  0
VISUALSTYLE
  5
2E
102
{ACAD_REACTORS
330
2A
102
}
330
2A
100
AcDbVisualStyle
  2
GouraudWithEdges
 70
     3
 71
     2
 72
     2
 73
     1
 90
        2
 40
-0.6
 41
30.0
 62
     5
 63
     7
 74
     1
 91
        4
 64
     7
 65
   257
 75
     1
175
     1
 42
1.0
 92
        0
 66
   257
 43
1.0
 76
     1
 77
     6
 78
     2
 67
     7
 79
     5
170
     0
171
     0
290
     0
174
     0
 93
       13
 44
0.0
173
     0
291
     1
 45
0.0
1001
ACAD
1000
AcDbSavedByObjectVersion
1070
     0
1000
AcDbSavedByObjectVersion
1070
     0
1000
AcDbSavedByObjectVersion
1070
     0
1000
AcDbSavedByObjectVersion
1070
     0
1000
AcDbSavedByObjectVersion
1070
     0
1000
AcDbSavedByObjectVersion
1070
     0
1000
AcDbSavedByObjectVersion
1070
     0
1000
AcDbSavedByObjectVersion
1070
     0
1000
AcDbSavedByObjectVersion
1070
     0
1000
AcDbSavedByObjectVersion
1070
     0
1000
AcDbSavedByObjectVersion
1070
     0
1000
AcDbSavedByObjectVersion
1070
     0
1000
AcDbSavedByObjectVersion
1070
     0
1000
AcDbSavedByObjectVersion
1070
     0
1000
AcDbSavedByObjectVersion
1070
     0
1000
AcDbSavedByObjectVersion
1070
     0
1000
AcDbSavedByObjectVersion
1070
     0
1000
AcDbSavedByObjectVersion
1070
     0
1000
AcDbSavedByObjectVersion
1070
     0
1000
AcDbSavedByObjectVersion
1070
     0
1000
AcDbSavedByObjectVersion
1070
     0
1000
AcDbSavedByObjectVersion
1070
     0
1000
AcDbSavedByObjectVersion
1070
     0
1000
AcDbSavedByObjectVersion
1070
     0
1000
AcDbSavedByObjectVersion
1070
     0
1000
AcDbSavedByObjectVersion
1070
     0
1000
AcDbSavedByObjectVersion
1070
     0
1000
AcDbSavedByObjectVersion
1070
     0
1000
AcDbSavedByObjectVersion
1070
     0
1000
AcDbSavedByObjectVersion
1070
     0
1000
AcDbSavedByObjectVersion
1070
     0
1000
AcDbSavedByObjectVersion
1070
     0
1000
AcDbSavedByObjectVersion
1070
     0
1000
AcDbSavedByObjectVersion
1070
     0
1000
AcDbSavedByObjectVersion
1070
     0
1000
AcDbSavedByObjectVersion
1070
     0
1000
AcDbSavedByObjectVersion
1070
     0
1000
AcDbSavedByObjectVersion
1070
     0
1000
AcDbSavedByObjectVersion
1070
     0
1000
AcDbSavedByObjectVersion
1070
     0
1000
AcDbSavedByObjectVersion
1070
     0
1000
AcDbSavedByObjectVersion
1070
     0
1000
AcDbSavedByObjectVersion
1070
     0
1000
AcDbSavedByObjectVersion
1070
     0
1000
AcDbSavedByObjectVersion
1070
     0
1000
AcDbSavedByObjectVersion
1070
     0
1000
AcDbSavedByObjectVersion
1070
     0
1000
AcDbSavedByObjectVersion
1070
     0
1000
AcDbSavedByObjectVersion
1070
     0
1000
AcDbSavedByObjectVersion
1070
     0
1000
AcDbSavedByObjectVersion
1070
     0
1000
AcDbSavedByObjectVersion
1070
     0
1000
AcDbSavedByObjectVersion
1070
     0
  0
VISUALSTYLE
  5
38
102
{ACAD_REACTORS
330
2A
102
}
330
2A
100
AcDbVisualStyle
  2
Linepattern
 70
    14
 71
     2
 72
     2
 73
     0
 90
        0
 40
-0.6
 41
-30.0
 62
     5
 63
     7
 74
     1
 91
        4
 64
     7
 65
   257
 75
     7
175
     7
 42
1.0
 92
        8
 66
     7
 43
1.0
 76
     1
 77
     6
 78
     2
 67
     7
 79
     5
170
     0
171
     0
290
     0
174
     0
 93
        1
 44
0.0
173
     0
291
     1
 45
0.0
1001
ACAD
1000
AcDbSavedByObjectVersion
1070
     0
1000
AcDbSavedByObjectVersion
1070
     0
1000
AcDbSavedByObjectVersion
1070
     0
1000
AcDbSavedByObjectVersion
1070
     0
1000
AcDbSavedByObjectVersion
1070
     0
1000
AcDbSavedByObjectVersion
1070
     0
1000
AcDbSavedByObjectVersion
1070
     0
1000
AcDbSavedByObjectVersion
1070
     0
1000
AcDbSavedByObjectVersion
1070
     0
1000
AcDbSavedByObjectVersion
1070
     0
1000
AcDbSavedByObjectVersion
1070
     0
1000
AcDbSavedByObjectVersion
1070
     0
1000
AcDbSavedByObjectVersion
1070
     0
1000
AcDbSavedByObjectVersion
1070
     0
1000
AcDbSavedByObjectVersion
1070
     0
1000
AcDbSavedByObjectVersion
1070
     0
1000
AcDbSavedByObjectVersion
1070
     0
1000
AcDbSavedByObjectVersion
1070
     0
1000
AcDbSavedByObjectVersion
1070
     0
1000
AcDbSavedByObjectVersion
1070
     0
1000
AcDbSavedByObjectVersion
1070
     0
1000
AcDbSavedByObjectVersion
1070
     0
1000
AcDbSavedByObjectVersion
1070
     0
1000
AcDbSavedByObjectVersion
1070
     0
1000
AcDbSavedByObjectVersion
1070
     0
1000
AcDbSavedByObjectVersion
1070
     0
1000
AcDbSavedByObjectVersion
1070
     0
1000
AcDbSavedByObjectVersion
1070
     0
1000
AcDbSavedByObjectVersion
1070
     0
1000
AcDbSavedByObjectVersion
1070
     0
1000
AcDbSavedByObjectVersion
1070
     0
1000
AcDbSavedByObjectVersion
1070
     0
1000
AcDbSavedByObjectVersion
1070
     0
1000
AcDbSavedByObjectVersion
1070
     0
1000
AcDbSavedByObjectVersion
1070
     0
1000
AcDbSavedByObjectVersion
1070
     0
1000
AcDbSavedByObjectVersion
1070
     0
1000
AcDbSavedByObjectVersion
1070
     0
1000
AcDbSavedByObjectVersion
1070
     0
1000
AcDbSavedByObjectVersion
1070
     0
1000
AcDbSavedByObjectVersion
1070
     0
1000
AcDbSavedByObjectVersion
1070
     0
1000
AcDbSavedByObjectVersion
1070
     0
1000
AcDbSavedByObjectVersion
1070
     0
1000
AcDbSavedByObjectVersion
1070
     0
1000
AcDbSavedByObjectVersion
1070
     0
1000
AcDbSavedByObjectVersion
1070
     0
1000
AcDbSavedByObjectVersion
1070
     0
1000
AcDbSavedByObjectVersion
1070
     0
1000
AcDbSavedByObjectVersion
1070
     0
1000
AcDbSavedByObjectVersion
1070
     0
1000
AcDbSavedByObjectVersion
1070
     0
1000
AcDbSavedByObjectVersion
1070
     0
  0
VISUALSTYLE
  5
33
102
{ACAD_REACTORS
330
2A
102
}
330
2A
100
AcDbVisualStyle
  2
Realistic
 70
     8
 71
     2
 72
     2
 73
     0
 90
        0
 40
-0.6
 41
-30.0
 62
     5
 63
     7
 74
     1
 91
        0
 64
     7
 65
   257
 75
     1
175
     1
 42
1.0
 92
        8
 66
     8
 43
1.0
 76
     1
 77
     6
 78
     2
 67
     7
 79
     5
170
     0
171
     0
290
     0
174
     0
 93
       13
 44
0.0
173
     0
291
     0
 45
0.0
1001
ACAD
1000
AcDbSavedByObjectVersion
1070
     0
1000
AcDbSavedByObjectVersion
1070
     0
1000
AcDbSavedByObjectVersion
1070
     0
1000
AcDbSavedByObjectVersion
1070
     0
1000
AcDbSavedByObjectVersion
1070
     0
1000
AcDbSavedByObjectVersion
1070
     0
1000
AcDbSavedByObjectVersion
1070
     0
1000
AcDbSavedByObjectVersion
1070
     0
1000
AcDbSavedByObjectVersion
1070
     0
1000
AcDbSavedByObjectVersion
1070
     0
1000
AcDbSavedByObjectVersion
1070
     0
1000
AcDbSavedByObjectVersion
1070
     0
1000
AcDbSavedByObjectVersion
1070
     0
1000
AcDbSavedByObjectVersion
1070
     0
1000
AcDbSavedByObjectVersion
1070
     0
1000
AcDbSavedByObjectVersion
1070
     0
1000
AcDbSavedByObjectVersion
1070
     0
1000
AcDbSavedByObjectVersion
1070
     0
1000
AcDbSavedByObjectVersion
1070
     0
1000
AcDbSavedByObjectVersion
1070
     0
1000
AcDbSavedByObjectVersion
1070
     0
1000
AcDbSavedByObjectVersion
1070
     0
1000
AcDbSavedByObjectVersion
1070
     0
1000
AcDbSavedByObjectVersion
1070
     0
1000
AcDbSavedByObjectVersion
1070
     0
1000
AcDbSavedByObjectVersion
1070
     0
1000
AcDbSavedByObjectVersion
1070
     0
1000
AcDbSavedByObjectVersion
1070
     0
1000
AcDbSavedByObjectVersion
1070
     0
1000
AcDbSavedByObjectVersion
1070
     0
1000
AcDbSavedByObjectVersion
1070
     0
1000
AcDbSavedByObjectVersion
1070
     0
1000
AcDbSavedByObjectVersion
1070
     0
1000
AcDbSavedByObjectVersion
1070
     0
1000
AcDbSavedByObjectVersion
1070
     0
1000
AcDbSavedByObjectVersion
1070
     0
1000
AcDbSavedByObjectVersion
1070
     0
1000
AcDbSavedByObjectVersion
1070
     0
1000
AcDbSavedByObjectVersion
1070
     0
1000
AcDbSavedByObjectVersion
1070
     0
1000
AcDbSavedByObjectVersion
1070
     0
1000
AcDbSavedByObjectVersion
1070
     0
1000
AcDbSavedByObjectVersion
1070
     0
1000
AcDbSavedByObjectVersion
1070
     0
1000
AcDbSavedByObjectVersion
1070
     0
1000
AcDbSavedByObjectVersion
1070
     0
1000
AcDbSavedByObjectVersion
1070
     0
1000
AcDbSavedByObjectVersion
1070
     0
1000
AcDbSavedByObjectVersion
1070
     0
1000
AcDbSavedByObjectVersion
1070
     0
1000
AcDbSavedByObjectVersion
1070
     0
1000
AcDbSavedByObjectVersion
1070
     0
1000
AcDbSavedByObjectVersion
1070
     0
  0
VISUALSTYLE
  5
37
102
{ACAD_REACTORS
330
2A
102
}
330
2A
100
AcDbVisualStyle
  2
Thicken
 70
    13
 71
     2
 72
     2
 73
     0
 90
        0
 40
-0.6
 41
-30.0
 62
     5
 63
     7
 74
     1
 91
        4
 64
     7
 65
   257
 75
     1
175
     1
 42
1.0
 92
       12
 66
     7
 43
1.0
 76
     1
 77
     6
 78
     2
 67
     7
 79
     5
170
     0
171
     0
290
     0
174
     0
 93
        1
 44
0.0
173
     0
291
     1
 45
0.0
1001
ACAD
1000
AcDbSavedByObjectVersion
1070
     0
1000
AcDbSavedByObjectVersion
1070
     0
1000
AcDbSavedByObjectVersion
1070
     0
1000
AcDbSavedByObjectVersion
1070
     0
1000
AcDbSavedByObjectVersion
1070
     0
1000
AcDbSavedByObjectVersion
1070
     0
1000
AcDbSavedByObjectVersion
1070
     0
1000
AcDbSavedByObjectVersion
1070
     0
1000
AcDbSavedByObjectVersion
1070
     0
1000
AcDbSavedByObjectVersion
1070
     0
1000
AcDbSavedByObjectVersion
1070
     0
1000
AcDbSavedByObjectVersion
1070
     0
1000
AcDbSavedByObjectVersion
1070
     0
1000
AcDbSavedByObjectVersion
1070
     0
1000
AcDbSavedByObjectVersion
1070
     0
1000
AcDbSavedByObjectVersion
1070
     0
1000
AcDbSavedByObjectVersion
1070
     0
1000
AcDbSavedByObjectVersion
1070
     0
1000
AcDbSavedByObjectVersion
1070
     0
1000
AcDbSavedByObjectVersion
1070
     0
1000
AcDbSavedByObjectVersion
1070
     0
1000
AcDbSavedByObjectVersion
1070
     0
1000
AcDbSavedByObjectVersion
1070
     0
1000
AcDbSavedByObjectVersion
1070
     0
1000
AcDbSavedByObjectVersion
1070
     0
1000
AcDbSavedByObjectVersion
1070
     0
1000
AcDbSavedByObjectVersion
1070
     0
1000
AcDbSavedByObjectVersion
1070
     0
1000
AcDbSavedByObjectVersion
1070
     0
1000
AcDbSavedByObjectVersion
1070
     0
1000
AcDbSavedByObjectVersion
1070
     0
1000
AcDbSavedByObjectVersion
1070
     0
1000
AcDbSavedByObjectVersion
1070
     0
1000
AcDbSavedByObjectVersion
1070
     0
1000
AcDbSavedByObjectVersion
1070
     0
1000
AcDbSavedByObjectVersion
1070
     0
1000
AcDbSavedByObjectVersion
1070
     0
1000
AcDbSavedByObjectVersion
1070
     0
1000
AcDbSavedByObjectVersion
1070
     0
1000
AcDbSavedByObjectVersion
1070
     0
1000
AcDbSavedByObjectVersion
1070
     0
1000
AcDbSavedByObjectVersion
1070
     0
1000
AcDbSavedByObjectVersion
1070
     0
1000
AcDbSavedByObjectVersion
1070
     0
1000
AcDbSavedByObjectVersion
1070
     0
1000
AcDbSavedByObjectVersion
1070
     0
1000
AcDbSavedByObjectVersion
1070
     0
1000
AcDbSavedByObjectVersion
1070
     0
1000
AcDbSavedByObjectVersion
1070
     0
1000
AcDbSavedByObjectVersion
1070
     0
1000
AcDbSavedByObjectVersion
1070
     0
1000
AcDbSavedByObjectVersion
1070
     0
1000
AcDbSavedByObjectVersion
1070
     0
  0
DICTIONARYVAR
  5
510B
102
{ACAD_REACTORS
330
5108
102
}
330
5108
100
DictionaryVariables
280
     0
  1
1:1
  0
DICTIONARYVAR
  5
510A
102
{ACAD_REACTORS
330
5108
102
}
330
5108
100
DictionaryVariables
280
     0
  1
STANDARD
  0
DICTIONARYVAR
  5
5109
102
{ACAD_REACTORS
330
5108
102
}
330
5108
100
DictionaryVariables
280
     0
  1
STANDARD
  0
DICTIONARYVAR
  5
510E
102
{ACAD_REACTORS
330
5108
102
}
330
5108
100
DictionaryVariables
280
     0
  1
1
  0
DICTIONARYVAR
  5
510D
102
{ACAD_REACTORS
330
5108
102
}
330
5108
100
DictionaryVariables
280
     0
  1
0
  0
DICTIONARYVAR
  5
14344
102
{ACAD_REACTORS
330
5108
102
}
330
5108
100
DictionaryVariables
280
     0
  1
0
  0
DICTIONARYVAR
  5
14343
102
{ACAD_REACTORS
330
5108
102
}
330
5108
100
DictionaryVariables
280
     0
  1
0
  0
DICTIONARYVAR
  5
510C
102
{ACAD_REACTORS
330
5108
102
}
330
5108
100
DictionaryVariables
280
     0
  1
127
  0
XRECORD
  5
14144
102
{ACAD_REACTORS
330
14143
102
}
330
14143
100
AcDbXrecord
280
     1
330
13EBE
  0
DICTIONARY
  5
4FEF
330
4FEE
100
AcDbDictionary
280
     1
281
     1
  3
ACAD_XREC_ROUNDTRIP
360
7C2C
  3
BUMPTILE
360
4FF1
  3
DIFFUSETILE
360
4FF0
  3
OPACITYTILE
360
4FF4
  3
REFLECTIONTILE
360
4FF3
  3
REFRACTIONTILE
360
4FF5
  3
SPECULARTILE
360
4FF2
  0
DICTIONARY
  5
4FE7
330
4FE6
100
AcDbDictionary
280
     1
281
     1
  3
ACAD_XREC_ROUNDTRIP
360
7C2B
  3
BUMPTILE
360
4FE9
  3
DIFFUSETILE
360
4FE8
  3
OPACITYTILE
360
4FEC
  3
REFLECTIONTILE
360
4FEB
  3
REFRACTIONTILE
360
4FED
  3
SPECULARTILE
360
4FEA
  0
DICTIONARY
  5
4FF7
330
4FF6
100
AcDbDictionary
280
     1
281
     1
  3
ACAD_XREC_ROUNDTRIP
360
7C2D
  3
BUMPTILE
360
4FF9
  3
DIFFUSETILE
360
4FF8
  3
OPACITYTILE
360
4FFC
  3
REFLECTIONTILE
360
4FFB
  3
REFRACTIONTILE
360
4FFD
  3
SPECULARTILE
360
4FFA
  0
DICTIONARY
  5
50D6
330
4FFF
100
AcDbDictionary
280
     1
281
     1
  3
ACAD_ROUNDTRIP_2008_TABLESTYLE_CELLSTYLEMAP
360
14345
  0
XRECORD
  5
7C2C
102
{ACAD_REACTORS
330
4FEF
102
}
330
4FEF
100
AcDbXrecord
280
     1
102
MATERIAL
148
0.0
149
0.0
149
0.0
 93
        0
 94
      127
282
     0
 72
     0
 77
     0
171
     0
175
     0
179
     0
273
     0
  0
XRECORD
  5
4FF1
102
{ACAD_REACTORS
330
4FEF
102
}
330
4FEF
100
AcDbXrecord
280
     1
270
     1
271
     1
  0
XRECORD
  5
4FF0
102
{ACAD_REACTORS
330
4FEF
102
}
330
4FEF
100
AcDbXrecord
280
     1
270
     1
271
     1
  0
XRECORD
  5
4FF4
102
{ACAD_REACTORS
330
4FEF
102
}
330
4FEF
100
AcDbXrecord
280
     1
270
     1
271
     1
  0
XRECORD
  5
4FF3
102
{ACAD_REACTORS
330
4FEF
102
}
330
4FEF
100
AcDbXrecord
280
     1
270
     1
271
     1
  0
XRECORD
  5
4FF5
102
{ACAD_REACTORS
330
4FEF
102
}
330
4FEF
100
AcDbXrecord
280
     1
270
     1
271
     1
  0
XRECORD
  5
4FF2
102
{ACAD_REACTORS
330
4FEF
102
}
330
4FEF
100
AcDbXrecord
280
     1
270
     1
271
     1
  0
XRECORD
  5
7C2B
102
{ACAD_REACTORS
330
4FE7
102
}
330
4FE7
100
AcDbXrecord
280
     1
102
MATERIAL
148
0.0
149
0.0
149
0.0
 93
        0
 94
      127
282
     0
 72
     0
 77
     0
171
     0
175
     0
179
     0
273
     0
  0
XRECORD
  5
4FE9
102
{ACAD_REACTORS
330
4FE7
102
}
330
4FE7
100
AcDbXrecord
280
     1
270
     1
271
     1
  0
XRECORD
  5
4FE8
102
{ACAD_REACTORS
330
4FE7
102
}
330
4FE7
100
AcDbXrecord
280
     1
270
     1
271
     1
  0
XRECORD
  5
4FEC
102
{ACAD_REACTORS
330
4FE7
102
}
330
4FE7
100
AcDbXrecord
280
     1
270
     1
271
     1
  0
XRECORD
  5
4FEB
102
{ACAD_REACTORS
330
4FE7
102
}
330
4FE7
100
AcDbXrecord
280
     1
270
     1
271
     1
  0
XRECORD
  5
4FED
102
{ACAD_REACTORS
330
4FE7
102
}
330
4FE7
100
AcDbXrecord
280
     1
270
     1
271
     1
  0
XRECORD
  5
4FEA
102
{ACAD_REACTORS
330
4FE7
102
}
330
4FE7
100
AcDbXrecord
280
     1
270
     1
271
     1
  0
XRECORD
  5
7C2D
102
{ACAD_REACTORS
330
4FF7
102
}
330
4FF7
100
AcDbXrecord
280
     1
102
MATERIAL
148
0.0
149
0.0
149
0.0
 93
        0
 94
      127
282
     0
 72
     0
 77
     0
171
     0
175
     0
179
     0
273
     0
  0
XRECORD
  5
4FF9
102
{ACAD_REACTORS
330
4FF7
102
}
330
4FF7
100
AcDbXrecord
280
     1
270
     1
271
     1
  0
XRECORD
  5
4FF8
102
{ACAD_REACTORS
330
4FF7
102
}
330
4FF7
100
AcDbXrecord
280
     1
270
     1
271
     1
  0
XRECORD
  5
4FFC
102
{ACAD_REACTORS
330
4FF7
102
}
330
4FF7
100
AcDbXrecord
280
     1
270
     1
271
     1
  0
XRECORD
  5
4FFB
102
{ACAD_REACTORS
330
4FF7
102
}
330
4FF7
100
AcDbXrecord
280
     1
270
     1
271
     1
  0
XRECORD
  5
4FFD
102
{ACAD_REACTORS
330
4FF7
102
}
330
4FF7
100
AcDbXrecord
280
     1
270
     1
271
     1
  0
XRECORD
  5
4FFA
102
{ACAD_REACTORS
330
4FF7
102
}
330
4FF7
100
AcDbXrecord
280
     1
270
     1
271
     1
  0
CELLSTYLEMAP
  5
14345
102
{ACAD_REACTORS
330
50D6
102
}
330
50D6
100
AcDbCellStyleMap
 90
        3
300
CELLSTYLE
  1
TABLEFORMAT_BEGIN
 90
        5
170
     1
 91
        0
 92
    32768
 62
   257
 93
        1
300
CONTENTFORMAT
  1
CONTENTFORMAT_BEGIN
 90
        0
 91
        0
 92
      512
 93
        0
300

 40
0.0
140
1.0
 94
        5
 62
     0
340
11
144
0.25
309
CONTENTFORMAT_END
171
     1
301
MARGIN
  1
CELLMARGIN_BEGIN
 40
0.06
 40
0.06
 40
0.06
 40
0.06
 40
0.18
 40
0.18
309
CELLMARGIN_END
 94
        6
 95
        1
302
GRIDFORMAT
  1
GRIDFORMAT_BEGIN
 90
        0
 91
        1
 62
     0
 92
       -2
340
0
 93
        0
 40
0.045
309
GRIDFORMAT_END
 95
        2
302
GRIDFORMAT
  1
GRIDFORMAT_BEGIN
 90
        0
 91
        1
 62
     0
 92
       -2
340
0
 93
        0
 40
0.045
309
GRIDFORMAT_END
 95
        4
302
GRIDFORMAT
  1
GRIDFORMAT_BEGIN
 90
        0
 91
        1
 62
     0
 92
       -2
340
0
 93
        0
 40
0.045
309
GRIDFORMAT_END
 95
        8
302
GRIDFORMAT
  1
GRIDFORMAT_BEGIN
 90
        0
 91
        1
 62
     0
 92
       -2
340
0
 93
        0
 40
0.045
309
GRIDFORMAT_END
 95
       16
302
GRIDFORMAT
  1
GRIDFORMAT_BEGIN
 90
        0
 91
        1
 62
     0
 92
       -2
340
0
 93
        0
 40
0.045
309
GRIDFORMAT_END
 95
       32
302
GRIDFORMAT
  1
GRIDFORMAT_BEGIN
 90
        0
 91
        1
 62
     0
 92
       -2
340
0
 93
        0
 40
0.045
309
GRIDFORMAT_END
309
TABLEFORMAT_END
  1
CELLSTYLE_BEGIN
 90
        1
 91
        1
300
_TITLE
309
CELLSTYLE_END
300
CELLSTYLE
  1
TABLEFORMAT_BEGIN
 90
        5
170
     1
 91
        0
 92
        0
 62
   257
 93
        1
300
CONTENTFORMAT
  1
CONTENTFORMAT_BEGIN
 90
        0
 91
        0
 92
      512
 93
        0
300

 40
0.0
140
1.0
 94
        5
 62
     0
340
11
144
0.18
309
CONTENTFORMAT_END
171
     1
301
MARGIN
  1
CELLMARGIN_BEGIN
 40
0.06
 40
0.06
 40
0.06
 40
0.06
 40
0.18
 40
0.18
309
CELLMARGIN_END
 94
        6
 95
        1
302
GRIDFORMAT
  1
GRIDFORMAT_BEGIN
 90
        0
 91
        1
 62
     0
 92
       -2
340
0
 93
        0
 40
0.045
309
GRIDFORMAT_END
 95
        2
302
GRIDFORMAT
  1
GRIDFORMAT_BEGIN
 90
        0
 91
        1
 62
     0
 92
       -2
340
0
 93
        0
 40
0.045
309
GRIDFORMAT_END
 95
        4
302
GRIDFORMAT
  1
GRIDFORMAT_BEGIN
 90
        0
 91
        1
 62
     0
 92
       -2
340
0
 93
        0
 40
0.045
309
GRIDFORMAT_END
 95
        8
302
GRIDFORMAT
  1
GRIDFORMAT_BEGIN
 90
        0
 91
        1
 62
     0
 92
       -2
340
0
 93
        0
 40
0.045
309
GRIDFORMAT_END
 95
       16
302
GRIDFORMAT
  1
GRIDFORMAT_BEGIN
 90
        0
 91
        1
 62
     0
 92
       -2
340
0
 93
        0
 40
0.045
309
GRIDFORMAT_END
 95
       32
302
GRIDFORMAT
  1
GRIDFORMAT_BEGIN
 90
        0
 91
        1
 62
     0
 92
       -2
340
0
 93
        0
 40
0.045
309
GRIDFORMAT_END
309
TABLEFORMAT_END
  1
CELLSTYLE_BEGIN
 90
        2
 91
        1
300
_HEADER
309
CELLSTYLE_END
300
CELLSTYLE
  1
TABLEFORMAT_BEGIN
 90
        5
170
     1
 91
        0
 92
        0
 62
   257
 93
        1
300
CONTENTFORMAT
  1
CONTENTFORMAT_BEGIN
 90
        0
 91
        0
 92
      512
 93
        0
300

 40
0.0
140
1.0
 94
        2
 62
     0
340
11
144
0.18
309
CONTENTFORMAT_END
171
     1
301
MARGIN
  1
CELLMARGIN_BEGIN
 40
0.06
 40
0.06
 40
0.06
 40
0.06
 40
0.18
 40
0.18
309
CELLMARGIN_END
 94
        6
 95
        1
302
GRIDFORMAT
  1
GRIDFORMAT_BEGIN
 90
        0
 91
        1
 62
     0
 92
       -2
340
0
 93
        0
 40
0.045
309
GRIDFORMAT_END
 95
        2
302
GRIDFORMAT
  1
GRIDFORMAT_BEGIN
 90
        0
 91
        1
 62
     0
 92
       -2
340
0
 93
        0
 40
0.045
309
GRIDFORMAT_END
 95
        4
302
GRIDFORMAT
  1
GRIDFORMAT_BEGIN
 90
        0
 91
        1
 62
     0
 92
       -2
340
0
 93
        0
 40
0.045
309
GRIDFORMAT_END
 95
        8
302
GRIDFORMAT
  1
GRIDFORMAT_BEGIN
 90
        0
 91
        1
 62
     0
 92
       -2
340
0
 93
        0
 40
0.045
309
GRIDFORMAT_END
 95
       16
302
GRIDFORMAT
  1
GRIDFORMAT_BEGIN
 90
        0
 91
        1
 62
     0
 92
       -2
340
0
 93
        0
 40
0.045
309
GRIDFORMAT_END
 95
       32
302
GRIDFORMAT
  1
GRIDFORMAT_BEGIN
 90
        0
 91
        1
 62
     0
 92
       -2
340
0
 93
        0
 40
0.045
309
GRIDFORMAT_END
309
TABLEFORMAT_END
  1
CELLSTYLE_BEGIN
 90
        3
 91
        2
300
_DATA
309
CELLSTYLE_END
  0
ENDSEC
  0
EOF
