  0
SECTION
  2
HEADER
  9
$ACADVER
  1
AC1021
  9
$ACADMAINTVER
 70
    25
  9
$DWGCODEPAGE
  3
ANSI_936
  9
$LASTSAVEDBY
  1
yp.zhu
  9
$INSBASE
 10
0.0
 20
0.0
 30
0.0
  9
$EXTMIN
 10
460.6786082154463
 20
209.9231617638111
 30
-0.0015258207003583
  9
$EXTMAX
 10
609.2762625495366
 20
314.9743031953121
 30
0.0000000349246037
  9
$LIMMIN
 10
0.0
 20
0.0
  9
$LIMMAX
 10
12.0
 20
9.0
  9
$ORTHOMODE
 70
     0
  9
$REGENMODE
 70
     1
  9
$FILLMODE
 70
     1
  9
$QTEXTMODE
 70
     0
  9
$MIRRTEXT
 70
     1
  9
$LTSCALE
 40
1.0
  9
$ATTMODE
 70
     1
  9
$TEXTSIZE
 40
0.2
  9
$TRACEWID
 40
0.05
  9
$TEXTSTYLE
  7
Standard
  9
$CLAYER
  8
DIM
  9
$CELTYPE
  6
ByLayer
  9
$CECOLOR
 62
   256
  9
$CELTSCALE
 40
1.0
  9
$DISPSILH
 70
     0
  9
$DIMSCALE
 40
1.0
  9
$DIMASZ
 40
2.0
  9
$DIMEXO
 40
0.2
  9
$DIMDLI
 40
0.2
  9
$DIMRND
 40
0.0
  9
$DIMDLE
 40
0.0
  9
$DIMEXE
 40
1.199999999999999
  9
$DIMTP
 40
0.0
  9
$DIMTM
 40
0.0
  9
$DIMTXT
 40
2.5
  9
$DIMCEN
 40
0.0
  9
$DIMTSZ
 40
0.0
  9
$DIMTOL
 70
     0
  9
$DIMLIM
 70
     0
  9
$DIMTIH
 70
     0
  9
$DIMTOH
 70
     0
  9
$DIMSE1
 70
     0
  9
$DIMSE2
 70
     0
  9
$DIMTAD
 70
     1
  9
$DIMZIN
 70
     8
  9
$DIMBLK
  1

  9
$DIMASO
 70
     1
  9
$DIMSHO
 70
     1
  9
$DIMPOST
  1

  9
$DIMAPOST
  1

  9
$DIMALT
 70
     0
  9
$DIMALTD
 70
     2
  9
$DIMALTF
 40
25.4
  9
$DIMLFAC
 40
1.0
  9
$DIMTOFL
 70
     0
  9
$DIMTVP
 40
0.0
  9
$DIMTIX
 70
     0
  9
$DIMSOXD
 70
     0
  9
$DIMSAH
 70
     0
  9
$DIMBLK1
  1

  9
$DIMBLK2
  1

  9
$DIMSTYLE
  2
01
  9
$DIMCLRD
 70
     1
  9
$DIMCLRE
 70
     6
  9
$DIMCLRT
 70
     4
  9
$DIMTFAC
 40
1.0
  9
$DIMGAP
 40
0.8
  9
$DIMJUST
 70
     0
  9
$DIMSD1
 70
     0
  9
$DIMSD2
 70
     0
  9
$DIMTOLJ
 70
     1
  9
$DIMTZIN
 70
     0
  9
$DIMALTZ
 70
     0
  9
$DIMALTTZ
 70
     0
  9
$DIMUPT
 70
     0
  9
$DIMDEC
 70
     1
  9
$DIMTDEC
 70
     1
  9
$DIMALTU
 70
     2
  9
$DIMALTTD
 70
     2
  9
$DIMTXSTY
  7
Romans字体
  9
$DIMAUNIT
 70
     0
  9
$DIMADEC
 70
     2
  9
$DIMALTRND
 40
0.0
  9
$DIMAZIN
 70
     2
  9
$DIMDSEP
 70
    46
  9
$DIMATFIT
 70
     3
  9
$DIMFRAC
 70
     0
  9
$DIMLDRBLK
  1

  9
$DIMLUNIT
 70
     2
  9
$DIMLWD
 70
    -2
  9
$DIMLWE
 70
    -2
  9
$DIMTMOVE
 70
     0
  9
$DIMFXL
 40
1.0
  9
$DIMFXLON
 70
     0
  9
$DIMJOGANG
 40
0.7853981633974483
  9
$DIMTFILL
 70
     0
  9
$DIMTFILLCLR
 70
     0
  9
$DIMARCSYM
 70
     0
  9
$DIMLTYPE
  6

  9
$DIMLTEX1
  6

  9
$DIMLTEX2
  6

  9
$LUNITS
 70
     2
  9
$LUPREC
 70
     4
  9
$SKETCHINC
 40
0.1
  9
$FILLETRAD
 40
0.5
  9
$AUNITS
 70
     0
  9
$AUPREC
 70
     0
  9
$MENU
  1
.
  9
$ELEVATION
 40
0.0
  9
$PELEVATION
 40
0.0
  9
$THICKNESS
 40
0.0
  9
$LIMCHECK
 70
     0
  9
$CHAMFERA
 40
0.5
  9
$CHAMFERB
 40
0.5
  9
$CHAMFERC
 40
1.0
  9
$CHAMFERD
 40
0.0
  9
$SKPOLY
 70
     0
  9
$TDCREATE
 40
2456524.383632987
  9
$TDUCREATE
 40
2456524.050299653
  9
$TDUPDATE
 40
2460322.662618796
  9
$TDUUPDATE
 40
2460322.329285463
  9
$TDINDWG
 40
0.9596772222
  9
$TDUSRTIMER
 40
0.9596512616
  9
$USRTIMER
 70
     1
  9
$ANGBASE
 50
0.0
  9
$ANGDIR
 70
     0
  9
$PDMODE
 70
     0
  9
$PDSIZE
 40
0.0
  9
$PLINEWID
 40
0.0
  9
$SPLFRAME
 70
     0
  9
$SPLINETYPE
 70
     6
  9
$SPLINESEGS
 70
     8
  9
$HANDSEED
  5
1B5F8
  9
$SURFTAB1
 70
     6
  9
$SURFTAB2
 70
     6
  9
$SURFTYPE
 70
     6
  9
$SURFU
 70
     6
  9
$SURFV
 70
     6
  9
$UCSBASE
  2

  9
$UCSNAME
  2

  9
$UCSORG
 10
0.0
 20
0.0
 30
0.0
  9
$UCSXDIR
 10
1.0
 20
0.0
 30
0.0
  9
$UCSYDIR
 10
0.0
 20
1.0
 30
0.0
  9
$UCSORTHOREF
  2

  9
$UCSORTHOVIEW
 70
     0
  9
$UCSORGTOP
 10
0.0
 20
0.0
 30
0.0
  9
$UCSORGBOTTOM
 10
0.0
 20
0.0
 30
0.0
  9
$UCSORGLEFT
 10
0.0
 20
0.0
 30
0.0
  9
$UCSORGRIGHT
 10
0.0
 20
0.0
 30
0.0
  9
$UCSORGFRONT
 10
0.0
 20
0.0
 30
0.0
  9
$UCSORGBACK
 10
0.0
 20
0.0
 30
0.0
  9
$PUCSBASE
  2

  9
$PUCSNAME
  2

  9
$PUCSORG
 10
0.0
 20
0.0
 30
0.0
  9
$PUCSXDIR
 10
1.0
 20
0.0
 30
0.0
  9
$PUCSYDIR
 10
0.0
 20
1.0
 30
0.0
  9
$PUCSORTHOREF
  2

  9
$PUCSORTHOVIEW
 70
     0
  9
$PUCSORGTOP
 10
0.0
 20
0.0
 30
0.0
  9
$PUCSORGBOTTOM
 10
0.0
 20
0.0
 30
0.0
  9
$PUCSORGLEFT
 10
0.0
 20
0.0
 30
0.0
  9
$PUCSORGRIGHT
 10
0.0
 20
0.0
 30
0.0
  9
$PUCSORGFRONT
 10
0.0
 20
0.0
 30
0.0
  9
$PUCSORGBACK
 10
0.0
 20
0.0
 30
0.0
  9
$USERI1
 70
     0
  9
$USERI2
 70
     0
  9
$USERI3
 70
     0
  9
$USERI4
 70
     0
  9
$USERI5
 70
     0
  9
$USERR1
 40
0.0
  9
$USERR2
 40
0.0
  9
$USERR3
 40
0.0
  9
$USERR4
 40
0.0
  9
$USERR5
 40
2.5
  9
$WORLDVIEW
 70
     1
  9
$SHADEDGE
 70
     3
  9
$SHADEDIF
 70
    70
  9
$TILEMODE
 70
     1
  9
$MAXACTVP
 70
    64
  9
$PINSBASE
 10
0.0
 20
0.0
 30
0.0
  9
$PLIMCHECK
 70
     0
  9
$PEXTMIN
 10
1.000000000000000E+20
 20
1.000000000000000E+20
 30
1.000000000000000E+20
  9
$PEXTMAX
 10
-1.000000000000000E+20
 20
-1.000000000000000E+20
 30
-1.000000000000000E+20
  9
$PLIMMIN
 10
0.0
 20
0.0
  9
$PLIMMAX
 10
12.0
 20
9.0
  9
$UNITMODE
 70
     0
  9
$VISRETAIN
 70
     1
  9
$PLINEGEN
 70
     0
  9
$PSLTSCALE
 70
     1
  9
$TREEDEPTH
 70
  3020
  9
$CMLSTYLE
  2
Standard
  9
$CMLJUST
 70
     0
  9
$CMLSCALE
 40
1.0
  9
$PROXYGRAPHICS
 70
     1
  9
$MEASUREMENT
 70
     0
  9
$CELWEIGHT
370
    -1
  9
$ENDCAPS
280
     0
  9
$JOINSTYLE
280
     0
  9
$LWDISPLAY
290
     0
  9
$INSUNITS
 70
     4
  9
$HYPERLINKBASE
  1

  9
$STYLESHEET
  1
monochrome.ctb
  9
$XEDIT
290
     1
  9
$CEPSNTYPE
380
     0
  9
$PSTYLEMODE
290
     1
  9
$FINGERPRINTGUID
  2
{4A02065B-8BB3-4A96-9036-502DC906C165}
  9
$VERSIONGUID
  2
{DD1F548D-465C-4982-8100-F7A34525D532}
  9
$EXTNAMES
290
     1
  9
$PSVPSCALE
 40
0.0
  9
$OLESTARTUP
290
     0
  9
$SORTENTS
280
   127
  9
$INDEXCTL
280
     0
  9
$HIDETEXT
280
     0
  9
$XCLIPFRAME
290
     0
  9
$HALOGAP
280
     0
  9
$OBSCOLOR
 70
   257
  9
$OBSLTYPE
280
     0
  9
$INTERSECTIONDISPLAY
280
     0
  9
$INTERSECTIONCOLOR
 70
   257
  9
$DIMASSOC
280
     1
  9
$PROJECTNAME
  1

  9
$CAMERADISPLAY
290
     0
  9
$LENSLENGTH
 40
50.0
  9
$CAMERAHEIGHT
 40
0.0
  9
$STEPSPERSEC
 40
2.0
  9
$STEPSIZE
 40
6.0
  9
$3DDWFPREC
 40
2.0
  9
$PSOLWIDTH
 40
0.25
  9
$PSOLHEIGHT
 40
4.0
  9
$LOFTANG1
 40
1.570796326794896
  9
$LOFTANG2
 40
1.570796326794896
  9
$LOFTMAG1
 40
0.0
  9
$LOFTMAG2
 40
0.0
  9
$LOFTPARAM
 70
     7
  9
$LOFTNORMALS
280
     1
  9
$LATITUDE
 40
37.795
  9
$LONGITUDE
 40
-122.394
  9
$NORTHDIRECTION
 40
0.0
  9
$TIMEZONE
 70
 -8000
  9
$LIGHTGLYPHDISPLAY
280
     1
  9
$TILEMODELIGHTSYNCH
280
     1
  9
$CMATERIAL
347
4FE6
  9
$SOLIDHIST
280
     1
  9
$SHOWHIST
280
     1
  9
$DWFFRAME
280
     2
  9
$DGNFRAME
280
     0
  9
$REALWORLDSCALE
290
     1
  9
$INTERFERECOLOR
 62
     1
  9
$INTERFEREOBJVS
345
33
  9
$INTERFEREVPVS
346
30
  9
$CSHADOW
280
     0
  9
$SHADOWPLANELOCATION
 40
0.0
  0
ENDSEC
  0
SECTION
  2
CLASSES
  0
CLASS
  1
ACDBDICTIONARYWDFLT
  2
AcDbDictionaryWithDefault
  3
ObjectDBX Classes
 90
        0
 91
        1
280
     0
281
     0
  0
CLASS
  1
VISUALSTYLE
  2
AcDbVisualStyle
  3
ObjectDBX Classes
 90
     4095
 91
       16
280
     0
281
     0
  0
CLASS
  1
MATERIAL
  2
AcDbMaterial
  3
ObjectDBX Classes
 90
     1153
 91
        3
280
     0
281
     0
  0
CLASS
  1
TABLESTYLE
  2
AcDbTableStyle
  3
ObjectDBX Classes
 90
     4095
 91
        1
280
     0
281
     0
  0
CLASS
  1
SCALE
  2
AcDbScale
  3
ObjectDBX Classes
 90
     1153
 91
       33
280
     0
281
     0
  0
CLASS
  1
MLEADERSTYLE
  2
AcDbMLeaderStyle
  3
ACDB_MLEADERSTYLE_CLASS
 90
     4095
 91
        1
280
     0
281
     0
  0
CLASS
  1
CELLSTYLEMAP
  2
AcDbCellStyleMap
  3
ObjectDBX Classes
 90
     1152
 91
        3
280
     0
281
     0
  0
CLASS
  1
DICTIONARYVAR
  2
AcDbDictionaryVar
  3
ObjectDBX Classes
 90
        0
 91
        8
280
     0
281
     0
  0
CLASS
  1
SORTENTSTABLE
  2
AcDbSortentsTable
  3
ObjectDBX Classes
 90
        0
 91
        1
280
     0
281
     0
  0
CLASS
  1
ACAD_EVALUATION_GRAPH
  2
AcDbEvalGraph
  3
ObjectDBX Classes
 90
     1153
 91
        1
280
     0
281
     0
  0
CLASS
  1
ACAECUSTOBJ
  2
AcAeEditorObj
  3
AcAeEditorObj
 90
     1024
 91
        1
280
     0
281
     0
  0
CLASS
  1
ACDB_DYNAMICBLOCKPURGEPREVENTER_VERSION
  2
AcDbDynamicBlockPurgePreventer
  3
ObjectDBX Classes
 90
     1153
 91
        1
280
     0
281
     0
  0
CLASS
  1
MENTALRAYRENDERSETTINGS
  2
AcDbMentalRayRenderSettings
  3
SCENEOE
 90
     1024
 91
        1
280
     0
281
     0
  0
CLASS
  1
ACDB_BLOCKREPRESENTATION_DATA
  2
AcDbBlockRepresentationData
  3
ObjectDBX Classes
 90
     1153
 91
        0
280
     0
281
     0
  0
CLASS
  1
DIMASSOC
  2
AcDbDimAssoc
  3
"AcDbDimAssoc|Product Desc:     AcDim ARX App For Dimension|Company:          Autodesk, Inc.|WEB Address:      www.autodesk.com"
 90
        0
 91
        2
280
     0
281
     0
  0
CLASS
  1
VLO-VL
  2
vlo_VL
  3
VL|AutoLISP based application
 90
      129
 91
        1
280
     0
281
     0
  0
ENDSEC
  0
SECTION
  2
TABLES
  0
TABLE
  2
VPORT
  5
8
102
{ACAD_XDICTIONARY
360
50EE
102
}
330
0
100
AcDbSymbolTable
 70
     1
  0
VPORT
  5
29
330
8
100
AcDbSymbolTableRecord
100
AcDbViewportTableRecord
  2
*Active
 70
     0
 10
0.0
 20
0.0
 11
1.0
 21
1.0
 12
430.0119385105828
 22
113.9465017109638
 13
0.0
 23
0.0
 14
0.5
 24
0.5
 15
0.5
 25
0.5
 16
0.0
 26
0.0
 36
1.0
 17
104.9654968719086
 27
148.5022307685978
 37
0.0
 40
105.8133020706655
 41
2.203389830508474
 42
50.0
 43
0.0
 44
0.0
 50
0.0
 51
0.0
 71
     0
 72
   100
 73
     1
 74
     3
 75
     0
 76
     0
 77
     0
 78
     0
281
     0
 65
     1
110
0.0
120
0.0
130
0.0
111
1.0
121
0.0
131
0.0
112
0.0
122
1.0
132
0.0
 79
     0
146
0.0
348
2F
 60
     3
 61
     5
292
     1
282
     1
141
0.0
142
0.0
 63
   250
421
  3355443
  0
ENDTAB
  0
TABLE
  2
LTYPE
  5
5
330
0
100
AcDbSymbolTable
 70
     2
  0
LTYPE
  5
14
330
5
100
AcDbSymbolTableRecord
100
AcDbLinetypeTableRecord
  2
ByBlock
 70
     0
  3

 72
    65
 73
     0
 40
0.0
  0
LTYPE
  5
15
330
5
100
AcDbSymbolTableRecord
100
AcDbLinetypeTableRecord
  2
ByLayer
 70
     0
  3

 72
    65
 73
     0
 40
0.0
  0
LTYPE
  5
16
330
5
100
AcDbSymbolTableRecord
100
AcDbLinetypeTableRecord
  2
Continuous
 70
     0
  3
Solid line
 72
    65
 73
     0
 40
0.0
  0
LTYPE
  5
67BA
330
5
100
AcDbSymbolTableRecord
100
AcDbLinetypeTableRecord
  2
CENTER
 70
     0
  3
Center ____ _ ____ _ ____ _ ____ _ ____ _ ____
 72
    65
 73
     4
 40
2.0
 49
1.25
 74
     0
 49
-0.25
 74
     0
 49
0.25
 74
     0
 49
-0.25
 74
     0
  0
ENDTAB
  0
TABLE
  2
LAYER
  5
2
102
{ACAD_XDICTIONARY
360
50B8
102
}
330
0
100
AcDbSymbolTable
 70
     7
  0
LAYER
  5
10
102
{ACAD_XDICTIONARY
360
50D0
102
}
330
2
100
AcDbSymbolTableRecord
100
AcDbLayerTableRecord
  2
0
 70
     0
 62
     7
  6
Continuous
370
    30
390
F
347
4FF6
  0
LAYER
  5
3B
102
{ACAD_XDICTIONARY
360
50D2
102
}
330
2
100
AcDbSymbolTableRecord
100
AcDbLayerTableRecord
  2
图层 1
 70
     0
 62
     7
  6
Continuous
370
    -3
390
F
347
4FF6
  0
LAYER
  5
50AE
102
{ACAD_XDICTIONARY
360
50AF
102
}
330
2
100
AcDbSymbolTableRecord
100
AcDbLayerTableRecord
  2
图框
 70
     0
 62
     7
  6
Continuous
370
    20
390
F
347
4FF6
  0
LAYER
  5
5141
330
2
100
AcDbSymbolTableRecord
100
AcDbLayerTableRecord
  2
Defpoints
 70
     0
 62
     7
  6
Continuous
290
     0
370
    -3
390
F
347
4FF6
  0
LAYER
  5
5144
330
2
100
AcDbSymbolTableRecord
100
AcDbLayerTableRecord
  2
DIM
 70
     0
 62
     3
  6
Continuous
370
    15
390
F
347
4FF6
1001
AcAecLayerStandard
1000

1000

  0
LAYER
  5
52F3
330
2
100
AcDbSymbolTableRecord
100
AcDbLayerTableRecord
  2
打标文字
 70
     0
 62
     3
  6
Continuous
370
    20
390
F
347
4FF6
  0
LAYER
  5
1A670
330
2
100
AcDbSymbolTableRecord
100
AcDbLayerTableRecord
  2
CEN
 70
     0
 62
     1
  6
CENTER
370
    15
390
F
347
4FF6
1001
AcAecLayerStandard
1000

1000

  0
ENDTAB
  0
TABLE
  2
STYLE
  5
3
330
0
100
AcDbSymbolTable
 70
     5
  0
STYLE
  5
11
330
3
100
AcDbSymbolTableRecord
100
AcDbTextStyleTableRecord
  2
Standard
 70
     0
 40
0.0
 41
0.75
 50
0.0
 71
     0
 42
0.2
  3

  4

1001
ACAD
1000
仿宋_GB2312
1071
    34353
  0
STYLE
  5
FD48
330
3
100
AcDbSymbolTableRecord
100
AcDbTextStyleTableRecord
  2
Romans字体
 70
     0
 40
0.0
 41
0.75
 50
0.0
 71
     0
 42
0.2
  3
romans.shx
  4

  0
STYLE
  5
11080
330
3
100
AcDbSymbolTableRecord
100
AcDbTextStyleTableRecord
  2
工程字
 70
     0
 40
0.0
 41
1.0
 50
0.0
 71
     0
 42
3.5
  3
gbenor.shx
  4
gbcbig.shx
  0
STYLE
  5
11081
330
3
100
AcDbSymbolTableRecord
100
AcDbTextStyleTableRecord
  2
Chinese
 70
     0
 40
0.0
 41
1.0
 50
0.0
 71
     0
 42
2.5
  3
PMingLiU.ttf
  4

1001
ACAD
1000
PMingLiU
1071
    34834
  0
ENDTAB
  0
TABLE
  2
VIEW
  5
6
330
0
100
AcDbSymbolTable
 70
     0
  0
ENDTAB
  0
TABLE
  2
UCS
  5
7
330
0
100
AcDbSymbolTable
 70
     0
  0
ENDTAB
  0
TABLE
  2
APPID
  5
9
330
0
100
AcDbSymbolTable
 70
    19
  0
APPID
  5
12
330
9
100
AcDbSymbolTableRecord
100
AcDbRegAppTableRecord
  2
ACAD
 70
     0
  0
APPID
  5
5024
330
9
100
AcDbSymbolTableRecord
100
AcDbRegAppTableRecord
  2
ACAD_MLEADERVER
 70
     0
  0
APPID
  5
50B5
330
9
100
AcDbSymbolTableRecord
100
AcDbRegAppTableRecord
  2
AcDbDynamicBlockGUID
 70
     0
  0
APPID
  5
50B6
330
9
100
AcDbSymbolTableRecord
100
AcDbRegAppTableRecord
  2
AcDbBlockRepETag
 70
     0
  0
APPID
  5
50B7
330
9
100
AcDbSymbolTableRecord
100
AcDbRegAppTableRecord
  2
ACAD_PSEXT
 70
     0
  0
APPID
  5
50CF
330
9
100
AcDbSymbolTableRecord
100
AcDbRegAppTableRecord
  2
AcadAnnoPO
 70
     0
  0
APPID
  5
5146
330
9
100
AcDbSymbolTableRecord
100
AcDbRegAppTableRecord
  2
AcAecLayerStandard
 70
     0
  0
APPID
  5
5147
330
9
100
AcDbSymbolTableRecord
100
AcDbRegAppTableRecord
  2
ACAD_DSTYLE_DIMJAG
 70
     0
  0
APPID
  5
5148
330
9
100
AcDbSymbolTableRecord
100
AcDbRegAppTableRecord
  2
ACAD_DSTYLE_DIMTALN
 70
     0
  0
APPID
  5
52AD
330
9
100
AcDbSymbolTableRecord
100
AcDbRegAppTableRecord
  2
ACAUTHENVIRON
 70
     0
  0
APPID
  5
52B0
330
9
100
AcDbSymbolTableRecord
100
AcDbRegAppTableRecord
  2
AcDbDynamicBlockTrueName
 70
     0
  0
APPID
  5
67C6
330
9
100
AcDbSymbolTableRecord
100
AcDbRegAppTableRecord
  2
ACAD_EXEMPT_FROM_CAD_STANDARDS
 70
     0
  0
APPID
  5
6838
330
9
100
AcDbSymbolTableRecord
100
AcDbRegAppTableRecord
  2
ACAD_NAV_VCDISPLAY
 70
     0
  0
APPID
  5
70A9
330
9
100
AcDbSymbolTableRecord
100
AcDbRegAppTableRecord
  2
DCO15
 70
     0
  0
APPID
  5
8725
330
9
100
AcDbSymbolTableRecord
100
AcDbRegAppTableRecord
  2
AcDbBlockRepBTag
 70
     0
  0
APPID
  5
FE64
330
9
100
AcDbSymbolTableRecord
100
AcDbRegAppTableRecord
  2
ACAD_DSTYLE_DIMRADIAL_EXTENSION
 70
     0
  0
APPID
  5
FF93
330
9
100
AcDbSymbolTableRecord
100
AcDbRegAppTableRecord
  2
ACAD_DSTYLE_DIMBREAK
 70
     0
  0
APPID
  5
14250
330
9
100
AcDbSymbolTableRecord
100
AcDbRegAppTableRecord
  2
GradientColor1ACI
 70
     0
  0
APPID
  5
14251
330
9
100
AcDbSymbolTableRecord
100
AcDbRegAppTableRecord
  2
GradientColor2ACI
 70
     0
  0
ENDTAB
  0
TABLE
  2
DIMSTYLE
  5
A
330
0
100
AcDbSymbolTable
 70
     3
100
AcDbDimStyleTable
 71
     2
340
5145
340
27
  0
DIMSTYLE
105
27
330
A
100
AcDbSymbolTableRecord
100
AcDbDimStyleTableRecord
  2
Standard
 70
     0
340
11
  0
DIMSTYLE
105
5145
102
{ACAD_REACTORS
330
1B284
330
1B28A
330
1B287
330
1B286
330
1B283
330
1B285
102
}
330
A
100
AcDbSymbolTableRecord
100
AcDbDimStyleTableRecord
  2
01
 70
     0
 41
2.0
 42
0.2
 43
0.2
 44
1.199999999999999
 73
     0
 74
     0
 77
     1
 78
     8
 79
     2
140
2.5
141
0.0
147
0.8
176
     1
177
     6
178
     4
179
     2
271
     1
272
     1
340
FD48
1001
ACAD_DSTYLE_DIMJAG
1070
   388
1040
1.5
1001
ACAD_DSTYLE_DIMTALN
1070
   392
1070
     0
  0
ENDTAB
  0
TABLE
  2
BLOCK_RECORD
  5
1
330
0
100
AcDbSymbolTable
 70
    10
  0
BLOCK_RECORD
  5
1F
102
{ACAD_XDICTIONARY
360
67C0
102
}
330
1
100
AcDbSymbolTableRecord
100
AcDbBlockTableRecord
  2
*Model_Space
340
22
 70
     0
280
     1
281
     0
  0
BLOCK_RECORD
  5
1B
330
1
100
AcDbSymbolTableRecord
100
AcDbBlockTableRecord
  2
*Paper_Space
340
1E
 70
     0
280
     1
281
     0
  0
BLOCK_RECORD
  5
23
330
1
100
AcDbSymbolTableRecord
100
AcDbBlockTableRecord
  2
*Paper_Space0
340
26
 70
     0
280
     1
281
     0
  0
BLOCK_RECORD
  5
10FE8
102
{ACAD_XDICTIONARY
360
1B5B4
102
}
330
1
100
AcDbSymbolTableRecord
100
AcDbBlockTableRecord
  2
A4图框-NEW
340
0
310
2800000020000000200000000100080000000000000400000000000000000000000000000000000000000000000080000080000000808000800000008000800080800000C0C0C000C0DCC000F0CAA6000020400000206000002080000020A0000020C0000020E00000400000004020000040400000406000004080000040A0
310
000040C0000040E00000600000006020000060400000606000006080000060A0000060C0000060E00000800000008020000080400000806000008080000080A0000080C0000080E00000A0000000A0200000A0400000A0600000A0800000A0A00000A0C00000A0E00000C0000000C0200000C0400000C0600000C0800000C0
310
A00000C0C00000C0E00000E0000000E0200000E0400000E0600000E0800000E0A00000E0C00000E0E00040000000400020004000400040006000400080004000A0004000C0004000E00040200000402020004020400040206000402080004020A0004020C0004020E000404000004040200040404000404060004040800040
310
40A0004040C0004040E00040600000406020004060400040606000406080004060A0004060C0004060E00040800000408020004080400040806000408080004080A0004080C0004080E00040A0000040A0200040A0400040A0600040A0800040A0A00040A0C00040A0E00040C0000040C0200040C0400040C0600040C08000
310
40C0A00040C0C00040C0E00040E0000040E0200040E0400040E0600040E0800040E0A00040E0C00040E0E00080000000800020008000400080006000800080008000A0008000C0008000E00080200000802020008020400080206000802080008020A0008020C0008020E00080400000804020008040400080406000804080
310
008040A0008040C0008040E00080600000806020008060400080606000806080008060A0008060C0008060E00080800000808020008080400080806000808080008080A0008080C0008080E00080A0000080A0200080A0400080A0600080A0800080A0A00080A0C00080A0E00080C0000080C0200080C0400080C0600080C0
310
800080C0A00080C0C00080C0E00080E0000080E0200080E0400080E0600080E0800080E0A00080E0C00080E0E000C0000000C0002000C0004000C0006000C0008000C000A000C000C000C000E000C0200000C0202000C0204000C0206000C0208000C020A000C020C000C020E000C0400000C0402000C0404000C0406000C0
310
408000C040A000C040C000C040E000C0600000C0602000C0604000C0606000C0608000C060A000C060C000C060E000C0800000C0802000C0804000C0806000C0808000C080A000C080C000C080E000C0A00000C0A02000C0A04000C0A06000C0A08000C0A0A000C0A0C000C0A0E000C0C00000C0C02000C0C04000C0C06000
310
C0C08000C0C0A000F0FBFF00A4A0A000808080000000FF0000FF000000FFFF00FF000000FF00FF00FFFF0000FFFFFF0000000000000000000000000000000000000000000000000000000000000000000000000000000000000000000000000000000000000000000000000000000000000000000000000000000000000000
310
000000000000000000000000000000000000000000000000000000000000000000000000000000000000000000000000000000000000000000000000000000000000000000000000000000000000000000000000000000000000000000000000000000000000000000000000000000000000F9F9F9F9F9F9F9F9F9F9F9F9F9
310
F9F9F9F9F9F9F9F9F9F9F9F9F9F9FF00000000F9FF000000000000000000FFFFFFFFFFFFFFFFFFFFFFFFF9FAFAFAFF00000000F9FF000000000000000000FFFFFFFFFFFFFFFFFFFFFFFFFFFFFFFFFF00000000F9FD000000000000000000FFFFFFFFFFFFFFFFFFFFFFFFFFFFFFFFFF00000000F9FF000000000000000000FF
310
FFFFFFFFFFFFFFFFFFFFFFFFFFFFFFFF00000000F9FD000000000000000000FFFFFFFFFFFFFFFFFFFFFFFFFFFFFFFFFF00000000F9FF00000000000000000000000000000000000000000000000000FF00000000F9FD00000000000000000000000000000000000000000000000000FF00000000F9FF000000000000000000
310
00000000000000000000000000000000FF00000000F9FD00000000000000000000000000000000000000000000000000FF00000000F9FF00000000000000000000000000000000000000000000000000FF00000000F9FD00000000000000000000000000000000000000000000000000FF00000000F9FD0000000000000000
310
0000000000000000000000000000000000FF00000000F9FF00000000000000000000000000000000000000000000000000FF00000000F9FD00000000000000000000000000000000000000000000000000FF00000000F9FF00000000000000000000000000000000000000000000000000FF00000000F9FD00000000000000
310
000000000000000000000000000000000000FF00000000F9FF00000000000000000000000000000000000000000000000000FF00000000F9FFFFFFFFFFFFFFFFFFFFFFFFFFFFFFFFFFFFFFFFFFFFFFFFFFFFFF00000000F9FFFFFFF9F9F9F9F9F9F9F9F9F9F9F9F9F9F9F9F9F9F9F9F9F9F9F9000000000000000000000000
310
00000000000000000000000000000000000000000000000000000000000000000000000000000000000000000000000000000000000000000000000000000000000000000000000000000000000000000000000000000000000000000000000000000000000000000000000000000000000000000000000000000000000000
310
0000000000000000000000000000000000000000000000000000000000000000000000000000000000000000000000000000000000000000
102
{BLKREFS
331
11089
102
}
 70
     4
280
     1
281
     0
1001
AcDbDynamicBlockGUID
1000
{A1AC2CAA-A6B0-440D-A902-C727BCCFB23E}
1001
AcDbBlockRepETag
1070
     1
1071
      149
  0
BLOCK_RECORD
  5
1B28D
330
1
100
AcDbSymbolTableRecord
100
AcDbBlockTableRecord
  2
*D2
340
0
 70
     0
280
     1
281
     0
  0
BLOCK_RECORD
  5
1B29A
330
1
100
AcDbSymbolTableRecord
100
AcDbBlockTableRecord
  2
*D3
340
0
 70
     0
280
     1
281
     0
  0
BLOCK_RECORD
  5
1B2A7
330
1
100
AcDbSymbolTableRecord
100
AcDbBlockTableRecord
  2
*D4
340
0
 70
     0
280
     1
281
     0
  0
BLOCK_RECORD
  5
1B2B4
330
1
100
AcDbSymbolTableRecord
100
AcDbBlockTableRecord
  2
*D5
340
0
 70
     0
280
     1
281
     0
  0
BLOCK_RECORD
  5
1B2E9
330
1
100
AcDbSymbolTableRecord
100
AcDbBlockTableRecord
  2
*D6
340
0
 70
     0
280
     1
281
     0
  0
BLOCK_RECORD
  5
1B2F6
330
1
100
AcDbSymbolTableRecord
100
AcDbBlockTableRecord
  2
*D7
340
0
 70
     0
280
     1
281
     0
  0
ENDTAB
  0
ENDSEC
  0
SECTION
  2
BLOCKS
  0
BLOCK
  5
20
330
1F
100
AcDbEntity
  8
0
100
AcDbBlockBegin
  2
*Model_Space
 70
     0
 10
0.0
 20
0.0
 30
0.0
  3
*Model_Space
  1

  0
ENDBLK
  5
21
330
1F
100
AcDbEntity
  8
0
100
AcDbBlockEnd
  0
BLOCK
  5
1C
330
1B
100
AcDbEntity
 67
     1
  8
0
100
AcDbBlockBegin
  2
*Paper_Space
 70
     0
 10
0.0
 20
0.0
 30
0.0
  3
*Paper_Space
  1

  0
ENDBLK
  5
1D
330
1B
100
AcDbEntity
 67
     1
  8
0
100
AcDbBlockEnd
  0
BLOCK
  5
24
330
23
100
AcDbEntity
 67
     1
  8
0
100
AcDbBlockBegin
  2
*Paper_Space0
 70
     0
 10
0.0
 20
0.0
 30
0.0
  3
*Paper_Space0
  1

  0
ENDBLK
  5
25
330
23
100
AcDbEntity
 67
     1
  8
0
100
AcDbBlockEnd
  0
BLOCK
  5
10FEA
330
10FE8
100
AcDbEntity
  8
0
100
AcDbBlockBegin
  2
A4图框-NEW
 70
     0
 10
0.0
 20
0.0
 30
0.0
  3
A4图框-NEW
  1

  0
MTEXT
  5
1B51F
102
{ACAD_XDICTIONARY
360
1B5E0
102
}
330
10FE8
100
AcDbEntity
  8
图框
 62
     3
100
AcDbMText
 10
967.6594956750133
 20
499.7664151964293
 30
0.0
 40
2.985513575034151
 41
15.50176341157864
 46
6.292658374511018
 71
     5
 72
     5
  1
BQ LUO
  7
Romans字体
 73
     1
 44
1.0
1001
AcDbBlockRepETag
1070
     1
1071
        0
1005
1B51F
1001
ACAD
1000
ACAD_MTEXT_DEFINED_HEIGHT_BEGIN
1070
    46
1040
6.292658374511018
1000
ACAD_MTEXT_DEFINED_HEIGHT_END
  0
MTEXT
  5
1B520
330
10FE8
100
AcDbEntity
  8
图框
 62
     3
100
AcDbMText
 10
983.041569333247
 20
499.7664151964293
 30
0.0
 40
2.487927979195124
 41
15.26238390489051
 46
6.292658374511042
 71
     5
 72
     5
  1
{\W0.7;18.10.2010}
  7
Romans字体
 73
     1
 44
1.0
1001
AcDbBlockRepETag
1070
     1
1071
        1
1005
1B520
1001
ACAD
1000
ACAD_MTEXT_DEFINED_HEIGHT_BEGIN
1070
    46
1040
6.292658374511042
1000
ACAD_MTEXT_DEFINED_HEIGHT_END
  0
MTEXT
  5
1B521
330
10FE8
100
AcDbEntity
  8
图框
 62
     3
100
AcDbMText
 10
1012.477254728976
 20
487.1810984474071
 30
0.0
 40
2.985513575034151
 41
17.64876416884615
 46
6.292658374511455
 71
     5
 72
     5
  1
YY LIN
  7
Romans字体
 73
     1
 44
1.0
1001
AcDbBlockRepETag
1070
     1
1071
        2
1005
1B521
1001
ACAD
1000
ACAD_MTEXT_DEFINED_HEIGHT_BEGIN
1070
    46
1040
6.292658374511455
1000
ACAD_MTEXT_DEFINED_HEIGHT_END
  0
MTEXT
  5
1B522
330
10FE8
100
AcDbEntity
  8
图框
 62
     3
100
AcDbMText
 10
1028.977802139886
 20
487.1810984474071
 30
0.0
 40
2.487927979195124
 41
15.35233065297276
 46
6.292658374511495
 71
     5
 72
     5
  1
{\W0.7;18.10.2010}
  7
Romans字体
 73
     1
 44
1.0
1001
AcDbBlockRepETag
1070
     1
1071
        3
1005
1B522
1001
ACAD
1000
ACAD_MTEXT_DEFINED_HEIGHT_BEGIN
1070
    46
1040
6.292658374511495
1000
ACAD_MTEXT_DEFINED_HEIGHT_END
  0
MTEXT
  5
1B523
330
10FE8
100
AcDbEntity
  8
图框
 62
     3
100
AcDbMText
 10
1063.722665487208
 20
525.4145966538831
 30
0.0
 40
2.985513575034151
 41
32.4973914334545
 46
11.82914190181707
 71
     5
 72
     5
  1
-
  7
Romans字体
 73
     1
 44
1.0
1001
AcDbBlockRepETag
1070
     1
1071
        4
1005
1B523
1001
ACAD
1000
ACAD_MTEXT_DEFINED_HEIGHT_BEGIN
1070
    46
1040
11.82914190181707
1000
ACAD_MTEXT_DEFINED_HEIGHT_END
  0
MTEXT
  5
1B524
330
10FE8
100
AcDbEntity
  8
图框
 62
     3
100
AcDbMText
 10
1063.727338552349
 20
513.5854547520641
 30
0.0
 40
2.985513575034151
 41
32.48804530317308
 46
11.82914190182139
 71
     5
 72
     5
  1
-
  7
Romans字体
 73
     1
 44
1.0
1001
AcDbBlockRepETag
1070
     1
1071
        5
1005
1B524
1001
ACAD
1000
ACAD_MTEXT_DEFINED_HEIGHT_BEGIN
1070
    46
1040
11.82914190182139
1000
ACAD_MTEXT_DEFINED_HEIGHT_END
  0
MTEXT
  5
1B525
330
10FE8
100
AcDbEntity
  8
图框
 62
     3
100
AcDbMText
 10
1110.122306614152
 20
526.8006839312707
 30
0.0
 40
2.985513575034151
 41
33.61239199242139
 46
9.05696734704178
 71
     5
 72
     5
  1
-
  7
Romans字体
 73
     1
 44
1.0
1001
AcDbBlockRepETag
1070
     1
1071
        6
1005
1B525
1001
ACAD
1000
ACAD_MTEXT_DEFINED_HEIGHT_BEGIN
1070
    46
1040
9.05696734704178
1000
ACAD_MTEXT_DEFINED_HEIGHT_END
  0
MTEXT
  5
1B526
330
10FE8
100
AcDbEntity
  8
图框
 62
     3
100
AcDbMText
 10
1110.122306614152
 20
500.2775205517162
 30
0.0
 40
2.985513575034151
 41
33.61239199242139
 46
8.871557304763419
 71
     5
 72
     5
  1
-
  7
Romans字体
 73
     1
 44
1.0
1001
AcDbBlockRepETag
1070
     1
1071
        7
1005
1B526
1001
ACAD
1000
ACAD_MTEXT_DEFINED_HEIGHT_BEGIN
1070
    46
1040
8.871557304763419
1000
ACAD_MTEXT_DEFINED_HEIGHT_END
  0
MTEXT
  5
1B527
330
10FE8
100
AcDbEntity
  8
图框
 62
     3
100
AcDbMText
 10
967.6594956750133
 20
493.4737568219182
 30
0.0
 40
2.985513575034151
 41
15.50176341157864
 46
6.292658374510335
 71
     5
 72
     5
  1
P RAO
  7
Romans字体
 73
     1
 44
1.0
1001
AcDbBlockRepETag
1070
     1
1071
        8
1005
1B527
1001
ACAD
1000
ACAD_MTEXT_DEFINED_HEIGHT_BEGIN
1070
    46
1040
6.292658374510335
1000
ACAD_MTEXT_DEFINED_HEIGHT_END
  0
MTEXT
  5
1B528
330
10FE8
100
AcDbEntity
  8
图框
 62
     3
100
AcDbMText
 10
983.041569333247
 20
493.2441970450405
 30
0.0
 40
2.487927979195124
 41
15.26238390489051
 46
6.751777928266487
 71
     5
 72
     5
  1
{\W0.7;18.10.2010}
  7
Romans字体
 73
     1
 44
1.0
1001
AcDbBlockRepETag
1070
     1
1071
        9
1005
1B528
1001
ACAD
1000
ACAD_MTEXT_DEFINED_HEIGHT_BEGIN
1070
    46
1040
6.751777928266487
1000
ACAD_MTEXT_DEFINED_HEIGHT_END
  0
MTEXT
  5
1B529
330
10FE8
100
AcDbEntity
  8
图框
 62
     3
100
AcDbMText
 10
1012.477254728976
 20
499.7664151964291
 30
0.0
 40
2.985513575034151
 41
17.64876416884615
 46
6.292658374511397
 71
     5
 72
     5
  1
-
  7
Romans字体
 73
     1
 44
1.0
1001
AcDbBlockRepETag
1070
     1
1071
       10
1005
1B529
1001
ACAD
1000
ACAD_MTEXT_DEFINED_HEIGHT_BEGIN
1070
    46
1040
6.292658374511397
1000
ACAD_MTEXT_DEFINED_HEIGHT_END
  0
MTEXT
  5
1B52A
330
10FE8
100
AcDbEntity
  8
图框
 62
     3
100
AcDbMText
 10
1028.977802139886
 20
499.7664151964289
 30
0.0
 40
2.487927979195124
 41
15.35233065297265
 46
6.292658374511382
 71
     5
 72
     5
  1
-
  7
Romans字体
 73
     1
 44
1.0
1001
AcDbBlockRepETag
1070
     1
1071
       11
1005
1B52A
1001
ACAD
1000
ACAD_MTEXT_DEFINED_HEIGHT_BEGIN
1070
    46
1040
6.292658374511382
1000
ACAD_MTEXT_DEFINED_HEIGHT_END
  0
MTEXT
  5
1B52B
330
10FE8
100
AcDbEntity
  8
图框
 62
     3
100
AcDbMText
 10
967.6594956750133
 20
487.1810984474071
 30
0.0
 40
2.985513575034151
 41
15.50176341157863
 46
6.292658374511478
 71
     5
 72
     5
  1
-
  7
Romans字体
 73
     1
 44
1.0
1001
AcDbBlockRepETag
1070
     1
1071
       12
1005
1B52B
1001
ACAD
1000
ACAD_MTEXT_DEFINED_HEIGHT_BEGIN
1070
    46
1040
6.292658374511478
1000
ACAD_MTEXT_DEFINED_HEIGHT_END
  0
MTEXT
  5
1B52C
330
10FE8
100
AcDbEntity
  8
图框
 62
     3
100
AcDbMText
 10
983.041569333247
 20
487.1810984474071
 30
0.0
 40
2.487927979195124
 41
15.26238390489062
 46
6.292658374511495
 71
     5
 72
     5
  1
-
  7
Romans字体
 73
     1
 44
1.0
1001
AcDbBlockRepETag
1070
     1
1071
       13
1005
1B52C
1001
ACAD
1000
ACAD_MTEXT_DEFINED_HEIGHT_BEGIN
1070
    46
1040
6.292658374511495
1000
ACAD_MTEXT_DEFINED_HEIGHT_END
  0
MTEXT
  5
1B52D
330
10FE8
100
AcDbEntity
  8
图框
 62
     3
100
AcDbMText
 10
1074.556686986741
 20
495.8417418993361
 30
0.0
 40
2.985513575034151
 41
10.82934843438978
 46
7.886094601210427
 71
     5
 72
     5
  1
-
  7
Romans字体
 73
     1
 44
1.0
1001
AcDbBlockRepETag
1070
     1
1071
       14
1005
1B52D
1001
ACAD
1000
ACAD_MTEXT_DEFINED_HEIGHT_BEGIN
1070
    46
1040
7.886094601210427
1000
ACAD_MTEXT_DEFINED_HEIGHT_END
  0
LINE
  5
1B52E
330
10FE8
100
AcDbEntity
  8
图框
370
    -3
100
AcDbLine
 10
1036.653967466372
 20
499.7847891999413
 30
0.0
 11
1079.971361203936
 21
499.7847891999413
 31
0.0
1001
AcDbBlockRepETag
1070
     1
1071
       15
1005
1B52E
  0
MTEXT
  5
1B52F
330
10FE8
100
AcDbEntity
  8
图框
 62
     1
370
    20
100
AcDbMText
 10
1108.26336443907
 20
491.5162596080882
 30
0.0
 40
2.699054613030988
 41
82.30831305643079
 46
0.0
 71
     5
 72
     5
  1
{\fSimHei|b0|i0|c134|p2;厦门唯恩电气有限公司}
 73
     1
 44
1.0
1001
AcDbBlockRepETag
1070
     1
1071
       16
1005
1B52F
  0
MTEXT
  5
1B530
330
10FE8
100
AcDbEntity
  8
图框
 62
     3
370
    20
100
AcDbMText
 10
1108.435451459908
 20
487.298967726064
 30
0.0
 40
1.652482416141417
 41
68.08558693693567
 46
0.0
 71
     5
 72
     5
  1
{\fArial Narrow|b0|i0|c0|p34;XIAMEN WAIN ELECTRICAL CO.LTD}
  7
工程字
 73
     1
 44
1.0
1001
AcDbBlockRepETag
1070
     1
1071
       17
1005
1B530
  0
MTEXT
  5
1B531
330
10FE8
100
AcDbEntity
  8
图框
 62
     1
370
    20
100
AcDbMText
 10
1085.711816899387
 20
491.0944802995856
 30
0.0
 40
2.005930044038334
 41
5.047240019334847
 46
0.0
 71
     1
 72
     5
  1
{\fArial|b0|i0|c0|p34;A}
  7
Chinese
 73
     1
 44
1.0
1001
AcDbBlockRepETag
1070
     1
1071
       18
1005
1B531
  0
MTEXT
  5
1B532
330
10FE8
100
AcDbEntity
  8
图框
 62
     1
370
    20
100
AcDbMText
 10
1088.213485935716
 20
491.0944802995856
 30
0.0
 40
2.005930044038334
 41
5.047240019334847
 46
0.0
 71
     1
 72
     5
  1
{\fArial|b0|i0|c0|p34;I}
  7
Chinese
 73
     1
 44
1.0
1001
AcDbBlockRepETag
1070
     1
1071
       19
1005
1B532
  0
MTEXT
  5
1B533
330
10FE8
100
AcDbEntity
  8
图框
 62
     1
370
    20
100
AcDbMText
 10
1089.142375222864
 20
491.0822866326808
 30
0.0
 40
2.005930044038334
 41
5.047240019334847
 46
0.0
 71
     1
 72
     5
  1
{\fArial|b0|i0|c0|p34;N}
  7
Chinese
 73
     1
 44
1.0
1001
AcDbBlockRepETag
1070
     1
1071
       20
1005
1B533
  0
MTEXT
  5
1B534
330
10FE8
100
AcDbEntity
  8
图框
100
AcDbMText
 10
1069.142012769545
 20
487.9667319294409
 30
0.0
 40
2.252848170144607
 41
21.65869686878327
 46
7.863925338579296
 71
     5
 72
     5
  1
{\W0.5;\C1;All Dimensions in mm\POriginal Size DIN A 4}
  7
Romans字体
 73
     1
 44
1.0
1001
AcDbBlockRepETag
1070
     1
1071
       21
1005
1B534
1001
ACAD
1000
ACAD_MTEXT_DEFINED_HEIGHT_BEGIN
1070
    46
1040
7.863925338579296
1000
ACAD_MTEXT_DEFINED_HEIGHT_END
  0
MTEXT
  5
1B535
330
10FE8
100
AcDbEntity
  8
图框
  6
ByBlock
 62
     6
370
    18
100
AcDbMText
 10
1127.40434942308
 20
508.7896535755975
 30
0.0
 40
2.651776162684904
 41
2.557913877927211
 46
0.0
 71
     1
 72
     5
  1
A
  7
Romans字体
 11
0.0000000000000001
 21
1.0
 31
0.0
 73
     1
 44
1.0
1001
AcDbBlockRepETag
1070
     1
1071
       22
1005
1B535
  0
MTEXT
  5
1B536
330
10FE8
100
AcDbEntity
  8
图框
 62
     6
100
AcDbMText
 10
1127.40434942308
 20
556.3746573232886
 30
0.0
 40
2.651776162684904
 41
2.557913877927211
 46
0.0
 71
     1
 72
     5
  1
B
  7
Romans字体
 11
0.0000000000000001
 21
1.0
 31
0.0
 73
     1
 44
1.0
1001
AcDbBlockRepETag
1070
     1
1071
       23
1005
1B536
  0
MTEXT
  5
1B537
330
10FE8
100
AcDbEntity
  8
图框
 62
     6
100
AcDbMText
 10
1127.40434942308
 20
607.5539372630998
 30
0.0
 40
2.651776162684904
 41
2.557913877927211
 46
0.0
 71
     1
 72
     5
  1
C
  7
Romans字体
 11
0.0000000000000001
 21
1.0
 31
0.0
 73
     1
 44
1.0
1001
AcDbBlockRepETag
1070
     1
1071
       24
1005
1B537
  0
MTEXT
  5
1B538
330
10FE8
100
AcDbEntity
  8
图框
 62
     6
100
AcDbMText
 10
1127.40434942308
 20
658.7332172029115
 30
0.0
 40
2.651776162684904
 41
2.557913877927211
 46
0.0
 71
     1
 72
     5
  1
D
  7
Romans字体
 11
0.0000000000000001
 21
1.0
 31
0.0
 73
     1
 44
1.0
1001
AcDbBlockRepETag
1070
     1
1071
       25
1005
1B538
  0
LINE
  5
1B539
330
10FE8
100
AcDbEntity
  8
图框
 62
     6
100
AcDbLine
 10
1130.411601781241
 20
634.0726090796082
 30
0.0
 11
1126.928502610363
 21
634.0726090796082
 31
0.0
1001
AcDbBlockRepETag
1070
     1
1071
       26
1005
1B539
  0
LINE
  5
1B53A
330
10FE8
100
AcDbEntity
  8
图框
 62
     6
100
AcDbLine
 10
1130.411601781241
 20
582.89332913979
 30
0.0
 11
1126.928502610363
 21
582.89332913979
 31
0.0
1001
AcDbBlockRepETag
1070
     1
1071
       27
1005
1B53A
  0
MTEXT
  5
1B53B
330
10FE8
100
AcDbEntity
  8
图框
 62
     6
100
AcDbMText
 10
1105.329704038389
 20
483.6164543011163
 30
0.0
 40
2.651776162684904
 41
2.557913877927211
 46
0.0
 71
     1
 72
     5
  1
6
  7
Romans字体
 73
     1
 44
1.0
1001
AcDbBlockRepETag
1070
     1
1071
       28
1005
1B53B
  0
LINE
  5
1B53C
330
10FE8
100
AcDbEntity
  8
图框
 62
     6
100
AcDbLine
 10
1081.088565155284
 20
484.0347692601515
 30
0.0
 11
1081.088565155284
 21
480.5347692601475
 31
0.0
1001
AcDbBlockRepETag
1070
     1
1071
       29
1005
1B53C
  0
MTEXT
  5
1B53D
330
10FE8
100
AcDbEntity
  8
图框
 62
     6
100
AcDbMText
 10
1055.900596365941
 20
483.520053108993
 30
0.0
 40
2.651776162684904
 41
2.557913877927211
 46
0.0
 71
     1
 72
     5
  1
5
  7
Romans字体
 73
     1
 44
1.0
1001
AcDbBlockRepETag
1070
     1
1071
       30
1005
1B53D
  0
LINE
  5
1B53E
330
10FE8
100
AcDbEntity
  8
图框
 62
     6
100
AcDbLine
 10
1031.553386436349
 20
484.0347692601515
 30
0.0
 11
1031.553386436349
 21
480.5347692601475
 31
0.0
1001
AcDbBlockRepETag
1070
     1
1071
       31
1005
1B53E
  0
MTEXT
  5
1B53F
330
10FE8
100
AcDbEntity
  8
图框
 62
     6
100
AcDbMText
 10
1006.383180575197
 20
483.5687958215896
 30
0.0
 40
2.651776162684904
 41
2.557913877927211
 46
0.0
 71
     1
 72
     5
  1
4
  7
Romans字体
 73
     1
 44
1.0
1001
AcDbBlockRepETag
1070
     1
1071
       32
1005
1B53F
  0
LINE
  5
1B540
330
10FE8
100
AcDbEntity
  8
图框
 62
     6
100
AcDbLine
 10
982.0182077173887
 20
484.0347692601515
 30
0.0
 11
982.0182077173887
 21
480.5347692601475
 31
0.0
1001
AcDbBlockRepETag
1070
     1
1071
       33
1005
1B540
  0
MTEXT
  5
1B541
330
10FE8
100
AcDbEntity
  8
图框
 62
     6
100
AcDbMText
 10
956.8302389280352
 20
483.5989680297948
 30
0.0
 40
2.651776162684904
 41
2.557913877927211
 46
0.0
 71
     1
 72
     5
  1
3
  7
Romans字体
 73
     1
 44
1.0
1001
AcDbBlockRepETag
1070
     1
1071
       34
1005
1B541
  0
LINE
  5
1B542
330
10FE8
100
AcDbEntity
  8
图框
 62
     6
100
AcDbLine
 10
932.4830289984245
 20
484.0347692601515
 30
0.0
 11
932.4830289984245
 21
480.5347692601475
 31
0.0
1001
AcDbBlockRepETag
1070
     1
1071
       35
1005
1B542
  0
MTEXT
  5
1B543
330
10FE8
100
AcDbEntity
  8
图框
 62
     6
100
AcDbMText
 10
906.0252349826365
 20
483.6475250013156
 30
0.0
 40
2.651776162684904
 41
2.557913877927211
 46
0.0
 71
     1
 72
     5
  1
2
  7
Romans字体
 73
     1
 44
1.0
1001
AcDbBlockRepETag
1070
     1
1071
       36
1005
1B543
  0
LINE
  5
1B544
330
10FE8
100
AcDbEntity
  8
图框
 62
     6
100
AcDbLine
 10
882.9478502794648
 20
484.0347692601515
 30
0.0
 11
882.9478502794648
 21
480.5347692601475
 31
0.0
1001
AcDbBlockRepETag
1070
     1
1071
       37
1005
1B544
  0
MTEXT
  5
1B545
330
10FE8
100
AcDbEntity
  8
图框
 62
     6
100
AcDbMText
 10
857.7598814901191
 20
483.651829494754
 30
0.0
 40
2.651776162684904
 41
2.557913877927211
 46
0.0
 71
     1
 72
     5
  1
1
  7
Romans字体
 73
     1
 44
1.0
1001
AcDbBlockRepETag
1070
     1
1071
       38
1005
1B545
  0
LINE
  5
1B546
330
10FE8
100
AcDbEntity
  8
图框
370
    50
100
AcDbLine
 10
836.8548209370597
 20
484.0347692601515
 30
0.0
 11
1126.928502610363
 21
484.0347692601515
 31
0.0
1001
AcDbBlockRepETag
1070
     1
1071
       39
1005
1B546
  0
LINE
  5
1B547
330
10FE8
100
AcDbEntity
  8
图框
370
    50
100
AcDbLine
 10
836.9128518455362
 20
484.0178684310246
 30
0.0
 11
836.9128518455394
 21
675.0207195125422
 31
0.0
1001
AcDbBlockRepETag
1070
     1
1071
       40
1005
1B547
  0
MTEXT
  5
1B548
330
10FE8
100
AcDbEntity
  8
图框
 62
     6
100
AcDbMText
 10
833.8475685789031
 20
658.7332172029115
 30
0.0
 40
2.651776162684904
 41
2.557913877927211
 46
0.0
 71
     1
 72
     5
  1
D
  7
Romans字体
 11
0.0000000000000001
 21
1.0
 31
0.0
 73
     1
 44
1.0
1001
AcDbBlockRepETag
1070
     1
1071
       41
1005
1B548
  0
LINE
  5
1B549
330
10FE8
100
AcDbEntity
  8
图框
 62
     6
100
AcDbLine
 10
836.9128518455386
 20
634.0726090796082
 30
0.0
 11
833.4128518455365
 21
634.0726090796082
 31
0.0
1001
AcDbBlockRepETag
1070
     1
1071
       42
1005
1B549
  0
MTEXT
  5
1B54A
330
10FE8
100
AcDbEntity
  8
图框
 62
     6
100
AcDbMText
 10
833.9039177480142
 20
607.5539372630998
 30
0.0
 40
2.651776162684904
 41
2.557913877927211
 46
0.0
 71
     1
 72
     5
  1
C
  7
Romans字体
 11
0.0000000000000001
 21
1.0
 31
0.0
 73
     1
 44
1.0
1001
AcDbBlockRepETag
1070
     1
1071
       43
1005
1B54A
  0
LINE
  5
1B54B
330
10FE8
100
AcDbEntity
  8
图框
 62
     6
100
AcDbLine
 10
836.9128518455378
 20
582.89332913979
 30
0.0
 11
833.4128518455365
 21
582.89332913979
 31
0.0
1001
AcDbBlockRepETag
1070
     1
1071
       44
1005
1B54B
  0
MTEXT
  5
1B54C
330
10FE8
100
AcDbEntity
  8
图框
 62
     6
100
AcDbMText
 10
833.9039177480142
 20
556.3746573232886
 30
0.0
 40
2.651776162684904
 41
2.557913877927211
 46
0.0
 71
     1
 72
     5
  1
B
  7
Romans字体
 11
0.0000000000000001
 21
1.0
 31
0.0
 73
     1
 44
1.0
1001
AcDbBlockRepETag
1070
     1
1071
       45
1005
1B54C
  0
LINE
  5
1B54D
330
10FE8
100
AcDbEntity
  8
图框
 62
     6
100
AcDbLine
 10
836.9128518455367
 20
531.714049199969
 30
0.0
 11
833.4128518455365
 21
531.714049199969
 31
0.0
1001
AcDbBlockRepETag
1070
     1
1071
       46
1005
1B54D
  0
MTEXT
  5
1B54E
330
10FE8
100
AcDbEntity
  8
图框
 62
     6
100
AcDbMText
 10
833.9039177480142
 20
508.7896535755975
 30
0.0
 40
2.651776162684904
 41
2.557913877927211
 46
0.0
 71
     1
 72
     5
  1
A
  7
Romans字体
 11
0.0000000000000001
 21
1.0
 31
0.0
 73
     1
 44
1.0
1001
AcDbBlockRepETag
1070
     1
1071
       47
1005
1B54E
  0
LINE
  5
1B54F
330
10FE8
100
AcDbEntity
  8
图框
370
    -3
100
AcDbLine
 10
836.9128518455394
 20
675.0207195125422
 30
0.0
 11
836.9128518455394
 21
684.5021384922564
 31
0.0
1001
AcDbBlockRepETag
1070
     1
1071
       48
1005
1B54F
  0
LINE
  5
1B550
330
10FE8
100
AcDbEntity
  8
图框
370
    -3
100
AcDbLine
 10
842.6237321475781
 20
675.5347692601515
 30
0.0
 11
842.6237321475781
 21
685.0161882398658
 31
0.0
1001
AcDbBlockRepETag
1070
     1
1071
       49
1005
1B550
  0
LINE
  5
1B551
330
10FE8
100
AcDbEntity
  8
图框
370
    -3
100
AcDbLine
 10
848.3346124496179
 20
675.5347692601515
 30
0.0
 11
848.3346124496179
 21
685.0161882398658
 31
0.0
1001
AcDbBlockRepETag
1070
     1
1071
       50
1005
1B551
  0
LINE
  5
1B552
330
10FE8
100
AcDbEntity
  8
图框
370
    -3
100
AcDbLine
 10
854.0454927516588
 20
675.5347692601515
 30
0.0
 11
854.0454927516588
 21
685.0161882398658
 31
0.0
1001
AcDbBlockRepETag
1070
     1
1071
       51
1005
1B552
  0
LINE
  5
1B553
330
10FE8
100
AcDbEntity
  8
图框
370
    -3
100
AcDbLine
 10
861.5351874539182
 20
675.5347692601515
 30
0.0
 11
861.5351874539182
 21
686.7901958362482
 31
0.0
1001
AcDbBlockRepETag
1070
     1
1071
       52
1005
1B553
  0
MTEXT
  5
1B554
330
10FE8
100
AcDbEntity
  8
图框
 62
     6
100
AcDbMText
 10
1105.329704038389
 20
678.859919059449
 30
0.0
 40
2.651776162684904
 41
2.557913877927211
 46
0.0
 71
     1
 72
     5
  1
6
  7
Romans字体
 73
     1
 44
1.0
1001
AcDbBlockRepETag
1070
     1
1071
       53
1005
1B554
  0
LINE
  5
1B555
330
10FE8
100
AcDbEntity
  8
图框
 62
     6
100
AcDbLine
 10
1081.088565155284
 20
679.0347692601516
 30
0.0
 11
1081.088565155284
 21
675.5347692601515
 31
0.0
1001
AcDbBlockRepETag
1070
     1
1071
       54
1005
1B555
  0
MTEXT
  5
1B556
330
10FE8
100
AcDbEntity
  8
图框
 62
     6
100
AcDbMText
 10
1055.900596365941
 20
678.859919059449
 30
0.0
 40
2.651776162684904
 41
2.557913877927211
 46
0.0
 71
     1
 72
     5
  1
5
  7
Romans字体
 73
     1
 44
1.0
1001
AcDbBlockRepETag
1070
     1
1071
       55
1005
1B556
  0
LINE
  5
1B557
330
10FE8
100
AcDbEntity
  8
图框
 62
     6
100
AcDbLine
 10
1031.553386436349
 20
679.0347692601516
 30
0.0
 11
1031.553386436349
 21
675.5347692601515
 31
0.0
1001
AcDbBlockRepETag
1070
     1
1071
       56
1005
1B557
  0
MTEXT
  5
1B558
330
10FE8
100
AcDbEntity
  8
图框
 62
     6
100
AcDbMText
 10
1006.36541764698
 20
678.7312083656147
 30
0.0
 40
2.651776162684904
 41
2.557913877927211
 46
0.0
 71
     1
 72
     5
  1
4
  7
Romans字体
 73
     1
 44
1.0
1001
AcDbBlockRepETag
1070
     1
1071
       57
1005
1B558
  0
LINE
  5
1B559
330
10FE8
100
AcDbEntity
  8
图框
 62
     6
100
AcDbLine
 10
982.0182077173887
 20
679.0347692601516
 30
0.0
 11
982.0182077173887
 21
675.5347692601515
 31
0.0
1001
AcDbBlockRepETag
1070
     1
1071
       58
1005
1B559
  0
MTEXT
  5
1B55A
330
10FE8
100
AcDbEntity
  8
图框
 62
     6
100
AcDbMText
 10
956.8302389280352
 20
678.859919059449
 30
0.0
 40
2.651776162684904
 41
2.557913877927211
 46
0.0
 71
     1
 72
     5
  1
3
  7
Romans字体
 73
     1
 44
1.0
1001
AcDbBlockRepETag
1070
     1
1071
       59
1005
1B55A
  0
LINE
  5
1B55B
330
10FE8
100
AcDbEntity
  8
图框
 62
     6
100
AcDbLine
 10
932.4830289984245
 20
679.0347692601516
 30
0.0
 11
932.4830289984245
 21
675.5347692601515
 31
0.0
1001
AcDbBlockRepETag
1070
     1
1071
       60
1005
1B55B
  0
MTEXT
  5
1B55C
330
10FE8
100
AcDbEntity
  8
图框
 62
     6
100
AcDbMText
 10
907.295060209082
 20
678.859919059449
 30
0.0
 40
2.651776162684904
 41
2.557913877927211
 46
0.0
 71
     1
 72
     5
  1
2
  7
Romans字体
 73
     1
 44
1.0
1001
AcDbBlockRepETag
1070
     1
1071
       61
1005
1B55C
  0
LINE
  5
1B55D
330
10FE8
100
AcDbEntity
  8
图框
 62
     6
100
AcDbLine
 10
882.9478502794648
 20
678.7962435131815
 30
0.0
 11
882.9478502794648
 21
675.5347692601515
 31
0.0
1001
AcDbBlockRepETag
1070
     1
1071
       62
1005
1B55D
  0
MTEXT
  5
1B55E
330
10FE8
100
AcDbEntity
  8
图框
 62
     6
100
AcDbMText
 10
862.6286629643733
 20
678.859919059449
 30
0.0
 40
2.651776162684904
 41
2.557913877927211
 46
0.0
 71
     1
 72
     5
  1
1
  7
Romans字体
 73
     1
 44
1.0
1001
AcDbBlockRepETag
1070
     1
1071
       63
1005
1B55E
  0
LINE
  5
1B55F
330
10FE8
100
AcDbEntity
  8
图框
370
    -3
100
AcDbLine
 10
836.9128518455394
 20
675.0207195125422
 30
0.0
 11
836.9128518455394
 21
686.7901958362482
 31
0.0
1001
AcDbBlockRepETag
1070
     1
1071
       64
1005
1B55F
  0
LINE
  5
1B560
330
10FE8
100
AcDbEntity
  8
图框
370
    50
100
AcDbLine
 10
836.9128518455394
 20
675.5347692601515
 30
0.0
 11
1126.928502610363
 21
675.5347692601515
 31
0.0
1001
AcDbBlockRepETag
1070
     1
1071
       65
1005
1B560
  0
LINE
  5
1B561
330
10FE8
100
AcDbEntity
  8
图框
370
    -3
100
AcDbLine
 10
842.6237321475781
 20
675.5347692601515
 30
0.0
 11
842.6237321475781
 21
686.7901958362482
 31
0.0
1001
AcDbBlockRepETag
1070
     1
1071
       66
1005
1B561
  0
LINE
  5
1B562
330
10FE8
100
AcDbEntity
  8
图框
370
    -3
100
AcDbLine
 10
848.3346124496179
 20
675.5347692601515
 30
0.0
 11
848.3346124496179
 21
686.7901958362482
 31
0.0
1001
AcDbBlockRepETag
1070
     1
1071
       67
1005
1B562
  0
MTEXT
  5
1B563
102
{ACAD_XDICTIONARY
360
1B5E2
102
}
330
10FE8
100
AcDbEntity
  8
图框
100
AcDbMText
 10
857.7903401027889
 20
686.7901958362482
 30
0.0
 40
1.958998408821398
 41
11.25542657609672
 46
7.489694702258906
 71
     4
 72
     5
  1
\pi2.8203;档案员{\H0.7x;\P\pi1.4159;\Fromans|c134;Filing Clerk\fFangSong_GB2312|b0|i0|c134|p49; }
 11
-0.0000000000000002
 21
-1.0
 31
0.0
 73
     1
 44
1.0
1001
AcDbBlockRepETag
1070
     1
1071
       68
1005
1B563
1001
ACAD
1000
ACAD_MTEXT_DEFINED_HEIGHT_BEGIN
1070
    46
1040
7.489694702258906
1000
ACAD_MTEXT_DEFINED_HEIGHT_END
  0
MTEXT
  5
1B564
102
{ACAD_XDICTIONARY
360
1B5E4
102
}
330
10FE8
100
AcDbEntity
  8
图框
100
AcDbMText
 10
845.479172298598
 20
686.7901958362482
 30
0.0
 40
1.958998408821398
 41
11.25542657609672
 46
5.710880302039671
 71
     4
 72
     5
  1
\pi0.7115;日期{\Fromans|c134;/Date}
 11
-0.0000000000000002
 21
-1.0
 31
0.0
 73
     1
 44
1.0
1001
AcDbBlockRepETag
1070
     1
1071
       69
1005
1B564
1001
ACAD
1000
ACAD_MTEXT_DEFINED_HEIGHT_BEGIN
1070
    46
1040
5.710880302039671
1000
ACAD_MTEXT_DEFINED_HEIGHT_END
  0
LINE
  5
1B565
330
10FE8
100
AcDbEntity
  8
图框
370
    -3
100
AcDbLine
 10
854.0454927516588
 20
675.5347692601515
 30
0.0
 11
854.0454927516588
 21
686.7901958362482
 31
0.0
1001
AcDbBlockRepETag
1070
     1
1071
       70
1005
1B565
  0
LINE
  5
1B566
330
10FE8
100
AcDbEntity
  8
图框
370
    -3
100
AcDbLine
 10
1036.653967466372
 20
531.3291676047914
 30
0.0
 11
1036.653967466372
 21
484.0126019753161
 31
0.0
1001
AcDbBlockRepETag
1070
     1
1071
       71
1005
1B566
  0
LINE
  5
1B567
330
10FE8
100
AcDbEntity
  8
图框
370
    -3
100
AcDbLine
 10
1047.483315900763
 20
507.6708838011533
 30
0.0
 11
1047.483315900763
 21
491.8986945987308
 31
0.0
1001
AcDbBlockRepETag
1070
     1
1071
       72
1005
1B567
  0
LINE
  5
1B568
330
10FE8
100
AcDbEntity
  8
图框
370
    -3
100
AcDbLine
 10
1058.312664335153
 20
507.6708838011533
 30
0.0
 11
1058.312664335153
 21
484.0347692601515
 31
0.0
1001
AcDbBlockRepETag
1070
     1
1071
       73
1005
1B568
  0
LINE
  5
1B569
330
10FE8
100
AcDbEntity
  8
图框
370
    25
100
AcDbLine
 10
1048.474135214456
 20
488.1095628329926
 30
0.0
 11
1054.946420288459
 21
488.1095628329926
 31
0.0
1001
AcDbBlockRepETag
1070
     1
1071
       74
1005
1B569
  0
LINE
  5
1B56A
330
10FE8
100
AcDbEntity
  8
图框
370
    25
100
AcDbLine
 10
1054.232527365989
 20
487.0761716842634
 30
0.0
 11
1049.156490914508
 21
486.4576273751
 31
0.0
1001
AcDbBlockRepETag
1070
     1
1071
       75
1005
1B56A
  0
LINE
  5
1B56B
330
10FE8
100
AcDbEntity
  8
图框
370
    25
100
AcDbLine
 10
1054.232527365989
 20
489.1429539817209
 30
0.0
 11
1049.156490914508
 21
489.7614982908846
 31
0.0
1001
AcDbBlockRepETag
1070
     1
1071
       76
1005
1B56B
  0
LINE
  5
1B56C
330
10FE8
100
AcDbEntity
  8
图框
370
    25
100
AcDbLine
 10
1049.156490914508
 20
489.7614982908846
 30
0.0
 11
1049.156490914508
 21
486.4576273751
 31
0.0
1001
AcDbBlockRepETag
1070
     1
1071
       77
1005
1B56C
  0
LINE
  5
1B56D
330
10FE8
100
AcDbEntity
  8
图框
370
    25
100
AcDbLine
 10
1054.232527365989
 20
489.1429539817209
 30
0.0
 11
1054.232527365989
 21
487.0761716842634
 31
0.0
1001
AcDbBlockRepETag
1070
     1
1071
       78
1005
1B56D
  0
CIRCLE
  5
1B56E
330
10FE8
100
AcDbEntity
  8
图框
370
    25
100
AcDbCircle
 10
1042.502700458579
 20
488.1095628329926
 30
0.0
 40
1.651935457891863
1001
AcDbBlockRepETag
1070
     1
1071
       79
1005
1B56E
  0
CIRCLE
  5
1B56F
330
10FE8
100
AcDbEntity
  8
图框
370
    25
100
AcDbCircle
 10
1042.502700458579
 20
488.1095628329926
 30
0.0
 40
1.033391148728775
1001
AcDbBlockRepETag
1070
     1
1071
       80
1005
1B56F
  0
LINE
  5
1B570
330
10FE8
100
AcDbEntity
  8
图框
370
    25
100
AcDbLine
 10
1040.136872078216
 20
488.1095628329926
 30
0.0
 11
1044.868528838943
 21
488.1095628329926
 31
0.0
1001
AcDbBlockRepETag
1070
     1
1071
       81
1005
1B570
  0
LINE
  5
1B571
330
10FE8
100
AcDbEntity
  8
图框
370
    25
100
AcDbLine
 10
1042.502700458579
 20
490.475391213355
 30
0.0
 11
1042.502700458579
 21
485.743734452629
 31
0.0
1001
AcDbBlockRepETag
1070
     1
1071
       82
1005
1B571
  0
LINE
  5
1B572
330
10FE8
100
AcDbEntity
  8
图框
370
    -3
100
AcDbLine
 10
1069.142012769546
 20
507.6708838011533
 30
0.0
 11
1069.142012769546
 21
491.8986945987308
 31
0.0
1001
AcDbBlockRepETag
1070
     1
1071
       83
1005
1B572
  0
MTEXT
  5
1B573
330
10FE8
100
AcDbEntity
  8
图框
100
AcDbMText
 10
1086.643735910939
 20
526.8006839312707
 30
0.0
 40
2.154898249703542
 41
13.34474941400573
 46
9.056967347041775
 71
     5
 72
     5
  1
图号{\Ftxt|c134;\P\Fromans|c134;\W0.65;Drawing No.}
 73
     1
 44
1.0
1001
AcDbBlockRepETag
1070
     1
1071
       84
1005
1B573
1001
ACAD
1000
ACAD_MTEXT_DEFINED_HEIGHT_BEGIN
1070
    46
1040
9.056967347041775
1000
ACAD_MTEXT_DEFINED_HEIGHT_END
  0
LINE
  5
1B574
330
10FE8
100
AcDbEntity
  8
图框
370
    -3
100
AcDbLine
 10
1093.316110617942
 20
531.3291676047914
 30
0.0
 11
1093.316110617942
 21
495.8417418993347
 31
0.0
1001
AcDbBlockRepETag
1070
     1
1071
       85
1005
1B574
  0
LINE
  5
1B575
330
10FE8
100
AcDbEntity
  8
图框
370
    -3
100
AcDbLine
 10
1047.473969770481
 20
531.3291676047914
 30
0.0
 11
1047.473969770481
 21
507.6708838011533
 31
0.0
1001
AcDbBlockRepETag
1070
     1
1071
       86
1005
1B575
  0
MTEXT
  5
1B576
330
10FE8
100
AcDbEntity
  8
图框
100
AcDbMText
 10
1063.72733855235
 20
503.7278365005473
 30
0.0
 40
2.252848170144607
 41
10.82934843439208
 46
7.886094601212128
 71
     5
 72
     5
  1
重量\P{\Fromans|c134;Weight}
 73
     1
 44
1.0
1001
AcDbBlockRepETag
1070
     1
1071
       87
1005
1B576
1001
ACAD
1000
ACAD_MTEXT_DEFINED_HEIGHT_BEGIN
1070
    46
1040
7.886094601212128
1000
ACAD_MTEXT_DEFINED_HEIGHT_END
  0
LINE
  5
1B577
330
10FE8
100
AcDbEntity
  8
图框
370
    -3
100
AcDbLine
 10
1036.653967466372
 20
519.5000257029746
 30
0.0
 11
1079.971361203936
 21
519.5000257029746
 31
0.0
1001
AcDbBlockRepETag
1070
     1
1071
       88
1005
1B577
  0
MTEXT
  5
1B578
330
10FE8
100
AcDbEntity
  8
图框
100
AcDbMText
 10
1074.556686986741
 20
503.7278365005473
 30
0.0
 40
2.252848170144607
 41
10.82934843438984
 46
7.886094601212141
 71
     5
 72
     5
  1
数量\P{\Fromans|c134;Qty.}
 73
     1
 44
1.0
1001
AcDbBlockRepETag
1070
     1
1071
       89
1005
1B578
1001
ACAD
1000
ACAD_MTEXT_DEFINED_HEIGHT_BEGIN
1070
    46
1040
7.886094601212141
1000
ACAD_MTEXT_DEFINED_HEIGHT_END
  0
LINE
  5
1B579
330
10FE8
100
AcDbEntity
  8
图框
370
    -3
100
AcDbLine
 10
1079.971361203936
 20
495.8417418993347
 30
0.0
 11
1126.928502610363
 21
495.8417418993342
 31
0.0
1001
AcDbBlockRepETag
1070
     1
1071
       90
1005
1B579
  0
LINE
  5
1B57A
330
10FE8
100
AcDbEntity
  8
图框
370
    -3
100
AcDbLine
 10
1079.971361203936
 20
504.7132992040975
 30
0.0
 11
1126.928502610363
 21
504.7132992040975
 31
0.0
1001
AcDbBlockRepETag
1070
     1
1071
       91
1005
1B57A
  0
MTEXT
  5
1B57B
330
10FE8
100
AcDbEntity
  8
图框
100
AcDbMText
 10
1052.893317052817
 20
503.7278365005473
 30
0.0
 40
2.252848170144607
 41
10.83869456467139
 46
7.886094601212101
 71
     5
 72
     5
  1
版本\P{\Fromans|c134;REV.}
 73
     1
 44
1.0
1001
AcDbBlockRepETag
1070
     1
1071
       92
1005
1B57B
1001
ACAD
1000
ACAD_MTEXT_DEFINED_HEIGHT_BEGIN
1070
    46
1040
7.886094601212101
1000
ACAD_MTEXT_DEFINED_HEIGHT_END
  0
MTEXT
  5
1B57C
330
10FE8
100
AcDbEntity
  8
图框
100
AcDbMText
 10
1042.068641683568
 20
503.7278365005473
 30
0.0
 40
2.252848170144607
 41
10.8293484343908
 46
7.886094601212136
 71
     5
 72
     5
  1
比例\P{\Fromans|c134;Scale}
 73
     1
 44
1.0
1001
AcDbBlockRepETag
1070
     1
1071
       93
1005
1B57C
1001
ACAD
1000
ACAD_MTEXT_DEFINED_HEIGHT_BEGIN
1070
    46
1040
7.886094601212136
1000
ACAD_MTEXT_DEFINED_HEIGHT_END
  0
LINE
  5
1B57D
330
10FE8
100
AcDbEntity
  8
图框
370
    -3
100
AcDbLine
 10
1036.653967466372
 20
507.6708838011533
 30
0.0
 11
1079.971361203936
 21
507.6708838011533
 31
0.0
1001
AcDbBlockRepETag
1070
     1
1071
       94
1005
1B57D
  0
LINE
  5
1B57E
330
10FE8
100
AcDbEntity
  8
图框
370
    -3
100
AcDbLine
 10
1036.653967466372
 20
491.8986945987308
 30
0.0
 11
1079.971361203936
 21
491.8986945987308
 31
0.0
1001
AcDbBlockRepETag
1070
     1
1071
       95
1005
1B57E
  0
LINE
  5
1B57F
330
10FE8
100
AcDbEntity
  8
图框
370
    -3
100
AcDbLine
 10
1079.971361203936
 20
531.3291676047914
 30
0.0
 11
1079.971361203936
 21
484.0125999975168
 31
0.0
1001
AcDbBlockRepETag
1070
     1
1071
       96
1005
1B57F
  0
MTEXT
  5
1B580
330
10FE8
100
AcDbEntity
  8
图框
100
AcDbMText
 10
1042.063968618426
 20
525.4145966538832
 30
0.0
 40
2.252848170144607
 41
10.82000230410933
 46
11.82914190181708
 71
     5
 72
     5
  1
表面处理\P{\Fromans|c134;Finish}
 73
     1
 44
1.0
1001
AcDbBlockRepETag
1070
     1
1071
       97
1005
1B580
1001
ACAD
1000
ACAD_MTEXT_DEFINED_HEIGHT_BEGIN
1070
    46
1040
11.82914190181708
1000
ACAD_MTEXT_DEFINED_HEIGHT_END
  0
MTEXT
  5
1B581
330
10FE8
100
AcDbEntity
  8
图框
100
AcDbMText
 10
1042.063968618426
 20
513.5854547520639
 30
0.0
 40
2.252848170144607
 41
10.82000230410933
 46
11.8291419018212
 71
     5
 72
     5
  1
材料\P{\Fromans|c134;Material}
 73
     1
 44
1.0
1001
AcDbBlockRepETag
1070
     1
1071
       98
1005
1B581
1001
ACAD
1000
ACAD_MTEXT_DEFINED_HEIGHT_BEGIN
1070
    46
1040
11.8291419018212
1000
ACAD_MTEXT_DEFINED_HEIGHT_END
  0
LINE
  5
1B582
330
10FE8
100
AcDbEntity
  8
图框
370
    -3
100
AcDbLine
 10
1079.971361203936
 20
522.27220025775
 30
0.0
 11
1126.928502610363
 21
522.27220025775
 31
0.0
1001
AcDbBlockRepETag
1070
     1
1071
       99
1005
1B582
  0
LINE
  5
1B583
330
10FE8
100
AcDbEntity
  8
图框
370
    -3
100
AcDbLine
 10
1079.971361203936
 20
513.5854547520641
 30
0.0
 11
1126.928502610363
 21
513.5854547520639
 31
0.0
1001
AcDbBlockRepETag
1070
     1
1071
      100
1005
1B583
  0
MTEXT
  5
1B584
330
10FE8
100
AcDbEntity
  8
图框
100
AcDbMText
 10
1086.643735910939
 20
517.9288275049072
 30
0.0
 40
1.958998408821398
 41
13.34474941400573
 46
8.686745505685811
 71
     5
 72
     5
  1
产品代号\P{\Fromans|c134;Part Code}
 73
     1
 44
1.0
1001
AcDbBlockRepETag
1070
     1
1071
      101
1005
1B584
1001
ACAD
1000
ACAD_MTEXT_DEFINED_HEIGHT_BEGIN
1070
    46
1040
8.686745505685811
1000
ACAD_MTEXT_DEFINED_HEIGHT_END
  0
LINE
  5
1B585
330
10FE8
100
AcDbEntity
  8
图框
370
    -3
100
AcDbLine
 10
946.9285026103634
 20
525.7982263931411
 30
0.0
 11
1036.653967466372
 21
525.7982263931411
 31
0.0
1001
AcDbBlockRepETag
1070
     1
1071
      102
1005
1B585
  0
LINE
  5
1B586
330
10FE8
100
AcDbEntity
  8
图框
370
    -3
100
AcDbLine
 10
946.9285026103634
 20
520.2672851814959
 30
0.0
 11
1036.653967466372
 21
520.2672851814959
 31
0.0
1001
AcDbBlockRepETag
1070
     1
1071
      103
1005
1B586
  0
LINE
  5
1B587
330
10FE8
100
AcDbEntity
  8
图框
370
    35
100
AcDbLine
 10
946.9285026103634
 20
531.3291676047914
 30
0.0
 11
1126.928502610363
 21
531.3291676047914
 31
0.0
1001
AcDbBlockRepETag
1070
     1
1071
      104
1005
1B587
  0
LINE
  5
1B588
330
10FE8
100
AcDbEntity
  8
图框
370
    -3
100
AcDbLine
 10
990.6727612856927
 20
509.2054027581959
 30
0.0
 11
990.6727612856927
 21
484.0347692601515
 31
0.0
1001
AcDbBlockRepETag
1070
     1
1071
      105
1005
1B588
  0
MTEXT
  5
1B589
102
{ACAD_XDICTIONARY
360
1B5E6
102
}
330
10FE8
100
AcDbEntity
  8
图框
100
AcDbMText
 10
997.1628169651232
 20
499.816589978722
 30
0.0
 40
2.252848170144607
 41
12.98011135886052
 46
6.19230880992475
 71
     5
 72
     5
  1
{\f仿宋_GB2312|b0|i0|c134|p49;标准化}\PStand.
  7
Romans字体
 73
     1
 44
1.0
1001
AcDbBlockRepETag
1070
     1
1071
      106
1005
1B589
1001
ACAD
1000
ACAD_MTEXT_DEFINED_HEIGHT_BEGIN
1070
    46
1040
6.19230880992475
1000
ACAD_MTEXT_DEFINED_HEIGHT_END
  0
LINE
  5
1B58A
330
10FE8
100
AcDbEntity
  8
图框
370
    -3
100
AcDbLine
 10
975.4103773808022
 20
509.2054027581959
 30
0.0
 11
975.4103773808022
 21
484.0347692601515
 31
0.0
1001
AcDbBlockRepETag
1070
     1
1071
      107
1005
1B58A
  0
MTEXT
  5
1B58B
330
10FE8
100
AcDbEntity
  8
图框
100
AcDbMText
 10
984.5089229802068
 20
511.9708733640202
 30
0.0
 40
2.448748011026752
 41
38.287899328693
 46
5.530941211648832
 71
     5
 72
     5
  1
  变更描述{\Fromans|c134;/Description}
 73
     1
 44
1.0
1001
AcDbBlockRepETag
1070
     1
1071
      108
1005
1B58B
1001
ACAD
1000
ACAD_MTEXT_DEFINED_HEIGHT_BEGIN
1070
    46
1040
5.530941211648832
1000
ACAD_MTEXT_DEFINED_HEIGHT_END
  0
MTEXT
  5
1B58C
102
{ACAD_XDICTIONARY
360
1B5E8
102
}
330
10FE8
100
AcDbEntity
  8
图框
100
AcDbMText
 10
1012.477254728976
 20
511.9708733640202
 30
0.0
 40
1.958998408821398
 41
17.64876416884548
 46
5.530941211649166
 71
     5
 72
     5
  1
签名\P{\Fromans|c134;Signature} 
 73
     1
 44
1.0
1001
AcDbBlockRepETag
1070
     1
1071
      109
1005
1B58C
1001
ACAD
1000
ACAD_MTEXT_DEFINED_HEIGHT_BEGIN
1070
    46
1040
5.530941211649166
1000
ACAD_MTEXT_DEFINED_HEIGHT_END
  0
MTEXT
  5
1B58D
102
{ACAD_XDICTIONARY
360
1B5EA
102
}
330
10FE8
100
AcDbEntity
  8
图框
100
AcDbMText
 10
960.7558556394856
 20
511.9708733640202
 30
0.0
 40
1.958998408821398
 41
9.218235352749283
 46
5.530941211648841
 71
     5
 72
     5
  1
处数\P{\Fromans|c134;Number }
 73
     1
 44
1.0
1001
AcDbBlockRepETag
1070
     1
1071
      110
1005
1B58D
1001
ACAD
1000
ACAD_MTEXT_DEFINED_HEIGHT_BEGIN
1070
    46
1040
5.530941211648841
1000
ACAD_MTEXT_DEFINED_HEIGHT_END
  0
LINE
  5
1B58E
330
10FE8
100
AcDbEntity
  8
图框
370
    -3
100
AcDbLine
 10
946.9285026103634
 20
514.7363439698449
 30
0.0
 11
1036.653967466372
 21
514.7363439698449
 31
0.0
1001
AcDbBlockRepETag
1070
     1
1071
      111
1005
1B58E
  0
LINE
  5
1B58F
330
10FE8
100
AcDbEntity
  8
图框
370
    -3
100
AcDbLine
 10
946.9285026103634
 20
509.2054027581959
 30
0.0
 11
1036.653967466372
 21
509.2054027581959
 31
0.0
1001
AcDbBlockRepETag
1070
     1
1071
      112
1005
1B58F
  0
LINE
  5
1B590
330
10FE8
100
AcDbEntity
  8
图框
370
    -3
100
AcDbLine
 10
946.9285026103634
 20
502.9127443836848
 30
0.0
 11
1036.653967466372
 21
502.9127443836848
 31
0.0
1001
AcDbBlockRepETag
1070
     1
1071
      113
1005
1B590
  0
LINE
  5
1B591
330
10FE8
100
AcDbEntity
  8
图框
370
    -3
100
AcDbLine
 10
946.9285026103634
 20
496.620086009173
 30
0.0
 11
1036.653967466372
 21
496.620086009173
 31
0.0
1001
AcDbBlockRepETag
1070
     1
1071
      114
1005
1B591
  0
LINE
  5
1B592
330
10FE8
100
AcDbEntity
  8
图框
370
    35
380
     1
100
AcDbLine
 10
946.9285026103634
 20
531.3291676047914
 30
0.0
 11
946.9285026103634
 21
484.0347692601515
 31
0.0
1001
AcDbBlockRepETag
1070
     1
1071
      115
1005
1B592
  0
LINE
  5
1B593
330
10FE8
100
AcDbEntity
  8
图框
370
    -3
100
AcDbLine
 10
1021.301636813399
 20
531.3291676047914
 30
0.0
 11
1021.301636813399
 21
484.0347692601515
 31
0.0
1001
AcDbBlockRepETag
1070
     1
1071
      116
1005
1B593
  0
LINE
  5
1B594
330
10FE8
100
AcDbEntity
  8
图框
370
    -3
100
AcDbLine
 10
1003.652872644553
 20
531.3291676047914
 30
0.0
 11
1003.652872644553
 21
484.0347692601515
 31
0.0
1001
AcDbBlockRepETag
1070
     1
1071
      117
1005
1B594
  0
LINE
  5
1B595
330
10FE8
100
AcDbEntity
  8
图框
370
    -3
100
AcDbLine
 10
965.3649733158603
 20
531.3291676047914
 30
0.0
 11
965.3649733158603
 21
509.2054027581959
 31
0.0
1001
AcDbBlockRepETag
1070
     1
1071
      118
1005
1B595
  0
LINE
  5
1B596
330
10FE8
100
AcDbEntity
  8
图框
370
    -3
100
AcDbLine
 10
956.1467379631109
 20
531.3291676047914
 30
0.0
 11
956.1467379631109
 21
509.2054027581959
 31
0.0
1001
AcDbBlockRepETag
1070
     1
1071
      119
1005
1B596
  0
MTEXT
  5
1B597
102
{ACAD_XDICTIONARY
360
1B5EC
102
}
330
10FE8
100
AcDbEntity
  8
图框
100
AcDbMText
 10
951.537620286737
 20
511.9708733640202
 30
0.0
 40
1.958998408821398
 41
9.218235352747692
 46
5.530941211648832
 71
     5
 72
     5
  1
标记\P{\Fromans|c134;Mark}
 73
     1
 44
1.0
1001
AcDbBlockRepETag
1070
     1
1071
      120
1005
1B597
1001
ACAD
1000
ACAD_MTEXT_DEFINED_HEIGHT_BEGIN
1070
    46
1040
5.530941211648832
1000
ACAD_MTEXT_DEFINED_HEIGHT_END
  0
MTEXT
  5
1B598
102
{ACAD_XDICTIONARY
360
1B5EE
102
}
330
10FE8
100
AcDbEntity
  8
图框
100
AcDbMText
 10
953.4185582897936
 20
493.4737568219182
 30
0.0
 40
2.252848170144607
 41
12.98011135886041
 46
6.292658374510382
 71
     5
 72
     5
  1
审核\P{\Fromans|c134;Checked}
 73
     1
 44
1.0
1001
AcDbBlockRepETag
1070
     1
1071
      121
1005
1B598
1001
ACAD
1000
ACAD_MTEXT_DEFINED_HEIGHT_BEGIN
1070
    46
1040
6.292658374510382
1000
ACAD_MTEXT_DEFINED_HEIGHT_END
  0
MTEXT
  5
1B599
102
{ACAD_XDICTIONARY
360
1B5F0
102
}
330
10FE8
100
AcDbEntity
  8
图框
100
AcDbMText
 10
953.4185582897936
 20
499.8775635376777
 30
0.0
 40
2.252848170144607
 41
12.98011135886041
 46
6.070361692014189
 71
     5
 72
     5
  1
绘图\P{\Fromans|c134;Drawn\Ftxt|c134; }
 73
     1
 44
1.0
1001
AcDbBlockRepETag
1070
     1
1071
      122
1005
1B599
1001
ACAD
1000
ACAD_MTEXT_DEFINED_HEIGHT_BEGIN
1070
    46
1040
6.070361692014189
1000
ACAD_MTEXT_DEFINED_HEIGHT_END
  0
ARC
  5
1B59A
330
10FE8
100
AcDbEntity
  8
图框
 62
     4
370
    35
100
AcDbCircle
 10
1086.900627017421
 20
490.0179944151195
 30
0.0
 40
4.063310408393665
100
AcDbArc
 50
18.95237904564806
 51
161.0476209543519
1001
AcDbBlockRepETag
1070
     1
1071
      123
1005
1B59A
  0
ARC
  5
1B59B
330
10FE8
100
AcDbEntity
  8
图框
 62
     4
370
    35
100
AcDbCircle
 10
1086.900627017421
 20
490.0179944151195
 30
0.0
 40
4.063310408393665
100
AcDbArc
 50
198.952379045648
 51
341.0476209543519
1001
AcDbBlockRepETag
1070
     1
1071
      124
1005
1B59B
  0
LINE
  5
1B59C
330
10FE8
100
AcDbEntity
  8
图框
 62
     4
370
    35
100
AcDbLine
 10
1083.057593369548
 20
488.6983035966752
 30
0.0
 11
1090.74366066529
 21
488.6983035966752
 31
0.0
1001
AcDbBlockRepETag
1070
     1
1071
      125
1005
1B59C
  0
LINE
  5
1B59D
330
10FE8
100
AcDbEntity
  8
图框
 62
     4
370
    35
100
AcDbLine
 10
1083.057593369548
 20
491.3376852335652
 30
0.0
 11
1090.74366066529
 21
491.3376852335652
 31
0.0
1001
AcDbBlockRepETag
1070
     1
1071
      126
1005
1B59D
  0
MTEXT
  5
1B59E
330
10FE8
100
AcDbEntity
  8
图框
 62
     1
370
    20
100
AcDbMText
 10
1083.034582879669
 20
491.0506288081688
 30
0.0
 40
2.005930044038334
 41
5.047240019334847
 46
0.0
 71
     1
 72
     5
  1
{\fArial|b0|i0|c0|p34;W}
  7
Chinese
 73
     1
 44
1.0
1001
AcDbBlockRepETag
1070
     1
1071
      127
1005
1B59E
  0
LINE
  5
1B59F
330
10FE8
100
AcDbEntity
  8
图框
370
    -3
100
AcDbLine
 10
946.9285026103634
 20
490.327427634663
 30
0.0
 11
1036.653967466372
 21
490.327427634663
 31
0.0
1001
AcDbBlockRepETag
1070
     1
1071
      128
1005
1B59F
  0
LINE
  5
1B5A0
330
10FE8
100
AcDbEntity
  8
图框
370
    -3
100
AcDbLine
 10
959.9086139692238
 20
509.2054027581959
 30
0.0
 11
959.9086139692238
 21
484.0347692601515
 31
0.0
1001
AcDbBlockRepETag
1070
     1
1071
      129
1005
1B5A0
  0
MTEXT
  5
1B5A1
330
10FE8
100
AcDbEntity
  8
图框
100
AcDbMText
 10
967.6594956750129
 20
506.0590735709403
 30
0.0
 40
2.252848170144607
 41
15.50176341157869
 46
6.292658374511246
 71
     5
 72
     5
  1
姓名{\Fromans|c134;/Name\Ftxt|c134; }
 73
     1
 44
1.0
1001
AcDbBlockRepETag
1070
     1
1071
      130
1005
1B5A1
1001
ACAD
1000
ACAD_MTEXT_DEFINED_HEIGHT_BEGIN
1070
    46
1040
6.292658374511246
1000
ACAD_MTEXT_DEFINED_HEIGHT_END
  0
MTEXT
  5
1B5A2
330
10FE8
100
AcDbEntity
  8
图框
100
AcDbMText
 10
983.0415693332477
 20
506.0590735709403
 30
0.0
 40
2.252848170144607
 41
15.26238390489042
 46
6.2926583745112
 71
     5
 72
     5
  1
日期{\Fromans|c134;/Date}
 73
     1
 44
1.0
1001
AcDbBlockRepETag
1070
     1
1071
      131
1005
1B5A2
1001
ACAD
1000
ACAD_MTEXT_DEFINED_HEIGHT_BEGIN
1070
    46
1040
6.2926583745112
1000
ACAD_MTEXT_DEFINED_HEIGHT_END
  0
LINE
  5
1B5A3
330
10FE8
100
AcDbEntity
  8
图框
370
    -3
100
AcDbLine
 10
946.9285026103634
 20
509.2054027581959
 30
0.0
 11
959.9086139692238
 21
502.9127443836848
 31
0.0
1001
AcDbBlockRepETag
1070
     1
1071
      132
1005
1B5A3
  0
MTEXT
  5
1B5A4
330
10FE8
100
AcDbEntity
  8
图框
100
AcDbMText
 10
1012.931405110086
 20
506.0185715840725
 30
0.0
 40
2.252848170144607
 41
16.93492221063566
 46
0.0
 71
     5
 72
     5
  1
姓名{\Fromans|c134;/Name}
 73
     1
 44
1.0
1001
AcDbBlockRepETag
1070
     1
1071
      133
1005
1B5A4
  0
MTEXT
  5
1B5A5
330
10FE8
100
AcDbEntity
  8
图框
100
AcDbMText
 10
1028.977802139886
 20
506.0590735709403
 30
0.0
 40
2.252848170144607
 41
15.35233065297283
 46
6.292658374511256
 71
     5
 72
     5
  1
日期{\Fromans|c134;/Date}
 73
     1
 44
1.0
1001
AcDbBlockRepETag
1070
     1
1071
      134
1005
1B5A5
1001
ACAD
1000
ACAD_MTEXT_DEFINED_HEIGHT_BEGIN
1070
    46
1040
6.292658374511256
1000
ACAD_MTEXT_DEFINED_HEIGHT_END
  0
LINE
  5
1B5A6
330
10FE8
100
AcDbEntity
  8
图框
370
    -3
100
AcDbLine
 10
1003.652872644553
 20
502.9127443836848
 30
0.0
 11
990.6727612856927
 21
509.2054027581959
 31
0.0
1001
AcDbBlockRepETag
1070
     1
1071
      135
1005
1B5A6
  0
MTEXT
  5
1B5A7
102
{ACAD_XDICTIONARY
360
1B5F2
102
}
330
10FE8
100
AcDbEntity
  8
图框
100
AcDbMText
 10
997.1628169651232
 20
487.1810984474071
 30
0.0
 40
2.252848170144607
 41
12.98011135886052
 46
6.292658374511517
 71
     5
 72
     5
  1
批准\P{\Fromans|c134;Approved}
 73
     1
 44
1.0
1001
AcDbBlockRepETag
1070
     1
1071
      136
1005
1B5A7
1001
ACAD
1000
ACAD_MTEXT_DEFINED_HEIGHT_BEGIN
1070
    46
1040
6.292658374511517
1000
ACAD_MTEXT_DEFINED_HEIGHT_END
  0
MTEXT
  5
1B5A8
102
{ACAD_XDICTIONARY
360
1B5F4
102
}
330
10FE8
100
AcDbEntity
  8
图框
100
AcDbMText
 10
953.4185582897936
 20
487.1810984474071
 30
0.0
 40
2.252848170144607
 41
12.98011135886041
 46
6.292658374511495
 71
     5
 72
     5
  1
工艺\P{\Fromans|c134;Process}
 73
     1
 44
1.0
1001
AcDbBlockRepETag
1070
     1
1071
      137
1005
1B5A8
1001
ACAD
1000
ACAD_MTEXT_DEFINED_HEIGHT_BEGIN
1070
    46
1040
6.292658374511495
1000
ACAD_MTEXT_DEFINED_HEIGHT_END
  0
MTEXT
  5
1B5A9
102
{ACAD_XDICTIONARY
360
1B5F6
102
}
330
10FE8
100
AcDbEntity
  8
图框
100
AcDbMText
 10
1028.977802139886
 20
511.9708733640204
 30
0.0
 40
1.958998408821398
 41
15.3523306529728
 46
5.530941211648912
 71
     5
 72
     5
  1
日期\P{\Fromans|c134;Date}
 73
     1
 44
1.0
1001
AcDbBlockRepETag
1070
     1
1071
      138
1005
1B5A9
1001
ACAD
1000
ACAD_MTEXT_DEFINED_HEIGHT_BEGIN
1070
    46
1040
5.530941211648912
1000
ACAD_MTEXT_DEFINED_HEIGHT_END
  0
MTEXT
  5
1B5AA
330
10FE8
100
AcDbEntity
  8
图框
100
AcDbMText
 10
1086.643735910939
 20
509.1493769780809
 30
0.0
 40
2.154898249703542
 41
13.34474941400573
 46
8.87215554796615
 71
     5
 72
     5
  1
产品料号\P{\Fromans|c134;Part No.}
 73
     1
 44
1.0
1001
AcDbBlockRepETag
1070
     1
1071
      139
1005
1B5AA
1001
ACAD
1000
ACAD_MTEXT_DEFINED_HEIGHT_BEGIN
1070
    46
1040
8.87215554796615
1000
ACAD_MTEXT_DEFINED_HEIGHT_END
  0
MTEXT
  5
1B5AB
330
10FE8
100
AcDbEntity
  8
图框
100
AcDbMText
 10
1086.643735910939
 20
500.2775205517163
 30
0.0
 40
1.958998408821398
 41
13.34474941400573
 46
8.871557304763321
 71
     5
 72
     5
  1
产品名称\P{\Fromans|c134;Part Name}
 73
     1
 44
1.0
1001
AcDbBlockRepETag
1070
     1
1071
      140
1005
1B5AB
1001
ACAD
1000
ACAD_MTEXT_DEFINED_HEIGHT_BEGIN
1070
    46
1040
8.871557304763321
1000
ACAD_MTEXT_DEFINED_HEIGHT_END
  0
LINE
  5
1B5AC
330
10FE8
100
AcDbEntity
  8
图框
 62
     1
370
    18
100
AcDbLine
 10
833.4128518455365
 20
690.5347692601515
 30
0.0
 11
833.4128518455365
 21
480.5347692601515
 31
0.0
1001
AcDbBlockRepETag
1070
     1
1071
      141
1005
1B5AC
  0
LINE
  5
1B5AD
330
10FE8
100
AcDbEntity
  8
图框
 62
     1
370
    18
100
AcDbLine
 10
833.4128518455365
 20
480.5347692601515
 30
0.0
 11
1130.411601781236
 21
480.5347692601515
 31
0.0
1001
AcDbBlockRepETag
1070
     1
1071
      142
1005
1B5AD
  0
LINE
  5
1B5AE
330
10FE8
100
AcDbEntity
  8
图框
 62
     1
370
    18
100
AcDbLine
 10
833.4128518455365
 20
690.5347692601515
 30
0.0
 11
1130.411601781236
 21
690.5347692601515
 31
0.0
1001
AcDbBlockRepETag
1070
     1
1071
      143
1005
1B5AE
  0
LINE
  5
1B5AF
330
10FE8
100
AcDbEntity
  8
图框
 62
     1
370
    18
100
AcDbLine
 10
1130.411601781236
 20
480.5347692601515
 30
0.0
 11
1130.411601781236
 21
690.5347692601515
 31
0.0
1001
AcDbBlockRepETag
1070
     1
1071
      144
1005
1B5AF
  0
LINE
  5
1B5B0
330
10FE8
100
AcDbEntity
  8
图框
370
    18
100
AcDbLine
 10
836.9128518455394
 20
686.7901958362482
 30
0.0
 11
861.5351874539182
 21
686.7901958362482
 31
0.0
1001
AcDbBlockRepETag
1070
     1
1071
      145
1005
1B5B0
  0
LINE
  5
1B5B1
330
10FE8
100
AcDbEntity
  8
图框
370
    50
100
AcDbLine
 10
1126.928502610363
 20
484.3410054693078
 30
0.0
 11
1126.928502610363
 21
675.5347692601515
 31
0.0
1001
AcDbBlockRepETag
1070
     1
1071
      146
1005
1B5B1
  0
MTEXT
  5
1B5B2
330
10FE8
100
AcDbEntity
  8
图框
 62
     3
100
AcDbMText
 10
1052.897990117958
 20
495.8417418993364
 30
0.0
 40
2.985513575034151
 41
10.82934843439114
 46
7.886094601211307
 71
     5
 72
     5
  1
V1.0
  7
Romans字体
 73
     1
 44
1.0
1001
AcDbBlockRepETag
1070
     1
1071
      147
1005
1B5B2
1001
ACAD
1000
ACAD_MTEXT_DEFINED_HEIGHT_BEGIN
1070
    46
1040
7.886094601211307
1000
ACAD_MTEXT_DEFINED_HEIGHT_END
  0
LINE
  5
1B5B3
330
10FE8
100
AcDbEntity
  8
图框
 62
     6
100
AcDbLine
 10
1126.911601781236
 20
531.714049199969
 30
0.0
 11
1130.411601781236
 21
531.714049199969
 31
0.0
1001
AcDbBlockRepETag
1070
     1
1071
      148
1005
1B5B3
  0
ENDBLK
  5
1107F
330
10FE8
100
AcDbEntity
  8
0
100
AcDbBlockEnd
  0
BLOCK
  5
1B28E
330
1B28D
100
AcDbEntity
  8
0
100
AcDbBlockBegin
  2
*D2
 70
     1
 10
0.0
 20
0.0
 30
0.0
  3
*D2
  1

  0
LINE
  5
1B3E3
330
1B28D
100
AcDbEntity
  8
DIM
 62
     6
370
    -2
100
AcDbLine
 10
520.4281519214195
 20
273.6931101325201
 30
0.0
 11
514.0035230032817
 21
273.6931101325201
 31
0.0
  0
LINE
  5
1B3E4
330
1B28D
100
AcDbEntity
  8
DIM
 62
     6
370
    -2
100
AcDbLine
 10
520.4281519214195
 20
267.1931101325201
 30
0.0
 11
514.0035230032817
 21
267.1931101325201
 31
0.0
  0
LINE
  5
1B3E5
330
1B28D
100
AcDbEntity
  8
DIM
 62
     1
370
    -2
100
AcDbLine
 10
514.7235230032817
 20
272.4931101325201
 30
0.0
 11
514.7235230032817
 21
268.3931101325201
 31
0.0
  0
SOLID
  5
1B3E6
330
1B28D
100
AcDbEntity
  8
DIM
 62
     1
100
AcDbTrace
 10
514.5235230032819
 20
272.4931101325201
 30
0.0
 11
514.9235230032818
 21
272.4931101325201
 31
0.0
 12
514.7235230032817
 22
273.6931101325201
 32
0.0
 13
514.7235230032817
 23
273.6931101325201
 33
0.0
  0
SOLID
  5
1B3E7
330
1B28D
100
AcDbEntity
  8
DIM
 62
     1
100
AcDbTrace
 10
514.5235230032819
 20
268.3931101325201
 30
0.0
 11
514.9235230032818
 21
268.3931101325201
 31
0.0
 12
514.7235230032817
 22
267.1931101325201
 32
0.0
 13
514.7235230032817
 23
267.1931101325201
 33
0.0
  0
MTEXT
  5
1B3E8
330
1B28D
100
AcDbEntity
  8
DIM
 62
     4
100
AcDbMText
 10
513.4935230032819
 20
270.627080820046
 30
0.0
 40
1.5
 41
0.0
 46
0.0
 71
     5
 72
     1
  1
\A1;%%C6.5
  7
Romans字体
 11
0.0000000000000001
 21
1.0
 31
0.0
 73
     1
 44
1.0
  0
POINT
  5
1B3E9
330
1B28D
100
AcDbEntity
  8
Defpoints
 62
     0
100
AcDbPoint
 10
520.5481519214194
 20
273.6931101325201
 30
0.0
  0
POINT
  5
1B3EA
330
1B28D
100
AcDbEntity
  8
Defpoints
 62
     0
100
AcDbPoint
 10
520.5481519214194
 20
267.1931101325201
 30
0.0
  0
POINT
  5
1B3EB
330
1B28D
100
AcDbEntity
  8
Defpoints
 62
     0
100
AcDbPoint
 10
514.7235230032817
 20
267.1931101325201
 30
0.0
  0
ENDBLK
  5
1B28F
330
1B28D
100
AcDbEntity
  8
0
100
AcDbBlockEnd
  0
BLOCK
  5
1B29B
330
1B29A
100
AcDbEntity
  8
0
100
AcDbBlockBegin
  2
*D3
 70
     1
 10
0.0
 20
0.0
 30
0.0
  3
*D3
  1

  0
LINE
  5
1B3EC
330
1B29A
100
AcDbEntity
  8
DIM
 62
     6
370
    -2
100
AcDbLine
 10
544.6481519214199
 20
269.3231101325201
 30
0.0
 11
544.6481519214199
 21
260.2822084631658
 31
0.0
  0
LINE
  5
1B3ED
330
1B29A
100
AcDbEntity
  8
DIM
 62
     6
370
    -2
100
AcDbLine
 10
520.3481519214205
 20
267.2731101325199
 30
0.0
 11
520.3481519214205
 21
260.2822084631658
 31
0.0
  0
LINE
  5
1B3EE
330
1B29A
100
AcDbEntity
  8
DIM
 62
     1
370
    -2
100
AcDbLine
 10
543.4481519214199
 20
261.0022084631658
 30
0.0
 11
521.5481519214206
 21
261.0022084631658
 31
0.0
  0
SOLID
  5
1B3EF
330
1B29A
100
AcDbEntity
  8
DIM
 62
     1
100
AcDbTrace
 10
543.4481519214199
 20
261.2022084631659
 30
0.0
 11
543.4481519214199
 21
260.8022084631659
 31
0.0
 12
544.6481519214199
 22
261.0022084631658
 32
0.0
 13
544.6481519214199
 23
261.0022084631658
 33
0.0
  0
SOLID
  5
1B3F0
330
1B29A
100
AcDbEntity
  8
DIM
 62
     1
100
AcDbTrace
 10
521.5481519214206
 20
261.2022084631659
 30
0.0
 11
521.5481519214206
 21
260.8022084631659
 31
0.0
 12
520.3481519214205
 22
261.0022084631658
 32
0.0
 13
520.3481519214205
 23
261.0022084631658
 33
0.0
  0
MTEXT
  5
1B3F1
330
1B29A
100
AcDbEntity
  8
DIM
 62
     4
100
AcDbMText
 10
533.4824651730488
 20
262.2322084631659
 30
0.0
 40
1.5
 41
0.0
 46
0.0
 71
     5
 72
     1
  1
\A1;24.3
  7
Romans字体
 73
     1
 44
1.0
  0
POINT
  5
1B3F2
330
1B29A
100
AcDbEntity
  8
Defpoints
 62
     0
100
AcDbPoint
 10
544.6481519214199
 20
269.4431101325201
 30
0.0
  0
POINT
  5
1B3F3
330
1B29A
100
AcDbEntity
  8
Defpoints
 62
     0
100
AcDbPoint
 10
520.3481519214205
 20
267.3931101325199
 30
0.0
  0
POINT
  5
1B3F4
330
1B29A
100
AcDbEntity
  8
Defpoints
 62
     0
100
AcDbPoint
 10
520.3481519214205
 20
261.0022084631658
 30
0.0
  0
ENDBLK
  5
1B29C
330
1B29A
100
AcDbEntity
  8
0
100
AcDbBlockEnd
  0
BLOCK
  5
1B2A8
330
1B2A7
100
AcDbEntity
  8
0
100
AcDbBlockBegin
  2
*D4
 70
     1
 10
0.0
 20
0.0
 30
0.0
  3
*D4
  1

  0
LINE
  5
1B3F5
330
1B2A7
100
AcDbEntity
  8
DIM
 62
     6
370
    -2
100
AcDbLine
 10
520.2281519214206
 20
269.89311013252
 30
0.0
 11
517.073562798384
 21
269.89311013252
 31
0.0
  0
LINE
  5
1B3F6
330
1B2A7
100
AcDbEntity
  8
DIM
 62
     6
370
    -2
100
AcDbLine
 10
520.2281519214206
 20
270.9931101325203
 30
0.0
 11
517.073562798384
 21
270.9931101325203
 31
0.0
  0
LINE
  5
1B3F7
330
1B2A7
100
AcDbEntity
  8
DIM
 62
     1
370
    -2
100
AcDbLine
 10
517.793562798384
 20
272.1931101325203
 30
0.0
 11
517.793562798384
 21
273.3931101325203
 31
0.0
  0
LINE
  5
1B3F8
330
1B2A7
100
AcDbEntity
  8
DIM
 62
     1
370
    -2
100
AcDbLine
 10
517.793562798384
 20
268.69311013252
 30
0.0
 11
517.793562798384
 21
263.08311013252
 31
0.0
  0
SOLID
  5
1B3F9
330
1B2A7
100
AcDbEntity
  8
DIM
 62
     1
100
AcDbTrace
 10
517.5935627983841
 20
272.1931101325203
 30
0.0
 11
517.9935627983841
 21
272.1931101325203
 31
0.0
 12
517.793562798384
 22
270.9931101325203
 32
0.0
 13
517.793562798384
 23
270.9931101325203
 33
0.0
  0
SOLID
  5
1B3FA
330
1B2A7
100
AcDbEntity
  8
DIM
 62
     1
100
AcDbTrace
 10
517.5935627983841
 20
268.69311013252
 30
0.0
 11
517.9935627983841
 21
268.69311013252
 31
0.0
 12
517.793562798384
 22
269.89311013252
 32
0.0
 13
517.793562798384
 23
269.89311013252
 33
0.0
  0
MTEXT
  5
1B3FB
330
1B2A7
100
AcDbEntity
  8
DIM
 62
     4
100
AcDbMText
 10
516.563562798384
 20
264.50061013252
 30
0.0
 40
1.5
 41
0.0
 46
0.0
 71
     5
 72
     1
  1
\A1;1.1
  7
Romans字体
 11
0.0000000000000001
 21
1.0
 31
0.0
 73
     1
 44
1.0
  0
POINT
  5
1B3FC
330
1B2A7
100
AcDbEntity
  8
Defpoints
 62
     0
100
AcDbPoint
 10
520.3481519214204
 20
269.89311013252
 30
0.0
  0
POINT
  5
1B3FD
330
1B2A7
100
AcDbEntity
  8
Defpoints
 62
     0
100
AcDbPoint
 10
520.3481519214204
 20
270.9931101325203
 30
0.0
  0
POINT
  5
1B3FE
330
1B2A7
100
AcDbEntity
  8
Defpoints
 62
     0
100
AcDbPoint
 10
517.793562798384
 20
270.9931101325203
 30
0.0
  0
ENDBLK
  5
1B2A9
330
1B2A7
100
AcDbEntity
  8
0
100
AcDbBlockEnd
  0
BLOCK
  5
1B2B5
330
1B2B4
100
AcDbEntity
  8
0
100
AcDbBlockBegin
  2
*D5
 70
     1
 10
0.0
 20
0.0
 30
0.0
  3
*D5
  1

  0
LINE
  5
1B3FF
330
1B2B4
100
AcDbEntity
  8
DIM
 62
     6
370
    -2
100
AcDbLine
 10
544.2681519214199
 20
268.9431101325201
 30
0.0
 11
549.7866192354775
 21
268.9431101325201
 31
0.0
  0
LINE
  5
1B400
330
1B2B4
100
AcDbEntity
  8
DIM
 62
     6
370
    -2
100
AcDbLine
 10
544.2681519214199
 20
271.9431101325201
 30
0.0
 11
549.7866192354775
 21
271.9431101325201
 31
0.0
  0
LINE
  5
1B401
330
1B2B4
100
AcDbEntity
  8
DIM
 62
     1
370
    -2
100
AcDbLine
 10
549.0666192354775
 20
267.7431101325201
 30
0.0
 11
549.0666192354775
 21
266.5431101325201
 31
0.0
  0
LINE
  5
1B402
330
1B2B4
100
AcDbEntity
  8
DIM
 62
     1
370
    -2
100
AcDbLine
 10
549.0666192354775
 20
273.1431101325201
 30
0.0
 11
549.0666192354775
 21
274.3431101325201
 31
0.0
  0
SOLID
  5
1B403
330
1B2B4
100
AcDbEntity
  8
DIM
 62
     1
100
AcDbTrace
 10
548.8666192354776
 20
267.7431101325201
 30
0.0
 11
549.2666192354777
 21
267.7431101325201
 31
0.0
 12
549.0666192354775
 22
268.9431101325201
 32
0.0
 13
549.0666192354775
 23
268.9431101325201
 33
0.0
  0
SOLID
  5
1B404
330
1B2B4
100
AcDbEntity
  8
DIM
 62
     1
100
AcDbTrace
 10
548.8666192354776
 20
273.1431101325201
 30
0.0
 11
549.2666192354777
 21
273.1431101325201
 31
0.0
 12
549.0666192354775
 22
271.9431101325201
 32
0.0
 13
549.0666192354775
 23
271.9431101325201
 33
0.0
  0
MTEXT
  5
1B405
330
1B2B4
100
AcDbEntity
  8
DIM
 62
     4
100
AcDbMText
 10
547.8366192354776
 20
270.4431101325202
 30
0.0
 40
1.5
 41
0.0
 46
0.0
 71
     5
 72
     1
  1
\A1;M3
  7
Romans字体
 11
0.0000000000000001
 21
1.0
 31
0.0
 73
     1
 44
1.0
  0
POINT
  5
1B406
330
1B2B4
100
AcDbEntity
  8
Defpoints
 62
     0
100
AcDbPoint
 10
544.1481519214199
 20
268.9431101325201
 30
0.0
  0
POINT
  5
1B407
330
1B2B4
100
AcDbEntity
  8
Defpoints
 62
     0
100
AcDbPoint
 10
544.1481519214199
 20
271.9431101325201
 30
0.0
  0
POINT
  5
1B408
330
1B2B4
100
AcDbEntity
  8
Defpoints
 62
     0
100
AcDbPoint
 10
549.0666192354775
 20
271.9431101325201
 30
0.0
  0
ENDBLK
  5
1B2B6
330
1B2B4
100
AcDbEntity
  8
0
100
AcDbBlockEnd
  0
BLOCK
  5
1B2EA
330
1B2E9
100
AcDbEntity
  8
0
100
AcDbBlockBegin
  2
*D6
 70
     1
 10
0.0
 20
0.0
 30
0.0
  3
*D6
  1

  0
LINE
  5
1B41B
330
1B2E9
100
AcDbEntity
  8
DIM
 62
     6
370
    -2
100
AcDbLine
 10
539.64815192142
 20
272.0631038701807
 30
0.0
 11
539.64815192142
 21
274.9088504313641
 31
0.0
  0
LINE
  5
1B41C
330
1B2E9
100
AcDbEntity
  8
DIM
 62
     6
370
    -2
100
AcDbLine
 10
544.6481519214199
 20
271.2677267274151
 30
0.0
 11
544.6481519214199
 21
274.9088504313641
 31
0.0
  0
LINE
  5
1B41D
330
1B2E9
100
AcDbEntity
  8
DIM
 62
     1
370
    -2
100
AcDbLine
 10
540.84815192142
 20
274.1888504313642
 30
0.0
 11
543.4481519214199
 21
274.1888504313642
 31
0.0
  0
SOLID
  5
1B41E
330
1B2E9
100
AcDbEntity
  8
DIM
 62
     1
100
AcDbTrace
 10
540.84815192142
 20
274.3888504313642
 30
0.0
 11
540.84815192142
 21
273.9888504313642
 31
0.0
 12
539.64815192142
 22
274.1888504313642
 32
0.0
 13
539.64815192142
 23
274.1888504313642
 33
0.0
  0
SOLID
  5
1B41F
330
1B2E9
100
AcDbEntity
  8
DIM
 62
     1
100
AcDbTrace
 10
543.4481519214199
 20
274.3888504313642
 30
0.0
 11
543.4481519214199
 21
273.9888504313642
 31
0.0
 12
544.6481519214199
 22
274.1888504313642
 32
0.0
 13
544.6481519214199
 23
274.1888504313642
 33
0.0
  0
MTEXT
  5
1B420
330
1B2E9
100
AcDbEntity
  8
DIM
 62
     4
100
AcDbMText
 10
542.1481519214198
 20
275.4188504313642
 30
0.0
 40
1.5
 41
0.0
 46
0.0
 71
     5
 72
     1
  1
\A1;5
  7
Romans字体
 73
     1
 44
1.0
  0
POINT
  5
1B421
330
1B2E9
100
AcDbEntity
  8
Defpoints
 62
     0
100
AcDbPoint
 10
539.64815192142
 20
271.9431038701807
 30
0.0
  0
POINT
  5
1B422
330
1B2E9
100
AcDbEntity
  8
Defpoints
 62
     0
100
AcDbPoint
 10
544.6481519214199
 20
271.1477267274152
 30
0.0
  0
POINT
  5
1B423
330
1B2E9
100
AcDbEntity
  8
Defpoints
 62
     0
100
AcDbPoint
 10
544.6481519214199
 20
274.1888504313642
 30
0.0
  0
ENDBLK
  5
1B2EB
330
1B2E9
100
AcDbEntity
  8
0
100
AcDbBlockEnd
  0
BLOCK
  5
1B2F7
330
1B2F6
100
AcDbEntity
  8
0
100
AcDbBlockBegin
  2
*D7
 70
     1
 10
0.0
 20
0.0
 30
0.0
  3
*D7
  1

  0
LINE
  5
1B412
330
1B2F6
100
AcDbEntity
  8
DIM
 62
     6
370
    -2
100
AcDbLine
 10
544.6481519214199
 20
267.8195250336986
 30
0.0
 11
544.6481519214199
 21
264.082659297843
 31
0.0
  0
LINE
  5
1B413
330
1B2F6
100
AcDbEntity
  8
DIM
 62
     6
370
    -2
100
AcDbLine
 10
535.64815192142
 20
267.5677558210669
 30
0.0
 11
535.64815192142
 21
264.082659297843
 31
0.0
  0
LINE
  5
1B414
330
1B2F6
100
AcDbEntity
  8
DIM
 62
     1
370
    -2
100
AcDbLine
 10
543.4481519214199
 20
264.8026592978431
 30
0.0
 11
536.84815192142
 21
264.8026592978431
 31
0.0
  0
SOLID
  5
1B415
330
1B2F6
100
AcDbEntity
  8
DIM
 62
     1
100
AcDbTrace
 10
543.4481519214199
 20
265.002659297843
 30
0.0
 11
543.4481519214199
 21
264.602659297843
 31
0.0
 12
544.6481519214199
 22
264.8026592978431
 32
0.0
 13
544.6481519214199
 23
264.8026592978431
 33
0.0
  0
SOLID
  5
1B416
330
1B2F6
100
AcDbEntity
  8
DIM
 62
     1
100
AcDbTrace
 10
536.84815192142
 20
265.002659297843
 30
0.0
 11
536.84815192142
 21
264.602659297843
 31
0.0
 12
535.64815192142
 22
264.8026592978431
 32
0.0
 13
535.64815192142
 23
264.8026592978431
 33
0.0
  0
MTEXT
  5
1B417
330
1B2F6
100
AcDbEntity
  8
DIM
 62
     4
100
AcDbMText
 10
540.14815192142
 20
266.0326592978431
 30
0.0
 40
1.5
 41
0.0
 46
0.0
 71
     5
 72
     1
  1
\A1;9
  7
Romans字体
 73
     1
 44
1.0
  0
POINT
  5
1B418
330
1B2F6
100
AcDbEntity
  8
Defpoints
 62
     0
100
AcDbPoint
 10
544.6481519214199
 20
267.9395250336986
 30
0.0
  0
POINT
  5
1B419
330
1B2F6
100
AcDbEntity
  8
Defpoints
 62
     0
100
AcDbPoint
 10
535.64815192142
 20
267.6877558210669
 30
0.0
  0
POINT
  5
1B41A
330
1B2F6
100
AcDbEntity
  8
Defpoints
 62
     0
100
AcDbPoint
 10
535.64815192142
 20
264.8026592978431
 30
0.0
  0
ENDBLK
  5
1B2F8
330
1B2F6
100
AcDbEntity
  8
0
100
AcDbBlockEnd
  0
ENDSEC
  0
SECTION
  2
ENTITIES
  0
HATCH
  5
28AE
330
1F
100
AcDbEntity
  8
图层 1
 62
     7
100
AcDbHatch
 10
0.0
 20
0.0
 30
0.0
210
0.0
220
0.0
230
1.0
  2
SOLID
 70
     1
 71
     0
 91
        1
 92
        1
 93
        2
 72
     4
 94
        3
 73
     0
 74
     0
 95
       17
 96
       13
 40
0.0
 40
0.0
 40
0.0
 40
0.0
 40
0.3527780104152769
 40
0.3527780104152769
 40
0.3527780104152769
 40
0.7055560208305538
 40
0.7055560208305538
 40
0.7055560208305538
 40
1.058334031245828
 40
1.058334031245828
 40
1.058334031245828
 40
1.411112041661104
 40
1.411112041661104
 40
1.411112041661104
 40
1.411112041661104
 10
11.07013262565829
 20
29.50312817963231
 10
11.07013262565829
 20
29.50312817963231
 10
10.9431807732774
 20
29.50312817963231
 10
10.9431807732774
 20
29.50312817963231
 10
10.9431807732774
 20
29.50312817963231
 10
10.85843136843155
 20
29.22786486877117
 10
10.85843136843155
 20
29.22786486877117
 10
10.85843136843155
 20
29.22786486877117
 10
10.90080607085448
 20
29.2068497724476
 10
10.90080607085448
 20
29.2068497724476
 10
10.94455881238059
 20
29.31571486159919
 10
11.00346998404173
 20
29.40907701083995
 10
11.07013262565829
 20
29.50312817963231
 72
     1
 10
11.07013262565829
 20
29.50312817963231
 11
11.07013262565829
 21
29.50312817963231
 97
        0
 75
     0
 76
     1
 98
        0
450
        0
451
        0
460
0.0
461
0.0
452
        0
462
0.0
453
        0
470

  0
HATCH
  5
2C65
330
1F
100
AcDbEntity
  8
图层 1
 62
     7
100
AcDbHatch
 10
0.0
 20
0.0
 30
0.0
210
0.0
220
0.0
230
1.0
  2
SOLID
 70
     1
 71
     0
 91
        1
 92
        1
 93
        2
 72
     4
 94
        3
 73
     0
 74
     0
 95
       47
 96
       43
 40
0.0
 40
0.0
 40
0.0
 40
0.0
 40
0.3527780104152769
 40
0.3527780104152769
 40
0.3527780104152769
 40
0.7055560208305538
 40
0.7055560208305538
 40
0.7055560208305538
 40
1.058334031245828
 40
1.058334031245828
 40
1.058334031245828
 40
1.411112041661104
 40
1.411112041661104
 40
1.411112041661104
 40
1.763890052076384
 40
1.763890052076384
 40
1.763890052076384
 40
2.116668062491659
 40
2.116668062491659
 40
2.116668062491659
 40
2.469446072906936
 40
2.469446072906936
 40
2.469446072906936
 40
2.822224083322215
 40
2.822224083322215
 40
2.822224083322215
 40
3.175002093737492
 40
3.175002093737492
 40
3.175002093737492
 40
3.527780104152768
 40
3.527780104152768
 40
3.527780104152768
 40
3.880558114568044
 40
3.880558114568044
 40
3.880558114568044
 40
4.233336124983321
 40
4.233336124983321
 40
4.233336124983321
 40
4.586114135398599
 40
4.586114135398599
 40
4.586114135398599
 40
4.938892145813873
 40
4.938892145813873
 40
4.938892145813873
 40
4.938892145813873
 10
162.8986914070121
 20
257.4895347631509
 10
162.8986914070121
 20
257.4895347631509
 10
162.9200510131114
 20
257.4471600607279
 10
162.9200510131114
 20
257.4471600607279
 10
162.9200510131114
 20
257.4471600607279
 10
162.9200510131114
 20
257.404785358305
 10
162.9200510131114
 20
257.404785358305
 10
162.9200510131114
 20
257.404785358305
 10
162.8986914070121
 20
257.36258291077
 10
162.8986914070121
 20
257.36258291077
 10
162.8986914070121
 20
257.36258291077
 10
162.8986914070121
 20
257.320208208347
 10
162.8986914070121
 20
257.320208208347
 10
162.8986914070121
 20
257.320208208347
 10
162.8563167045891
 20
257.2990208571356
 10
162.8563167045891
 20
257.2990208571356
 10
162.8563167045891
 20
257.2990208571356
 10
162.8139420021662
 20
257.2563016449369
 10
162.8139420021662
 20
257.2563016449369
 10
162.8139420021662
 20
257.2563016449369
 10
162.7295371070961
 20
257.2563016449369
 10
162.7295371070961
 20
257.2563016449369
 10
162.7295371070961
 20
257.2563016449369
 10
162.6658027985738
 20
257.2778335059241
 10
162.6658027985738
 20
257.2778335059241
 10
162.6658027985738
 20
257.2778335059241
 10
162.6237726059267
 20
257.2990208571356
 10
162.6237726059267
 20
257.2990208571356
 10
162.6237726059267
 20
257.2990208571356
 10
162.5813979035038
 20
257.3413955595585
 10
162.5813979035038
 20
257.3413955595585
 10
162.5813979035038
 20
257.3413955595585
 10
162.5813979035038
 20
257.4895347631509
 10
162.5813979035038
 20
257.4895347631509
 10
162.5813979035038
 20
257.4895347631509
 10
162.6447877022503
 20
257.5525800521216
 10
162.6447877022503
 20
257.5525800521216
 10
162.6447877022503
 20
257.5525800521216
 10
162.7081775009967
 20
257.5525800521216
 10
162.7081775009967
 20
257.5525800521216
 10
162.8749202324821
 20
257.5424170137356
 10
162.7918933765152
 20
257.5939212252171
 10
162.8986914070121
 20
257.4895347631509
 72
     1
 10
162.8986914070121
 20
257.4895347631509
 11
162.8986914070121
 21
257.4895347631509
 97
        0
 75
     0
 76
     1
 98
        0
450
        0
451
        0
460
0.0
461
0.0
452
        0
462
0.0
453
        0
470

  0
HATCH
  5
2EE7
330
1F
100
AcDbEntity
  8
图层 1
 62
     7
100
AcDbHatch
 10
0.0
 20
0.0
 30
0.0
210
0.0
220
0.0
230
1.0
  2
SOLID
 70
     1
 71
     0
 91
        1
 92
        1
 93
        2
 72
     4
 94
        3
 73
     0
 74
     0
 95
       56
 96
       52
 40
0.0
 40
0.0
 40
0.0
 40
0.0
 40
0.3527780104152769
 40
0.3527780104152769
 40
0.3527780104152769
 40
0.7055560208305538
 40
0.7055560208305538
 40
0.7055560208305538
 40
1.058334031245828
 40
1.058334031245828
 40
1.058334031245828
 40
1.411112041661104
 40
1.411112041661104
 40
1.411112041661104
 40
1.763890052076384
 40
1.763890052076384
 40
1.763890052076384
 40
2.116668062491659
 40
2.116668062491659
 40
2.116668062491659
 40
2.469446072906936
 40
2.469446072906936
 40
2.469446072906936
 40
2.822224083322215
 40
2.822224083322215
 40
2.822224083322215
 40
3.175002093737492
 40
3.175002093737492
 40
3.175002093737492
 40
3.527780104152768
 40
3.527780104152768
 40
3.527780104152768
 40
3.880558114568044
 40
3.880558114568044
 40
3.880558114568044
 40
4.233336124983321
 40
4.233336124983321
 40
4.233336124983321
 40
4.586114135398599
 40
4.586114135398599
 40
4.586114135398599
 40
4.938892145813873
 40
4.938892145813873
 40
4.938892145813873
 40
5.291670156229153
 40
5.291670156229153
 40
5.291670156229153
 40
5.64444816664443
 40
5.64444816664443
 40
5.64444816664443
 40
5.997226177059705
 40
5.997226177059705
 40
5.997226177059705
 40
5.997226177059705
 10
185.4837187788815
 20
241.4451977396596
 10
185.4837187788815
 20
241.4451977396596
 10
185.4837187788815
 20
241.4028230372367
 10
185.4837187788815
 20
241.4028230372367
 10
185.4837187788815
 20
241.4028230372367
 10
185.5047338752051
 20
241.3604483348137
 10
185.5047338752051
 20
241.3604483348137
 10
185.4520238795082
 20
241.2782827532863
 10
185.4671823096433
 20
241.1897437409066
 10
185.335579575289
 20
241.2119646214456
 10
185.335579575289
 20
241.2119646214456
 10
185.2932048728662
 20
241.2119646214456
 10
185.2932048728662
 20
241.2119646214456
 10
185.2932048728662
 20
241.2119646214456
 10
185.2294705643439
 20
241.2334964824328
 10
185.2294705643439
 20
241.2334964824328
 10
185.2294705643439
 20
241.2334964824328
 10
185.1660807655974
 20
241.2543393238685
 10
185.1660807655974
 20
241.2543393238685
 10
185.1660807655974
 20
241.2543393238685
 10
185.1450656692739
 20
241.2758711848558
 10
185.1450656692739
 20
241.2758711848558
 10
185.1450656692739
 20
241.2758711848558
 10
185.1450656692739
 20
241.2967140262914
 10
185.1450656692739
 20
241.2967140262914
 10
185.1450656692739
 20
241.2967140262914
 10
185.1237060631745
 20
241.3604483348137
 10
185.1237060631745
 20
241.3604483348137
 10
185.1237060631745
 20
241.3604483348137
 10
185.1237060631745
 20
241.4028230372367
 10
185.1237060631745
 20
241.4028230372367
 10
185.1237060631745
 20
241.4028230372367
 10
185.1660807655974
 20
241.4875724420825
 10
185.1660807655974
 20
241.4875724420825
 10
185.1660807655974
 20
241.4875724420825
 10
185.2084554680203
 20
241.5085875384061
 10
185.2084554680203
 20
241.5085875384061
 10
185.2084554680203
 20
241.5085875384061
 10
185.2718452667668
 20
241.5297748896175
 10
185.2718452667668
 20
241.5297748896175
 10
185.2718452667668
 20
241.5297748896175
 10
185.3565946716127
 20
241.5297748896175
 10
185.3565946716127
 20
241.5297748896175
 10
185.3565946716127
 20
241.5297748896175
 10
185.4199844703592
 20
241.5085875384061
 10
185.4199844703592
 20
241.5085875384061
 10
185.4199844703592
 20
241.5085875384061
 10
185.4623591727821
 20
241.4875724420825
 10
185.4623591727821
 20
241.4875724420825
 10
185.4623591727821
 20
241.4875724420825
 10
185.4837187788815
 20
241.4451977396596
 10
185.4837187788815
 20
241.4451977396596
 72
     1
 10
185.4837187788815
 20
241.4451977396596
 11
185.4837187788815
 21
241.4451977396596
 97
        0
 75
     0
 76
     1
 98
        0
450
        0
451
        0
460
0.0
461
0.0
452
        0
462
0.0
453
        0
470

  0
HATCH
  5
2F93
330
1F
100
AcDbEntity
  8
图层 1
 62
     7
100
AcDbHatch
 10
0.0
 20
0.0
 30
0.0
210
0.0
220
0.0
230
1.0
  2
SOLID
 70
     1
 71
     0
 91
        1
 92
        1
 93
        2
 72
     4
 94
        3
 73
     0
 74
     0
 95
       38
 96
       34
 40
0.0
 40
0.0
 40
0.0
 40
0.0
 40
0.3527780104152769
 40
0.3527780104152769
 40
0.3527780104152769
 40
0.7055560208305538
 40
0.7055560208305538
 40
0.7055560208305538
 40
1.058334031245828
 40
1.058334031245828
 40
1.058334031245828
 40
1.411112041661104
 40
1.411112041661104
 40
1.411112041661104
 40
1.763890052076384
 40
1.763890052076384
 40
1.763890052076384
 40
2.116668062491659
 40
2.116668062491659
 40
2.116668062491659
 40
2.469446072906936
 40
2.469446072906936
 40
2.469446072906936
 40
2.822224083322215
 40
2.822224083322215
 40
2.822224083322215
 40
3.175002093737492
 40
3.175002093737492
 40
3.175002093737492
 40
3.527780104152768
 40
3.527780104152768
 40
3.527780104152768
 40
3.880558114568044
 40
3.880558114568044
 40
3.880558114568044
 40
3.880558114568044
 10
185.907121293335
 20
220.1937677098971
 10
185.9005756075949
 20
220.0449394867532
 10
185.9329595265197
 20
220.1136691870245
 10
185.864746590912
 20
219.9817219428946
 10
185.864746590912
 20
219.9817219428946
 10
185.822371888489
 20
219.9605345916831
 10
185.822371888489
 20
219.9605345916831
 10
185.822371888489
 20
219.9605345916831
 10
185.6528730787974
 20
219.9605345916831
 10
185.6528730787974
 20
219.9605345916831
 10
185.6528730787974
 20
219.9605345916831
 10
185.5894832800509
 20
220.002909294106
 10
185.5894832800509
 20
220.002909294106
 10
185.5894832800509
 20
220.002909294106
 10
185.5681236739515
 20
220.0240966453175
 10
185.5681236739515
 20
220.0240966453175
 10
185.5681236739515
 20
220.0240966453175
 10
185.5681236739515
 20
220.045283996529
 10
185.5681236739515
 20
220.045283996529
 10
185.5681236739515
 20
220.045283996529
 10
185.547108577628
 20
220.0876586989519
 10
185.547108577628
 20
220.0876586989519
 10
185.547108577628
 20
220.0876586989519
 10
185.547108577628
 20
220.1513930074742
 10
185.547108577628
 20
220.1513930074742
 10
185.547108577628
 20
220.1513930074742
 10
185.5894832800509
 20
220.23614241232
 10
185.5894832800509
 20
220.23614241232
 10
185.5894832800509
 20
220.23614241232
 10
185.6318579824738
 20
220.2573297635315
 10
185.6318579824738
 20
220.2573297635315
 10
185.7055830744942
 20
220.2566407439799
 10
185.8416644359337
 20
220.3310548555519
 10
185.907121293335
 20
220.1937677098971
 72
     1
 10
185.907121293335
 20
220.1937677098971
 11
185.907121293335
 21
220.1937677098971
 97
        0
 75
     0
 76
     1
 98
        0
450
        0
451
        0
460
0.0
461
0.0
452
        0
462
0.0
453
        0
470

  0
HATCH
  5
2FDE
330
1F
100
AcDbEntity
  8
图层 1
 62
     7
100
AcDbHatch
 10
0.0
 20
0.0
 30
0.0
210
0.0
220
0.0
230
1.0
  2
SOLID
 70
     1
 71
     0
 91
        1
 92
        1
 93
        2
 72
     4
 94
        3
 73
     0
 74
     0
 95
       50
 96
       46
 40
0.0
 40
0.0
 40
0.0
 40
0.0
 40
0.3527780104152769
 40
0.3527780104152769
 40
0.3527780104152769
 40
0.7055560208305538
 40
0.7055560208305538
 40
0.7055560208305538
 40
1.058334031245828
 40
1.058334031245828
 40
1.058334031245828
 40
1.411112041661104
 40
1.411112041661104
 40
1.411112041661104
 40
1.763890052076384
 40
1.763890052076384
 40
1.763890052076384
 40
2.116668062491659
 40
2.116668062491659
 40
2.116668062491659
 40
2.469446072906936
 40
2.469446072906936
 40
2.469446072906936
 40
2.822224083322215
 40
2.822224083322215
 40
2.822224083322215
 40
3.175002093737492
 40
3.175002093737492
 40
3.175002093737492
 40
3.527780104152768
 40
3.527780104152768
 40
3.527780104152768
 40
3.880558114568044
 40
3.880558114568044
 40
3.880558114568044
 40
4.233336124983321
 40
4.233336124983321
 40
4.233336124983321
 40
4.586114135398599
 40
4.586114135398599
 40
4.586114135398599
 40
4.938892145813873
 40
4.938892145813873
 40
4.938892145813873
 40
5.291670156229153
 40
5.291670156229153
 40
5.291670156229153
 40
5.291670156229153
 10
180.9117295442905
 20
208.9327766684477
 10
180.9117295442905
 20
208.9327766684477
 10
180.9117295442905
 20
208.7637946234197
 10
180.9117295442905
 20
208.7637946234197
 10
181.2273004989198
 20
208.6749111012643
 10
181.3833634273555
 20
208.6776671794706
 10
181.6948002646751
 20
208.5097186637701
 10
181.9542161258496
 20
208.4294478860095
 10
182.1388733656765
 20
208.2134402565853
 10
182.3297317814676
 20
208.02292635057
 10
182.3297317814676
 20
208.02292635057
 10
182.435496282637
 20
208.065301052993
 10
182.435496282637
 20
208.065301052993
 10
182.288390608372
 20
208.2733849575739
 10
182.3752070718726
 20
208.2134402565853
 10
182.1605774815516
 20
208.3824223016133
 10
182.1605774815516
 20
208.3824223016133
 10
182.1182027791287
 20
208.4247970040363
 10
182.1182027791287
 20
208.4247970040363
 10
182.1182027791287
 20
208.4247970040363
 10
182.0968431730294
 20
208.467516216235
 10
182.0968431730294
 20
208.467516216235
 10
182.0968431730294
 20
208.467516216235
 10
182.0544684706064
 20
208.4883590576707
 10
182.0544684706064
 20
208.4883590576707
 10
182.0544684706064
 20
208.4883590576707
 10
181.9910786718599
 20
208.5305615052057
 10
181.9910786718599
 20
208.5305615052057
 10
181.9910786718599
 20
208.5305615052057
 10
181.948703969437
 20
208.552093366193
 10
181.948703969437
 20
208.552093366193
 10
181.948703969437
 20
208.552093366193
 10
181.9063292670141
 20
208.5729362076286
 10
181.9063292670141
 20
208.5729362076286
 10
181.9063292670141
 20
208.5729362076286
 10
181.8639545645911
 20
208.6156554198274
 10
181.8639545645911
 20
208.6156554198274
 10
181.8639545645911
 20
208.6156554198274
 10
181.821924371944
 20
208.6368427710388
 10
181.821924371944
 20
208.6368427710388
 10
181.6637943848536
 20
208.6742220817127
 10
181.5452830219797
 20
208.8092699138248
 10
181.3771622513911
 20
208.8061693258427
 10
181.2803550043924
 20
208.8573290275484
 10
181.0126709085988
 20
208.8971199066528
 10
180.9117295442905
 20
208.9327766684477
 72
     1
 10
180.9117295442905
 20
208.9327766684477
 11
180.9117295442905
 21
208.9327766684477
 97
        0
 75
     0
 76
     1
 98
        0
450
        0
451
        0
460
0.0
461
0.0
452
        0
462
0.0
453
        0
470

  0
HATCH
  5
35C8
330
1F
100
AcDbEntity
  8
图层 1
 62
     7
100
AcDbHatch
 10
0.0
 20
0.0
 30
0.0
210
0.0
220
0.0
230
1.0
  2
SOLID
 70
     1
 71
     0
 91
        1
 92
        1
 93
        2
 72
     4
 94
        3
 73
     0
 74
     0
 95
       38
 96
       34
 40
0.0
 40
0.0
 40
0.0
 40
0.0
 40
0.3527780104152769
 40
0.3527780104152769
 40
0.3527780104152769
 40
0.7055560208305538
 40
0.7055560208305538
 40
0.7055560208305538
 40
1.058334031245828
 40
1.058334031245828
 40
1.058334031245828
 40
1.411112041661104
 40
1.411112041661104
 40
1.411112041661104
 40
1.763890052076384
 40
1.763890052076384
 40
1.763890052076384
 40
2.116668062491659
 40
2.116668062491659
 40
2.116668062491659
 40
2.469446072906936
 40
2.469446072906936
 40
2.469446072906936
 40
2.822224083322215
 40
2.822224083322215
 40
2.822224083322215
 40
3.175002093737492
 40
3.175002093737492
 40
3.175002093737492
 40
3.527780104152768
 40
3.527780104152768
 40
3.527780104152768
 40
3.880558114568044
 40
3.880558114568044
 40
3.880558114568044
 40
3.880558114568044
 10
189.145513185819
 20
166.8326485368285
 10
189.207869455238
 20
166.740492171803
 10
189.1317327947871
 20
166.6833035490209
 10
189.103138483396
 20
166.6209472796017
 10
189.103138483396
 20
166.6209472796017
 10
189.0607637809731
 20
166.5997599283903
 10
189.0607637809731
 20
166.5997599283903
 10
189.0607637809731
 20
166.5997599283903
 10
188.9973739822266
 20
166.5785725771788
 10
188.9973739822266
 20
166.5785725771788
 10
188.9973739822266
 20
166.5785725771788
 10
188.9549992798037
 20
166.5997599283903
 10
188.9549992798037
 20
166.5997599283903
 10
188.9549992798037
 20
166.5997599283903
 10
188.8916094810572
 20
166.5997599283903
 10
188.8916094810572
 20
166.5997599283903
 10
188.8916094810572
 20
166.5997599283903
 10
188.8492347786343
 20
166.6209472796017
 10
188.8492347786343
 20
166.6209472796017
 10
188.8492347786343
 20
166.6209472796017
 10
188.8278751725349
 20
166.6633219820247
 10
188.8278751725349
 20
166.6633219820247
 10
188.8278751725349
 20
166.6633219820247
 10
188.8068600762114
 20
166.6845093332361
 10
188.8068600762114
 20
166.6845093332361
 10
188.8068600762114
 20
166.6845093332361
 10
188.8068600762114
 20
166.8326485368285
 10
188.8068600762114
 20
166.8326485368285
 10
188.8068600762114
 20
166.8326485368285
 10
188.8702498749578
 20
166.896038335575
 10
188.8702498749578
 20
166.896038335575
 10
189.0228677056355
 20
166.8819134347673
 10
189.0686875058164
 20
166.9411691162043
 10
189.145513185819
 20
166.8326485368285
 72
     1
 10
189.145513185819
 20
166.8326485368285
 11
189.145513185819
 21
166.8326485368285
 97
        0
 75
     0
 76
     1
 98
        0
450
        0
451
        0
460
0.0
461
0.0
452
        0
462
0.0
453
        0
470

  0
HATCH
  5
35D8
330
1F
100
AcDbEntity
  8
图层 1
 62
     7
100
AcDbHatch
 10
0.0
 20
0.0
 30
0.0
210
0.0
220
0.0
230
1.0
  2
SOLID
 70
     1
 71
     0
 91
        1
 92
        1
 93
        2
 72
     4
 94
        3
 73
     0
 74
     0
 95
       68
 96
       64
 40
0.0
 40
0.0
 40
0.0
 40
0.0
 40
0.3527780104152769
 40
0.3527780104152769
 40
0.3527780104152769
 40
0.7055560208305538
 40
0.7055560208305538
 40
0.7055560208305538
 40
1.058334031245828
 40
1.058334031245828
 40
1.058334031245828
 40
1.411112041661104
 40
1.411112041661104
 40
1.411112041661104
 40
1.763890052076384
 40
1.763890052076384
 40
1.763890052076384
 40
2.116668062491659
 40
2.116668062491659
 40
2.116668062491659
 40
2.469446072906936
 40
2.469446072906936
 40
2.469446072906936
 40
2.822224083322215
 40
2.822224083322215
 40
2.822224083322215
 40
3.175002093737492
 40
3.175002093737492
 40
3.175002093737492
 40
3.527780104152768
 40
3.527780104152768
 40
3.527780104152768
 40
3.880558114568044
 40
3.880558114568044
 40
3.880558114568044
 40
4.233336124983321
 40
4.233336124983321
 40
4.233336124983321
 40
4.586114135398599
 40
4.586114135398599
 40
4.586114135398599
 40
4.938892145813873
 40
4.938892145813873
 40
4.938892145813873
 40
5.291670156229153
 40
5.291670156229153
 40
5.291670156229153
 40
5.64444816664443
 40
5.64444816664443
 40
5.64444816664443
 40
5.997226177059705
 40
5.997226177059705
 40
5.997226177059705
 40
6.350004187474984
 40
6.350004187474984
 40
6.350004187474984
 40
6.702782197890257
 40
6.702782197890257
 40
6.702782197890257
 40
7.055560208305537
 40
7.055560208305537
 40
7.055560208305537
 40
7.408338218720808
 40
7.408338218720808
 40
7.408338218720808
 40
7.408338218720808
 10
174.7732543591544
 20
135.4846705078077
 10
174.7732543591544
 20
135.4846705078077
 10
174.7732543591544
 20
135.3789060066383
 10
174.7732543591544
 20
135.3789060066383
 10
174.7732543591544
 20
135.3789060066383
 10
174.8156290615773
 20
135.3789060066383
 10
174.8156290615773
 20
135.3789060066383
 10
174.8156290615773
 20
135.3789060066383
 10
174.8580037640002
 20
135.3578909103147
 10
174.8580037640002
 20
135.3578909103147
 10
174.8580037640002
 20
135.3578909103147
 10
174.9213935627468
 20
135.3578909103147
 10
174.9213935627468
 20
135.3578909103147
 10
174.9213935627468
 20
135.3578909103147
 10
174.9637682651697
 20
135.3365313042154
 10
174.9637682651697
 20
135.3365313042154
 10
174.9637682651697
 20
135.3365313042154
 10
174.9847833614933
 20
135.3365313042154
 10
174.9847833614933
 20
135.3365313042154
 10
174.9847833614933
 20
135.3365313042154
 10
175.0271580639162
 20
135.3155162078918
 10
175.0271580639162
 20
135.3155162078918
 10
175.0271580639162
 20
135.3155162078918
 10
175.0485176700155
 20
135.2941566017924
 10
175.0485176700155
 20
135.2941566017924
 10
175.0485176700155
 20
135.2941566017924
 10
175.0695327663391
 20
135.2941566017924
 10
175.0695327663391
 20
135.2941566017924
 10
175.0695327663391
 20
135.2941566017924
 10
175.0908923724385
 20
135.2731415054689
 10
175.0908923724385
 20
135.2731415054689
 10
175.0908923724385
 20
135.2731415054689
 10
175.1332670748614
 20
135.2731415054689
 10
175.1332670748614
 20
135.2731415054689
 10
175.1332670748614
 20
135.2731415054689
 10
175.154282171185
 20
135.2517818993695
 10
175.154282171185
 20
135.2517818993695
 10
175.154282171185
 20
135.2517818993695
 10
175.154282171185
 20
135.3578909103147
 10
175.154282171185
 20
135.3578909103147
 10
175.154282171185
 20
135.3578909103147
 10
175.1332670748614
 20
135.3789060066383
 10
175.1332670748614
 20
135.3789060066383
 10
175.1332670748614
 20
135.3789060066383
 10
175.0908923724385
 20
135.3789060066383
 10
175.0908923724385
 20
135.3789060066383
 10
175.0908923724385
 20
135.3789060066383
 10
175.0908923724385
 20
135.3999211029619
 10
175.0908923724385
 20
135.3999211029619
 10
175.0908923724385
 20
135.3999211029619
 10
175.0695327663391
 20
135.3999211029619
 10
175.0695327663391
 20
135.3999211029619
 10
175.0695327663391
 20
135.3999211029619
 10
175.0271580639162
 20
135.4212807090612
 10
175.0271580639162
 20
135.4212807090612
 10
175.0271580639162
 20
135.4212807090612
 10
175.0061429675926
 20
135.4212807090612
 10
175.0061429675926
 20
135.4212807090612
 10
175.0061429675926
 20
135.4212807090612
 10
174.9637682651697
 20
135.4422958053848
 10
174.9637682651697
 20
135.4422958053848
 10
174.8996894468716
 20
135.4498750204523
 10
174.8394002361073
 20
135.4860485469109
 10
174.7732543591544
 20
135.4846705078077
 72
     1
 10
174.7732543591544
 20
135.4846705078077
 11
174.7732543591544
 21
135.4846705078077
 97
        0
 75
     0
 76
     1
 98
        0
450
        0
451
        0
460
0.0
461
0.0
452
        0
462
0.0
453
        0
470

  0
HATCH
  5
3807
330
1F
100
AcDbEntity
  8
图层 1
 62
     7
100
AcDbHatch
 10
0.0
 20
0.0
 30
0.0
210
0.0
220
0.0
230
1.0
  2
SOLID
 70
     1
 71
     0
 91
        1
 92
        1
 93
        2
 72
     4
 94
        3
 73
     0
 74
     0
 95
       29
 96
       25
 40
0.0
 40
0.0
 40
0.0
 40
0.0
 40
0.3527780104152769
 40
0.3527780104152769
 40
0.3527780104152769
 40
0.7055560208305538
 40
0.7055560208305538
 40
0.7055560208305538
 40
1.058334031245828
 40
1.058334031245828
 40
1.058334031245828
 40
1.411112041661104
 40
1.411112041661104
 40
1.411112041661104
 40
1.763890052076384
 40
1.763890052076384
 40
1.763890052076384
 40
2.116668062491659
 40
2.116668062491659
 40
2.116668062491659
 40
2.469446072906936
 40
2.469446072906936
 40
2.469446072906936
 40
2.822224083322215
 40
2.822224083322215
 40
2.822224083322215
 40
2.822224083322215
 10
175.4929352807925
 20
164.0174869039101
 10
175.4929352807925
 20
164.0174869039101
 10
175.5139503771161
 20
163.9751122014871
 10
175.5139503771161
 20
163.9751122014871
 10
175.5139503771161
 20
163.9751122014871
 10
175.5139503771161
 20
163.9327374990642
 10
175.5139503771161
 20
163.9327374990642
 10
175.5139503771161
 20
163.9327374990642
 10
175.4929352807925
 20
163.8903627966413
 10
175.4929352807925
 20
163.8903627966413
 10
175.4929352807925
 20
163.8903627966413
 10
175.471920184469
 20
163.8691754454298
 10
175.471920184469
 20
163.8691754454298
 10
175.471920184469
 20
163.8691754454298
 10
175.4505605783696
 20
163.8269729978948
 10
175.4505605783696
 20
163.8269729978948
 10
175.3571984291289
 20
163.7715069239916
 10
175.272449024283
 20
163.8195660377152
 10
175.1966568736079
 20
163.8691754454298
 10
175.208370205985
 20
163.9930267098286
 10
175.1563492298397
 20
164.0216210212197
 10
175.2600466723544
 20
164.0596893514451
 10
175.3330827448232
 20
164.1094710140476
 10
175.4357466580104
 20
164.0753645462439
 10
175.4929352807925
 20
164.0174869039101
 72
     1
 10
175.4929352807925
 20
164.0174869039101
 11
175.4929352807925
 21
164.0174869039101
 97
        0
 75
     0
 76
     1
 98
        0
450
        0
451
        0
460
0.0
461
0.0
452
        0
462
0.0
453
        0
470

  0
HATCH
  5
3895
330
1F
100
AcDbEntity
  8
图层 1
 62
     7
100
AcDbHatch
 10
0.0
 20
0.0
 30
0.0
210
0.0
220
0.0
230
1.0
  2
SOLID
 70
     1
 71
     0
 91
        1
 92
        1
 93
        2
 72
     4
 94
        3
 73
     0
 74
     0
 95
       11
 96
        7
 40
0.0
 40
0.0
 40
0.0
 40
0.0
 40
0.3527780104152769
 40
0.3527780104152769
 40
0.3527780104152769
 40
0.7055560208305538
 40
0.7055560208305538
 40
0.7055560208305538
 40
0.7055560208305538
 10
174.9213935627468
 20
174.5369206529582
 10
174.9213935627468
 20
174.5369206529582
 10
174.9213935627468
 20
174.3043765542958
 10
174.9213935627468
 20
174.3043765542958
 10
174.9213935627468
 20
174.3043765542958
 10
174.9213935627468
 20
174.5369206529582
 10
174.9213935627468
 20
174.5369206529582
 72
     1
 10
174.9213935627468
 20
174.5369206529582
 11
174.9213935627468
 21
174.5369206529582
 97
        0
 75
     0
 76
     1
 98
        0
450
        0
451
        0
460
0.0
461
0.0
452
        0
462
0.0
453
        0
470

  0
HATCH
  5
3943
330
1F
100
AcDbEntity
  8
图层 1
 62
     7
100
AcDbHatch
 10
0.0
 20
0.0
 30
0.0
210
0.0
220
0.0
230
1.0
  2
SOLID
 70
     1
 71
     0
 91
        1
 92
        1
 93
        2
 72
     4
 94
        3
 73
     0
 74
     0
 95
      131
 96
      127
 40
0.0
 40
0.0
 40
0.0
 40
0.0
 40
0.3527780104152769
 40
0.3527780104152769
 40
0.3527780104152769
 40
0.7055560208305538
 40
0.7055560208305538
 40
0.7055560208305538
 40
1.058334031245828
 40
1.058334031245828
 40
1.058334031245828
 40
1.411112041661104
 40
1.411112041661104
 40
1.411112041661104
 40
1.763890052076384
 40
1.763890052076384
 40
1.763890052076384
 40
2.116668062491659
 40
2.116668062491659
 40
2.116668062491659
 40
2.469446072906936
 40
2.469446072906936
 40
2.469446072906936
 40
2.822224083322215
 40
2.822224083322215
 40
2.822224083322215
 40
3.175002093737492
 40
3.175002093737492
 40
3.175002093737492
 40
3.527780104152768
 40
3.527780104152768
 40
3.527780104152768
 40
3.880558114568044
 40
3.880558114568044
 40
3.880558114568044
 40
4.233336124983321
 40
4.233336124983321
 40
4.233336124983321
 40
4.586114135398599
 40
4.586114135398599
 40
4.586114135398599
 40
4.938892145813873
 40
4.938892145813873
 40
4.938892145813873
 40
5.291670156229153
 40
5.291670156229153
 40
5.291670156229153
 40
5.64444816664443
 40
5.64444816664443
 40
5.64444816664443
 40
5.997226177059705
 40
5.997226177059705
 40
5.997226177059705
 40
6.350004187474984
 40
6.350004187474984
 40
6.350004187474984
 40
6.702782197890257
 40
6.702782197890257
 40
6.702782197890257
 40
7.055560208305537
 40
7.055560208305537
 40
7.055560208305537
 40
7.408338218720808
 40
7.408338218720808
 40
7.408338218720808
 40
7.76111622913609
 40
7.76111622913609
 40
7.76111622913609
 40
8.113894239551369
 40
8.113894239551369
 40
8.113894239551369
 40
8.466672249966642
 40
8.466672249966642
 40
8.466672249966642
 40
8.819450260381922
 40
8.819450260381922
 40
8.819450260381922
 40
9.172228270797198
 40
9.172228270797198
 40
9.172228270797198
 40
9.525006281212476
 40
9.525006281212476
 40
9.525006281212476
 40
9.877784291627751
 40
9.877784291627751
 40
9.877784291627751
 40
10.23056230204303
 40
10.23056230204303
 40
10.23056230204303
 40
10.58334031245831
 40
10.58334031245831
 40
10.58334031245831
 40
10.93611832287358
 40
10.93611832287358
 40
10.93611832287358
 40
11.28889633328886
 40
11.28889633328886
 40
11.28889633328886
 40
11.64167434370414
 40
11.64167434370414
 40
11.64167434370414
 40
11.99445235411941
 40
11.99445235411941
 40
11.99445235411941
 40
12.34723036453469
 40
12.34723036453469
 40
12.34723036453469
 40
12.70000837494997
 40
12.70000837494997
 40
12.70000837494997
 40
13.05278638536524
 40
13.05278638536524
 40
13.05278638536524
 40
13.40556439578052
 40
13.40556439578052
 40
13.40556439578052
 40
13.7583424061958
 40
13.7583424061958
 40
13.7583424061958
 40
14.11112041661107
 40
14.11112041661107
 40
14.11112041661107
 40
14.46389842702635
 40
14.46389842702635
 40
14.46389842702635
 40
14.81667643744163
 40
14.81667643744163
 40
14.81667643744163
 40
14.81667643744163
 10
173.3972823146245
 20
126.8274843518258
 10
173.3972823146245
 20
126.8274843518258
 10
173.3972823146245
 20
126.7217198506564
 10
173.3972823146245
 20
126.7217198506564
 10
173.3972823146245
 20
126.7217198506564
 10
173.4186419207238
 20
126.7217198506564
 10
173.4186419207238
 20
126.7217198506564
 10
173.4186419207238
 20
126.7217198506564
 10
173.4820317194703
 20
126.7007047543328
 10
173.4820317194703
 20
126.7007047543328
 10
173.4820317194703
 20
126.7007047543328
 10
173.5244064218933
 20
126.6793451482334
 10
173.5244064218933
 20
126.6793451482334
 10
173.5244064218933
 20
126.6793451482334
 10
173.5877962206398
 20
126.6793451482334
 10
173.5877962206398
 20
126.6793451482334
 10
173.5877962206398
 20
126.6793451482334
 10
173.6301709230627
 20
126.6583300519099
 10
173.6301709230627
 20
126.6583300519099
 10
173.7955356154449
 20
126.5911506456296
 10
173.759706598762
 20
126.6380039751379
 10
173.9478089363468
 20
126.5525655507404
 10
173.9478089363468
 20
126.5525655507404
 10
173.9688240326703
 20
126.4464565397952
 10
173.9688240326703
 20
126.4464565397952
 10
173.9688240326703
 20
126.4464565397952
 10
174.0325583411926
 20
126.5101908483175
 10
174.0325583411926
 20
126.5101908483175
 10
174.0325583411926
 20
126.5101908483175
 10
174.0749330436156
 20
126.5101908483175
 10
174.0749330436156
 20
126.5101908483175
 10
174.0749330436156
 20
126.5101908483175
 10
174.1593379386856
 20
126.4678161458946
 10
174.1593379386856
 20
126.4678161458946
 10
174.1593379386856
 20
126.4678161458946
 10
174.180697544785
 20
126.4464565397952
 10
174.180697544785
 20
126.4464565397952
 10
174.2464989119621
 20
126.3982251711837
 10
174.3298702777047
 20
126.3716979184474
 10
174.3922265471239
 20
126.3196769423022
 10
174.608234176548
 20
126.2059887162895
 10
174.7749769080334
 20
126.0278771622029
 10
174.9637682651697
 20
125.8749148217494
 10
174.9637682651697
 20
125.8749148217494
 10
175.0061429675926
 20
125.9172895241723
 10
175.0061429675926
 20
125.9172895241723
 10
174.961356696739
 20
125.9631093243532
 10
174.782211613325
 20
126.1246844092016
 10
174.7308796567315
 20
126.1501781326105
 10
174.7308796567315
 20
126.1501781326105
 10
174.6885049543085
 20
126.1925528350335
 10
174.6885049543085
 20
126.1925528350335
 10
174.6885049543085
 20
126.1925528350335
 10
174.667489857985
 20
126.2349275374564
 10
174.667489857985
 20
126.2349275374564
 10
174.667489857985
 20
126.2349275374564
 10
174.625115155562
 20
126.2559426337799
 10
174.625115155562
 20
126.2559426337799
 10
174.625115155562
 20
126.2559426337799
 10
174.5827404531391
 20
126.2983173362029
 10
174.5827404531391
 20
126.2983173362029
 10
174.5827404531391
 20
126.2983173362029
 10
174.5403657507162
 20
126.3196769423022
 10
174.5403657507162
 20
126.3196769423022
 10
174.5403657507162
 20
126.3196769423022
 10
174.4979910482932
 20
126.3620516447252
 10
174.4979910482932
 20
126.3620516447252
 10
174.4735308542117
 20
126.3875453681341
 10
174.3247026310678
 20
126.4695386947736
 10
174.2864620459544
 20
126.4888312422181
 10
174.2864620459544
 20
126.4888312422181
 10
174.2654469496308
 20
126.5101908483175
 10
174.2654469496308
 20
126.5101908483175
 10
174.2654469496308
 20
126.5101908483175
 10
174.2230722472079
 20
126.5312059446411
 10
174.2230722472079
 20
126.5312059446411
 10
174.2230722472079
 20
126.5312059446411
 10
174.2017126411085
 20
126.5525655507404
 10
174.2017126411085
 20
126.5525655507404
 10
174.2017126411085
 20
126.5525655507404
 10
174.1383228423621
 20
126.573580647064
 10
174.1383228423621
 20
126.573580647064
 10
174.1383228423621
 20
126.573580647064
 10
174.1169632362627
 20
126.5945957433876
 10
174.1169632362627
 20
126.5945957433876
 10
174.1169632362627
 20
126.5945957433876
 10
174.0959481399391
 20
126.7007047543328
 10
174.0959481399391
 20
126.7007047543328
 10
174.0959481399391
 20
126.7007047543328
 10
174.0325583411926
 20
126.6369704458105
 10
174.0325583411926
 20
126.6369704458105
 10
174.0325583411926
 20
126.6369704458105
 10
173.9901836387697
 20
126.6369704458105
 10
173.9901836387697
 20
126.6369704458105
 10
173.9901836387697
 20
126.6369704458105
 10
173.9054342339239
 20
126.6793451482334
 10
173.9054342339239
 20
126.6793451482334
 10
173.9054342339239
 20
126.6793451482334
 10
173.8420444351773
 20
126.7007047543328
 10
173.8420444351773
 20
126.7007047543328
 10
173.8420444351773
 20
126.7007047543328
 10
173.7996697327544
 20
126.7217198506564
 10
173.7996697327544
 20
126.7217198506564
 10
173.7996697327544
 20
126.7217198506564
 10
173.7572950303315
 20
126.7217198506564
 10
173.7572950303315
 20
126.7217198506564
 10
173.7572950303315
 20
126.7217198506564
 10
173.6725456254856
 20
126.7640945530793
 10
173.6725456254856
 20
126.7640945530793
 10
173.6725456254856
 20
126.7640945530793
 10
173.6515305291621
 20
126.7640945530793
 10
173.6515305291621
 20
126.7640945530793
 10
173.6515305291621
 20
126.7640945530793
 10
173.5667811243162
 20
126.7851096494029
 10
173.5667811243162
 20
126.7851096494029
 10
173.5667811243162
 20
126.7851096494029
 10
173.5033913255697
 20
126.8064692555022
 10
173.5033913255697
 20
126.8064692555022
 10
173.5033913255697
 20
126.8064692555022
 10
173.4396570170474
 20
126.8064692555022
 10
173.4396570170474
 20
126.8064692555022
 10
173.4396570170474
 20
126.8064692555022
 10
173.4186419207238
 20
126.8274843518258
 10
173.4186419207238
 20
126.8274843518258
 10
173.4186419207238
 20
126.8274843518258
 10
173.3972823146245
 20
126.8274843518258
 10
173.3972823146245
 20
126.8274843518258
 72
     1
 10
173.3972823146245
 20
126.8274843518258
 11
173.3972823146245
 21
126.8274843518258
 97
        0
 75
     0
 76
     1
 98
        0
450
        0
451
        0
460
0.0
461
0.0
452
        0
462
0.0
453
        0
470

  0
HATCH
  5
4842
330
1F
100
AcDbEntity
  8
图层 1
 62
     7
100
AcDbHatch
 10
0.0
 20
0.0
 30
0.0
210
0.0
220
0.0
230
1.0
  2
SOLID
 70
     1
 71
     0
 91
        1
 92
        1
 93
        2
 72
     4
 94
        3
 73
     0
 74
     0
 95
       47
 96
       43
 40
0.0
 40
0.0
 40
0.0
 40
0.0
 40
0.3527780104152769
 40
0.3527780104152769
 40
0.3527780104152769
 40
0.7055560208305538
 40
0.7055560208305538
 40
0.7055560208305538
 40
1.058334031245828
 40
1.058334031245828
 40
1.058334031245828
 40
1.411112041661104
 40
1.411112041661104
 40
1.411112041661104
 40
1.763890052076384
 40
1.763890052076384
 40
1.763890052076384
 40
2.116668062491659
 40
2.116668062491659
 40
2.116668062491659
 40
2.469446072906936
 40
2.469446072906936
 40
2.469446072906936
 40
2.822224083322215
 40
2.822224083322215
 40
2.822224083322215
 40
3.175002093737492
 40
3.175002093737492
 40
3.175002093737492
 40
3.527780104152768
 40
3.527780104152768
 40
3.527780104152768
 40
3.880558114568044
 40
3.880558114568044
 40
3.880558114568044
 40
4.233336124983321
 40
4.233336124983321
 40
4.233336124983321
 40
4.586114135398599
 40
4.586114135398599
 40
4.586114135398599
 40
4.938892145813873
 40
4.938892145813873
 40
4.938892145813873
 40
4.938892145813873
 10
180.1920486226523
 20
255.6479577566324
 10
180.1920486226523
 20
255.6479577566324
 10
180.2130637189759
 20
255.6055830542095
 10
180.2130637189759
 20
255.6055830542095
 10
180.2130637189759
 20
255.6055830542095
 10
180.2130637189759
 20
255.5210059042515
 10
180.2130637189759
 20
255.5210059042515
 10
180.2130637189759
 20
255.5210059042515
 10
180.1920486226523
 20
255.4786312018286
 10
180.1920486226523
 20
255.4786312018286
 10
180.1920486226523
 20
255.4786312018286
 10
180.1496739202294
 20
255.4359119896299
 10
180.1496739202294
 20
255.4359119896299
 10
180.1496739202294
 20
255.4359119896299
 10
180.1283143141301
 20
255.4147246384184
 10
180.1283143141301
 20
255.4147246384184
 10
180.1283143141301
 20
255.4147246384184
 10
180.0225498129606
 20
255.4147246384184
 10
180.0225498129606
 20
255.4147246384184
 10
180.0225498129606
 20
255.4147246384184
 10
179.9591600142141
 20
255.4359119896299
 10
179.9591600142141
 20
255.4359119896299
 10
179.9591600142141
 20
255.4359119896299
 10
179.9167853117912
 20
255.4570993408414
 10
179.9167853117912
 20
255.4570993408414
 10
179.9167853117912
 20
255.4570993408414
 10
179.8957702154676
 20
255.4786312018286
 10
179.8957702154676
 20
255.4786312018286
 10
179.8957702154676
 20
255.4786312018286
 10
179.8744106093683
 20
255.4994740432643
 10
179.8744106093683
 20
255.4994740432643
 10
179.8744106093683
 20
255.4994740432643
 10
179.8744106093683
 20
255.6479577566324
 10
179.8744106093683
 20
255.6479577566324
 10
179.9608825630931
 20
255.7323626517025
 10
180.045631967939
 20
255.7085914771726
 10
180.1496739202294
 20
255.7115198102668
 10
180.1496739202294
 20
255.7115198102668
 10
180.170689016553
 20
255.6688005980681
 10
180.170689016553
 20
255.6688005980681
 10
180.170689016553
 20
255.6688005980681
 10
180.1920486226523
 20
255.6479577566324
 10
180.1920486226523
 20
255.6479577566324
 72
     1
 10
180.1920486226523
 20
255.6479577566324
 11
180.1920486226523
 21
255.6479577566324
 97
        0
 75
     0
 76
     1
 98
        0
450
        0
451
        0
460
0.0
461
0.0
452
        0
462
0.0
453
        0
470

  0
MTEXT
  5
65A0
330
1F
100
AcDbEntity
  8
图框
 62
     3
100
AcDbMText
 10
599.071704550352
 20
228.6676486843801
 30
0.0
 40
1.492756787517073
 41
16.80619599621068
 46
4.343372752842933
 71
     5
 72
     5
  1
MGBUSH-M3/S
  7
Romans字体
 73
     1
 44
1.0
1001
ACAD
1000
ACAD_MTEXT_DEFINED_HEIGHT_BEGIN
1070
    46
1040
4.343372752842933
1000
ACAD_MTEXT_DEFINED_HEIGHT_END
  0
MTEXT
  5
65A1
330
1F
100
AcDbEntity
  8
图框
 62
     3
100
AcDbMText
 10
599.071704550352
 20
224.277923420967
 30
0.0
 40
1.492756787517073
 41
16.80619599621068
 46
4.43607777398305
 71
     5
 72
     5
  1
1980020050023
  7
Romans字体
 73
     1
 44
1.0
1001
ACAD
1000
ACAD_MTEXT_DEFINED_HEIGHT_BEGIN
1070
    46
1040
4.43607777398305
1000
ACAD_MTEXT_DEFINED_HEIGHT_END
  0
MTEXT
  5
65A3
330
1F
100
AcDbEntity
  8
图框
 62
     3
100
AcDbMText
 10
565.0448720850595
 20
217.6241058815945
 30
0.0
 40
1.492756787517073
 41
5.414674217195233
 46
3.943047300605248
 71
     5
 72
     5
  1
2:1
  7
Romans字体
 73
     1
 44
1.0
1001
ACAD
1000
ACAD_MTEXT_DEFINED_HEIGHT_BEGIN
1070
    46
1040
3.943047300605248
1000
ACAD_MTEXT_DEFINED_HEIGHT_END
  0
MTEXT
  5
65A4
330
1F
100
AcDbEntity
  8
图框
 62
     3
100
AcDbMText
 10
570.4595463022549
 20
217.6241058815946
 30
0.0
 40
1.492756787517073
 41
5.41467421719563
 46
3.943047300605226
 71
     5
 72
     5
  1
V1.0 
  7
Romans字体
 73
     1
 44
1.0
1001
ACAD
1000
ACAD_MTEXT_DEFINED_HEIGHT_BEGIN
1070
    46
1040
3.943047300605226
1000
ACAD_MTEXT_DEFINED_HEIGHT_END
  0
MTEXT
  5
65B2
330
1F
100
AcDbEntity
  8
图框
 62
     3
100
AcDbMText
 10
575.8742205194505
 20
217.6241058815946
 30
0.0
 40
1.492756787517073
 41
16.80619599621068
 46
3.943047300605201
 71
     5
 72
     5
  1
2.9g 
  7
Romans字体
 73
     1
 44
1.0
1001
ACAD
1000
ACAD_MTEXT_DEFINED_HEIGHT_BEGIN
1070
    46
1040
3.943047300605201
1000
ACAD_MTEXT_DEFINED_HEIGHT_END
  0
INSERT
  5
11089
330
1F
100
AcDbEntity
  8
DIM
100
AcDbBlockReference
  2
A4图框-NEW
 10
44.01055124327593
 20
-30.29676506807346
 30
0.0
 41
0.5
 42
0.5
 43
0.5
  0
MTEXT
  5
1A5D3
102
{ACAD_XDICTIONARY
360
1B5DE
102
}
330
1F
100
AcDbEntity
  8
打标文字
 62
     3
100
AcDbMText
 10
581.7563858846961
 20
254.7081011286576
 30
0.0
 40
1.5
 41
40.58854755587267
 46
49.02347725636656
 71
     1
 72
     5
  1
\A1;技术参数:\P- 材料： 不锈钢\P- 螺纹规格: {\Fromans|c134;M3}\P{\Fromans|c134;\PTechnical specification:\P- Material: steel\P- Thread size: M3}
 73
     1
 44
1.0
1001
ACAD
1000
ACAD_MTEXT_DEFINED_HEIGHT_BEGIN
1070
    46
1040
49.02347725636656
1000
ACAD_MTEXT_DEFINED_HEIGHT_END
  0
LINE
  5
1AFC6
330
1F
100
AcDbEntity
  8
0
100
AcDbLine
 10
544.6481519214199
 20
271.4431101325201
 30
0.0
 11
544.6481519214199
 21
269.4431101325201
 31
0.0
  0
LINE
  5
1AFC7
330
1F
100
AcDbEntity
  8
0
100
AcDbLine
 10
533.0481519214194
 20
273.6931101325201
 30
0.0
 11
533.0481519214194
 21
267.1931101325201
 31
0.0
  0
LINE
  5
1AFC8
330
1F
100
AcDbEntity
  8
0
100
AcDbLine
 10
534.1481519214198
 20
273.6931101325201
 30
0.0
 11
534.1481519214198
 21
267.1931101325201
 31
0.0
  0
LINE
  5
1AFC9
102
{ACAD_REACTORS
330
1B28C
102
}
330
1F
100
AcDbEntity
  8
0
100
AcDbLine
 10
535.64815192142
 20
273.6931101325201
 30
0.0
 11
535.64815192142
 21
267.1931101325201
 31
0.0
  0
LINE
  5
1AFCA
330
1F
100
AcDbEntity
  8
0
100
AcDbLine
 10
520.3481519214205
 20
270.9931101325203
 30
0.0
 11
520.5481519214194
 21
270.9931101325203
 31
0.0
  0
LINE
  5
1AFCB
330
1F
100
AcDbEntity
  8
0
100
AcDbLine
 10
520.5481519214194
 20
270.9931101325203
 30
0.0
 11
521.8481519214207
 21
270.9931101325203
 31
0.0
  0
LINE
  5
1AFCC
330
1F
100
AcDbEntity
  8
0
100
AcDbLine
 10
521.8481519214207
 20
269.89311013252
 30
0.0
 11
520.5481519214194
 21
269.89311013252
 31
0.0
  0
LINE
  5
1AFCD
330
1F
100
AcDbEntity
  8
0
100
AcDbLine
 10
520.5481519214194
 20
269.89311013252
 30
0.0
 11
520.3481519214205
 21
269.89311013252
 31
0.0
  0
LINE
  5
1AFCE
330
1F
100
AcDbEntity
  8
0
100
AcDbLine
 10
521.8481519214207
 20
270.9931101325203
 30
0.0
 11
521.8481519214207
 21
269.89311013252
 31
0.0
  0
LINE
  5
1AFCF
330
1F
100
AcDbEntity
  8
0
100
AcDbLine
 10
520.3481519214205
 20
269.89311013252
 30
0.0
 11
520.3481519214205
 21
267.3931101325199
 31
0.0
  0
LINE
  5
1AFD0
330
1F
100
AcDbEntity
  8
0
100
AcDbLine
 10
520.3481519214205
 20
273.4931101325203
 30
0.0
 11
520.3481519214205
 21
270.9931101325203
 31
0.0
  0
ARC
  5
1AFD1
102
{ACAD_REACTORS
330
1B289
102
}
330
1F
100
AcDbEntity
  8
0
100
AcDbCircle
 10
539.1898969214203
 20
272.14311013252
 30
0.0
 40
0.50000015
100
AcDbArc
 50
269.9999499999428
 51
336.4218199999863
  0
LINE
  5
1AFD2
102
{ACAD_REACTORS
330
1B289
102
}
330
1F
100
AcDbEntity
  8
0
100
AcDbLine
 10
539.64815192142
 20
271.9431101325201
 30
0.0
 11
539.64815192142
 21
268.9431101325201
 31
0.0
  0
ARC
  5
1AFD3
330
1F
100
AcDbEntity
  8
0
100
AcDbCircle
 10
539.1898969214203
 20
268.7431101325203
 30
0.0
 40
0.5000002500000002
100
AcDbArc
 50
23.57837699999745
 51
89.99999900000508
  0
LINE
  5
1AFD4
330
1F
100
AcDbEntity
  8
0
100
AcDbLine
 10
544.14815192142
 20
271.9431101325201
 30
0.0
 11
539.64815192142
 21
271.9431101325201
 31
0.0
  0
LINE
  5
1AFD5
330
1F
100
AcDbEntity
  8
0
100
AcDbLine
 10
544.14815192142
 20
271.9431101325201
 30
0.0
 11
544.14815192142
 21
268.9431101325201
 31
0.0
  0
LINE
  5
1AFD6
330
1F
100
AcDbEntity
  8
0
100
AcDbLine
 10
539.64815192142
 20
268.9431101325201
 30
0.0
 11
544.14815192142
 21
268.9431101325201
 31
0.0
  0
LINE
  5
1AFD7
330
1F
100
AcDbEntity
  8
0
100
AcDbLine
 10
544.6481519214199
 20
271.4431101325201
 30
0.0
 11
544.14815192142
 21
271.9431101325201
 31
0.0
  0
LINE
  5
1AFD8
330
1F
100
AcDbEntity
  8
0
100
AcDbLine
 10
544.14815192142
 20
268.9431101325201
 30
0.0
 11
544.6481519214199
 21
269.4431101325201
 31
0.0
  0
LINE
  5
1AFD9
330
1F
100
AcDbEntity
  8
0
100
AcDbLine
 10
534.1481519214198
 20
273.44311513252
 30
0.0
 11
533.0481519214194
 21
273.44311513252
 31
0.0
  0
LINE
  5
1AFDA
330
1F
100
AcDbEntity
  8
0
100
AcDbLine
 10
533.0481519214194
 20
267.4431051325202
 30
0.0
 11
534.1481519214198
 21
267.4431051325202
 31
0.0
  0
LINE
  5
1AFDB
330
1F
100
AcDbEntity
  8
0
100
AcDbLine
 10
535.64815192142
 20
273.6931101325201
 30
0.0
 11
534.1481519214198
 21
273.6931101325201
 31
0.0
  0
LINE
  5
1AFDC
330
1F
100
AcDbEntity
  8
0
100
AcDbLine
 10
534.1481519214198
 20
267.1931101325201
 30
0.0
 11
535.6481569214198
 21
267.1931101325201
 31
0.0
  0
ARC
  5
1AFDD
330
1F
100
AcDbEntity
  8
0
100
AcDbCircle
 10
535.948151921421
 20
271.9431101325201
 30
0.0
 40
0.3
100
AcDbArc
 50
180.0
 51
270.0
  0
ARC
  5
1AFDE
330
1F
100
AcDbEntity
  8
0
100
AcDbCircle
 10
535.948151921421
 20
268.9431101325201
 30
0.0
 40
0.3
100
AcDbArc
 50
90.0
 51
180.0
  0
LINE
  5
1AFDF
330
1F
100
AcDbEntity
  8
0
100
AcDbLine
 10
539.1898969214203
 20
271.6431101325199
 30
0.0
 11
535.948151921421
 21
271.6431101325199
 31
0.0
  0
LINE
  5
1AFE0
330
1F
100
AcDbEntity
  8
0
100
AcDbLine
 10
535.948151921421
 20
269.2431101325203
 30
0.0
 11
539.1898969214203
 21
269.2431101325203
 31
0.0
  0
LINE
  5
1AFE1
330
1F
100
AcDbEntity
  8
0
100
AcDbLine
 10
520.5481519214194
 20
273.6931101325201
 30
0.0
 11
520.3481519214205
 21
273.4931101325203
 31
0.0
  0
LINE
  5
1AFE2
330
1F
100
AcDbEntity
  8
0
100
AcDbLine
 10
520.5481519214194
 20
273.6931101325201
 30
0.0
 11
520.5481519214194
 21
270.9931101325203
 31
0.0
  0
LINE
  5
1AFE3
330
1F
100
AcDbEntity
  8
0
100
AcDbLine
 10
520.3481519214205
 20
267.3931101325199
 30
0.0
 11
520.5481519214194
 21
267.1931101325201
 31
0.0
  0
LINE
  5
1AFE4
330
1F
100
AcDbEntity
  8
0
100
AcDbLine
 10
520.5481519214194
 20
269.89311013252
 30
0.0
 11
520.5481519214194
 21
267.1931101325201
 31
0.0
  0
LINE
  5
1AFE5
330
1F
100
AcDbEntity
  8
0
100
AcDbLine
 10
520.5481519214194
 20
267.1931101325201
 30
0.0
 11
533.0481519214194
 21
267.1931101325201
 31
0.0
  0
LINE
  5
1AFE6
330
1F
100
AcDbEntity
  8
0
100
AcDbLine
 10
533.0481519214194
 20
273.6931101325201
 30
0.0
 11
520.5481519214194
 21
273.6931101325201
 31
0.0
  0
POLYLINE
  5
1AFE7
330
1F
100
AcDbEntity
  8
0
100
AcDb2dPolyline
 66
     1
 10
0.0
 20
0.0
 30
0.0
 70
     2
  0
VERTEX
  5
1AFE8
330
1AFE7
100
AcDbEntity
  8
0
100
AcDbVertex
100
AcDb2dVertex
 10
475.7351111223295
 20
228.9185389959742
 30
0.0
  0
VERTEX
  5
1AFE9
330
1AFE7
100
AcDbEntity
  8
0
100
AcDbVertex
100
AcDb2dVertex
 10
475.7352591223287
 20
228.8758469959747
 30
0.0
 42
0.015121717
 70
     1
  0
VERTEX
  5
1AFEA
330
1AFE7
100
AcDbEntity
  8
0
100
AcDbVertex
100
AcDb2dVertex
 10
475.7377711223277
 20
228.8330765959743
 30
0.0
 42
0.012858769
  0
VERTEX
  5
1AFEB
330
1AFE7
100
AcDbEntity
  8
0
100
AcDbVertex
100
AcDb2dVertex
 10
475.7426031223283
 20
228.7902881959743
 30
0.0
 42
0.014739838
 70
     1
  0
VERTEX
  5
1AFEC
330
1AFE7
100
AcDbEntity
  8
0
100
AcDbVertex
100
AcDb2dVertex
 10
475.7505671223305
 20
228.7470525959742
 30
0.0
 42
0.020360154
  0
VERTEX
  5
1AFED
330
1AFE7
100
AcDbEntity
  8
0
100
AcDbVertex
100
AcDb2dVertex
 10
475.7622551223291
 20
228.7034589959743
 30
0.0
 42
0.01581362
 70
     1
  0
VERTEX
  5
1AFEE
330
1AFE7
100
AcDbEntity
  8
0
100
AcDbVertex
100
AcDb2dVertex
 10
475.7749271223281
 20
228.6625449959746
 30
0.0
 42
0.0039014942
  0
VERTEX
  5
1AFEF
330
1AFE7
100
AcDbEntity
  8
0
100
AcDbVertex
100
AcDb2dVertex
 10
475.7878791223291
 20
228.6255973959745
 30
0.0
 42
0.025246754
 70
     1
  0
VERTEX
  5
1AFF0
330
1AFE7
100
AcDbEntity
  8
0
100
AcDbVertex
100
AcDb2dVertex
 10
475.8119951223296
 20
228.5820157959741
 30
0.0
 42
0.048736955
  0
VERTEX
  5
1AFF1
330
1AFE7
100
AcDbEntity
  8
0
100
AcDbVertex
100
AcDb2dVertex
 10
475.8589311223301
 20
228.5207109959745
 30
0.0
 42
0.023878473
 70
     1
  0
VERTEX
  5
1AFF2
330
1AFE7
100
AcDbEntity
  8
0
100
AcDbVertex
100
AcDb2dVertex
 10
475.926263122329
 20
228.4438513959747
 30
0.0
 42
0.012050263
  0
SEQEND
  5
1AFF3
330
1AFE7
100
AcDbEntity
  8
0
  0
POLYLINE
  5
1AFF4
330
1F
100
AcDbEntity
  8
0
100
AcDb2dPolyline
 66
     1
 10
0.0
 20
0.0
 30
0.0
 70
     2
  0
VERTEX
  5
1AFF5
330
1AFF4
100
AcDbEntity
  8
0
100
AcDbVertex
100
AcDb2dVertex
 10
477.1562351223298
 20
229.9181549959747
 30
0.0
  0
VERTEX
  5
1AFF6
330
1AFF4
100
AcDbEntity
  8
0
100
AcDbVertex
100
AcDb2dVertex
 10
477.0915391223287
 20
229.9627069959741
 30
0.0
 42
0.033409286
 70
     1
  0
VERTEX
  5
1AFF7
330
1AFF4
100
AcDbEntity
  8
0
100
AcDbVertex
100
AcDb2dVertex
 10
477.0242191223284
 20
229.9967109959742
 30
0.0
 42
0.035390841
  0
VERTEX
  5
1AFF8
330
1AFF4
100
AcDbEntity
  8
0
100
AcDbVertex
100
AcDb2dVertex
 10
476.9545831223283
 20
230.0195869959742
 30
0.0
 42
0.037492537
 70
     1
  0
VERTEX
  5
1AFF9
330
1AFF4
100
AcDbEntity
  8
0
100
AcDbVertex
100
AcDb2dVertex
 10
476.8798831223292
 20
230.0327749959741
 30
0.0
 42
0.033811236
  0
VERTEX
  5
1AFFA
330
1AFF4
100
AcDbEntity
  8
0
100
AcDbVertex
100
AcDb2dVertex
 10
476.7969431223288
 20
230.0366429959744
 30
0.0
 42
0.029935249
 70
     1
  0
VERTEX
  5
1AFFB
330
1AFF4
100
AcDbEntity
  8
0
100
AcDbVertex
100
AcDb2dVertex
 10
476.7064951223281
 20
230.0299949959743
 30
0.0
 42
0.031023414
  0
VERTEX
  5
1AFFC
330
1AFF4
100
AcDbEntity
  8
0
100
AcDbVertex
100
AcDb2dVertex
 10
476.6095071223288
 20
230.0104189959742
 30
0.0
 42
0.029953466
 70
     1
  0
VERTEX
  5
1AFFD
330
1AFF4
100
AcDbEntity
  8
0
100
AcDbVertex
100
AcDb2dVertex
 10
476.5079791223294
 20
229.9773349959745
 30
0.0
 42
0.029005391
  0
VERTEX
  5
1AFFE
330
1AFF4
100
AcDbEntity
  8
0
100
AcDbVertex
100
AcDb2dVertex
 10
476.4038071223302
 20
229.9295549959742
 30
0.0
 42
0.026774222
 70
     1
  0
VERTEX
  5
1AFFF
330
1AFF4
100
AcDbEntity
  8
0
100
AcDbVertex
100
AcDb2dVertex
 10
476.2998071223289
 20
229.8684309959743
 30
0.0
 42
0.024980258
  0
VERTEX
  5
1B000
330
1AFF4
100
AcDbEntity
  8
0
100
AcDbVertex
100
AcDb2dVertex
 10
476.1989111223273
 20
229.7943149959746
 30
0.0
 42
0.025306846
 70
     1
  0
VERTEX
  5
1B001
330
1AFF4
100
AcDbEntity
  8
0
100
AcDbVertex
100
AcDb2dVertex
 10
476.1034951223289
 20
229.7076321959747
 30
0.0
 42
0.027524734
  0
VERTEX
  5
1B002
330
1AFF4
100
AcDbEntity
  8
0
100
AcDbVertex
100
AcDb2dVertex
 10
476.0164151223277
 20
229.6095305959742
 30
0.0
 42
0.022646367
 70
     1
  0
VERTEX
  5
1B003
330
1AFF4
100
AcDbEntity
  8
0
100
AcDbVertex
100
AcDb2dVertex
 10
475.9402511223276
 20
229.5107993959744
 30
0.0
 42
0.012882336
  0
VERTEX
  5
1B004
330
1AFF4
100
AcDbEntity
  8
0
100
AcDbVertex
100
AcDb2dVertex
 10
475.8773831223287
 20
229.4168277959742
 30
0.0
 42
0.027450102
 70
     1
  0
VERTEX
  5
1B005
330
1AFF4
100
AcDbEntity
  8
0
100
AcDbVertex
100
AcDb2dVertex
 10
475.8238911223276
 20
229.3004509959745
 30
0.0
 42
0.046222887
  0
VERTEX
  5
1B006
330
1AFF4
100
AcDbEntity
  8
0
100
AcDbVertex
100
AcDb2dVertex
 10
475.776375122329
 20
229.1323909959745
 30
0.0
 42
0.028164149
 70
     1
  0
VERTEX
  5
1B007
330
1AFF4
100
AcDbEntity
  8
0
100
AcDbVertex
100
AcDb2dVertex
 10
475.7351111223295
 20
228.9185389959742
 30
0.0
 42
0.016916134
  0
SEQEND
  5
1B008
330
1AFF4
100
AcDbEntity
  8
0
  0
POLYLINE
  5
1B009
330
1F
100
AcDbEntity
  8
0
100
AcDb2dPolyline
 66
     1
 10
0.0
 20
0.0
 30
0.0
 70
     2
  0
VERTEX
  5
1B00A
330
1B009
100
AcDbEntity
  8
0
100
AcDbVertex
100
AcDb2dVertex
 10
475.3346271223297
 20
229.018895395974
 30
0.0
  0
VERTEX
  5
1B00B
330
1B009
100
AcDbEntity
  8
0
100
AcDbVertex
100
AcDb2dVertex
 10
475.3453471223298
 20
229.1566889959744
 30
0.0
 42
-0.039146421
 70
     1
  0
VERTEX
  5
1B00C
330
1B009
100
AcDbEntity
  8
0
100
AcDbVertex
100
AcDb2dVertex
 10
475.3777791223298
 20
229.3045333959743
 30
0.0
 42
-0.03100837
  0
VERTEX
  5
1B00D
330
1B009
100
AcDbEntity
  8
0
100
AcDbVertex
100
AcDb2dVertex
 10
475.4325751223285
 20
229.463616595974
 30
0.0
 42
-0.027036942
 70
     1
  0
VERTEX
  5
1B00E
330
1B009
100
AcDbEntity
  8
0
100
AcDbVertex
100
AcDb2dVertex
 10
475.5105551223285
 20
229.6282413959747
 30
0.0
 42
-0.029398293
  0
VERTEX
  5
1B00F
330
1B009
100
AcDbEntity
  8
0
100
AcDbVertex
100
AcDb2dVertex
 10
475.6140391223278
 20
229.7917361959743
 30
0.0
 42
-0.029389136
 70
     1
  0
VERTEX
  5
1B010
330
1B009
100
AcDbEntity
  8
0
100
AcDbVertex
100
AcDb2dVertex
 10
475.7395671223282
 20
229.9472069959746
 30
0.0
 42
-0.029442132
  0
VERTEX
  5
1B011
330
1B009
100
AcDbEntity
  8
0
100
AcDbVertex
100
AcDb2dVertex
 10
475.8841231223294
 20
230.0872309959744
 30
0.0
 42
-0.029812696
 70
     1
  0
VERTEX
  5
1B012
330
1B009
100
AcDbEntity
  8
0
100
AcDbVertex
100
AcDb2dVertex
 10
476.0408751223283
 20
230.2065109959743
 30
0.0
 42
-0.031183413
  0
VERTEX
  5
1B013
330
1B009
100
AcDbEntity
  8
0
100
AcDbVertex
100
AcDb2dVertex
 10
476.2035031223283
 20
230.2991669959745
 30
0.0
 42
-0.032853528
 70
     1
  0
VERTEX
  5
1B014
330
1B009
100
AcDbEntity
  8
0
100
AcDbVertex
100
AcDb2dVertex
 10
476.3652711223283
 20
230.3654749959745
 30
0.0
 42
-0.032964261
  0
VERTEX
  5
1B015
330
1B009
100
AcDbEntity
  8
0
100
AcDbVertex
100
AcDb2dVertex
 10
476.5197191223294
 20
230.4044109959744
 30
0.0
 42
-0.037061505
 70
     1
  0
VERTEX
  5
1B016
330
1B009
100
AcDbEntity
  8
0
100
AcDbVertex
100
AcDb2dVertex
 10
476.6624271223289
 20
230.4168869959748
 30
0.0
 42
-0.044779978
  0
VERTEX
  5
1B017
330
1B009
100
AcDbEntity
  8
0
100
AcDbVertex
100
AcDb2dVertex
 10
476.7894551223277
 20
230.4043189959742
 30
0.0
 42
-0.039860008
 70
     1
  0
VERTEX
  5
1B018
330
1B009
100
AcDbEntity
  8
0
100
AcDbVertex
100
AcDb2dVertex
 10
476.9031031223301
 20
230.3821389959743
 30
0.0
 42
-0.006240621
  0
VERTEX
  5
1B019
330
1B009
100
AcDbEntity
  8
0
100
AcDbVertex
100
AcDb2dVertex
 10
477.0070151223306
 20
230.3544989959745
 30
0.0
 42
-0.057326405
 70
     1
  0
VERTEX
  5
1B01A
330
1B009
100
AcDbEntity
  8
0
100
AcDbVertex
100
AcDb2dVertex
 10
477.1114831223283
 20
230.2680469959744
 30
0.0
 42
-0.12963436
  0
VERTEX
  5
1B01B
330
1B009
100
AcDbEntity
  8
0
100
AcDbVertex
100
AcDb2dVertex
 10
477.2258391223283
 20
230.0651149959743
 30
0.0
 42
-0.052833322
 70
     1
  0
VERTEX
  5
1B01C
330
1B009
100
AcDbEntity
  8
0
100
AcDbVertex
100
AcDb2dVertex
 10
477.3484311223281
 20
229.7578117959741
 30
0.0
 42
-0.02210596
  0
SEQEND
  5
1B01D
330
1B009
100
AcDbEntity
  8
0
  0
POLYLINE
  5
1B01E
330
1F
100
AcDbEntity
  8
0
100
AcDb2dPolyline
 66
     1
 10
0.0
 20
0.0
 30
0.0
 70
     2
  0
VERTEX
  5
1B01F
330
1B01E
100
AcDbEntity
  8
0
100
AcDbVertex
100
AcDb2dVertex
 10
476.1184591223289
 20
228.2835085959745
 30
0.0
  0
VERTEX
  5
1B020
330
1B01E
100
AcDbEntity
  8
0
100
AcDbVertex
100
AcDb2dVertex
 10
476.0002231223304
 20
228.2773217959742
 30
0.0
 42
-0.03289547
 70
     1
  0
VERTEX
  5
1B021
330
1B01E
100
AcDbEntity
  8
0
100
AcDbVertex
100
AcDb2dVertex
 10
475.8878031223291
 20
228.2865357959743
 30
0.0
 42
-0.034881855
  0
VERTEX
  5
1B022
330
1B01E
100
AcDbEntity
  8
0
100
AcDbVertex
100
AcDb2dVertex
 10
475.7810951223298
 20
228.3115861959744
 30
0.0
 42
-0.038674115
 70
     1
  0
VERTEX
  5
1B023
330
1B01E
100
AcDbEntity
  8
0
100
AcDbVertex
100
AcDb2dVertex
 10
475.6822511223279
 20
228.3532345959746
 30
0.0
 42
-0.046900431
  0
VERTEX
  5
1B024
330
1B01E
100
AcDbEntity
  8
0
100
AcDbVertex
100
AcDb2dVertex
 10
475.5945151223301
 20
228.4118089959742
 30
0.0
 42
-0.041050838
 70
     1
  0
VERTEX
  5
1B025
330
1B01E
100
AcDbEntity
  8
0
100
AcDbVertex
100
AcDb2dVertex
 10
475.519387122328
 20
228.4767561959746
 30
0.0
 42
-0.022709159
  0
VERTEX
  5
1B026
330
1B01E
100
AcDbEntity
  8
0
100
AcDbVertex
100
AcDb2dVertex
 10
475.4584151223287
 20
228.5435801959746
 30
0.0
 42
-0.048483799
 70
     1
  0
VERTEX
  5
1B027
330
1B01E
100
AcDbEntity
  8
0
100
AcDbVertex
100
AcDb2dVertex
 10
475.4084551223283
 20
228.6414185959741
 30
0.0
 42
-0.072646558
  0
VERTEX
  5
1B028
330
1B01E
100
AcDbEntity
  8
0
100
AcDbVertex
100
AcDb2dVertex
 10
475.3671831223297
 20
228.8020661959743
 30
0.0
 42
-0.036091481
 70
     1
  0
VERTEX
  5
1B029
330
1B01E
100
AcDbEntity
  8
0
100
AcDbVertex
100
AcDb2dVertex
 10
475.3346271223297
 20
229.018895395974
 30
0.0
 42
-0.019290992
  0
SEQEND
  5
1B02A
330
1B01E
100
AcDbEntity
  8
0
  0
LINE
  5
1B02B
330
1F
100
AcDbEntity
  8
0
100
AcDbLine
 10
477.1110351223295
 20
230.2684229959744
 30
0.0
 11
475.1574111223278
 21
231.8982749959745
 31
0.0
  0
POLYLINE
  5
1B02C
330
1F
100
AcDbEntity
  8
0
100
AcDb2dPolyline
 66
     1
 10
0.0
 20
0.0
 30
0.0
 70
     2
  0
VERTEX
  5
1B02D
330
1B02C
100
AcDbEntity
  8
0
100
AcDbVertex
100
AcDb2dVertex
 10
473.38100312233
 20
230.6487509959742
 30
0.0
  0
VERTEX
  5
1B02E
330
1B02C
100
AcDbEntity
  8
0
100
AcDbVertex
100
AcDb2dVertex
 10
473.3883391223288
 20
230.7573229959742
 30
0.0
 42
-0.030515953
 70
     1
  0
VERTEX
  5
1B02F
330
1B02C
100
AcDbEntity
  8
0
100
AcDbVertex
100
AcDb2dVertex
 10
473.4089751223297
 20
230.8731869959746
 30
0.0
 42
-0.024769042
  0
VERTEX
  5
1B030
330
1B02C
100
AcDbEntity
  8
0
100
AcDbVertex
100
AcDb2dVertex
 10
473.4432791223286
 20
230.996970995974
 30
0.0
 42
-0.022206319
 70
     1
  0
VERTEX
  5
1B031
330
1B02C
100
AcDbEntity
  8
0
100
AcDbVertex
100
AcDb2dVertex
 10
473.4919831223276
 20
231.1261429959744
 30
0.0
 42
-0.023701457
  0
VERTEX
  5
1B032
330
1B02C
100
AcDbEntity
  8
0
100
AcDbVertex
100
AcDb2dVertex
 10
473.5570031223295
 20
231.2579549959745
 30
0.0
 42
-0.02354359
 70
     1
  0
VERTEX
  5
1B033
330
1B02C
100
AcDbEntity
  8
0
100
AcDbVertex
100
AcDb2dVertex
 10
473.6374311223306
 20
231.389078995974
 30
0.0
 42
-0.023336719
  0
VERTEX
  5
1B034
330
1B02C
100
AcDbEntity
  8
0
100
AcDbVertex
100
AcDb2dVertex
 10
473.7330631223293
 20
231.5159789959742
 30
0.0
 42
-0.023228794
 70
     1
  0
VERTEX
  5
1B035
330
1B02C
100
AcDbEntity
  8
0
100
AcDbVertex
100
AcDb2dVertex
 10
473.8414871223293
 20
231.6351189959745
 30
0.0
 42
-0.02401058
  0
VERTEX
  5
1B036
330
1B02C
100
AcDbEntity
  8
0
100
AcDbVertex
100
AcDb2dVertex
 10
473.9608111223287
 20
231.7424989959744
 30
0.0
 42
-0.02417657
 70
     1
  0
VERTEX
  5
1B037
330
1B02C
100
AcDbEntity
  8
0
100
AcDbVertex
100
AcDb2dVertex
 10
474.08687912233
 20
231.8361189959745
 30
0.0
 42
-0.023831576
  0
VERTEX
  5
1B038
330
1B02C
100
AcDbEntity
  8
0
100
AcDbVertex
100
AcDb2dVertex
 10
474.216223122329
 20
231.9131429959746
 30
0.0
 42
-0.026334979
 70
     1
  0
VERTEX
  5
1B039
330
1B02C
100
AcDbEntity
  8
0
100
AcDbVertex
100
AcDb2dVertex
 10
474.3470911223291
 20
231.9722509959746
 30
0.0
 42
-0.031158819
  0
VERTEX
  5
1B03A
330
1B02C
100
AcDbEntity
  8
0
100
AcDbVertex
100
AcDb2dVertex
 10
474.4766791223272
 20
232.0119829959743
 30
0.0
 42
-0.02756734
 70
     1
  0
VERTEX
  5
1B03B
330
1B02C
100
AcDbEntity
  8
0
100
AcDbVertex
100
AcDb2dVertex
 10
474.5952351223285
 20
232.0380749959739
 30
0.0
 42
-0.013497994
  0
VERTEX
  5
1B03C
330
1B02C
100
AcDbEntity
  8
0
100
AcDbVertex
100
AcDb2dVertex
 10
474.697699122328
 20
232.0525709959742
 30
0.0
 42
-0.036549085
 70
     1
  0
VERTEX
  5
1B03D
330
1B02C
100
AcDbEntity
  8
0
100
AcDbVertex
100
AcDb2dVertex
 10
474.8119711223288
 20
232.0415509959742
 30
0.0
 42
-0.071288558
  0
VERTEX
  5
1B03E
330
1B02C
100
AcDbEntity
  8
0
100
AcDbVertex
100
AcDb2dVertex
 10
474.9670351223293
 20
231.9888869959744
 30
0.0
 42
-0.039926849
 70
     1
  0
VERTEX
  5
1B03F
330
1B02C
100
AcDbEntity
  8
0
100
AcDbVertex
100
AcDb2dVertex
 10
475.1574111223278
 20
231.8982749959745
 30
0.0
 42
-0.022714361
  0
SEQEND
  5
1B040
330
1B02C
100
AcDbEntity
  8
0
  0
POLYLINE
  5
1B041
330
1F
100
AcDbEntity
  8
0
100
AcDb2dPolyline
 66
     1
 10
0.0
 20
0.0
 30
0.0
 70
     2
  0
VERTEX
  5
1B042
330
1B041
100
AcDbEntity
  8
0
100
AcDbVertex
100
AcDb2dVertex
 10
473.6199471223287
 20
230.0553949959748
 30
0.0
  0
VERTEX
  5
1B043
330
1B041
100
AcDbEntity
  8
0
100
AcDbVertex
100
AcDb2dVertex
 10
473.5779991223288
 20
230.0942029959741
 30
0.0
 42
-0.021999127
 70
     1
  0
VERTEX
  5
1B044
330
1B041
100
AcDbEntity
  8
0
100
AcDbVertex
100
AcDb2dVertex
 10
473.5401551223302
 20
230.1358149959745
 30
0.0
 42
-0.021815172
  0
VERTEX
  5
1B045
330
1B041
100
AcDbEntity
  8
0
100
AcDbVertex
100
AcDb2dVertex
 10
473.5065871223294
 20
230.1802549959746
 30
0.0
 42
-0.023007739
 70
     1
  0
VERTEX
  5
1B046
330
1B041
100
AcDbEntity
  8
0
100
AcDbVertex
100
AcDb2dVertex
 10
473.4771071223283
 20
230.2280989959744
 30
0.0
 42
-0.024816044
  0
VERTEX
  5
1B047
330
1B041
100
AcDbEntity
  8
0
100
AcDbVertex
100
AcDb2dVertex
 10
473.4518711223287
 20
230.2793029959747
 30
0.0
 42
-0.01918246
 70
     1
  0
VERTEX
  5
1B048
330
1B041
100
AcDbEntity
  8
0
100
AcDbVertex
100
AcDb2dVertex
 10
473.4307751223282
 20
230.3287629959744
 30
0.0
 42
-0.0090395327
  0
VERTEX
  5
1B049
330
1B041
100
AcDbEntity
  8
0
100
AcDbVertex
100
AcDb2dVertex
 10
473.4139151223287
 20
230.3745509959743
 30
0.0
 42
-0.022915561
 70
     1
  0
VERTEX
  5
1B04A
330
1B041
100
AcDbEntity
  8
0
100
AcDbVertex
100
AcDb2dVertex
 10
473.4003231223294
 20
230.4343949959742
 30
0.0
 42
-0.034994548
  0
VERTEX
  5
1B04B
330
1B041
100
AcDbEntity
  8
0
100
AcDbVertex
100
AcDb2dVertex
 10
473.3893551223288
 20
230.5270509959745
 30
0.0
 42
-0.017238439
 70
     1
  0
VERTEX
  5
1B04C
330
1B041
100
AcDbEntity
  8
0
100
AcDbVertex
100
AcDb2dVertex
 10
473.38100312233
 20
230.6487509959742
 30
0.0
 42
-0.0094168474
  0
SEQEND
  5
1B04D
330
1B041
100
AcDbEntity
  8
0
  0
LINE
  5
1B04E
330
1F
100
AcDbEntity
  8
0
100
AcDbLine
 10
473.6199471223287
 20
230.0553949959748
 30
0.0
 11
475.5735711223286
 21
228.4255405959742
 31
0.0
  0
POLYLINE
  5
1B04F
330
1F
100
AcDbEntity
  8
0
100
AcDb2dPolyline
 66
     1
 10
0.0
 20
0.0
 30
0.0
 70
     2
  0
VERTEX
  5
1B050
330
1B04F
100
AcDbEntity
  8
0
100
AcDbVertex
100
AcDb2dVertex
 10
477.0243191223297
 20
226.2456793959744
 30
0.0
  0
VERTEX
  5
1B051
330
1B04F
100
AcDbEntity
  8
0
100
AcDbVertex
100
AcDb2dVertex
 10
477.0402111223273
 20
226.4809173959742
 30
0.0
 42
-0.030515985
 70
     1
  0
VERTEX
  5
1B052
330
1B04F
100
AcDbEntity
  8
0
100
AcDbVertex
100
AcDb2dVertex
 10
477.0849231223299
 20
226.7319557959744
 30
0.0
 42
-0.024769068
  0
VERTEX
  5
1B053
330
1B04F
100
AcDbEntity
  8
0
100
AcDbVertex
100
AcDb2dVertex
 10
477.1592471223292
 20
227.0001553959745
 30
0.0
 42
-0.022206341
 70
     1
  0
VERTEX
  5
1B054
330
1B04F
100
AcDbEntity
  8
0
100
AcDbVertex
100
AcDb2dVertex
 10
477.2647751223291
 20
227.2800261959741
 30
0.0
 42
-0.023701478
  0
VERTEX
  5
1B055
330
1B04F
100
AcDbEntity
  8
0
100
AcDbVertex
100
AcDb2dVertex
 10
477.4056511223287
 20
227.5656157959741
 30
0.0
 42
-0.023543608
 70
     1
  0
VERTEX
  5
1B056
330
1B04F
100
AcDbEntity
  8
0
100
AcDbVertex
100
AcDb2dVertex
 10
477.5799111223283
 20
227.8497201959743
 30
0.0
 42
-0.023336733
  0
VERTEX
  5
1B057
330
1B04F
100
AcDbEntity
  8
0
100
AcDbVertex
100
AcDb2dVertex
 10
477.7871111223292
 20
228.1246689959743
 30
0.0
 42
-0.023228803
 70
     1
  0
VERTEX
  5
1B058
330
1B04F
100
AcDbEntity
  8
0
100
AcDbVertex
100
AcDb2dVertex
 10
478.022031122328
 20
228.3828089959742
 30
0.0
 42
-0.024010585
  0
VERTEX
  5
1B059
330
1B04F
100
AcDbEntity
  8
0
100
AcDbVertex
100
AcDb2dVertex
 10
478.2805671223293
 20
228.6154621959743
 30
0.0
 42
-0.024176572
 70
     1
  0
VERTEX
  5
1B05A
330
1B04F
100
AcDbEntity
  8
0
100
AcDbVertex
100
AcDb2dVertex
 10
478.5537151223294
 20
228.8183089959742
 30
0.0
 42
-0.023831573
  0
VERTEX
  5
1B05B
330
1B04F
100
AcDbEntity
  8
0
100
AcDbVertex
100
AcDb2dVertex
 10
478.8339631223287
 20
228.9851901959745
 30
0.0
 42
-0.026334968
 70
     1
  0
VERTEX
  5
1B05C
330
1B04F
100
AcDbEntity
  8
0
100
AcDbVertex
100
AcDb2dVertex
 10
479.1175071223285
 20
229.1132589959747
 30
0.0
 42
-0.03115881
  0
VERTEX
  5
1B05D
330
1B04F
100
AcDbEntity
  8
0
100
AcDbVertex
100
AcDb2dVertex
 10
479.3982871223295
 20
229.1993449959744
 30
0.0
 42
-0.027567322
 70
     1
  0
VERTEX
  5
1B05E
330
1B04F
100
AcDbEntity
  8
0
100
AcDbVertex
100
AcDb2dVertex
 10
479.6551591223295
 20
229.2558789959743
 30
0.0
 42
-0.013497886
  0
VERTEX
  5
1B05F
330
1B04F
100
AcDbEntity
  8
0
100
AcDbVertex
100
AcDb2dVertex
 10
479.8771631223288
 20
229.287288595974
 30
0.0
 42
-0.036549025
 70
     1
  0
VERTEX
  5
1B060
330
1B04F
100
AcDbEntity
  8
0
100
AcDbVertex
100
AcDb2dVertex
 10
480.1247471223294
 20
229.263410595974
 30
0.0
 42
-0.071289161
  0
VERTEX
  5
1B061
330
1B04F
100
AcDbEntity
  8
0
100
AcDbVertex
100
AcDb2dVertex
 10
480.4607191223301
 20
229.1493045959745
 30
0.0
 42
-0.039927404
 70
     1
  0
VERTEX
  5
1B062
330
1B04F
100
AcDbEntity
  8
0
100
AcDbVertex
100
AcDb2dVertex
 10
480.8732031223306
 20
228.9529785959742
 30
0.0
 42
-0.022714651
  0
SEQEND
  5
1B063
330
1B04F
100
AcDbEntity
  8
0
  0
POLYLINE
  5
1B064
330
1F
100
AcDbEntity
  8
0
100
AcDb2dPolyline
 66
     1
 10
0.0
 20
0.0
 30
0.0
 70
     2
  0
VERTEX
  5
1B065
330
1B064
100
AcDbEntity
  8
0
100
AcDbVertex
100
AcDb2dVertex
 10
477.5420311223286
 20
224.9600733959745
 30
0.0
  0
VERTEX
  5
1B066
330
1B064
100
AcDbEntity
  8
0
100
AcDbVertex
100
AcDb2dVertex
 10
477.4511431223297
 20
225.0441517959742
 30
0.0
 42
-0.021999222
 70
     1
  0
VERTEX
  5
1B067
330
1B064
100
AcDbEntity
  8
0
100
AcDbVertex
100
AcDb2dVertex
 10
477.369147122329
 20
225.1343177959742
 30
0.0
 42
-0.021815259
  0
VERTEX
  5
1B068
330
1B064
100
AcDbEntity
  8
0
100
AcDbVertex
100
AcDb2dVertex
 10
477.2964231223292
 20
225.2306029959744
 30
0.0
 42
-0.023007821
 70
     1
  0
VERTEX
  5
1B069
330
1B064
100
AcDbEntity
  8
0
100
AcDbVertex
100
AcDb2dVertex
 10
477.232547122329
 20
225.3342665959743
 30
0.0
 42
-0.024816118
  0
VERTEX
  5
1B06A
330
1B064
100
AcDbEntity
  8
0
100
AcDbVertex
100
AcDb2dVertex
 10
477.1778711223293
 20
225.4452049959744
 30
0.0
 42
-0.019182503
 70
     1
  0
VERTEX
  5
1B06B
330
1B064
100
AcDbEntity
  8
0
100
AcDbVertex
100
AcDb2dVertex
 10
477.1321631223297
 20
225.5523653959743
 30
0.0
 42
-0.009039549
  0
VERTEX
  5
1B06C
330
1B064
100
AcDbEntity
  8
0
100
AcDbVertex
100
AcDb2dVertex
 10
477.0956271223282
 20
225.6515789959743
 30
0.0
 42
-0.022915592
 70
     1
  0
VERTEX
  5
1B06D
330
1B064
100
AcDbEntity
  8
0
100
AcDbVertex
100
AcDb2dVertex
 10
477.0661831223286
 20
225.7812393959746
 30
0.0
 42
-0.034994557
  0
VERTEX
  5
1B06E
330
1B064
100
AcDbEntity
  8
0
100
AcDbVertex
100
AcDb2dVertex
 10
477.0424111223298
 20
225.9819921959741
 30
0.0
 42
-0.017238427
 70
     1
  0
VERTEX
  5
1B06F
330
1B064
100
AcDbEntity
  8
0
100
AcDbVertex
100
AcDb2dVertex
 10
477.0243191223297
 20
226.2456793959744
 30
0.0
 42
-0.0094168364
  0
SEQEND
  5
1B070
330
1B064
100
AcDbEntity
  8
0
  0
POLYLINE
  5
1B071
330
1F
100
AcDbEntity
  8
0
100
AcDb2dPolyline
 66
     1
 10
0.0
 20
0.0
 30
0.0
 70
     2
  0
VERTEX
  5
1B072
330
1B071
100
AcDbEntity
  8
0
100
AcDbVertex
100
AcDb2dVertex
 10
476.7147111223283
 20
226.6987669959743
 30
0.0
  0
VERTEX
  5
1B073
330
1B071
100
AcDbEntity
  8
0
100
AcDbVertex
100
AcDb2dVertex
 10
476.7288191223294
 20
226.9106309959742
 30
0.0
 42
-0.02972302
 70
     1
  0
VERTEX
  5
1B074
330
1B071
100
AcDbEntity
  8
0
100
AcDbVertex
100
AcDb2dVertex
 10
476.7682111223281
 20
227.1365521959745
 30
0.0
 42
-0.024197742
  0
VERTEX
  5
1B075
330
1B071
100
AcDbEntity
  8
0
100
AcDbVertex
100
AcDb2dVertex
 10
476.8335751223283
 20
227.3777085959745
 30
0.0
 42
-0.021748579
 70
     1
  0
VERTEX
  5
1B076
330
1B071
100
AcDbEntity
  8
0
100
AcDbVertex
100
AcDb2dVertex
 10
476.9263191223278
 20
227.6294389959743
 30
0.0
 42
-0.023174901
  0
VERTEX
  5
1B077
330
1B071
100
AcDbEntity
  8
0
100
AcDbVertex
100
AcDb2dVertex
 10
477.0501311223295
 20
227.8867449959742
 30
0.0
 42
-0.023014996
 70
     1
  0
VERTEX
  5
1B078
330
1B071
100
AcDbEntity
  8
0
100
AcDbVertex
100
AcDb2dVertex
 10
477.203451122329
 20
228.1434873959741
 30
0.0
 42
-0.022800099
  0
VERTEX
  5
1B079
330
1B071
100
AcDbEntity
  8
0
100
AcDbVertex
100
AcDb2dVertex
 10
477.3861351223283
 20
228.3931617959741
 30
0.0
 42
-0.022667752
 70
     1
  0
VERTEX
  5
1B07A
330
1B071
100
AcDbEntity
  8
0
100
AcDbVertex
100
AcDb2dVertex
 10
477.5939031223286
 20
228.6291301959744
 30
0.0
 42
-0.023391633
  0
VERTEX
  5
1B07B
330
1B071
100
AcDbEntity
  8
0
100
AcDbVertex
100
AcDb2dVertex
 10
477.8235311223296
 20
228.8438625959742
 30
0.0
 42
-0.023491694
 70
     1
  0
VERTEX
  5
1B07C
330
1B071
100
AcDbEntity
  8
0
100
AcDbVertex
100
AcDb2dVertex
 10
478.0673311223297
 20
229.0332909959742
 30
0.0
 42
-0.023153044
  0
VERTEX
  5
1B07D
330
1B071
100
AcDbEntity
  8
0
100
AcDbVertex
100
AcDb2dVertex
 10
478.3189951223291
 20
229.1917633959741
 30
0.0
 42
-0.025461635
 70
     1
  0
VERTEX
  5
1B07E
330
1B071
100
AcDbEntity
  8
0
100
AcDbVertex
100
AcDb2dVertex
 10
478.5752711223294
 20
229.3165797959744
 30
0.0
 42
-0.029931382
  0
VERTEX
  5
1B07F
330
1B071
100
AcDbEntity
  8
0
100
AcDbVertex
100
AcDb2dVertex
 10
478.8309111223287
 20
229.4045793959743
 30
0.0
 42
-0.026574208
 70
     1
  0
VERTEX
  5
1B080
330
1B071
100
AcDbEntity
  8
0
100
AcDbVertex
100
AcDb2dVertex
 10
479.0666271223279
 20
229.4652857959744
 30
0.0
 42
-0.013861818
  0
VERTEX
  5
1B081
330
1B071
100
AcDbEntity
  8
0
100
AcDbVertex
100
AcDb2dVertex
 10
479.2724031223303
 20
229.5017977959741
 30
0.0
 42
-0.035036967
 70
     1
  0
VERTEX
  5
1B082
330
1B071
100
AcDbEntity
  8
0
100
AcDbVertex
100
AcDb2dVertex
 10
479.5025631223294
 20
229.4911521959742
 30
0.0
 42
-0.066710504
  0
VERTEX
  5
1B083
330
1B071
100
AcDbEntity
  8
0
100
AcDbVertex
100
AcDb2dVertex
 10
479.8137031223293
 20
229.4063465959742
 30
0.0
 42
-0.038690861
 70
     1
  0
VERTEX
  5
1B084
330
1B071
100
AcDbEntity
  8
0
100
AcDbVertex
100
AcDb2dVertex
 10
480.1950751223292
 20
229.2537217959742
 30
0.0
 42
-0.022517811
  0
SEQEND
  5
1B085
330
1B071
100
AcDbEntity
  8
0
  0
POLYLINE
  5
1B086
330
1F
100
AcDbEntity
  8
0
100
AcDb2dPolyline
 66
     1
 10
0.0
 20
0.0
 30
0.0
 70
     2
  0
VERTEX
  5
1B087
330
1B086
100
AcDbEntity
  8
0
100
AcDbVertex
100
AcDb2dVertex
 10
477.1246111223288
 20
225.5733129959743
 30
0.0
  0
VERTEX
  5
1B088
330
1B086
100
AcDbEntity
  8
0
100
AcDbVertex
100
AcDb2dVertex
 10
477.0522511223287
 20
225.6506293959745
 30
0.0
 42
-0.020202694
 70
     1
  0
VERTEX
  5
1B089
330
1B086
100
AcDbEntity
  8
0
100
AcDbVertex
100
AcDb2dVertex
 10
476.987087122329
 20
225.7323181959745
 30
0.0
 42
-0.019894899
  0
VERTEX
  5
1B08A
330
1B086
100
AcDbEntity
  8
0
100
AcDbVertex
100
AcDb2dVertex
 10
476.9294391223273
 20
225.818355795974
 30
0.0
 42
-0.020961739
 70
     1
  0
VERTEX
  5
1B08B
330
1B086
100
AcDbEntity
  8
0
100
AcDbVertex
100
AcDb2dVertex
 10
476.8789031223285
 20
225.9099705959746
 30
0.0
 42
-0.022600983
  0
VERTEX
  5
1B08C
330
1B086
100
AcDbEntity
  8
0
100
AcDbVertex
100
AcDb2dVertex
 10
476.8356831223289
 20
226.0071761959742
 30
0.0
 42
-0.017396558
 70
     1
  0
VERTEX
  5
1B08D
330
1B086
100
AcDbEntity
  8
0
100
AcDbVertex
100
AcDb2dVertex
 10
476.799571122329
 20
226.1005873959742
 30
0.0
 42
-0.0080819124
  0
VERTEX
  5
1B08E
330
1B086
100
AcDbEntity
  8
0
100
AcDbVertex
100
AcDb2dVertex
 10
476.7706991223283
 20
226.1867013959744
 30
0.0
 42
-0.02095558
 70
     1
  0
VERTEX
  5
1B08F
330
1B086
100
AcDbEntity
  8
0
100
AcDbVertex
100
AcDb2dVertex
 10
476.7474751223296
 20
226.2987257959747
 30
0.0
 42
-0.032197782
  0
VERTEX
  5
1B090
330
1B086
100
AcDbEntity
  8
0
100
AcDbVertex
100
AcDb2dVertex
 10
476.7288111223286
 20
226.4717577959744
 30
0.0
 42
-0.015858928
 70
     1
  0
VERTEX
  5
1B091
330
1B086
100
AcDbEntity
  8
0
100
AcDbVertex
100
AcDb2dVertex
 10
476.7147111223283
 20
226.6987669959743
 30
0.0
 42
-0.008661789
  0
SEQEND
  5
1B092
330
1B086
100
AcDbEntity
  8
0
  0
POLYLINE
  5
1B093
330
1F
100
AcDbEntity
  8
0
100
AcDb2dPolyline
 66
     1
 10
0.0
 20
0.0
 30
0.0
 70
     2
  0
VERTEX
  5
1B094
330
1B093
100
AcDbEntity
  8
0
100
AcDbVertex
100
AcDb2dVertex
 10
476.5467671223293
 20
226.6440893959742
 30
0.0
  0
VERTEX
  5
1B095
330
1B093
100
AcDbEntity
  8
0
100
AcDbVertex
100
AcDb2dVertex
 10
476.5645591223282
 20
226.8967549959747
 30
0.0
 42
-0.032923959
 70
     1
  0
VERTEX
  5
1B096
330
1B093
100
AcDbEntity
  8
0
100
AcDbVertex
100
AcDb2dVertex
 10
476.6157631223292
 20
227.1669461959744
 30
0.0
 42
-0.026501192
  0
VERTEX
  5
1B097
330
1B093
100
AcDbEntity
  8
0
100
AcDbVertex
100
AcDb2dVertex
 10
476.7013151223298
 20
227.4563049959741
 30
0.0
 42
-0.023579047
 70
     1
  0
VERTEX
  5
1B098
330
1B093
100
AcDbEntity
  8
0
100
AcDbVertex
100
AcDb2dVertex
 10
476.8229671223277
 20
227.7578309959743
 30
0.0
 42
-0.025295506
  0
VERTEX
  5
1B099
330
1B093
100
AcDbEntity
  8
0
100
AcDbVertex
100
AcDb2dVertex
 10
476.9852831223294
 20
228.0637093959743
 30
0.0
 42
-0.025150787
 70
     1
  0
VERTEX
  5
1B09A
330
1B093
100
AcDbEntity
  8
0
100
AcDbVertex
100
AcDb2dVertex
 10
477.1852351223285
 20
228.3648945959747
 30
0.0
 42
-0.024975898
  0
VERTEX
  5
1B09B
330
1B093
100
AcDbEntity
  8
0
100
AcDbVertex
100
AcDb2dVertex
 10
477.4212751223283
 20
228.6516493959742
 30
0.0
 42
-0.024968974
 70
     1
  0
VERTEX
  5
1B09C
330
1B093
100
AcDbEntity
  8
0
100
AcDbVertex
100
AcDb2dVertex
 10
477.6861191223276
 20
228.9149413959743
 30
0.0
 42
-0.025954735
  0
VERTEX
  5
1B09D
330
1B093
100
AcDbEntity
  8
0
100
AcDbVertex
100
AcDb2dVertex
 10
477.9735311223292
 20
229.1445741959741
 30
0.0
 42
-0.026349775
 70
     1
  0
VERTEX
  5
1B09E
330
1B093
100
AcDbEntity
  8
0
100
AcDbVertex
100
AcDb2dVertex
 10
478.272399122329
 20
229.3369045959742
 30
0.0
 42
-0.025924452
  0
VERTEX
  5
1B09F
330
1B093
100
AcDbEntity
  8
0
100
AcDbVertex
100
AcDb2dVertex
 10
478.5730831223288
 20
229.4860525959742
 30
0.0
 42
-0.029140152
 70
     1
  0
VERTEX
  5
1B0A0
330
1B093
100
AcDbEntity
  8
0
100
AcDbVertex
100
AcDb2dVertex
 10
478.8711671223288
 20
229.5894757959744
 30
0.0
 42
-0.035364788
  0
VERTEX
  5
1B0A1
330
1B093
100
AcDbEntity
  8
0
100
AcDbVertex
100
AcDb2dVertex
 10
479.1597311223293
 20
229.6450421959742
 30
0.0
 42
-0.030630818
 70
     1
  0
VERTEX
  5
1B0A2
330
1B093
100
AcDbEntity
  8
0
100
AcDbVertex
100
AcDb2dVertex
 10
479.4172231223281
 20
229.6729757959746
 30
0.0
 42
-0.010687882
  0
VERTEX
  5
1B0A3
330
1B093
100
AcDbEntity
  8
0
100
AcDbVertex
100
AcDb2dVertex
 10
479.6326911223283
 20
229.6815177959742
 30
0.0
 42
-0.041482326
 70
     1
  0
VERTEX
  5
1B0A4
330
1B093
100
AcDbEntity
  8
0
100
AcDbVertex
100
AcDb2dVertex
 10
479.8717071223298
 20
229.6194121959746
 30
0.0
 42
-0.088494802
  0
VERTEX
  5
1B0A5
330
1B093
100
AcDbEntity
  8
0
100
AcDbVertex
100
AcDb2dVertex
 10
480.2018391223288
 20
229.4292317959742
 30
0.0
 42
-0.042879482
 70
     1
  0
VERTEX
  5
1B0A6
330
1B093
100
AcDbEntity
  8
0
100
AcDbVertex
100
AcDb2dVertex
 10
480.6104551223294
 20
229.1234477959741
 30
0.0
 42
-0.022353364
  0
SEQEND
  5
1B0A7
330
1B093
100
AcDbEntity
  8
0
  0
POLYLINE
  5
1B0A8
330
1F
100
AcDbEntity
  8
0
100
AcDb2dPolyline
 66
     1
 10
0.0
 20
0.0
 30
0.0
 70
     2
  0
VERTEX
  5
1B0A9
330
1B0A8
100
AcDbEntity
  8
0
100
AcDbVertex
100
AcDb2dVertex
 10
477.3272271223294
 20
225.1880113959745
 30
0.0
  0
VERTEX
  5
1B0AA
330
1B0A8
100
AcDbEntity
  8
0
100
AcDbVertex
100
AcDb2dVertex
 10
477.1933831223274
 20
225.2644881959744
 30
0.0
 42
-0.026933098
 70
     1
  0
VERTEX
  5
1B0AB
330
1B0A8
100
AcDbEntity
  8
0
100
AcDbVertex
100
AcDb2dVertex
 10
477.0716551223293
 20
225.3525369959742
 30
0.0
 42
-0.027364995
  0
VERTEX
  5
1B0AC
330
1B0A8
100
AcDbEntity
  8
0
100
AcDbVertex
100
AcDb2dVertex
 10
476.9624911223298
 20
225.4524317959743
 30
0.0
 42
-0.02912396
 70
     1
  0
VERTEX
  5
1B0AD
330
1B0A8
100
AcDbEntity
  8
0
100
AcDbVertex
100
AcDb2dVertex
 10
476.8657951223293
 20
225.5651029959743
 30
0.0
 42
-0.031792927
  0
VERTEX
  5
1B0AE
330
1B0A8
100
AcDbEntity
  8
0
100
AcDbVertex
100
AcDb2dVertex
 10
476.782619122329
 20
225.6900497959744
 30
0.0
 42
-0.025059422
 70
     1
  0
VERTEX
  5
1B0AF
330
1B0A8
100
AcDbEntity
  8
0
100
AcDbVertex
100
AcDb2dVertex
 10
476.71291112233
 20
225.8132777959743
 30
0.0
 42
-0.012317468
  0
VERTEX
  5
1B0B0
330
1B0A8
100
AcDbEntity
  8
0
100
AcDbVertex
100
AcDb2dVertex
 10
476.6571391223286
 20
225.9293181959745
 30
0.0
 42
-0.029340338
 70
     1
  0
VERTEX
  5
1B0B1
330
1B0A8
100
AcDbEntity
  8
0
100
AcDbVertex
100
AcDb2dVertex
 10
476.6120111223288
 20
226.0838025959741
 30
0.0
 42
-0.044120846
  0
VERTEX
  5
1B0B2
330
1B0A8
100
AcDbEntity
  8
0
100
AcDbVertex
100
AcDb2dVertex
 10
476.5752071223293
 20
226.3253341959742
 30
0.0
 42
-0.021746898
 70
     1
  0
VERTEX
  5
1B0B3
330
1B0A8
100
AcDbEntity
  8
0
100
AcDbVertex
100
AcDb2dVertex
 10
476.5467671223293
 20
226.6440893959742
 30
0.0
 42
-0.011862426
  0
SEQEND
  5
1B0B4
330
1B0A8
100
AcDbEntity
  8
0
  0
LINE
  5
1B0B5
330
1F
100
AcDbEntity
  8
0
100
AcDbLine
 10
480.3956511223285
 20
229.3513849959744
 30
0.0
 11
479.7444431223292
 21
229.894670995974
 31
0.0
  0
POLYLINE
  5
1B0B6
330
1F
100
AcDbEntity
  8
0
100
AcDb2dPolyline
 66
     1
 10
0.0
 20
0.0
 30
0.0
 70
     2
  0
VERTEX
  5
1B0B7
330
1B0B6
100
AcDbEntity
  8
0
100
AcDbVertex
100
AcDb2dVertex
 10
475.8955591223283
 20
227.1873733959745
 30
0.0
  0
VERTEX
  5
1B0B8
330
1B0B6
100
AcDbEntity
  8
0
100
AcDbVertex
100
AcDb2dVertex
 10
475.9114511223295
 20
227.4226109959744
 30
0.0
 42
-0.030515981
 70
     1
  0
VERTEX
  5
1B0B9
330
1B0B6
100
AcDbEntity
  8
0
100
AcDbVertex
100
AcDb2dVertex
 10
475.9561631223303
 20
227.6736493959742
 30
0.0
 42
-0.024769064
  0
VERTEX
  5
1B0BA
330
1B0B6
100
AcDbEntity
  8
0
100
AcDbVertex
100
AcDb2dVertex
 10
476.0304871223294
 20
227.9418489959743
 30
0.0
 42
-0.022206337
 70
     1
  0
VERTEX
  5
1B0BB
330
1B0B6
100
AcDbEntity
  8
0
100
AcDbVertex
100
AcDb2dVertex
 10
476.1360151223296
 20
228.2217201959745
 30
0.0
 42
-0.023701474
  0
VERTEX
  5
1B0BC
330
1B0B6
100
AcDbEntity
  8
0
100
AcDbVertex
100
AcDb2dVertex
 10
476.276891122329
 20
228.5073097959747
 30
0.0
 42
-0.023543604
 70
     1
  0
VERTEX
  5
1B0BD
330
1B0B6
100
AcDbEntity
  8
0
100
AcDbVertex
100
AcDb2dVertex
 10
476.4511511223289
 20
228.7914141959744
 30
0.0
 42
-0.023336729
  0
VERTEX
  5
1B0BE
330
1B0B6
100
AcDbEntity
  8
0
100
AcDbVertex
100
AcDb2dVertex
 10
476.6583511223278
 20
229.0663629959743
 30
0.0
 42
-0.0232288
 70
     1
  0
VERTEX
  5
1B0BF
330
1B0B6
100
AcDbEntity
  8
0
100
AcDbVertex
100
AcDb2dVertex
 10
476.8932711223285
 20
229.3245029959742
 30
0.0
 42
-0.024010582
  0
VERTEX
  5
1B0C0
330
1B0B6
100
AcDbEntity
  8
0
100
AcDbVertex
100
AcDb2dVertex
 10
477.1518071223296
 20
229.557156195974
 30
0.0
 42
-0.024176569
 70
     1
  0
VERTEX
  5
1B0C1
330
1B0B6
100
AcDbEntity
  8
0
100
AcDbVertex
100
AcDb2dVertex
 10
477.42495512233
 20
229.7600033959742
 30
0.0
 42
-0.02383157
  0
VERTEX
  5
1B0C2
330
1B0B6
100
AcDbEntity
  8
0
100
AcDbVertex
100
AcDb2dVertex
 10
477.705203122329
 20
229.9268829959745
 30
0.0
 42
-0.026334967
 70
     1
  0
VERTEX
  5
1B0C3
330
1B0B6
100
AcDbEntity
  8
0
100
AcDbVertex
100
AcDb2dVertex
 10
477.988747122329
 20
230.0549549959745
 30
0.0
 42
-0.031158815
  0
VERTEX
  5
1B0C4
330
1B0B6
100
AcDbEntity
  8
0
100
AcDbVertex
100
AcDb2dVertex
 10
478.2695271223281
 20
230.1410389959741
 30
0.0
 42
-0.027567323
 70
     1
  0
VERTEX
  5
1B0C5
330
1B0B6
100
AcDbEntity
  8
0
100
AcDbVertex
100
AcDb2dVertex
 10
478.5263991223298
 20
230.1975749959741
 30
0.0
 42
-0.013497857
  0
VERTEX
  5
1B0C6
330
1B0B6
100
AcDbEntity
  8
0
100
AcDbVertex
100
AcDb2dVertex
 10
478.7484031223292
 20
230.2289829959744
 30
0.0
 42
-0.036549031
 70
     1
  0
VERTEX
  5
1B0C7
330
1B0B6
100
AcDbEntity
  8
0
100
AcDbVertex
100
AcDb2dVertex
 10
478.9959871223297
 20
230.2051069959746
 30
0.0
 42
-0.071289303
  0
VERTEX
  5
1B0C8
330
1B0B6
100
AcDbEntity
  8
0
100
AcDbVertex
100
AcDb2dVertex
 10
479.3319591223287
 20
230.0909989959745
 30
0.0
 42
-0.039927495
 70
     1
  0
VERTEX
  5
1B0C9
330
1B0B6
100
AcDbEntity
  8
0
100
AcDbVertex
100
AcDb2dVertex
 10
479.7444431223292
 20
229.894670995974
 30
0.0
 42
-0.022714691
  0
SEQEND
  5
1B0CA
330
1B0B6
100
AcDbEntity
  8
0
  0
POLYLINE
  5
1B0CB
330
1F
100
AcDbEntity
  8
0
100
AcDb2dPolyline
 66
     1
 10
0.0
 20
0.0
 30
0.0
 70
     2
  0
VERTEX
  5
1B0CC
330
1B0CB
100
AcDbEntity
  8
0
100
AcDbVertex
100
AcDb2dVertex
 10
476.413271122329
 20
225.9017669959747
 30
0.0
  0
VERTEX
  5
1B0CD
330
1B0CB
100
AcDbEntity
  8
0
100
AcDbVertex
100
AcDb2dVertex
 10
476.3223831223283
 20
225.9858457959743
 30
0.0
 42
-0.02199918
 70
     1
  0
VERTEX
  5
1B0CE
330
1B0CB
100
AcDbEntity
  8
0
100
AcDbVertex
100
AcDb2dVertex
 10
476.2403871223294
 20
226.0760117959743
 30
0.0
 42
-0.021815218
  0
VERTEX
  5
1B0CF
330
1B0CB
100
AcDbEntity
  8
0
100
AcDbVertex
100
AcDb2dVertex
 10
476.1676631223279
 20
226.1722969959745
 30
0.0
 42
-0.023007778
 70
     1
  0
VERTEX
  5
1B0D0
330
1B0CB
100
AcDbEntity
  8
0
100
AcDbVertex
100
AcDb2dVertex
 10
476.1037871223278
 20
226.2759605959744
 30
0.0
 42
-0.024816074
  0
VERTEX
  5
1B0D1
330
1B0CB
100
AcDbEntity
  8
0
100
AcDbVertex
100
AcDb2dVertex
 10
476.049111122328
 20
226.3868989959745
 30
0.0
 42
-0.019182473
 70
     1
  0
VERTEX
  5
1B0D2
330
1B0CB
100
AcDbEntity
  8
0
100
AcDbVertex
100
AcDb2dVertex
 10
476.0034031223301
 20
226.4940597959747
 30
0.0
 42
-0.009039536
  0
VERTEX
  5
1B0D3
330
1B0CB
100
AcDbEntity
  8
0
100
AcDbVertex
100
AcDb2dVertex
 10
475.9668671223304
 20
226.5932729959744
 30
0.0
 42
-0.022915563
 70
     1
  0
VERTEX
  5
1B0D4
330
1B0CB
100
AcDbEntity
  8
0
100
AcDbVertex
100
AcDb2dVertex
 10
475.9374231223288
 20
226.7229333959743
 30
0.0
 42
-0.034994525
  0
VERTEX
  5
1B0D5
330
1B0CB
100
AcDbEntity
  8
0
100
AcDbVertex
100
AcDb2dVertex
 10
475.9136511223303
 20
226.9236857959739
 30
0.0
 42
-0.017238418
 70
     1
  0
VERTEX
  5
1B0D6
330
1B0CB
100
AcDbEntity
  8
0
100
AcDbVertex
100
AcDb2dVertex
 10
475.8955591223283
 20
227.1873733959745
 30
0.0
 42
-0.0094168331
  0
SEQEND
  5
1B0D7
330
1B0CB
100
AcDbEntity
  8
0
  0
LINE
  5
1B0D8
330
1F
100
AcDbEntity
  8
0
100
AcDbLine
 10
476.413271122329
 20
225.9017669959747
 30
0.0
 11
477.0644791223283
 21
225.3584829959744
 31
0.0
  0
LINE
  5
1B0D9
330
1F
100
AcDbEntity
  8
0
100
AcDbLine
 10
477.3811911223281
 20
229.7304809959745
 30
0.0
 11
477.1562351223298
 21
229.9181549959747
 31
0.0
  0
LINE
  5
1B0DA
330
1F
100
AcDbEntity
  8
0
100
AcDbLine
 10
475.926263122329
 20
228.4438513959747
 30
0.0
 11
476.151219122329
 21
228.2561777959744
 31
0.0
  0
LINE
  5
1B0DB
330
1F
100
AcDbEntity
  8
0
100
AcDbLine
 10
485.5439791223296
 20
223.7506157959741
 30
0.0
 11
485.7440111223283
 21
223.5837289959744
 31
0.0
  0
POLYLINE
  5
1B0DC
330
1F
100
AcDbEntity
  8
0
100
AcDb2dPolyline
 66
     1
 10
0.0
 20
0.0
 30
0.0
 70
     2
  0
VERTEX
  5
1B0DD
330
1B0DC
100
AcDbEntity
  8
0
100
AcDbVertex
100
AcDb2dVertex
 10
484.8992031223286
 20
224.330834195974
 30
0.0
  0
VERTEX
  5
1B0DE
330
1B0DC
100
AcDbEntity
  8
0
100
AcDbVertex
100
AcDb2dVertex
 10
484.9559591223284
 20
224.3230017959743
 30
0.0
 42
-0.011762448
 70
     1
  0
VERTEX
  5
1B0DF
330
1B0DC
100
AcDbEntity
  8
0
100
AcDbVertex
100
AcDb2dVertex
 10
485.0105831223288
 20
224.3128069959742
 30
0.0
 42
-0.012338507
  0
VERTEX
  5
1B0E0
330
1B0DC
100
AcDbEntity
  8
0
100
AcDbVertex
100
AcDb2dVertex
 10
485.0628351223301
 20
224.3001897959742
 30
0.0
 42
-0.013212559
 70
     1
  0
VERTEX
  5
1B0E1
330
1B0DC
100
AcDbEntity
  8
0
100
AcDbVertex
100
AcDb2dVertex
 10
485.1138551223292
 20
224.2849893959745
 30
0.0
 42
-0.013318501
  0
VERTEX
  5
1B0E2
330
1B0DC
100
AcDbEntity
  8
0
100
AcDbVertex
100
AcDb2dVertex
 10
485.1646831223304
 20
224.2667985959746
 30
0.0
 42
-0.013243257
 70
     1
  0
VERTEX
  5
1B0E3
330
1B0DC
100
AcDbEntity
  8
0
100
AcDbVertex
100
AcDb2dVertex
 10
485.215183122328
 20
224.2456057959742
 30
0.0
 42
-0.014024504
  0
VERTEX
  5
1B0E4
330
1B0DC
100
AcDbEntity
  8
0
100
AcDbVertex
100
AcDb2dVertex
 10
485.2649631223291
 20
224.2211645959745
 30
0.0
 42
-0.01478092
 70
     1
  0
VERTEX
  5
1B0E5
330
1B0DC
100
AcDbEntity
  8
0
100
AcDbVertex
100
AcDb2dVertex
 10
485.3138791223289
 20
224.1933949959742
 30
0.0
 42
-0.015621069
  0
VERTEX
  5
1B0E6
330
1B0DC
100
AcDbEntity
  8
0
100
AcDbVertex
100
AcDb2dVertex
 10
485.3617191223281
 20
224.1620165959747
 30
0.0
 42
-0.015407478
 70
     1
  0
VERTEX
  5
1B0E7
330
1B0DC
100
AcDbEntity
  8
0
100
AcDbVertex
100
AcDb2dVertex
 10
485.4081671223291
 20
224.1274629959742
 30
0.0
 42
-0.014645683
  0
VERTEX
  5
1B0E8
330
1B0DC
100
AcDbEntity
  8
0
100
AcDbVertex
100
AcDb2dVertex
 10
485.4528671223276
 20
224.0896465959743
 30
0.0
 42
-0.016715222
 70
     1
  0
VERTEX
  5
1B0E9
330
1B0DC
100
AcDbEntity
  8
0
100
AcDbVertex
100
AcDb2dVertex
 10
485.4960991223294
 20
224.0471813959742
 30
0.0
 42
-0.020654228
  0
VERTEX
  5
1B0EA
330
1B0DC
100
AcDbEntity
  8
0
100
AcDbVertex
100
AcDb2dVertex
 10
485.5376871223294
 20
223.9993777959742
 30
0.0
 42
-0.015220033
 70
     1
  0
VERTEX
  5
1B0EB
330
1B0DC
100
AcDbEntity
  8
0
100
AcDbVertex
100
AcDb2dVertex
 10
485.5756351223288
 20
223.9522705959742
 30
0.0
 42
-0.0043239914
  0
VERTEX
  5
1B0EC
330
1B0DC
100
AcDbEntity
  8
0
100
AcDbVertex
100
AcDb2dVertex
 10
485.6089591223287
 20
223.9077637959743
 30
0.0
 42
-0.022420025
 70
     1
  0
VERTEX
  5
1B0ED
330
1B0DC
100
AcDbEntity
  8
0
100
AcDbVertex
100
AcDb2dVertex
 10
485.6447271223284
 20
223.8428801959743
 30
0.0
 42
-0.038035279
  0
VERTEX
  5
1B0EE
330
1B0DC
100
AcDbEntity
  8
0
100
AcDbVertex
100
AcDb2dVertex
 10
485.6901991223302
 20
223.7332117959744
 30
0.0
 42
-0.017310523
 70
     1
  0
VERTEX
  5
1B0EF
330
1B0DC
100
AcDbEntity
  8
0
100
AcDbVertex
100
AcDb2dVertex
 10
485.7440111223283
 20
223.5837289959744
 30
0.0
 42
-0.0086310838
  0
SEQEND
  5
1B0F0
330
1B0DC
100
AcDbEntity
  8
0
  0
POLYLINE
  5
1B0F1
330
1F
100
AcDbEntity
  8
0
100
AcDb2dPolyline
 66
     1
 10
0.0
 20
0.0
 30
0.0
 70
     2
  0
VERTEX
  5
1B0F2
330
1B0F1
100
AcDbEntity
  8
0
100
AcDbVertex
100
AcDb2dVertex
 10
485.7273151223297
 20
222.8368785959745
 30
0.0
  0
VERTEX
  5
1B0F3
330
1B0F1
100
AcDbEntity
  8
0
100
AcDbVertex
100
AcDb2dVertex
 10
485.6535871223283
 20
222.6076657959742
 30
0.0
 42
-0.02326836
 70
     1
  0
VERTEX
  5
1B0F4
330
1B0F1
100
AcDbEntity
  8
0
100
AcDbVertex
100
AcDb2dVertex
 10
485.5597191223284
 20
222.3910617959744
 30
0.0
 42
-0.026153572
  0
VERTEX
  5
1B0F5
330
1B0F1
100
AcDbEntity
  8
0
100
AcDbVertex
100
AcDb2dVertex
 10
485.4439391223301
 20
222.1868905959744
 30
0.0
 42
-0.024985079
 70
     1
  0
VERTEX
  5
1B0F6
330
1B0F1
100
AcDbEntity
  8
0
100
AcDbVertex
100
AcDb2dVertex
 10
485.3135391223301
 20
221.9994253959743
 30
0.0
 42
-0.022067104
  0
VERTEX
  5
1B0F7
330
1B0F1
100
AcDbEntity
  8
0
100
AcDbVertex
100
AcDb2dVertex
 10
485.1750671223297
 20
221.8340149959739
 30
0.0
 42
-0.021558029
 70
     1
  0
VERTEX
  5
1B0F8
330
1B0F1
100
AcDbEntity
  8
0
100
AcDbVertex
100
AcDb2dVertex
 10
485.0303711223283
 20
221.6874525959746
 30
0.0
 42
-0.019861465
  0
VERTEX
  5
1B0F9
330
1B0F1
100
AcDbEntity
  8
0
100
AcDbVertex
100
AcDb2dVertex
 10
484.8784711223294
 20
221.5567465959747
 30
0.0
 42
-0.020682076
 70
     1
  0
VERTEX
  5
1B0FA
330
1B0F1
100
AcDbEntity
  8
0
100
AcDbVertex
100
AcDb2dVertex
 10
484.7141351223298
 20
221.4385261959745
 30
0.0
 42
-0.02300089
  0
VERTEX
  5
1B0FB
330
1B0F1
100
AcDbEntity
  8
0
100
AcDbVertex
100
AcDb2dVertex
 10
484.5318991223291
 20
221.3320137959744
 30
0.0
 42
-0.023234876
 70
     1
  0
VERTEX
  5
1B0FC
330
1B0F1
100
AcDbEntity
  8
0
100
AcDbVertex
100
AcDb2dVertex
 10
484.3361111223281
 20
221.2414397959745
 30
0.0
 42
-0.02568576
  0
VERTEX
  5
1B0FD
330
1B0F1
100
AcDbEntity
  8
0
100
AcDbVertex
100
AcDb2dVertex
 10
484.1315951223284
 20
221.1740293959746
 30
0.0
 42
-0.031132591
 70
     1
  0
VERTEX
  5
1B0FE
330
1B0F1
100
AcDbEntity
  8
0
100
AcDbVertex
100
AcDb2dVertex
 10
483.9225911223301
 20
221.1365545959746
 30
0.0
 42
-0.040763144
  0
VERTEX
  5
1B0FF
330
1B0F1
100
AcDbEntity
  8
0
100
AcDbVertex
100
AcDb2dVertex
 10
483.7142791223294
 20
221.1348797959743
 30
0.0
 42
-0.037359282
 70
     1
  0
VERTEX
  5
1B100
330
1B0F1
100
AcDbEntity
  8
0
100
AcDbVertex
100
AcDb2dVertex
 10
483.5188351223303
 20
221.1557473959746
 30
0.0
 42
-0.021248422
  0
VERTEX
  5
1B101
330
1B0F1
100
AcDbEntity
  8
0
100
AcDbVertex
100
AcDb2dVertex
 10
483.3453471223299
 20
221.1962961959742
 30
0.0
 42
-0.055384516
 70
     1
  0
VERTEX
  5
1B102
330
1B0F1
100
AcDbEntity
  8
0
100
AcDbVertex
100
AcDb2dVertex
 10
483.1758591223303
 20
221.3057517959745
 30
0.0
 42
-0.10259967
  0
VERTEX
  5
1B103
330
1B0F1
100
AcDbEntity
  8
0
100
AcDbVertex
100
AcDb2dVertex
 10
482.9916991223278
 20
221.538438595974
 30
0.0
 42
-0.054739793
 70
     1
  0
VERTEX
  5
1B104
330
1B0F1
100
AcDbEntity
  8
0
100
AcDbVertex
100
AcDb2dVertex
 10
482.7959991223294
 20
221.8824885959742
 30
0.0
 42
-0.027820555
  0
SEQEND
  5
1B105
330
1B0F1
100
AcDbEntity
  8
0
  0
LINE
  5
1B106
330
1F
100
AcDbEntity
  8
0
100
AcDbLine
 10
485.7273151223297
 20
222.8368785959745
 30
0.0
 11
485.5272751223281
 21
223.0037649959744
 31
0.0
  0
POLYLINE
  5
1B107
330
1F
100
AcDbEntity
  8
0
100
AcDb2dPolyline
 66
     1
 10
0.0
 20
0.0
 30
0.0
 70
     2
  0
VERTEX
  5
1B108
330
1B107
100
AcDbEntity
  8
0
100
AcDbVertex
100
AcDb2dVertex
 10
485.5272751223281
 20
223.0037649959744
 30
0.0
  0
VERTEX
  5
1B109
330
1B107
100
AcDbEntity
  8
0
100
AcDbVertex
100
AcDb2dVertex
 10
485.5424831223287
 20
223.0692225959745
 30
0.0
 42
0.0088739984
 70
     1
  0
VERTEX
  5
1B10A
330
1B107
100
AcDbEntity
  8
0
100
AcDbVertex
100
AcDb2dVertex
 10
485.5553151223292
 20
223.1343621959744
 30
0.0
 42
0.0082750037
  0
VERTEX
  5
1B10B
330
1B107
100
AcDbEntity
  8
0
100
AcDbVertex
100
AcDb2dVertex
 10
485.5657191223278
 20
223.1990145959743
 30
0.0
 42
0.0092387444
 70
     1
  0
VERTEX
  5
1B10C
330
1B107
100
AcDbEntity
  8
0
100
AcDbVertex
100
AcDb2dVertex
 10
485.5734951223301
 20
223.2642617959744
 30
0.0
 42
0.011427078
  0
VERTEX
  5
1B10D
330
1B107
100
AcDbEntity
  8
0
100
AcDbVertex
100
AcDb2dVertex
 10
485.5783951223299
 20
223.3303209959744
 30
0.0
 42
0.0090552584
 70
     1
  0
VERTEX
  5
1B10E
330
1B107
100
AcDbEntity
  8
0
100
AcDbVertex
100
AcDb2dVertex
 10
485.5814831223295
 20
223.3921197959742
 30
0.0
 42
0.0033331386
  0
VERTEX
  5
1B10F
330
1B107
100
AcDbEntity
  8
0
100
AcDbVertex
100
AcDb2dVertex
 10
485.5829751223288
 20
223.4477709959745
 30
0.0
 42
0.013030578
 70
     1
  0
VERTEX
  5
1B110
330
1B107
100
AcDbEntity
  8
0
100
AcDbVertex
100
AcDb2dVertex
 10
485.5791391223291
 20
223.5166145959746
 30
0.0
 42
0.023693924
  0
VERTEX
  5
1B111
330
1B107
100
AcDbEntity
  8
0
100
AcDbVertex
100
AcDb2dVertex
 10
485.5658391223284
 20
223.6188945959742
 30
0.0
 42
0.01228803
 70
     1
  0
VERTEX
  5
1B112
330
1B107
100
AcDbEntity
  8
0
100
AcDbVertex
100
AcDb2dVertex
 10
485.5439791223296
 20
223.7506157959741
 30
0.0
 42
0.006664906
  0
SEQEND
  5
1B113
330
1B107
100
AcDbEntity
  8
0
  0
POLYLINE
  5
1B114
330
1F
100
AcDbEntity
  8
0
100
AcDb2dPolyline
 66
     1
 10
0.0
 20
0.0
 30
0.0
 70
     2
  0
VERTEX
  5
1B115
330
1B114
100
AcDbEntity
  8
0
100
AcDbVertex
100
AcDb2dVertex
 10
482.5866671223291
 20
222.0899501959746
 30
0.0
  0
VERTEX
  5
1B116
330
1B114
100
AcDbEntity
  8
0
100
AcDbVertex
100
AcDb2dVertex
 10
482.5868111223288
 20
222.0892669959747
 30
0.0
 42
0.0001398406
 70
     1
  0
VERTEX
  5
1B117
330
1B114
100
AcDbEntity
  8
0
100
AcDbVertex
100
AcDb2dVertex
 10
482.586959122328
 20
222.0885837959744
 30
0.0
 42
0.000139912
  0
VERTEX
  5
1B118
330
1B114
100
AcDbEntity
  8
0
100
AcDbVertex
100
AcDb2dVertex
 10
482.5871031223293
 20
222.0879009959743
 30
0.0
 42
0.0001399656
 70
     1
  0
VERTEX
  5
1B119
330
1B114
100
AcDbEntity
  8
0
100
AcDbVertex
100
AcDb2dVertex
 10
482.587247122329
 20
222.0872185959746
 30
0.0
 42
0.0001399939
  0
VERTEX
  5
1B11A
330
1B114
100
AcDbEntity
  8
0
100
AcDbVertex
100
AcDb2dVertex
 10
482.5873951223299
 20
222.0865361959739
 30
0.0
 42
0.0001400332
 70
     1
  0
VERTEX
  5
1B11B
330
1B114
100
AcDbEntity
  8
0
100
AcDbVertex
100
AcDb2dVertex
 10
482.5875391223278
 20
222.0858541959741
 30
0.0
 42
0.0001400723
  0
VERTEX
  5
1B11C
330
1B114
100
AcDbEntity
  8
0
100
AcDbVertex
100
AcDb2dVertex
 10
482.5876871223289
 20
222.0851721959742
 30
0.0
 42
0.0001401152
 70
     1
  0
VERTEX
  5
1B11D
330
1B114
100
AcDbEntity
  8
0
100
AcDbVertex
100
AcDb2dVertex
 10
482.5878351223297
 20
222.0844905959742
 30
0.0
 42
0.0001401516
  0
VERTEX
  5
1B11E
330
1B114
100
AcDbEntity
  8
0
100
AcDbVertex
100
AcDb2dVertex
 10
482.587983122329
 20
222.0838093959745
 30
0.0
 42
0.0001401936
 70
     1
  0
VERTEX
  5
1B11F
330
1B114
100
AcDbEntity
  8
0
100
AcDbVertex
100
AcDb2dVertex
 10
482.5881271223305
 20
222.0831281959743
 30
0.0
 42
0.0001402306
  0
VERTEX
  5
1B120
330
1B114
100
AcDbEntity
  8
0
100
AcDbVertex
100
AcDb2dVertex
 10
482.5882751223296
 20
222.0824469959742
 30
0.0
 42
0.0001402727
 70
     1
  0
VERTEX
  5
1B121
330
1B114
100
AcDbEntity
  8
0
100
AcDbVertex
100
AcDb2dVertex
 10
482.58842712233
 20
222.0817665959742
 30
0.0
 42
0.0001403094
  0
VERTEX
  5
1B122
330
1B114
100
AcDbEntity
  8
0
100
AcDbVertex
100
AcDb2dVertex
 10
482.5885751223292
 20
222.0810861959743
 30
0.0
 42
0.0001403516
 70
     1
  0
VERTEX
  5
1B123
330
1B114
100
AcDbEntity
  8
0
100
AcDbVertex
100
AcDb2dVertex
 10
482.5887231223284
 20
222.0804057959748
 30
0.0
 42
0.0001403882
  0
VERTEX
  5
1B124
330
1B114
100
AcDbEntity
  8
0
100
AcDbVertex
100
AcDb2dVertex
 10
482.5888711223276
 20
222.0797257959742
 30
0.0
 42
0.0001404303
 70
     1
  0
VERTEX
  5
1B125
330
1B114
100
AcDbEntity
  8
0
100
AcDbVertex
100
AcDb2dVertex
 10
482.5890231223281
 20
222.079046195974
 30
0.0
 42
0.000140467
  0
VERTEX
  5
1B126
330
1B114
100
AcDbEntity
  8
0
100
AcDbVertex
100
AcDb2dVertex
 10
482.5891711223273
 20
222.0783665959742
 30
0.0
 42
0.000140509
 70
     1
  0
VERTEX
  5
1B127
330
1B114
100
AcDbEntity
  8
0
100
AcDbVertex
100
AcDb2dVertex
 10
482.5893231223278
 20
222.0776873959743
 30
0.0
 42
0.0001405457
  0
VERTEX
  5
1B128
330
1B114
100
AcDbEntity
  8
0
100
AcDbVertex
100
AcDb2dVertex
 10
482.5894751223283
 20
222.0770081959743
 30
0.0
 42
0.0001405877
 70
     1
  0
VERTEX
  5
1B129
330
1B114
100
AcDbEntity
  8
0
100
AcDbVertex
100
AcDb2dVertex
 10
482.589627122329
 20
222.0763293959743
 30
0.0
 42
0.0001406242
  0
VERTEX
  5
1B12A
330
1B114
100
AcDbEntity
  8
0
100
AcDbVertex
100
AcDb2dVertex
 10
482.5897751223281
 20
222.0756509959745
 30
0.0
 42
0.0001406662
 70
     1
  0
VERTEX
  5
1B12B
330
1B114
100
AcDbEntity
  8
0
100
AcDbVertex
100
AcDb2dVertex
 10
482.5899271223287
 20
222.0749725959743
 30
0.0
 42
0.0001407028
  0
VERTEX
  5
1B12C
330
1B114
100
AcDbEntity
  8
0
100
AcDbVertex
100
AcDb2dVertex
 10
482.5900791223292
 20
222.0742945959745
 30
0.0
 42
0.0001407447
 70
     1
  0
VERTEX
  5
1B12D
330
1B114
100
AcDbEntity
  8
0
100
AcDbVertex
100
AcDb2dVertex
 10
482.5902351223292
 20
222.0736165959741
 30
0.0
 42
0.0001407811
  0
VERTEX
  5
1B12E
330
1B114
100
AcDbEntity
  8
0
100
AcDbVertex
100
AcDb2dVertex
 10
482.5903871223298
 20
222.0729389959746
 30
0.0
 42
0.000140823
 70
     1
  0
VERTEX
  5
1B12F
330
1B114
100
AcDbEntity
  8
0
100
AcDbVertex
100
AcDb2dVertex
 10
482.5905391223285
 20
222.0722617959744
 30
0.0
 42
0.0001408593
  0
VERTEX
  5
1B130
330
1B114
100
AcDbEntity
  8
0
100
AcDbVertex
100
AcDb2dVertex
 10
482.5906951223284
 20
222.0715845959742
 30
0.0
 42
0.0001409012
 70
     1
  0
VERTEX
  5
1B131
330
1B114
100
AcDbEntity
  8
0
100
AcDbVertex
100
AcDb2dVertex
 10
482.5908471223272
 20
222.0709077959744
 30
0.0
 42
0.0001409376
  0
VERTEX
  5
1B132
330
1B114
100
AcDbEntity
  8
0
100
AcDbVertex
100
AcDb2dVertex
 10
482.591003122329
 20
222.0702309959746
 30
0.0
 42
0.0001409794
 70
     1
  0
VERTEX
  5
1B133
330
1B114
100
AcDbEntity
  8
0
100
AcDbVertex
100
AcDb2dVertex
 10
482.5911551223295
 20
222.0695545959741
 30
0.0
 42
0.0001410157
  0
VERTEX
  5
1B134
330
1B114
100
AcDbEntity
  8
0
100
AcDbVertex
100
AcDb2dVertex
 10
482.5913111223297
 20
222.0688785959745
 30
0.0
 42
0.0001410574
 70
     1
  0
VERTEX
  5
1B135
330
1B114
100
AcDbEntity
  8
0
100
AcDbVertex
100
AcDb2dVertex
 10
482.5914671223278
 20
222.0682025959744
 30
0.0
 42
0.0001410939
  0
VERTEX
  5
1B136
330
1B114
100
AcDbEntity
  8
0
100
AcDbVertex
100
AcDb2dVertex
 10
482.591623122328
 20
222.0675269959746
 30
0.0
 42
0.0001411354
 70
     1
  0
VERTEX
  5
1B137
330
1B114
100
AcDbEntity
  8
0
100
AcDbVertex
100
AcDb2dVertex
 10
482.5917791223298
 20
222.0668513959743
 30
0.0
 42
0.0001411711
  0
VERTEX
  5
1B138
330
1B114
100
AcDbEntity
  8
0
100
AcDbVertex
100
AcDb2dVertex
 10
482.59193512233
 20
222.0661761959744
 30
0.0
 42
0.0001412134
 70
     1
  0
VERTEX
  5
1B139
330
1B114
100
AcDbEntity
  8
0
100
AcDbVertex
100
AcDb2dVertex
 10
482.5920911223282
 20
222.0655013959739
 30
0.0
 42
0.0001412511
  0
VERTEX
  5
1B13A
330
1B114
100
AcDbEntity
  8
0
100
AcDbVertex
100
AcDb2dVertex
 10
482.5922471223281
 20
222.0648265959743
 30
0.0
 42
0.0001412907
 70
     1
  0
VERTEX
  5
1B13B
330
1B114
100
AcDbEntity
  8
0
100
AcDbVertex
100
AcDb2dVertex
 10
482.5924071223297
 20
222.0641521959741
 30
0.0
 42
0.000141321
  0
VERTEX
  5
1B13C
330
1B114
100
AcDbEntity
  8
0
100
AcDbVertex
100
AcDb2dVertex
 10
482.5925631223297
 20
222.0634777959743
 30
0.0
 42
0.0001413706
 70
     1
  0
VERTEX
  5
1B13D
330
1B114
100
AcDbEntity
  8
0
100
AcDbVertex
100
AcDb2dVertex
 10
482.5927231223293
 20
222.0628037959744
 30
0.0
 42
0.000141427
  0
VERTEX
  5
1B13E
330
1B114
100
AcDbEntity
  8
0
100
AcDbVertex
100
AcDb2dVertex
 10
482.5928791223294
 20
222.0621301959744
 30
0.0
 42
0.0001414403
 70
     1
  0
VERTEX
  5
1B13F
330
1B114
100
AcDbEntity
  8
0
100
AcDbVertex
100
AcDb2dVertex
 10
482.5930391223288
 20
222.0614565959739
 30
0.0
 42
0.0001414039
  0
VERTEX
  5
1B140
330
1B114
100
AcDbEntity
  8
0
100
AcDbVertex
100
AcDb2dVertex
 10
482.5931991223304
 20
222.0607833959742
 30
0.0
 42
0.0001415459
 70
     1
  0
VERTEX
  5
1B141
330
1B114
100
AcDbEntity
  8
0
100
AcDbVertex
100
AcDb2dVertex
 10
482.5933591223281
 20
222.0601101959745
 30
0.0
 42
0.000141834
  0
VERTEX
  5
1B142
330
1B114
100
AcDbEntity
  8
0
100
AcDbVertex
100
AcDb2dVertex
 10
482.5935191223296
 20
222.0594373959746
 30
0.0
 42
0.0001415231
 70
     1
  0
VERTEX
  5
1B143
330
1B114
100
AcDbEntity
  8
0
100
AcDbVertex
100
AcDb2dVertex
 10
482.593679122329
 20
222.0587649959747
 30
0.0
 42
0.0001406962
  0
VERTEX
  5
1B144
330
1B114
100
AcDbEntity
  8
0
100
AcDbVertex
100
AcDb2dVertex
 10
482.5938391223288
 20
222.0580929959741
 30
0.0
 42
0.0001419553
 70
     1
  0
VERTEX
  5
1B145
330
1B114
100
AcDbEntity
  8
0
100
AcDbVertex
100
AcDb2dVertex
 10
482.5939991223301
 20
222.0574205959741
 30
0.0
 42
0.0001448653
  0
VERTEX
  5
1B146
330
1B114
100
AcDbEntity
  8
0
100
AcDbVertex
100
AcDb2dVertex
 10
482.5941631223293
 20
222.0567473959744
 30
0.0
 42
0.0001407964
 70
     1
  0
VERTEX
  5
1B147
330
1B114
100
AcDbEntity
  8
0
100
AcDbVertex
100
AcDb2dVertex
 10
482.5943231223289
 20
222.0560769959742
 30
0.0
 42
0.0001315087
  0
VERTEX
  5
1B148
330
1B114
100
AcDbEntity
  8
0
100
AcDbVertex
100
AcDb2dVertex
 10
482.5944831223284
 20
222.0554109959743
 30
0.0
 42
0.0001451699
 70
     1
  0
VERTEX
  5
1B149
330
1B114
100
AcDbEntity
  8
0
100
AcDbVertex
100
AcDb2dVertex
 10
482.5946471223276
 20
222.0547345959743
 30
0.0
 42
0.000173069
  0
VERTEX
  5
1B14A
330
1B114
100
AcDbEntity
  8
0
100
AcDbVertex
100
AcDb2dVertex
 10
482.59481512233
 20
222.0540425959742
 30
0.0
 42
0.0001314456
 70
     1
  0
VERTEX
  5
1B14B
330
1B114
100
AcDbEntity
  8
0
100
AcDbVertex
100
AcDb2dVertex
 10
482.5949751223276
 20
222.0533933959744
 30
0.0
 42
0.0000451968
  0
VERTEX
  5
1B14C
330
1B114
100
AcDbEntity
  8
0
100
AcDbVertex
100
AcDb2dVertex
 10
482.5951151223295
 20
222.0528061959743
 30
0.0
 42
0.0001854031
 70
     1
  0
VERTEX
  5
1B14D
330
1B114
100
AcDbEntity
  8
0
100
AcDbVertex
100
AcDb2dVertex
 10
482.5952991223283
 20
222.0520529959748
 30
0.0
 42
0.0003191883
  0
VERTEX
  5
1B14E
330
1B114
100
AcDbEntity
  8
0
100
AcDbVertex
100
AcDb2dVertex
 10
482.5955871223293
 20
222.0508929959741
 30
0.0
 42
0.0001561868
 70
     1
  0
VERTEX
  5
1B14F
330
1B114
100
AcDbEntity
  8
0
100
AcDbVertex
100
AcDb2dVertex
 10
482.5959591223297
 20
222.0493749959745
 30
0.0
 42
0.0000828067
  0
SEQEND
  5
1B150
330
1B114
100
AcDbEntity
  8
0
  0
LINE
  5
1B151
330
1F
100
AcDbEntity
  8
0
100
AcDbLine
 10
482.5959591223297
 20
222.0493749959745
 30
0.0
 11
482.7959991223294
 21
221.8824885959742
 31
0.0
  0
POLYLINE
  5
1B152
330
1F
100
AcDbEntity
  8
0
100
AcDb2dPolyline
 66
     1
 10
0.0
 20
0.0
 30
0.0
 70
     2
  0
VERTEX
  5
1B153
330
1B152
100
AcDbEntity
  8
0
100
AcDbVertex
100
AcDb2dVertex
 10
482.8509311223286
 20
222.1184957959743
 30
0.0
  0
VERTEX
  5
1B154
330
1B152
100
AcDbEntity
  8
0
100
AcDbVertex
100
AcDb2dVertex
 10
482.9190031223286
 20
222.3828997959743
 30
0.0
 42
-0.031482316
 70
     1
  0
VERTEX
  5
1B155
330
1B152
100
AcDbEntity
  8
0
100
AcDbVertex
100
AcDb2dVertex
 10
483.0233751223302
 20
222.6539373959743
 30
0.0
 42
-0.027034791
  0
VERTEX
  5
1B156
330
1B152
100
AcDbEntity
  8
0
100
AcDbVertex
100
AcDb2dVertex
 10
483.1656551223303
 20
222.9332689959746
 30
0.0
 42
-0.024351359
 70
     1
  0
VERTEX
  5
1B157
330
1B152
100
AcDbEntity
  8
0
100
AcDbVertex
100
AcDb2dVertex
 10
483.3436591223279
 20
223.2111209959743
 30
0.0
 42
-0.026065751
  0
VERTEX
  5
1B158
330
1B152
100
AcDbEntity
  8
0
100
AcDbVertex
100
AcDb2dVertex
 10
483.5570271223284
 20
223.4756297959747
 30
0.0
 42
-0.026547494
 70
     1
  0
VERTEX
  5
1B159
330
1B152
100
AcDbEntity
  8
0
100
AcDbVertex
100
AcDb2dVertex
 10
483.7983831223288
 20
223.7181389959741
 30
0.0
 42
-0.026725029
  0
VERTEX
  5
1B15A
330
1B152
100
AcDbEntity
  8
0
100
AcDbVertex
100
AcDb2dVertex
 10
484.0612711223283
 20
223.9291225959745
 30
0.0
 42
-0.02746214
 70
     1
  0
VERTEX
  5
1B15B
330
1B152
100
AcDbEntity
  8
0
100
AcDbVertex
100
AcDb2dVertex
 10
484.3356991223289
 20
224.1036069959744
 30
0.0
 42
-0.028782819
  0
VERTEX
  5
1B15C
330
1B152
100
AcDbEntity
  8
0
100
AcDbVertex
100
AcDb2dVertex
 10
484.6124231223281
 20
224.2352825959741
 30
0.0
 42
-0.030289907
 70
     1
  0
VERTEX
  5
1B15D
330
1B152
100
AcDbEntity
  8
0
100
AcDbVertex
100
AcDb2dVertex
 10
484.88294312233
 20
224.3266249959746
 30
0.0
 42
-0.030118036
  0
VERTEX
  5
1B15E
330
1B152
100
AcDbEntity
  8
0
100
AcDbVertex
100
AcDb2dVertex
 10
485.1390391223293
 20
224.3775697959744
 30
0.0
 42
-0.033792026
 70
     1
  0
VERTEX
  5
1B15F
330
1B152
100
AcDbEntity
  8
0
100
AcDbVertex
100
AcDb2dVertex
 10
485.3761551223276
 20
224.3894349959745
 30
0.0
 42
-0.041011048
  0
VERTEX
  5
1B160
330
1B152
100
AcDbEntity
  8
0
100
AcDbVertex
100
AcDb2dVertex
 10
485.5896511223297
 20
224.364158195974
 30
0.0
 42
-0.035353316
 70
     1
  0
VERTEX
  5
1B161
330
1B152
100
AcDbEntity
  8
0
100
AcDbVertex
100
AcDb2dVertex
 10
485.7807591223288
 20
224.3254169959744
 30
0.0
 42
-0.0050226073
  0
VERTEX
  5
1B162
330
1B152
100
AcDbEntity
  8
0
100
AcDbVertex
100
AcDb2dVertex
 10
485.9544951223295
 20
224.2793837959742
 30
0.0
 42
-0.051623486
 70
     1
  0
VERTEX
  5
1B163
330
1B152
100
AcDbEntity
  8
0
100
AcDbVertex
100
AcDb2dVertex
 10
486.138007122329
 20
224.1421733959745
 30
0.0
 42
-0.11407204
  0
VERTEX
  5
1B164
330
1B152
100
AcDbEntity
  8
0
100
AcDbVertex
100
AcDb2dVertex
 10
486.3575231223284
 20
223.8233177959745
 30
0.0
 42
-0.047931557
 70
     1
  0
VERTEX
  5
1B165
330
1B152
100
AcDbEntity
  8
0
100
AcDbVertex
100
AcDb2dVertex
 10
486.6081191223281
 20
223.3417737959743
 30
0.0
 42
-0.020728831
  0
SEQEND
  5
1B166
330
1B152
100
AcDbEntity
  8
0
  0
POLYLINE
  5
1B167
330
1F
100
AcDbEntity
  8
0
100
AcDb2dPolyline
 66
     1
 10
0.0
 20
0.0
 30
0.0
 70
     2
  0
VERTEX
  5
1B168
330
1B167
100
AcDbEntity
  8
0
100
AcDbVertex
100
AcDb2dVertex
 10
485.7440111223283
 20
223.5837289959744
 30
0.0
  0
VERTEX
  5
1B169
330
1B167
100
AcDbEntity
  8
0
100
AcDbVertex
100
AcDb2dVertex
 10
485.8081911223297
 20
223.5658701959745
 30
0.0
 42
-0.0000832328
 70
     1
  0
VERTEX
  5
1B16A
330
1B167
100
AcDbEntity
  8
0
100
AcDbVertex
100
AcDb2dVertex
 10
485.8735471223306
 20
223.5476617959747
 30
0.0
 42
-0.0000729671
  0
VERTEX
  5
1B16B
330
1B167
100
AcDbEntity
  8
0
100
AcDbVertex
100
AcDb2dVertex
 10
485.939879122329
 20
223.5291601959742
 30
0.0
 42
-0.0000767892
 70
     1
  0
VERTEX
  5
1B16C
330
1B167
100
AcDbEntity
  8
0
100
AcDbVertex
100
AcDb2dVertex
 10
486.0088751223273
 20
223.5098905959743
 30
0.0
 42
-0.0000876712
  0
VERTEX
  5
1B16D
330
1B167
100
AcDbEntity
  8
0
100
AcDbVertex
100
AcDb2dVertex
 10
486.0812191223273
 20
223.4896597959745
 30
0.0
 42
-0.000063438
 70
     1
  0
VERTEX
  5
1B16E
330
1B167
100
AcDbEntity
  8
0
100
AcDbVertex
100
AcDb2dVertex
 10
486.1499951223274
 20
223.4704165959746
 30
0.0
 42
-0.000021235
  0
VERTEX
  5
1B16F
330
1B167
100
AcDbEntity
  8
0
100
AcDbVertex
100
AcDb2dVertex
 10
486.2128791223283
 20
223.4528101959739
 30
0.0
 42
-0.0000852323
 70
     1
  0
VERTEX
  5
1B170
330
1B167
100
AcDbEntity
  8
0
100
AcDbVertex
100
AcDb2dVertex
 10
486.2969071223294
 20
223.4292389959745
 30
0.0
 42
-0.0001357667
  0
VERTEX
  5
1B171
330
1B167
100
AcDbEntity
  8
0
100
AcDbVertex
100
AcDb2dVertex
 10
486.4305591223281
 20
223.3916909959742
 30
0.0
 42
-0.0000621483
 70
     1
  0
VERTEX
  5
1B172
330
1B167
100
AcDbEntity
  8
0
100
AcDbVertex
100
AcDb2dVertex
 10
486.6081191223281
 20
223.3417737959743
 30
0.0
 42
-0.0000319773
  0
SEQEND
  5
1B173
330
1B167
100
AcDbEntity
  8
0
  0
POLYLINE
  5
1B174
330
1F
100
AcDbEntity
  8
0
100
AcDb2dPolyline
 66
     1
 10
0.0
 20
0.0
 30
0.0
 70
     2
  0
VERTEX
  5
1B175
330
1B174
100
AcDbEntity
  8
0
100
AcDbVertex
100
AcDb2dVertex
 10
486.5914191223298
 20
222.5949265959742
 30
0.0
  0
VERTEX
  5
1B176
330
1B174
100
AcDbEntity
  8
0
100
AcDbVertex
100
AcDb2dVertex
 10
486.5113631223291
 20
222.6174541959743
 30
0.0
 42
0.0000533073
 70
     1
  0
VERTEX
  5
1B177
330
1B174
100
AcDbEntity
  8
0
100
AcDbVertex
100
AcDb2dVertex
 10
486.4329191223284
 20
222.6395097959747
 30
0.0
 42
0.0000504989
  0
VERTEX
  5
1B178
330
1B174
100
AcDbEntity
  8
0
100
AcDbVertex
100
AcDb2dVertex
 10
486.3563631223285
 20
222.6610169959744
 30
0.0
 42
0.00005749
 70
     1
  0
VERTEX
  5
1B179
330
1B174
100
AcDbEntity
  8
0
100
AcDbVertex
100
AcDb2dVertex
 10
486.2802111223288
 20
222.6823901959741
 30
0.0
 42
0.0000717772
  0
VERTEX
  5
1B17A
330
1B174
100
AcDbEntity
  8
0
100
AcDbVertex
100
AcDb2dVertex
 10
486.2040031223285
 20
222.7037553959743
 30
0.0
 42
0.000057058
 70
     1
  0
VERTEX
  5
1B17B
330
1B174
100
AcDbEntity
  8
0
100
AcDbVertex
100
AcDb2dVertex
 10
486.1332951223292
 20
222.7235669959744
 30
0.0
 42
0.000020055
  0
VERTEX
  5
1B17C
330
1B174
100
AcDbEntity
  8
0
100
AcDbVertex
100
AcDb2dVertex
 10
486.0700871223277
 20
222.7412685959742
 30
0.0
 42
0.000084195
 70
     1
  0
VERTEX
  5
1B17D
330
1B174
100
AcDbEntity
  8
0
100
AcDbVertex
100
AcDb2dVertex
 10
485.9921751223288
 20
222.7630409959741
 30
0.0
 42
0.0001569932
  0
VERTEX
  5
1B17E
330
1B174
100
AcDbEntity
  8
0
100
AcDbVertex
100
AcDb2dVertex
 10
485.8763991223283
 20
222.7953337959742
 30
0.0
 42
0.0000826012
 70
     1
  0
VERTEX
  5
1B17F
330
1B174
100
AcDbEntity
  8
0
100
AcDbVertex
100
AcDb2dVertex
 10
485.7273151223297
 20
222.8368785959745
 30
0.0
 42
0.0000453132
  0
SEQEND
  5
1B180
330
1B174
100
AcDbEntity
  8
0
  0
POLYLINE
  5
1B181
330
1F
100
AcDbEntity
  8
0
100
AcDb2dPolyline
 66
     1
 10
0.0
 20
0.0
 30
0.0
 70
     2
  0
VERTEX
  5
1B182
330
1B181
100
AcDbEntity
  8
0
100
AcDbVertex
100
AcDb2dVertex
 10
482.7959991223294
 20
221.8824885959742
 30
0.0
  0
VERTEX
  5
1B183
330
1B181
100
AcDbEntity
  8
0
100
AcDbVertex
100
AcDb2dVertex
 10
482.7986471223291
 20
221.8445969959747
 30
0.0
 42
0.0002556441
 70
     1
  0
VERTEX
  5
1B184
330
1B181
100
AcDbEntity
  8
0
100
AcDbVertex
100
AcDb2dVertex
 10
482.8013791223281
 20
221.8059997959743
 30
0.0
 42
0.0002240121
  0
VERTEX
  5
1B185
330
1B181
100
AcDbEntity
  8
0
100
AcDbVertex
100
AcDb2dVertex
 10
482.8041911223287
 20
221.7668177959744
 30
0.0
 42
0.0002356413
 70
     1
  0
VERTEX
  5
1B186
330
1B181
100
AcDbEntity
  8
0
100
AcDbVertex
100
AcDb2dVertex
 10
482.8071591223294
 20
221.7260505959742
 30
0.0
 42
0.0002689034
  0
VERTEX
  5
1B187
330
1B181
100
AcDbEntity
  8
0
100
AcDbVertex
100
AcDb2dVertex
 10
482.8103151223301
 20
221.6832917959744
 30
0.0
 42
0.0001944804
 70
     1
  0
VERTEX
  5
1B188
330
1B181
100
AcDbEntity
  8
0
100
AcDbVertex
100
AcDb2dVertex
 10
482.8133351223285
 20
221.6426405959745
 30
0.0
 42
0.0000650838
  0
VERTEX
  5
1B189
330
1B181
100
AcDbEntity
  8
0
100
AcDbVertex
100
AcDb2dVertex
 10
482.8161111223279
 20
221.6054649959741
 30
0.0
 42
0.0002611722
 70
     1
  0
VERTEX
  5
1B18A
330
1B181
100
AcDbEntity
  8
0
100
AcDbVertex
100
AcDb2dVertex
 10
482.8199031223291
 20
221.5557697959742
 30
0.0
 42
0.0004157131
  0
VERTEX
  5
1B18B
330
1B181
100
AcDbEntity
  8
0
100
AcDbVertex
100
AcDb2dVertex
 10
482.8260351223278
 20
221.4767037959744
 30
0.0
 42
0.0001901793
 70
     1
  0
VERTEX
  5
1B18C
330
1B181
100
AcDbEntity
  8
0
100
AcDbVertex
100
AcDb2dVertex
 10
482.8342351223297
 20
221.3716453959745
 30
0.0
 42
0.0000978272
  0
SEQEND
  5
1B18D
330
1B181
100
AcDbEntity
  8
0
  0
POLYLINE
  5
1B18E
330
1F
100
AcDbEntity
  8
0
100
AcDb2dPolyline
 66
     1
 10
0.0
 20
0.0
 30
0.0
 70
     2
  0
VERTEX
  5
1B18F
330
1B18E
100
AcDbEntity
  8
0
100
AcDbVertex
100
AcDb2dVertex
 10
486.5914191223298
 20
222.5949265959742
 30
0.0
  0
VERTEX
  5
1B190
330
1B18E
100
AcDbEntity
  8
0
100
AcDbVertex
100
AcDb2dVertex
 10
486.5068031223279
 20
222.2905881959744
 30
0.0
 42
-0.025053637
 70
     1
  0
VERTEX
  5
1B191
330
1B18E
100
AcDbEntity
  8
0
100
AcDbVertex
100
AcDb2dVertex
 10
486.3926671223278
 20
222.0015037959741
 30
0.0
 42
-0.027939583
  0
VERTEX
  5
1B192
330
1B18E
100
AcDbEntity
  8
0
100
AcDbVertex
100
AcDb2dVertex
 10
486.2464991223284
 20
221.7272553959745
 30
0.0
 42
-0.026437506
 70
     1
  0
VERTEX
  5
1B193
330
1B18E
100
AcDbEntity
  8
0
100
AcDbVertex
100
AcDb2dVertex
 10
486.0783591223287
 20
221.4744209959743
 30
0.0
 42
-0.023361077
  0
VERTEX
  5
1B194
330
1B18E
100
AcDbEntity
  8
0
100
AcDbVertex
100
AcDb2dVertex
 10
485.8973791223296
 20
221.2511493959745
 30
0.0
 42
-0.022657227
 70
     1
  0
VERTEX
  5
1B195
330
1B18E
100
AcDbEntity
  8
0
100
AcDbVertex
100
AcDb2dVertex
 10
485.7076191223283
 20
221.054155795974
 30
0.0
 42
-0.020610374
  0
VERTEX
  5
1B196
330
1B18E
100
AcDbEntity
  8
0
100
AcDbVertex
100
AcDb2dVertex
 10
485.5091071223276
 20
220.8801853959743
 30
0.0
 42
-0.021575378
 70
     1
  0
VERTEX
  5
1B197
330
1B18E
100
AcDbEntity
  8
0
100
AcDbVertex
100
AcDb2dVertex
 10
485.2941951223298
 20
220.7238005959742
 30
0.0
 42
-0.023847843
  0
VERTEX
  5
1B198
330
1B18E
100
AcDbEntity
  8
0
100
AcDbVertex
100
AcDb2dVertex
 10
485.0547191223293
 20
220.5830553959744
 30
0.0
 42
-0.023965548
 70
     1
  0
VERTEX
  5
1B199
330
1B18E
100
AcDbEntity
  8
0
100
AcDbVertex
100
AcDb2dVertex
 10
484.7965831223288
 20
220.4640153959743
 30
0.0
 42
-0.026828061
  0
VERTEX
  5
1B19A
330
1B18E
100
AcDbEntity
  8
0
100
AcDbVertex
100
AcDb2dVertex
 10
484.5266111223287
 20
220.3770085959739
 30
0.0
 42
-0.03258327
 70
     1
  0
VERTEX
  5
1B19B
330
1B18E
100
AcDbEntity
  8
0
100
AcDbVertex
100
AcDb2dVertex
 10
484.2513551223281
 20
220.3313429959742
 30
0.0
 42
-0.042631735
  0
VERTEX
  5
1B19C
330
1B18E
100
AcDbEntity
  8
0
100
AcDbVertex
100
AcDb2dVertex
 10
483.978479122329
 20
220.3350445959739
 30
0.0
 42
-0.039545251
 70
     1
  0
VERTEX
  5
1B19D
330
1B18E
100
AcDbEntity
  8
0
100
AcDbVertex
100
AcDb2dVertex
 10
483.7235231223283
 20
220.3700145959746
 30
0.0
 42
-0.023336806
  0
VERTEX
  5
1B19E
330
1B18E
100
AcDbEntity
  8
0
100
AcDbVertex
100
AcDb2dVertex
 10
483.4987351223288
 20
220.4320081959743
 30
0.0
 42
-0.058117725
 70
     1
  0
VERTEX
  5
1B19F
330
1B18E
100
AcDbEntity
  8
0
100
AcDbVertex
100
AcDb2dVertex
 10
483.2849671223273
 20
220.5861953959746
 30
0.0
 42
-0.10552416
  0
VERTEX
  5
1B1A0
330
1B18E
100
AcDbEntity
  8
0
100
AcDbVertex
100
AcDb2dVertex
 10
483.0624391223288
 20
220.9046661959745
 30
0.0
 42
-0.055920045
 70
     1
  0
VERTEX
  5
1B1A1
330
1B18E
100
AcDbEntity
  8
0
100
AcDbVertex
100
AcDb2dVertex
 10
482.8342351223297
 20
221.3716453959745
 30
0.0
 42
-0.028313014
  0
SEQEND
  5
1B1A2
330
1B18E
100
AcDbEntity
  8
0
  0
POLYLINE
  5
1B1A3
330
1F
100
AcDbEntity
  8
0
100
AcDb2dPolyline
 66
     1
 10
0.0
 20
0.0
 30
0.0
 70
     2
  0
VERTEX
  5
1B1A4
330
1B1A3
100
AcDbEntity
  8
0
100
AcDbVertex
100
AcDb2dVertex
 10
482.4908951223304
 20
222.1019789959745
 30
0.0
  0
VERTEX
  5
1B1A5
330
1B1A3
100
AcDbEntity
  8
0
100
AcDbVertex
100
AcDb2dVertex
 10
482.5100751223297
 20
222.0995681959747
 30
0.0
 42
0.0000108616
 70
     1
  0
VERTEX
  5
1B1A6
330
1B1A3
100
AcDbEntity
  8
0
100
AcDbVertex
100
AcDb2dVertex
 10
482.5291031223285
 20
222.0971773959744
 30
0.0
 42
0.000010036
  0
VERTEX
  5
1B1A7
330
1B1A3
100
AcDbEntity
  8
0
100
AcDbVertex
100
AcDb2dVertex
 10
482.5479151223287
 20
222.0948145959745
 30
0.0
 42
0.0000111328
 70
     1
  0
VERTEX
  5
1B1A8
330
1B1A3
100
AcDbEntity
  8
0
100
AcDbVertex
100
AcDb2dVertex
 10
482.566915122329
 20
222.0924293959741
 30
0.0
 42
0.0000134837
  0
VERTEX
  5
1B1A9
330
1B1A3
100
AcDbEntity
  8
0
100
AcDbVertex
100
AcDb2dVertex
 10
482.586239122328
 20
222.0900037959744
 30
0.0
 42
0.000010372
 70
     1
  0
VERTEX
  5
1B1AA
330
1B1A3
100
AcDbEntity
  8
0
100
AcDbVertex
100
AcDb2dVertex
 10
482.6043271223286
 20
222.0877345959746
 30
0.0
 42
0.0000035824
  0
VERTEX
  5
1B1AB
330
1B1A3
100
AcDbEntity
  8
0
100
AcDbVertex
100
AcDb2dVertex
 10
482.6206311223294
 20
222.0856893959743
 30
0.0
 42
0.0000147959
 70
     1
  0
VERTEX
  5
1B1AC
330
1B1A3
100
AcDbEntity
  8
0
100
AcDbVertex
100
AcDb2dVertex
 10
482.6413431223288
 20
222.083093395974
 30
0.0
 42
0.0000260037
  0
VERTEX
  5
1B1AD
330
1B1A3
100
AcDbEntity
  8
0
100
AcDbVertex
100
AcDb2dVertex
 10
482.6729511223281
 20
222.0791333959745
 30
0.0
 42
0.0000129549
 70
     1
  0
VERTEX
  5
1B1AE
330
1B1A3
100
AcDbEntity
  8
0
100
AcDbVertex
100
AcDb2dVertex
 10
482.7141751223287
 20
222.0739709959747
 30
0.0
 42
0.0000069249
  0
SEQEND
  5
1B1AF
330
1B1A3
100
AcDbEntity
  8
0
  0
POLYLINE
  5
1B1B0
330
1F
100
AcDbEntity
  8
0
100
AcDb2dPolyline
 66
     1
 10
0.0
 20
0.0
 30
0.0
 70
     2
  0
VERTEX
  5
1B1B1
330
1B1B0
100
AcDbEntity
  8
0
100
AcDbVertex
100
AcDb2dVertex
 10
482.7141751223287
 20
222.0739709959747
 30
0.0
  0
VERTEX
  5
1B1B2
330
1B1B0
100
AcDbEntity
  8
0
100
AcDbVertex
100
AcDb2dVertex
 10
482.7840151223289
 20
222.3578933959742
 30
0.0
 42
-0.031991718
 70
     1
  0
VERTEX
  5
1B1B3
330
1B1B0
100
AcDbEntity
  8
0
100
AcDbVertex
100
AcDb2dVertex
 10
482.893323122328
 20
222.6497325959743
 30
0.0
 42
-0.02733096
  0
VERTEX
  5
1B1B4
330
1B1B0
100
AcDbEntity
  8
0
100
AcDbVertex
100
AcDb2dVertex
 10
483.0438151223287
 20
222.9513241959747
 30
0.0
 42
-0.024556126
 70
     1
  0
VERTEX
  5
1B1B5
330
1B1B0
100
AcDbEntity
  8
0
100
AcDbVertex
100
AcDb2dVertex
 10
483.2333351223286
 20
223.2520077959747
 30
0.0
 42
-0.026314443
  0
VERTEX
  5
1B1B6
330
1B1B0
100
AcDbEntity
  8
0
100
AcDbVertex
100
AcDb2dVertex
 10
483.4617391223281
 20
223.5388749959742
 30
0.0
 42
-0.026775891
 70
     1
  0
VERTEX
  5
1B1B7
330
1B1B0
100
AcDbEntity
  8
0
100
AcDbVertex
100
AcDb2dVertex
 10
483.7210551223296
 20
223.8023137959743
 30
0.0
 42
-0.026948653
  0
VERTEX
  5
1B1B8
330
1B1B0
100
AcDbEntity
  8
0
100
AcDbVertex
100
AcDb2dVertex
 10
484.0043031223292
 20
224.0317773959744
 30
0.0
 42
-0.027676379
 70
     1
  0
VERTEX
  5
1B1B9
330
1B1B0
100
AcDbEntity
  8
0
100
AcDbVertex
100
AcDb2dVertex
 10
484.300495122329
 20
224.2216597959744
 30
0.0
 42
-0.029007243
  0
VERTEX
  5
1B1BA
330
1B1B0
100
AcDbEntity
  8
0
100
AcDbVertex
100
AcDb2dVertex
 10
484.5994751223305
 20
224.3649337959745
 30
0.0
 42
-0.03054359
 70
     1
  0
VERTEX
  5
1B1BB
330
1B1B0
100
AcDbEntity
  8
0
100
AcDbVertex
100
AcDb2dVertex
 10
484.8918711223276
 20
224.4642245959743
 30
0.0
 42
-0.030391927
  0
VERTEX
  5
1B1BC
330
1B1B0
100
AcDbEntity
  8
0
100
AcDbVertex
100
AcDb2dVertex
 10
485.1686151223301
 20
224.5194257959746
 30
0.0
 42
-0.034103159
 70
     1
  0
VERTEX
  5
1B1BD
330
1B1B0
100
AcDbEntity
  8
0
100
AcDbVertex
100
AcDb2dVertex
 10
485.4246111223298
 20
224.5320385959743
 30
0.0
 42
-0.041367299
  0
VERTEX
  5
1B1BE
330
1B1B0
100
AcDbEntity
  8
0
100
AcDbVertex
100
AcDb2dVertex
 10
485.6547671223276
 20
224.5042305959745
 30
0.0
 42
-0.035744137
 70
     1
  0
VERTEX
  5
1B1BF
330
1B1B0
100
AcDbEntity
  8
0
100
AcDbVertex
100
AcDb2dVertex
 10
485.8609031223283
 20
224.4617177959743
 30
0.0
 42
-0.0051054404
  0
VERTEX
  5
1B1C0
330
1B1B0
100
AcDbEntity
  8
0
100
AcDbVertex
100
AcDb2dVertex
 10
486.0487071223294
 20
224.4111081959744
 30
0.0
 42
-0.052208294
 70
     1
  0
VERTEX
  5
1B1C1
330
1B1B0
100
AcDbEntity
  8
0
100
AcDbVertex
100
AcDb2dVertex
 10
486.2460671223278
 20
224.2608945959744
 30
0.0
 42
-0.11541597
  0
VERTEX
  5
1B1C2
330
1B1B0
100
AcDbEntity
  8
0
100
AcDbVertex
100
AcDb2dVertex
 10
486.4797991223283
 20
223.9123977959742
 30
0.0
 42
-0.048386306
 70
     1
  0
VERTEX
  5
1B1C3
330
1B1B0
100
AcDbEntity
  8
0
100
AcDbVertex
100
AcDb2dVertex
 10
486.7448751223299
 20
223.3863017959742
 30
0.0
 42
-0.020841376
  0
SEQEND
  5
1B1C4
330
1B1B0
100
AcDbEntity
  8
0
  0
POLYLINE
  5
1B1C5
330
1F
100
AcDbEntity
  8
0
100
AcDb2dPolyline
 66
     1
 10
0.0
 20
0.0
 30
0.0
 70
     2
  0
VERTEX
  5
1B1C6
330
1B1C5
100
AcDbEntity
  8
0
100
AcDbVertex
100
AcDb2dVertex
 10
486.7448751223299
 20
223.3863017959742
 30
0.0
  0
VERTEX
  5
1B1C7
330
1B1C5
100
AcDbEntity
  8
0
100
AcDbVertex
100
AcDb2dVertex
 10
486.7489031223273
 20
223.3957669959744
 30
0.0
 42
0.0000388251
 70
     1
  0
VERTEX
  5
1B1C8
330
1B1C5
100
AcDbEntity
  8
0
100
AcDbVertex
100
AcDb2dVertex
 10
486.7529391223294
 20
223.405253795974
 30
0.0
 42
0.0000351522
  0
VERTEX
  5
1B1C9
330
1B1C5
100
AcDbEntity
  8
0
100
AcDbVertex
100
AcDb2dVertex
 10
486.7569711223302
 20
223.4147305959744
 30
0.0
 42
0.000038195
 70
     1
  0
VERTEX
  5
1B1CA
330
1B1C5
100
AcDbEntity
  8
0
100
AcDbVertex
100
AcDb2dVertex
 10
486.7610871223284
 20
223.4244161959744
 30
0.0
 42
0.0000451811
  0
VERTEX
  5
1B1CB
330
1B1C5
100
AcDbEntity
  8
0
100
AcDbVertex
100
AcDb2dVertex
 10
486.7653271223288
 20
223.4343917959744
 30
0.0
 42
0.0000339002
 70
     1
  0
VERTEX
  5
1B1CC
330
1B1C5
100
AcDbEntity
  8
0
100
AcDbVertex
100
AcDb2dVertex
 10
486.7693191223287
 20
223.4437885959745
 30
0.0
 42
0.0000115588
  0
VERTEX
  5
1B1CD
330
1B1C5
100
AcDbEntity
  8
0
100
AcDbVertex
100
AcDb2dVertex
 10
486.7729351223286
 20
223.4523097959744
 30
0.0
 42
0.0000471736
 70
     1
  0
VERTEX
  5
1B1CE
330
1B1C5
100
AcDbEntity
  8
0
100
AcDbVertex
100
AcDb2dVertex
 10
486.7776311223287
 20
223.4633713959746
 30
0.0
 42
0.0000795201
  0
VERTEX
  5
1B1CF
330
1B1C5
100
AcDbEntity
  8
0
100
AcDbVertex
100
AcDb2dVertex
 10
486.7849191223291
 20
223.4805625959746
 30
0.0
 42
0.0000381853
 70
     1
  0
VERTEX
  5
1B1D0
330
1B1C5
100
AcDbEntity
  8
0
100
AcDbVertex
100
AcDb2dVertex
 10
486.7945031223286
 20
223.5031681959743
 30
0.0
 42
0.00002007
  0
SEQEND
  5
1B1D1
330
1B1C5
100
AcDbEntity
  8
0
  0
POLYLINE
  5
1B1D2
330
1F
100
AcDbEntity
  8
0
100
AcDb2dPolyline
 66
     1
 10
0.0
 20
0.0
 30
0.0
 70
     2
  0
VERTEX
  5
1B1D3
330
1B1D2
100
AcDbEntity
  8
0
100
AcDbVertex
100
AcDb2dVertex
 10
482.4908951223304
 20
222.1019789959745
 30
0.0
  0
VERTEX
  5
1B1D4
330
1B1D2
100
AcDbEntity
  8
0
100
AcDbVertex
100
AcDb2dVertex
 10
482.5624631223297
 20
222.4053381959742
 30
0.0
 42
-0.032444917
 70
     1
  0
VERTEX
  5
1B1D5
330
1B1D2
100
AcDbEntity
  8
0
100
AcDbVertex
100
AcDb2dVertex
 10
482.6766551223289
 20
222.7179121959747
 30
0.0
 42
-0.027592154
  0
VERTEX
  5
1B1D6
330
1B1D2
100
AcDbEntity
  8
0
100
AcDbVertex
100
AcDb2dVertex
 10
482.8352951223284
 20
223.0417105959744
 30
0.0
 42
-0.024736378
 70
     1
  0
VERTEX
  5
1B1D7
330
1B1D2
100
AcDbEntity
  8
0
100
AcDbVertex
100
AcDb2dVertex
 10
483.0362591223281
 20
223.3651909959743
 30
0.0
 42
-0.026533896
  0
VERTEX
  5
1B1D8
330
1B1D2
100
AcDbEntity
  8
0
100
AcDbVertex
100
AcDb2dVertex
 10
483.2796391223281
 20
223.6744073959743
 30
0.0
 42
-0.026976491
 70
     1
  0
VERTEX
  5
1B1D9
330
1B1D2
100
AcDbEntity
  8
0
100
AcDbVertex
100
AcDb2dVertex
 10
483.5568671223288
 20
223.9587869959745
 30
0.0
 42
-0.027144963
  0
VERTEX
  5
1B1DA
330
1B1D2
100
AcDbEntity
  8
0
100
AcDbVertex
100
AcDb2dVertex
 10
483.8604351223301
 20
224.2067569959743
 30
0.0
 42
-0.027863764
 70
     1
  0
VERTEX
  5
1B1DB
330
1B1D2
100
AcDbEntity
  8
0
100
AcDbVertex
100
AcDb2dVertex
 10
484.1783751223291
 20
224.4120697959741
 30
0.0
 42
-0.029203516
  0
VERTEX
  5
1B1DC
330
1B1D2
100
AcDbEntity
  8
0
100
AcDbVertex
100
AcDb2dVertex
 10
484.4996071223293
 20
224.5669733959743
 30
0.0
 42
-0.030765187
 70
     1
  0
VERTEX
  5
1B1DD
330
1B1D2
100
AcDbEntity
  8
0
100
AcDbVertex
100
AcDb2dVertex
 10
484.8138831223303
 20
224.6742369959746
 30
0.0
 42
-0.030631149
  0
VERTEX
  5
1B1DE
330
1B1D2
100
AcDbEntity
  8
0
100
AcDbVertex
100
AcDb2dVertex
 10
485.1112911223288
 20
224.7337101959741
 30
0.0
 42
-0.034375827
 70
     1
  0
VERTEX
  5
1B1DF
330
1B1D2
100
AcDbEntity
  8
0
100
AcDbVertex
100
AcDb2dVertex
 10
485.3861711223278
 20
224.7470785959743
 30
0.0
 42
-0.041679319
  0
VERTEX
  5
1B1E0
330
1B1D2
100
AcDbEntity
  8
0
100
AcDbVertex
100
AcDb2dVertex
 10
485.6329871223286
 20
224.7167409959742
 30
0.0
 42
-0.036087606
 70
     1
  0
VERTEX
  5
1B1E1
330
1B1D2
100
AcDbEntity
  8
0
100
AcDbVertex
100
AcDb2dVertex
 10
485.8541631223295
 20
224.6704505959741
 30
0.0
 42
-0.005183138
  0
VERTEX
  5
1B1E2
330
1B1D2
100
AcDbEntity
  8
0
100
AcDbVertex
100
AcDb2dVertex
 10
486.0560391223287
 20
224.6152497959746
 30
0.0
 42
-0.052720467
 70
     1
  0
VERTEX
  5
1B1E3
330
1B1D2
100
AcDbEntity
  8
0
100
AcDbVertex
100
AcDb2dVertex
 10
486.2672191223288
 20
224.4520113959742
 30
0.0
 42
-0.11658675
  0
VERTEX
  5
1B1E4
330
1B1D2
100
AcDbEntity
  8
0
100
AcDbVertex
100
AcDb2dVertex
 10
486.5150751223288
 20
224.0738477959743
 30
0.0
 42
-0.048777966
 70
     1
  0
VERTEX
  5
1B1E5
330
1B1D2
100
AcDbEntity
  8
0
100
AcDbVertex
100
AcDb2dVertex
 10
486.7945031223286
 20
223.5031681959743
 30
0.0
 42
-0.02093695
  0
SEQEND
  5
1B1E6
330
1B1D2
100
AcDbEntity
  8
0
  0
POLYLINE
  5
1B1E7
330
1F
100
AcDbEntity
  8
0
100
AcDb2dPolyline
 66
     1
 10
0.0
 20
0.0
 30
0.0
 70
     2
  0
VERTEX
  5
1B1E8
330
1B1E7
100
AcDbEntity
  8
0
100
AcDbVertex
100
AcDb2dVertex
 10
486.777807122328
 20
222.756317795974
 30
0.0
  0
VERTEX
  5
1B1E9
330
1B1E7
100
AcDbEntity
  8
0
100
AcDbVertex
100
AcDb2dVertex
 10
486.773551122328
 20
222.7462757959746
 30
0.0
 42
-0.0000335231
 70
     1
  0
VERTEX
  5
1B1EA
330
1B1E7
100
AcDbEntity
  8
0
100
AcDbVertex
100
AcDb2dVertex
 10
486.7693271223294
 20
222.7363145959742
 30
0.0
 42
-0.000030974
  0
VERTEX
  5
1B1EB
330
1B1E7
100
AcDbEntity
  8
0
100
AcDbVertex
100
AcDb2dVertex
 10
486.7651511223272
 20
222.7264665959745
 30
0.0
 42
-0.0000343571
 70
     1
  0
VERTEX
  5
1B1EC
330
1B1E7
100
AcDbEntity
  8
0
100
AcDbVertex
100
AcDb2dVertex
 10
486.7609311223285
 20
222.7165213959746
 30
0.0
 42
-0.00004161
  0
VERTEX
  5
1B1ED
330
1B1E7
100
AcDbEntity
  8
0
100
AcDbVertex
100
AcDb2dVertex
 10
486.7566391223288
 20
222.706405795974
 30
0.0
 42
-0.0000320053
 70
     1
  0
VERTEX
  5
1B1EE
330
1B1E7
100
AcDbEntity
  8
0
100
AcDbVertex
100
AcDb2dVertex
 10
486.7526191223285
 20
222.6969385959741
 30
0.0
 42
-0.0000110543
  0
VERTEX
  5
1B1EF
330
1B1E7
100
AcDbEntity
  8
0
100
AcDbVertex
100
AcDb2dVertex
 10
486.7489951223294
 20
222.6884057959745
 30
0.0
 42
-0.0000456539
 70
     1
  0
VERTEX
  5
1B1F0
330
1B1E7
100
AcDbEntity
  8
0
100
AcDbVertex
100
AcDb2dVertex
 10
486.7443911223278
 20
222.6775657959741
 30
0.0
 42
-0.0000802286
  0
VERTEX
  5
1B1F1
330
1B1E7
100
AcDbEntity
  8
0
100
AcDbVertex
100
AcDb2dVertex
 10
486.7373551223288
 20
222.6610233959744
 30
0.0
 42
-0.0000399657
 70
     1
  0
VERTEX
  5
1B1F2
330
1B1E7
100
AcDbEntity
  8
0
100
AcDbVertex
100
AcDb2dVertex
 10
486.7281791223293
 20
222.6394509959745
 30
0.0
 42
-0.0000213624
  0
SEQEND
  5
1B1F3
330
1B1E7
100
AcDbEntity
  8
0
  0
POLYLINE
  5
1B1F4
330
1F
100
AcDbEntity
  8
0
100
AcDb2dPolyline
 66
     1
 10
0.0
 20
0.0
 30
0.0
 70
     2
  0
VERTEX
  5
1B1F5
330
1B1F4
100
AcDbEntity
  8
0
100
AcDbVertex
100
AcDb2dVertex
 10
486.7281791223293
 20
222.6394509959745
 30
0.0
  0
VERTEX
  5
1B1F6
330
1B1F4
100
AcDbEntity
  8
0
100
AcDbVertex
100
AcDb2dVertex
 10
486.6401551223287
 20
222.3102233959743
 30
0.0
 42
-0.025511567
 70
     1
  0
VERTEX
  5
1B1F7
330
1B1F4
100
AcDbEntity
  8
0
100
AcDbVertex
100
AcDb2dVertex
 10
486.5194471223283
 20
221.9970689959744
 30
0.0
 42
-0.028393973
  0
VERTEX
  5
1B1F8
330
1B1F4
100
AcDbEntity
  8
0
100
AcDbVertex
100
AcDb2dVertex
 10
486.3632831223283
 20
221.6994825959744
 30
0.0
 42
-0.026800171
 70
     1
  0
VERTEX
  5
1B1F9
330
1B1F4
100
AcDbEntity
  8
0
100
AcDbVertex
100
AcDb2dVertex
 10
486.1826591223296
 20
221.4248409959744
 30
0.0
 42
-0.023682501
  0
VERTEX
  5
1B1FA
330
1B1F4
100
AcDbEntity
  8
0
100
AcDbVertex
100
AcDb2dVertex
 10
485.9875631223283
 20
221.1822573959743
 30
0.0
 42
-0.022932178
 70
     1
  0
VERTEX
  5
1B1FB
330
1B1F4
100
AcDbEntity
  8
0
100
AcDbVertex
100
AcDb2dVertex
 10
485.7827991223283
 20
220.9684269959742
 30
0.0
 42
-0.020798389
  0
VERTEX
  5
1B1FC
330
1B1F4
100
AcDbEntity
  8
0
100
AcDbVertex
100
AcDb2dVertex
 10
485.5687351223285
 20
220.7800109959743
 30
0.0
 42
-0.02179559
 70
     1
  0
VERTEX
  5
1B1FD
330
1B1F4
100
AcDbEntity
  8
0
100
AcDbVertex
100
AcDb2dVertex
 10
485.3369391223282
 20
220.6108921959743
 30
0.0
 42
-0.024056517
  0
VERTEX
  5
1B1FE
330
1B1F4
100
AcDbEntity
  8
0
100
AcDbVertex
100
AcDb2dVertex
 10
485.0783711223292
 20
220.4587465959742
 30
0.0
 42
-0.02414938
 70
     1
  0
VERTEX
  5
1B1FF
330
1B1F4
100
AcDbEntity
  8
0
100
AcDbVertex
100
AcDb2dVertex
 10
484.7994391223299
 20
220.3302529959745
 30
0.0
 42
-0.027114148
  0
VERTEX
  5
1B200
330
1B1F4
100
AcDbEntity
  8
0
100
AcDbVertex
100
AcDb2dVertex
 10
484.5076431223287
 20
220.2367753959741
 30
0.0
 42
-0.032943814
 70
     1
  0
VERTEX
  5
1B201
330
1B1F4
100
AcDbEntity
  8
0
100
AcDbVertex
100
AcDb2dVertex
 10
484.2103191223276
 20
220.1884673959747
 30
0.0
 42
-0.043097369
  0
VERTEX
  5
1B202
330
1B1F4
100
AcDbEntity
  8
0
100
AcDbVertex
100
AcDb2dVertex
 10
483.9159751223294
 20
220.1940773959744
 30
0.0
 42
-0.040095866
 70
     1
  0
VERTEX
  5
1B203
330
1B1F4
100
AcDbEntity
  8
0
100
AcDbVertex
100
AcDb2dVertex
 10
483.6412711223282
 20
220.2338857959742
 30
0.0
 42
-0.023869354
  0
VERTEX
  5
1B204
330
1B1F4
100
AcDbEntity
  8
0
100
AcDbVertex
100
AcDb2dVertex
 10
483.3995151223287
 20
220.3031701959743
 30
0.0
 42
-0.058787446
 70
     1
  0
VERTEX
  5
1B205
330
1B1F4
100
AcDbEntity
  8
0
100
AcDbVertex
100
AcDb2dVertex
 10
483.171183122328
 20
220.4723445959742
 30
0.0
 42
-0.10616936
  0
VERTEX
  5
1B206
330
1B1F4
100
AcDbEntity
  8
0
100
AcDbVertex
100
AcDb2dVertex
 10
482.9361511223295
 20
220.8193489959743
 30
0.0
 42
-0.056166103
 70
     1
  0
VERTEX
  5
1B207
330
1B1F4
100
AcDbEntity
  8
0
100
AcDbVertex
100
AcDb2dVertex
 10
482.6974751223286
 20
221.3271205959744
 30
0.0
 42
-0.028415362
  0
SEQEND
  5
1B208
330
1B1F4
100
AcDbEntity
  8
0
  0
POLYLINE
  5
1B209
330
1F
100
AcDbEntity
  8
0
100
AcDb2dPolyline
 66
     1
 10
0.0
 20
0.0
 30
0.0
 70
     2
  0
VERTEX
  5
1B20A
330
1B209
100
AcDbEntity
  8
0
100
AcDbVertex
100
AcDb2dVertex
 10
482.6974751223286
 20
221.3271205959744
 30
0.0
  0
VERTEX
  5
1B20B
330
1B209
100
AcDbEntity
  8
0
100
AcDbVertex
100
AcDb2dVertex
 10
482.6793871223297
 20
221.3293849959744
 30
0.0
 42
-0.0000125914
 70
     1
  0
VERTEX
  5
1B20C
330
1B209
100
AcDbEntity
  8
0
100
AcDbVertex
100
AcDb2dVertex
 10
482.661259122328
 20
221.3316553959742
 30
0.0
 42
-0.0000113998
  0
VERTEX
  5
1B20D
330
1B209
100
AcDbEntity
  8
0
100
AcDbVertex
100
AcDb2dVertex
 10
482.643151122328
 20
221.3339237959743
 30
0.0
 42
-0.0000123858
 70
     1
  0
VERTEX
  5
1B20E
330
1B209
100
AcDbEntity
  8
0
100
AcDbVertex
100
AcDb2dVertex
 10
482.6246431223288
 20
221.3362433959745
 30
0.0
 42
-0.0000146503
  0
VERTEX
  5
1B20F
330
1B209
100
AcDbEntity
  8
0
100
AcDbVertex
100
AcDb2dVertex
 10
482.6055831223282
 20
221.3386333959741
 30
0.0
 42
-0.0000109918
 70
     1
  0
VERTEX
  5
1B210
330
1B209
100
AcDbEntity
  8
0
100
AcDbVertex
100
AcDb2dVertex
 10
482.5876271223285
 20
221.3408853959744
 30
0.0
 42
-0.0000037477
  0
VERTEX
  5
1B211
330
1B209
100
AcDbEntity
  8
0
100
AcDbVertex
100
AcDb2dVertex
 10
482.5713471223287
 20
221.3429273959744
 30
0.0
 42
-0.0000152946
 70
     1
  0
VERTEX
  5
1B212
330
1B209
100
AcDbEntity
  8
0
100
AcDbVertex
100
AcDb2dVertex
 10
482.5502151223289
 20
221.3455805959742
 30
0.0
 42
-0.0000257794
  0
VERTEX
  5
1B213
330
1B209
100
AcDbEntity
  8
0
100
AcDbVertex
100
AcDb2dVertex
 10
482.517375122329
 20
221.3497061959741
 30
0.0
 42
-0.0000123781
 70
     1
  0
VERTEX
  5
1B214
330
1B209
100
AcDbEntity
  8
0
100
AcDbVertex
100
AcDb2dVertex
 10
482.4741911223289
 20
221.3551317959744
 30
0.0
 42
-0.0000065057
  0
SEQEND
  5
1B215
330
1B209
100
AcDbEntity
  8
0
  0
POLYLINE
  5
1B216
330
1F
100
AcDbEntity
  8
0
100
AcDb2dPolyline
 66
     1
 10
0.0
 20
0.0
 30
0.0
 70
     2
  0
VERTEX
  5
1B217
330
1B216
100
AcDbEntity
  8
0
100
AcDbVertex
100
AcDb2dVertex
 10
486.777807122328
 20
222.756317795974
 30
0.0
  0
VERTEX
  5
1B218
330
1B216
100
AcDbEntity
  8
0
100
AcDbVertex
100
AcDb2dVertex
 10
486.6864551223287
 20
222.4022537959744
 30
0.0
 42
-0.025919555
 70
     1
  0
VERTEX
  5
1B219
330
1B216
100
AcDbEntity
  8
0
100
AcDbVertex
100
AcDb2dVertex
 10
486.5592311223288
 20
222.0650609959742
 30
0.0
 42
-0.028797581
  0
VERTEX
  5
1B21A
330
1B216
100
AcDbEntity
  8
0
100
AcDbVertex
100
AcDb2dVertex
 10
486.3931231223294
 20
221.744142595974
 30
0.0
 42
-0.027120105
 70
     1
  0
VERTEX
  5
1B21B
330
1B216
100
AcDbEntity
  8
0
100
AcDbVertex
100
AcDb2dVertex
 10
486.200047122328
 20
221.4476869959743
 30
0.0
 42
-0.023965596
  0
VERTEX
  5
1B21C
330
1B216
100
AcDbEntity
  8
0
100
AcDbVertex
100
AcDb2dVertex
 10
485.9908551223297
 20
221.1857809959746
 30
0.0
 42
-0.023174925
 70
     1
  0
VERTEX
  5
1B21D
330
1B216
100
AcDbEntity
  8
0
100
AcDbVertex
100
AcDb2dVertex
 10
485.7710951223296
 20
220.9551037959744
 30
0.0
 42
-0.020964543
  0
VERTEX
  5
1B21E
330
1B216
100
AcDbEntity
  8
0
100
AcDbVertex
100
AcDb2dVertex
 10
485.5414751223277
 20
220.7522333959745
 30
0.0
 42
-0.021989002
 70
     1
  0
VERTEX
  5
1B21F
330
1B216
100
AcDbEntity
  8
0
100
AcDbVertex
100
AcDb2dVertex
 10
485.2927871223299
 20
220.5703765959741
 30
0.0
 42
-0.024239771
  0
VERTEX
  5
1B220
330
1B216
100
AcDbEntity
  8
0
100
AcDbVertex
100
AcDb2dVertex
 10
485.0151151223297
 20
220.4068337959742
 30
0.0
 42
-0.024311964
 70
     1
  0
VERTEX
  5
1B221
330
1B216
100
AcDbEntity
  8
0
100
AcDbVertex
100
AcDb2dVertex
 10
484.7153871223297
 20
220.2688985959747
 30
0.0
 42
-0.027366855
  0
VERTEX
  5
1B222
330
1B216
100
AcDbEntity
  8
0
100
AcDbVertex
100
AcDb2dVertex
 10
484.4017591223281
 20
220.1689721959745
 30
0.0
 42
-0.033261503
 70
     1
  0
VERTEX
  5
1B223
330
1B216
100
AcDbEntity
  8
0
100
AcDbVertex
100
AcDb2dVertex
 10
484.0823671223303
 20
220.1180529959741
 30
0.0
 42
-0.043507996
  0
VERTEX
  5
1B224
330
1B216
100
AcDbEntity
  8
0
100
AcDbVertex
100
AcDb2dVertex
 10
483.7665751223291
 20
220.1256125959743
 30
0.0
 42
-0.040583194
 70
     1
  0
VERTEX
  5
1B225
330
1B216
100
AcDbEntity
  8
0
100
AcDbVertex
100
AcDb2dVertex
 10
483.4721591223286
 20
220.1703089959745
 30
0.0
 42
-0.024342587
  0
VERTEX
  5
1B226
330
1B216
100
AcDbEntity
  8
0
100
AcDbVertex
100
AcDb2dVertex
 10
483.2134831223274
 20
220.2469341959739
 30
0.0
 42
-0.059373728
 70
     1
  0
VERTEX
  5
1B227
330
1B216
100
AcDbEntity
  8
0
100
AcDbVertex
100
AcDb2dVertex
 10
482.9706551223288
 20
220.4311213959744
 30
0.0
 42
-0.10671032
  0
VERTEX
  5
1B228
330
1B216
100
AcDbEntity
  8
0
100
AcDbVertex
100
AcDb2dVertex
 10
482.72321112233
 20
220.8066357959741
 30
0.0
 42
-0.056367688
 70
     1
  0
VERTEX
  5
1B229
330
1B216
100
AcDbEntity
  8
0
100
AcDbVertex
100
AcDb2dVertex
 10
482.4741911223289
 20
221.3551317959744
 30
0.0
 42
-0.028499332
  0
SEQEND
  5
1B22A
330
1B216
100
AcDbEntity
  8
0
  0
POLYLINE
  5
1B22B
330
1F
100
AcDbEntity
  8
0
100
AcDb2dPolyline
 66
     1
 10
0.0
 20
0.0
 30
0.0
 70
     2
  0
VERTEX
  5
1B22C
330
1B22B
100
AcDbEntity
  8
0
100
AcDbVertex
100
AcDb2dVertex
 10
486.2434991223296
 20
223.4442185959745
 30
0.0
  0
VERTEX
  5
1B22D
330
1B22B
100
AcDbEntity
  8
0
100
AcDbVertex
100
AcDb2dVertex
 10
486.2431591223291
 20
223.4406269959744
 30
0.0
 42
-0.0003696009
 70
     1
  0
VERTEX
  5
1B22E
330
1B22B
100
AcDbEntity
  8
0
100
AcDbVertex
100
AcDb2dVertex
 10
486.2428111223295
 20
223.4370341959742
 30
0.0
 42
-0.0003693002
  0
VERTEX
  5
1B22F
330
1B22B
100
AcDbEntity
  8
0
100
AcDbVertex
100
AcDb2dVertex
 10
486.2424591223287
 20
223.4334405959742
 30
0.0
 42
-0.0003689211
 70
     1
  0
VERTEX
  5
1B230
330
1B22B
100
AcDbEntity
  8
0
100
AcDbVertex
100
AcDb2dVertex
 10
486.2421031223282
 20
223.4298457959743
 30
0.0
 42
-0.0003684891
  0
VERTEX
  5
1B231
330
1B22B
100
AcDbEntity
  8
0
100
AcDbVertex
100
AcDb2dVertex
 10
486.2417391223287
 20
223.4262497959742
 30
0.0
 42
-0.0003680702
 70
     1
  0
VERTEX
  5
1B232
330
1B22B
100
AcDbEntity
  8
0
100
AcDbVertex
100
AcDb2dVertex
 10
486.2413711223296
 20
223.4226525959742
 30
0.0
 42
-0.000367671
  0
VERTEX
  5
1B233
330
1B22B
100
AcDbEntity
  8
0
100
AcDbVertex
100
AcDb2dVertex
 10
486.2409991223292
 20
223.419054195974
 30
0.0
 42
-0.0003672631
 70
     1
  0
VERTEX
  5
1B234
330
1B22B
100
AcDbEntity
  8
0
100
AcDbVertex
100
AcDb2dVertex
 10
486.2406191223296
 20
223.4154549959743
 30
0.0
 42
-0.0003668569
  0
VERTEX
  5
1B235
330
1B22B
100
AcDbEntity
  8
0
100
AcDbVertex
100
AcDb2dVertex
 10
486.2402351223289
 20
223.4118545959744
 30
0.0
 42
-0.0003664479
 70
     1
  0
VERTEX
  5
1B236
330
1B22B
100
AcDbEntity
  8
0
100
AcDbVertex
100
AcDb2dVertex
 10
486.2398431223288
 20
223.4082533959743
 30
0.0
 42
-0.0003660441
  0
VERTEX
  5
1B237
330
1B22B
100
AcDbEntity
  8
0
100
AcDbVertex
100
AcDb2dVertex
 10
486.2394471223276
 20
223.4046509959743
 30
0.0
 42
-0.0003656369
 70
     1
  0
VERTEX
  5
1B238
330
1B22B
100
AcDbEntity
  8
0
100
AcDbVertex
100
AcDb2dVertex
 10
486.2390471223305
 20
223.4010473959741
 30
0.0
 42
-0.0003652336
  0
VERTEX
  5
1B239
330
1B22B
100
AcDbEntity
  8
0
100
AcDbVertex
100
AcDb2dVertex
 10
486.2386391223288
 20
223.3974429959743
 30
0.0
 42
-0.0003648272
 70
     1
  0
VERTEX
  5
1B23A
330
1B22B
100
AcDbEntity
  8
0
100
AcDbVertex
100
AcDb2dVertex
 10
486.2382271223294
 20
223.3938377959742
 30
0.0
 42
-0.0003644248
  0
VERTEX
  5
1B23B
330
1B22B
100
AcDbEntity
  8
0
100
AcDbVertex
100
AcDb2dVertex
 10
486.2378111223286
 20
223.3902313959742
 30
0.0
 42
-0.0003640198
 70
     1
  0
VERTEX
  5
1B23C
330
1B22B
100
AcDbEntity
  8
0
100
AcDbVertex
100
AcDb2dVertex
 10
486.2373871223288
 20
223.3866241959739
 30
0.0
 42
-0.000363618
  0
VERTEX
  5
1B23D
330
1B22B
100
AcDbEntity
  8
0
100
AcDbVertex
100
AcDb2dVertex
 10
486.2369591223293
 20
223.3830157959741
 30
0.0
 42
-0.0003632141
 70
     1
  0
VERTEX
  5
1B23E
330
1B22B
100
AcDbEntity
  8
0
100
AcDbVertex
100
AcDb2dVertex
 10
486.2365271223286
 20
223.3794065959745
 30
0.0
 42
-0.0003628131
  0
VERTEX
  5
1B23F
330
1B22B
100
AcDbEntity
  8
0
100
AcDbVertex
100
AcDb2dVertex
 10
486.2360871223287
 20
223.3757961959744
 30
0.0
 42
-0.0003624107
 70
     1
  0
VERTEX
  5
1B240
330
1B22B
100
AcDbEntity
  8
0
100
AcDbVertex
100
AcDb2dVertex
 10
486.2356431223276
 20
223.3721853959745
 30
0.0
 42
-0.0003620103
  0
VERTEX
  5
1B241
330
1B22B
100
AcDbEntity
  8
0
100
AcDbVertex
100
AcDb2dVertex
 10
486.2351911223274
 20
223.3685733959745
 30
0.0
 42
-0.000361609
 70
     1
  0
VERTEX
  5
1B242
330
1B22B
100
AcDbEntity
  8
0
100
AcDbVertex
100
AcDb2dVertex
 10
486.2347351223276
 20
223.3649605959743
 30
0.0
 42
-0.0003612097
  0
VERTEX
  5
1B243
330
1B22B
100
AcDbEntity
  8
0
100
AcDbVertex
100
AcDb2dVertex
 10
486.2342751223303
 20
223.361346995974
 30
0.0
 42
-0.0003608096
 70
     1
  0
VERTEX
  5
1B244
330
1B22B
100
AcDbEntity
  8
0
100
AcDbVertex
100
AcDb2dVertex
 10
486.2338111223296
 20
223.3577325959744
 30
0.0
 42
-0.000360411
  0
VERTEX
  5
1B245
330
1B22B
100
AcDbEntity
  8
0
100
AcDbVertex
100
AcDb2dVertex
 10
486.233339122328
 20
223.3541169959743
 30
0.0
 42
-0.000360012
 70
     1
  0
VERTEX
  5
1B246
330
1B22B
100
AcDbEntity
  8
0
100
AcDbVertex
100
AcDb2dVertex
 10
486.2328591223293
 20
223.3505009959743
 30
0.0
 42
-0.0003596142
  0
VERTEX
  5
1B247
330
1B22B
100
AcDbEntity
  8
0
100
AcDbVertex
100
AcDb2dVertex
 10
486.2323751223292
 20
223.3468841959742
 30
0.0
 42
-0.0003592167
 70
     1
  0
VERTEX
  5
1B248
330
1B22B
100
AcDbEntity
  8
0
100
AcDbVertex
100
AcDb2dVertex
 10
486.2318871223295
 20
223.3432661959744
 30
0.0
 42
-0.0003588198
  0
VERTEX
  5
1B249
330
1B22B
100
AcDbEntity
  8
0
100
AcDbVertex
100
AcDb2dVertex
 10
486.2313951223303
 20
223.3396477959744
 30
0.0
 42
-0.0003584233
 70
     1
  0
VERTEX
  5
1B24A
330
1B22B
100
AcDbEntity
  8
0
100
AcDbVertex
100
AcDb2dVertex
 10
486.2308951223282
 20
223.3360285959742
 30
0.0
 42
-0.0003580271
  0
VERTEX
  5
1B24B
330
1B22B
100
AcDbEntity
  8
0
100
AcDbVertex
100
AcDb2dVertex
 10
486.2303911223287
 20
223.3324085959747
 30
0.0
 42
-0.0003576322
 70
     1
  0
VERTEX
  5
1B24C
330
1B22B
100
AcDbEntity
  8
0
100
AcDbVertex
100
AcDb2dVertex
 10
486.2298831223295
 20
223.3287877959746
 30
0.0
 42
-0.0003572371
  0
VERTEX
  5
1B24D
330
1B22B
100
AcDbEntity
  8
0
100
AcDbVertex
100
AcDb2dVertex
 10
486.2293671223294
 20
223.3251661959742
 30
0.0
 42
-0.000356843
 70
     1
  0
VERTEX
  5
1B24E
330
1B22B
100
AcDbEntity
  8
0
100
AcDbVertex
100
AcDb2dVertex
 10
486.2288471223281
 20
223.3215437959742
 30
0.0
 42
-0.0003564474
  0
VERTEX
  5
1B24F
330
1B22B
100
AcDbEntity
  8
0
100
AcDbVertex
100
AcDb2dVertex
 10
486.2283191223294
 20
223.3179209959743
 30
0.0
 42
-0.0003560566
 70
     1
  0
VERTEX
  5
1B250
330
1B22B
100
AcDbEntity
  8
0
100
AcDbVertex
100
AcDb2dVertex
 10
486.2277871223294
 20
223.3142973959742
 30
0.0
 42
-0.000355667
  0
VERTEX
  5
1B251
330
1B22B
100
AcDbEntity
  8
0
100
AcDbVertex
100
AcDb2dVertex
 10
486.2272511223298
 20
223.3106733959747
 30
0.0
 42
-0.0003552702
 70
     1
  0
VERTEX
  5
1B252
330
1B22B
100
AcDbEntity
  8
0
100
AcDbVertex
100
AcDb2dVertex
 10
486.2267111223288
 20
223.3070485959741
 30
0.0
 42
-0.0003548631
  0
VERTEX
  5
1B253
330
1B22B
100
AcDbEntity
  8
0
100
AcDbVertex
100
AcDb2dVertex
 10
486.2261631223288
 20
223.3034229959743
 30
0.0
 42
-0.000354493
 70
     1
  0
VERTEX
  5
1B254
330
1B22B
100
AcDbEntity
  8
0
100
AcDbVertex
100
AcDb2dVertex
 10
486.2256111223294
 20
223.2997965959742
 30
0.0
 42
-0.0003541524
  0
VERTEX
  5
1B255
330
1B22B
100
AcDbEntity
  8
0
100
AcDbVertex
100
AcDb2dVertex
 10
486.225051122329
 20
223.2961697959744
 30
0.0
 42
-0.0003536932
 70
     1
  0
VERTEX
  5
1B256
330
1B22B
100
AcDbEntity
  8
0
100
AcDbVertex
100
AcDb2dVertex
 10
486.2244871223272
 20
223.2925425959745
 30
0.0
 42
-0.0003531218
  0
VERTEX
  5
1B257
330
1B22B
100
AcDbEntity
  8
0
100
AcDbVertex
100
AcDb2dVertex
 10
486.2239191223296
 20
223.2889149959745
 30
0.0
 42
-0.000352985
 70
     1
  0
VERTEX
  5
1B258
330
1B22B
100
AcDbEntity
  8
0
100
AcDbVertex
100
AcDb2dVertex
 10
486.2233431223292
 20
223.2852861959744
 30
0.0
 42
-0.0003532217
  0
VERTEX
  5
1B259
330
1B22B
100
AcDbEntity
  8
0
100
AcDbVertex
100
AcDb2dVertex
 10
486.2227631223293
 20
223.2816565959746
 30
0.0
 42
-0.0003519591
 70
     1
  0
VERTEX
  5
1B25A
330
1B22B
100
AcDbEntity
  8
0
100
AcDbVertex
100
AcDb2dVertex
 10
486.2221791223298
 20
223.2780273959741
 30
0.0
 42
-0.0003494321
  0
VERTEX
  5
1B25B
330
1B22B
100
AcDbEntity
  8
0
100
AcDbVertex
100
AcDb2dVertex
 10
486.2215871223276
 20
223.2743993959742
 30
0.0
 42
-0.0003520688
 70
     1
  0
VERTEX
  5
1B25C
330
1B22B
100
AcDbEntity
  8
0
100
AcDbVertex
100
AcDb2dVertex
 10
486.2209911223297
 20
223.2707669959744
 30
0.0
 42
-0.0003587843
  0
VERTEX
  5
1B25D
330
1B22B
100
AcDbEntity
  8
0
100
AcDbVertex
100
AcDb2dVertex
 10
486.2203911223303
 20
223.2671281959746
 30
0.0
 42
-0.0003482293
 70
     1
  0
VERTEX
  5
1B25E
330
1B22B
100
AcDbEntity
  8
0
100
AcDbVertex
100
AcDb2dVertex
 10
486.2197831223282
 20
223.2635041959742
 30
0.0
 42
-0.0003248562
  0
VERTEX
  5
1B25F
330
1B22B
100
AcDbEntity
  8
0
100
AcDbVertex
100
AcDb2dVertex
 10
486.2191791223293
 20
223.2599009959743
 30
0.0
 42
-0.0003580939
 70
     1
  0
VERTEX
  5
1B260
330
1B22B
100
AcDbEntity
  8
0
100
AcDbVertex
100
AcDb2dVertex
 10
486.2185551223271
 20
223.2562393959746
 30
0.0
 42
-0.0004262139
  0
VERTEX
  5
1B261
330
1B22B
100
AcDbEntity
  8
0
100
AcDbVertex
100
AcDb2dVertex
 10
486.2179111223275
 20
223.2524917959743
 30
0.0
 42
-0.0003232684
 70
     1
  0
VERTEX
  5
1B262
330
1B22B
100
AcDbEntity
  8
0
100
AcDbVertex
100
AcDb2dVertex
 10
486.217303122329
 20
223.2489729959747
 30
0.0
 42
-0.0001112019
  0
VERTEX
  5
1B263
330
1B22B
100
AcDbEntity
  8
0
100
AcDbVertex
100
AcDb2dVertex
 10
486.216755122329
 20
223.2457917959744
 30
0.0
 42
-0.000455118
 70
     1
  0
VERTEX
  5
1B264
330
1B22B
100
AcDbEntity
  8
0
100
AcDbVertex
100
AcDb2dVertex
 10
486.2160351223289
 20
223.2417049959739
 30
0.0
 42
-0.000781445
  0
VERTEX
  5
1B265
330
1B22B
100
AcDbEntity
  8
0
100
AcDbVertex
100
AcDb2dVertex
 10
486.2149071223291
 20
223.2354097959745
 30
0.0
 42
-0.0003816038
 70
     1
  0
VERTEX
  5
1B266
330
1B22B
100
AcDbEntity
  8
0
100
AcDbVertex
100
AcDb2dVertex
 10
486.21342712233
 20
223.2271645959744
 30
0.0
 42
-0.0002021492
  0
SEQEND
  5
1B267
330
1B22B
100
AcDbEntity
  8
0
  0
LINE
  5
1B268
330
1F
100
AcDbEntity
  8
0
100
AcDbLine
 10
486.21342712233
 20
223.2271645959744
 30
0.0
 11
486.777807122328
 21
222.756317795974
 31
0.0
  0
LINE
  5
1B269
330
1F
100
AcDbEntity
  8
0
100
AcDbLine
 10
477.5420311223286
 20
224.9600733959745
 30
0.0
 11
482.9687591223288
 21
220.4326957959741
 31
0.0
  0
LINE
  5
1B26A
330
1F
100
AcDbEntity
  8
0
100
AcDbLine
 10
486.2999351223287
 20
224.4256009959744
 30
0.0
 11
480.8732031223306
 21
228.9529785959742
 31
0.0
  0
LINE
  5
1B26B
330
1F
100
AcDbEntity
  8
0
100
AcDbLine
 10
482.4741911223289
 20
221.3551317959744
 30
0.0
 11
481.909811122329
 21
221.8259789959742
 31
0.0
  0
POLYLINE
  5
1B26C
330
1F
100
AcDbEntity
  8
0
100
AcDb2dPolyline
 66
     1
 10
0.0
 20
0.0
 30
0.0
 70
     2
  0
VERTEX
  5
1B26D
330
1B26C
100
AcDbEntity
  8
0
100
AcDbVertex
100
AcDb2dVertex
 10
481.909811122329
 20
221.8259789959742
 30
0.0
  0
VERTEX
  5
1B26E
330
1B26C
100
AcDbEntity
  8
0
100
AcDbVertex
100
AcDb2dVertex
 10
481.9016391223293
 20
221.8845465959742
 30
0.0
 42
-0.0078448404
 70
     1
  0
VERTEX
  5
1B26F
330
1B26C
100
AcDbEntity
  8
0
100
AcDbVertex
100
AcDb2dVertex
 10
481.8951351223283
 20
221.9437741959744
 30
0.0
 42
-0.0070297507
  0
VERTEX
  5
1B270
330
1B26C
100
AcDbEntity
  8
0
100
AcDbVertex
100
AcDb2dVertex
 10
481.8903311223283
 20
222.0034933959745
 30
0.0
 42
-0.0075446581
 70
     1
  0
VERTEX
  5
1B271
330
1B26C
100
AcDbEntity
  8
0
100
AcDbVertex
100
AcDb2dVertex
 10
481.8873911223279
 20
222.0650185959742
 30
0.0
 42
-0.0088524968
  0
VERTEX
  5
1B272
330
1B26C
100
AcDbEntity
  8
0
100
AcDbVertex
100
AcDb2dVertex
 10
481.8864871223293
 20
222.1288005959744
 30
0.0
 42
-0.0066055039
 70
     1
  0
VERTEX
  5
1B273
330
1B26C
100
AcDbEntity
  8
0
100
AcDbVertex
100
AcDb2dVertex
 10
481.886671122328
 20
222.1891493959746
 30
0.0
 42
-0.0022978907
  0
VERTEX
  5
1B274
330
1B26C
100
AcDbEntity
  8
0
100
AcDbVertex
100
AcDb2dVertex
 10
481.8877151223285
 20
222.2440897959744
 30
0.0
 42
-0.0090419149
 70
     1
  0
VERTEX
  5
1B275
330
1B26C
100
AcDbEntity
  8
0
100
AcDbVertex
100
AcDb2dVertex
 10
481.8929951223297
 20
222.3155737959745
 30
0.0
 42
-0.014986571
  0
VERTEX
  5
1B276
330
1B26C
100
AcDbEntity
  8
0
100
AcDbVertex
100
AcDb2dVertex
 10
481.9061911223296
 20
222.4266881959742
 30
0.0
 42
-0.0071269701
 70
     1
  0
VERTEX
  5
1B277
330
1B26C
100
AcDbEntity
  8
0
100
AcDbVertex
100
AcDb2dVertex
 10
481.9265111223292
 20
222.5728257959743
 30
0.0
 42
-0.0037237399
  0
SEQEND
  5
1B278
330
1B26C
100
AcDbEntity
  8
0
  0
LINE
  5
1B279
330
1F
100
AcDbEntity
  8
0
100
AcDbLine
 10
481.9265111223292
 20
222.5728257959743
 30
0.0
 11
482.4908951223304
 21
222.1019789959745
 31
0.0
  0
LINE
  5
1B27A
330
1F
100
AcDbEntity
  8
0
100
AcDbLine
 10
486.6081191223281
 20
223.3417737959743
 30
0.0
 11
486.7448751223299
 21
223.3863017959742
 31
0.0
  0
LINE
  5
1B27B
330
1F
100
AcDbEntity
  8
0
100
AcDbLine
 10
482.7141751223287
 20
222.0739709959747
 30
0.0
 11
482.8509311223286
 21
222.1184957959743
 31
0.0
  0
LINE
  5
1B27C
330
1F
100
AcDbEntity
  8
0
100
AcDbLine
 10
482.8342351223297
 20
221.3716453959745
 30
0.0
 11
482.6974751223286
 21
221.3271205959744
 31
0.0
  0
LINE
  5
1B27D
330
1F
100
AcDbEntity
  8
0
100
AcDbLine
 10
481.909811122329
 20
221.8259789959742
 30
0.0
 11
482.5959591223297
 21
222.0493749959745
 31
0.0
  0
LINE
  5
1B27E
330
1F
100
AcDbEntity
  8
0
100
AcDbLine
 10
485.5272751223281
 20
223.0037649959744
 30
0.0
 11
486.21342712233
 21
223.2271645959744
 31
0.0
  0
LINE
  5
1B27F
330
1F
100
AcDbEntity
  8
0
100
AcDbLine
 10
486.7281791223293
 20
222.6394509959745
 30
0.0
 11
486.5914191223298
 21
222.5949265959742
 31
0.0
  0
LINE
  5
1B280
330
1F
100
AcDbEntity
  8
CEN
  6
CENTER
 62
     1
 48
3.0
100
AcDbLine
 10
545.333246508459
 20
270.4431101325202
 30
0.0
 11
519.6308494720348
 21
270.4431101325202
 31
0.0
  0
LINE
  5
1B281
330
1F
100
AcDbEntity
  8
DIM
100
AcDbLine
 10
544.6481519214199
 20
271.4431101325201
 30
0.0
 11
539.64815192142
 21
271.4431101325201
 31
0.0
  0
LINE
  5
1B282
330
1F
100
AcDbEntity
  8
DIM
100
AcDbLine
 10
544.6481519214199
 20
269.4431101325201
 30
0.0
 11
539.64815192142
 21
269.4431101325201
 31
0.0
  0
DIMENSION
  5
1B283
330
1F
100
AcDbEntity
  8
DIM
100
AcDbDimension
  2
*D2
 10
514.7235230032817
 20
267.1931101325201
 30
0.0
 11
514.7235230032817
 21
270.627080820046
 31
0.0
 70
   160
  1
%%C<>
 71
     5
 42
6.5
 73
     0
 74
     0
 75
     0
  3
01
100
AcDbAlignedDimension
 13
520.5481519214194
 23
273.6931101325201
 33
0.0
 14
520.5481519214194
 24
267.1931101325201
 34
0.0
 50
269.9999899999469
100
AcDbRotatedDimension
1001
ACAD
1000
DSTYLE
1002
{
1070
    40
1040
0.6
1070
   289
1070
     2
1002
}
  0
DIMENSION
  5
1B284
330
1F
100
AcDbEntity
  8
DIM
100
AcDbDimension
  2
*D3
 10
520.3481519214205
 20
261.0022084631658
 30
0.0
 11
533.4824651730488
 21
261.0022084631658
 31
0.0
 70
   160
 71
     5
 42
24.29999999999927
 73
     0
 74
     0
 75
     0
  3
01
100
AcDbAlignedDimension
 13
544.6481519214199
 23
269.4431101325201
 33
0.0
 14
520.3481519214205
 24
267.3931101325199
 34
0.0
100
AcDbRotatedDimension
1001
ACAD
1000
DSTYLE
1002
{
1070
    40
1040
0.6
1070
   289
1070
     2
1002
}
  0
DIMENSION
  5
1B285
330
1F
100
AcDbEntity
  8
DIM
100
AcDbDimension
  2
*D4
 10
517.793562798384
 20
270.9931101325203
 30
0.0
 11
517.793562798384
 21
264.50061013252
 31
0.0
 70
   160
 71
     5
 42
1.100000000000362
 73
     0
 74
     0
 75
     0
  3
01
100
AcDbAlignedDimension
 13
520.3481519214205
 23
269.89311013252
 33
0.0
 14
520.3481519214205
 24
270.9931101325203
 34
0.0
 50
90.0
100
AcDbRotatedDimension
1001
ACAD
1000
DSTYLE
1002
{
1070
    40
1040
0.6
1070
   289
1070
     2
1002
}
  0
DIMENSION
  5
1B286
330
1F
100
AcDbEntity
  8
DIM
100
AcDbDimension
  2
*D5
 10
549.0666192354775
 20
271.9431101325201
 30
0.0
 11
549.0666192354775
 21
270.4431101325202
 31
0.0
 70
   160
  1
M<>
 71
     5
 42
3.0
 73
     0
 74
     0
 75
     0
  3
01
100
AcDbAlignedDimension
 13
544.14815192142
 23
268.9431101325201
 33
0.0
 14
544.14815192142
 24
271.9431101325201
 34
0.0
 50
90.0
100
AcDbRotatedDimension
1001
ACAD
1000
DSTYLE
1002
{
1070
    40
1040
0.6
1070
   289
1070
     2
1002
}
  0
DIMENSION
  5
1B287
102
{ACAD_XDICTIONARY
360
1B288
102
}
102
{ACAD_REACTORS
330
1B289
102
}
330
1F
100
AcDbEntity
  8
DIM
100
AcDbDimension
  2
*D6
 10
544.6481519214199
 20
274.1888504313642
 30
0.0
 11
542.1481519214198
 21
274.1888504313642
 31
0.0
 70
   160
 71
     5
 42
5.0
 73
     0
 74
     0
 75
     0
  3
01
100
AcDbAlignedDimension
 13
539.64815192142
 23
271.9431038701807
 33
0.0
 14
544.6481519214199
 24
271.1477267274152
 34
0.0
100
AcDbRotatedDimension
1001
ACAD
1000
DSTYLE
1002
{
1070
    40
1040
0.6
1070
   289
1070
     2
1002
}
  0
DIMENSION
  5
1B28A
102
{ACAD_XDICTIONARY
360
1B28B
102
}
102
{ACAD_REACTORS
330
1B28C
102
}
330
1F
100
AcDbEntity
  8
DIM
100
AcDbDimension
  2
*D7
 10
535.64815192142
 20
264.8026592978431
 30
0.0
 11
540.14815192142
 21
266.0326592978431
 31
0.0
 70
    32
 71
     5
 42
9.0
 73
     0
 74
     0
 75
     0
  3
01
100
AcDbAlignedDimension
 13
544.6481519214199
 23
267.9395250336986
 33
0.0
 14
535.64815192142
 24
267.6877558210669
 34
0.0
100
AcDbRotatedDimension
1001
ACAD
1000
DSTYLE
1002
{
1070
    40
1040
0.6
1070
   289
1070
     2
1002
}
  0
ENDSEC
  0
SECTION
  2
OBJECTS
  0
DICTIONARY
  5
C
330
0
100
AcDbDictionary
281
     1
  3
ACAD_COLOR
350
4FFE
  3
ACAD_GROUP
350
D
  3
ACAD_LAYOUT
350
1A
  3
ACAD_MATERIAL
350
4FE5
  3
ACAD_MLEADERSTYLE
350
5022
  3
ACAD_MLINESTYLE
350
17
  3
ACAD_PLOTSETTINGS
350
19
  3
ACAD_PLOTSTYLENAME
350
E
  3
ACAD_RENDER_PLOT_SETTINGS
350
6537
  3
ACAD_SCALELIST
350
5000
  3
ACAD_TABLESTYLE
350
4FE3
  3
ACAD_VISUALSTYLE
350
2A
  3
ACDB_RECOMPOSE_DATA
350
50EC
  3
AcDbVariableDictionary
350
5108
  3
ASE_INDEX_DICTIONARY
350
1AC53
  3
lxx_dict
350
1B518
  0
DICTIONARY
  5
50EE
330
8
100
AcDbDictionary
280
     1
281
     1
  0
DICTIONARY
  5
50B8
330
2
100
AcDbDictionary
280
     1
281
     1
  3
ACAD_LAYERFILTERS
360
1A674
  3
ACAD_LAYERSTATES
360
50B9
  3
ACLYDICTIONARY
360
1A673
  0
DICTIONARY
  5
50D0
330
10
100
AcDbDictionary
280
     1
281
     1
  3
ADSK_XREC_LAYER_RECONCILED
360
50D1
  0
DICTIONARY
  5
50D2
330
3B
100
AcDbDictionary
280
     1
281
     1
  3
ADSK_XREC_LAYER_RECONCILED
360
50D3
  0
DICTIONARY
  5
50AF
330
50AE
100
AcDbDictionary
280
     1
281
     1
  3
ADSK_XREC_LAYER_RECONCILED
360
50D4
  0
DICTIONARY
  5
67C0
330
1F
100
AcDbDictionary
280
     1
281
     1
  3
ACAD_SORTENTS
360
67C1
  0
DICTIONARY
  5
1B5B4
330
10FE8
100
AcDbDictionary
280
     1
281
     1
  0
DICTIONARY
  5
1B5E0
330
1B51F
100
AcDbDictionary
280
     1
281
     1
  3
ACAD_MTEXT_2008_RT
360
1B5E1
  0
DICTIONARY
  5
1B5E2
330
1B563
100
AcDbDictionary
280
     1
281
     1
  3
ACAD_MTEXT_2008_RT
360
1B5E3
  0
DICTIONARY
  5
1B5E4
330
1B564
100
AcDbDictionary
280
     1
281
     1
  3
ACAD_MTEXT_2008_RT
360
1B5E5
  0
DICTIONARY
  5
1B5E6
330
1B589
100
AcDbDictionary
280
     1
281
     1
  3
ACAD_MTEXT_2008_RT
360
1B5E7
  0
DICTIONARY
  5
1B5E8
330
1B58C
100
AcDbDictionary
280
     1
281
     1
  3
ACAD_MTEXT_2008_RT
360
1B5E9
  0
DICTIONARY
  5
1B5EA
330
1B58D
100
AcDbDictionary
280
     1
281
     1
  3
ACAD_MTEXT_2008_RT
360
1B5EB
  0
DICTIONARY
  5
1B5EC
330
1B597
100
AcDbDictionary
280
     1
281
     1
  3
ACAD_MTEXT_2008_RT
360
1B5ED
  0
DICTIONARY
  5
1B5EE
330
1B598
100
AcDbDictionary
280
     1
281
     1
  3
ACAD_MTEXT_2008_RT
360
1B5EF
  0
DICTIONARY
  5
1B5F0
330
1B599
100
AcDbDictionary
280
     1
281
     1
  3
ACAD_MTEXT_2008_RT
360
1B5F1
  0
DICTIONARY
  5
1B5F2
330
1B5A7
100
AcDbDictionary
280
     1
281
     1
  3
ACAD_MTEXT_2008_RT
360
1B5F3
  0
DICTIONARY
  5
1B5F4
330
1B5A8
100
AcDbDictionary
280
     1
281
     1
  3
ACAD_MTEXT_2008_RT
360
1B5F5
  0
DICTIONARY
  5
1B5F6
330
1B5A9
100
AcDbDictionary
280
     1
281
     1
  3
ACAD_MTEXT_2008_RT
360
1B5F7
  0
DICTIONARY
  5
1B5DE
330
1A5D3
100
AcDbDictionary
280
     1
281
     1
  3
ACAD_MTEXT_2008_RT
360
1B5DF
  0
DICTIONARY
  5
1B288
330
1B287
100
AcDbDictionary
280
     1
281
     1
  3
ACAD_DIMASSOC
360
1B289
  0
DICTIONARY
  5
1B28B
330
1B28A
100
AcDbDictionary
280
     1
281
     1
  3
ACAD_DIMASSOC
360
1B28C
  0
DICTIONARY
  5
4FFE
102
{ACAD_REACTORS
330
C
102
}
330
C
100
AcDbDictionary
281
     1
  0
DICTIONARY
  5
D
102
{ACAD_REACTORS
330
C
102
}
330
C
100
AcDbDictionary
281
     1
  0
DICTIONARY
  5
1A
102
{ACAD_REACTORS
330
C
102
}
330
C
100
AcDbDictionary
281
     1
  3
Layout1
350
1E
  3
Layout2
350
26
  3
Model
350
22
  0
DICTIONARY
  5
4FE5
102
{ACAD_REACTORS
330
C
102
}
330
C
100
AcDbDictionary
281
     1
  3
ByBlock
350
4FEE
  3
ByLayer
350
4FE6
  3
Global
350
4FF6
  0
DICTIONARY
  5
5022
102
{ACAD_REACTORS
330
C
102
}
330
C
100
AcDbDictionary
281
     1
  3
Standard
350
5023
  0
DICTIONARY
  5
17
102
{ACAD_REACTORS
330
C
102
}
330
C
100
AcDbDictionary
281
     1
  3
Standard
350
18
  0
DICTIONARY
  5
19
102
{ACAD_REACTORS
330
C
102
}
330
C
100
AcDbDictionary
281
     1
  0
ACDBDICTIONARYWDFLT
  5
E
102
{ACAD_REACTORS
330
C
102
}
330
C
100
AcDbDictionary
281
     1
  3
Normal
350
F
100
AcDbDictionaryWithDefault
340
F
  0
DICTIONARY
  5
6537
102
{ACAD_REACTORS
330
C
102
}
330
C
100
AcDbDictionary
281
     1
  3
{1DC63513-1B1A-422F-9880-65CFD2B8D533}
350
6538
  0
DICTIONARY
  5
5000
102
{ACAD_REACTORS
330
C
102
}
330
C
100
AcDbDictionary
281
     1
  3
A0
350
5001
  3
A1
350
5002
  3
A2
350
5003
  3
A3
350
5004
  3
A4
350
5005
  3
A5
350
5006
  3
A6
350
5007
  3
A7
350
5008
  3
A8
350
5009
  3
A9
350
500A
  3
B0
350
500B
  3
B1
350
500C
  3
B2
350
500D
  3
B3
350
500E
  3
B4
350
500F
  3
B5
350
5010
  3
B6
350
5011
  3
B7
350
5012
  3
B8
350
5013
  3
B9
350
5014
  3
C0
350
5015
  3
C1
350
5016
  3
C2
350
5017
  3
C3
350
5018
  3
C4
350
5019
  3
C5
350
501A
  3
C6
350
501B
  3
C7
350
501C
  3
C8
350
501D
  3
C9
350
501E
  3
D0
350
501F
  3
D1
350
5020
  3
D2
350
5021
  0
DICTIONARY
  5
4FE3
102
{ACAD_REACTORS
330
C
102
}
330
C
100
AcDbDictionary
281
     1
  3
Standard
350
4FFF
  0
DICTIONARY
  5
2A
102
{ACAD_REACTORS
330
C
102
}
330
C
100
AcDbDictionary
281
     1
  3
2dWireframe
350
2F
  3
3D Hidden
350
31
  3
3dWireframe
350
30
  3
Basic
350
32
  3
Brighten
350
36
  3
ColorChange
350
3A
  3
Conceptual
350
34
  3
Dim
350
35
  3
Facepattern
350
39
  3
Flat
350
2B
  3
FlatWithEdges
350
2C
  3
Gouraud
350
2D
  3
GouraudWithEdges
350
2E
  3
Linepattern
350
38
  3
Realistic
350
33
  3
Thicken
350
37
  0
XRECORD
  5
50EC
102
{ACAD_REACTORS
330
C
102
}
330
C
100
AcDbXrecord
280
     1
 90
        1
330
4FFF
330
1A5D3
330
1B51F
330
1B563
330
1B564
330
1B589
330
1B58C
330
1B58D
330
1B597
330
1B598
330
1B599
330
1B5A7
330
1B5A8
330
1B5A9
  0
DICTIONARY
  5
5108
102
{ACAD_REACTORS
330
C
102
}
330
C
100
AcDbDictionary
281
     1
  3
CANNOSCALE
350
510B
  3
CMLEADERSTYLE
350
510A
  3
CTABLESTYLE
350
5109
  3
DIMASSOC
350
510E
  3
INDEXCTL
350
510D
  3
LIGHTINGUNITS
350
1B5C1
  3
MSLTSCALE
350
1B5C0
  3
SORTENTS
350
510C
  0
DICTIONARY
  5
1AC53
102
{ACAD_REACTORS
330
C
102
}
330
C
100
AcDbDictionary
281
     1
  3
ASEBlockHierarchyIndexRecord
350
1AC54
1001
DCO15
1040
1903428922.171
  0
DICTIONARY
  5
1B518
102
{ACAD_REACTORS
330
C
102
}
330
C
100
AcDbDictionary
281
     1
  3
lxx_dimth
350
1B519
  0
DICTIONARY
  5
1A674
102
{ACAD_REACTORS
330
50B8
102
}
330
50B8
100
AcDbDictionary
281
     1
  0
DICTIONARY
  5
50B9
102
{ACAD_REACTORS
330
50B8
102
}
330
50B8
100
AcDbDictionary
281
     1
  0
DICTIONARY
  5
1A673
102
{ACAD_REACTORS
330
50B8
102
}
330
50B8
100
AcDbDictionary
281
     1
1001
ACAD
1000
<All
  0
XRECORD
  5
50D1
102
{ACAD_REACTORS
330
50D0
102
}
330
50D0
100
AcDbXrecord
280
     1
290
     1
  0
XRECORD
  5
50D3
102
{ACAD_REACTORS
330
50D2
102
}
330
50D2
100
AcDbXrecord
280
     1
290
     1
  0
XRECORD
  5
50D4
102
{ACAD_REACTORS
330
50AF
102
}
330
50AF
100
AcDbXrecord
280
     1
290
     1
  0
SORTENTSTABLE
  5
67C1
102
{ACAD_REACTORS
330
67C0
102
}
330
67C0
100
AcDbSortentsTable
330
1F
331
3943
  5
4842
331
65A4
  5
65A5
331
65A0
  5
65A1
331
3895
  5
3943
331
11089
  5
11089
331
2C65
  5
2EE7
331
4842
  5
4E94
331
35D8
  5
3807
331
3807
  5
3895
331
65A3
  5
65A4
331
35C8
  5
35D8
331
65A1
  5
65A2
331
2FDE
  5
35C8
331
2F93
  5
2FDE
331
65B2
  5
65B3
331
2EE7
  5
2F93
331
28AE
  5
2A38
  0
XRECORD
  5
1B5E1
102
{ACAD_REACTORS
330
1B5E0
102
}
330
1B5E0
100
AcDbXrecord
280
     1
 40
1527.0
  1
\pxqc;BQ LUO
  0
XRECORD
  5
1B5E3
102
{ACAD_REACTORS
330
1B5E2
102
}
330
1B5E2
100
AcDbXrecord
280
     1
 40
1262561.0
  1
\pxqc;档案员{\H0.7x;\P\Fromans|c134;Filing Clerk\fFangSong_GB2312|b0|i0|c134|p49; }
  0
XRECORD
  5
1B5E5
102
{ACAD_REACTORS
330
1B5E4
102
}
330
1B5E4
100
AcDbXrecord
280
     1
 40
650528.0
  1
\pxqc;日期{\Fromans|c134;/Date}
  0
XRECORD
  5
1B5E7
102
{ACAD_REACTORS
330
1B5E6
102
}
330
1B5E6
100
AcDbXrecord
280
     1
 40
2318748.0
  1
\pxsm0.7;{\f仿宋_GB2312|b0|i0|c134|p49;标准化}\PStand.
  0
XRECORD
  5
1B5E9
102
{ACAD_REACTORS
330
1B5E8
102
}
330
1B5E8
100
AcDbXrecord
280
     1
 40
118135.0
  1
\pxsm0.7;签名\P{\Fromans|c134;Signature} 
  0
XRECORD
  5
1B5EB
102
{ACAD_REACTORS
330
1B5EA
102
}
330
1B5EA
100
AcDbXrecord
280
     1
 40
108939.0
  1
\pxsm0.7,qc;处数\P{\Fromans|c134;Number }
  0
XRECORD
  5
1B5ED
102
{ACAD_REACTORS
330
1B5EC
102
}
330
1B5EC
100
AcDbXrecord
280
     1
 40
125762.0
  1
\pxsm0.7;标记\P{\Fromans|c134;Mark}
  0
XRECORD
  5
1B5EF
102
{ACAD_REACTORS
330
1B5EE
102
}
330
1B5EE
100
AcDbXrecord
280
     1
 40
111973.0
  1
\pxsm0.7;审核\P{\Fromans|c134;Checked}
  0
XRECORD
  5
1B5F1
102
{ACAD_REACTORS
330
1B5F0
102
}
330
1B5F0
100
AcDbXrecord
280
     1
 40
137968.0
  1
\pxsm0.7;绘图\P{\Fromans|c134;Drawn\Ftxt|c134; }
  0
XRECORD
  5
1B5F3
102
{ACAD_REACTORS
330
1B5F2
102
}
330
1B5F2
100
AcDbXrecord
280
     1
 40
106320.0
  1
\pxsm0.7;批准\P{\Fromans|c134;Approved}
  0
XRECORD
  5
1B5F5
102
{ACAD_REACTORS
330
1B5F4
102
}
330
1B5F4
100
AcDbXrecord
280
     1
 40
127283.0
  1
\pxsm0.7;工艺\P{\Fromans|c134;Process}
  0
XRECORD
  5
1B5F7
102
{ACAD_REACTORS
330
1B5F6
102
}
330
1B5F6
100
AcDbXrecord
280
     1
 40
106220.0
  1
\pxsm0.7;日期\P{\Fromans|c134;Date}
  0
XRECORD
  5
1B5DF
102
{ACAD_REACTORS
330
1B5DE
102
}
330
1B5DE
100
AcDbXrecord
280
     1
 40
8441165.0
  1
\A1;\pxql;技术参数:\P- 材料： 不锈钢\P- 螺纹规格: {\Fromans|c134;M3}\P{\Fromans|c134;\PTechnical specification:\P- Material: steel\P- Thread size: M3}
  0
DIMASSOC
  5
1B289
102
{ACAD_REACTORS
330
1B288
102
}
330
1B288
100
AcDbDimAssoc
330
1B287
 90
        1
 70
     0
 71
     0
  1
AcDbOsnapPointRef
 72
     6
331
1AFD2
 73
     2
 91
        0
 40
0.0000020874464705
 10
0.0
 20
0.0
 30
0.0
332
1AFD1
 74
     2
 92
        0
 75
     0
  0
DIMASSOC
  5
1B28C
102
{ACAD_REACTORS
330
1B28B
102
}
330
1B28B
100
AcDbDimAssoc
330
1B28A
 90
        2
 70
     0
 71
     0
  1
AcDbOsnapPointRef
 72
    10
331
1AFC9
 73
     2
 91
        0
 40
0.9239006633004883
 10
0.0
 20
0.0
 30
0.0
 75
     0
  0
LAYOUT
  5
1E
102
{ACAD_REACTORS
330
1A
102
}
330
1A
100
AcDbPlotSettings
  1

  2
none_device
  4

  6

 40
0.0
 41
0.0
 42
0.0
 43
0.0
 44
0.0
 45
0.0
 46
0.0
 47
0.0
 48
0.0
 49
0.0
140
0.0
141
0.0
142
1.0
143
1.0
 70
   688
 72
     0
 73
     0
 74
     5
  7

 75
    16
147
1.0
 76
     0
 77
     2
 78
   300
148
0.0
149
0.0
100
AcDbLayout
  1
Layout1
 70
     1
 71
     1
 10
0.0
 20
0.0
 11
12.0
 21
9.0
 12
0.0
 22
0.0
 32
0.0
 14
1.000000000000000E+20
 24
1.000000000000000E+20
 34
1.000000000000000E+20
 15
-1.000000000000000E+20
 25
-1.000000000000000E+20
 35
-1.000000000000000E+20
146
0.0
 13
0.0
 23
0.0
 33
0.0
 16
1.0
 26
0.0
 36
0.0
 17
0.0
 27
1.0
 37
0.0
 76
     0
330
1B
  0
LAYOUT
  5
26
102
{ACAD_REACTORS
330
1A
102
}
330
1A
100
AcDbPlotSettings
  1

  2
none_device
  4

  6

 40
0.0
 41
0.0
 42
0.0
 43
0.0
 44
0.0
 45
0.0
 46
0.0
 47
0.0
 48
0.0
 49
0.0
140
0.0
141
0.0
142
1.0
143
1.0
 70
   688
 72
     0
 73
     0
 74
     5
  7

 75
    16
147
1.0
 76
     0
 77
     2
 78
   300
148
0.0
149
0.0
100
AcDbLayout
  1
Layout2
 70
     1
 71
     2
 10
0.0
 20
0.0
 11
0.0
 21
0.0
 12
0.0
 22
0.0
 32
0.0
 14
0.0
 24
0.0
 34
0.0
 15
0.0
 25
0.0
 35
0.0
146
0.0
 13
0.0
 23
0.0
 33
0.0
 16
1.0
 26
0.0
 36
0.0
 17
0.0
 27
1.0
 37
0.0
 76
     0
330
23
  0
LAYOUT
  5
22
102
{ACAD_REACTORS
330
1A
102
}
330
1A
100
AcDbPlotSettings
  1

  2
Adobe PDF Converter.pc3
  4
A4
  6

 40
3.174999952316281
 41
3.174999952316281
 42
3.17498779296875
 43
3.175003051757812
 44
297.0318298339844
 45
209.9733276367186
 46
0.0000000000000076
 47
1.630241740247063
 48
246.9897427644609
 49
39.36804549891383
140
544.952097801264
141
244.7492402188181
142
1.0
143
1.025046328645055
 70
  3764
 72
     1
 73
     0
 74
     4
  7
monochrome.ctb
 75
     0
147
0.9755656618192436
 76
     1
 77
     2
 78
   300
148
-246.9897427644609
149
-39.36804549891383
100
AcDbLayout
  1
Model
 70
     1
 71
     0
 10
0.0
 20
0.0
 11
12.0
 21
9.0
 12
0.0
 22
0.0
 32
0.0
 14
1.000000000000000E+20
 24
1.000000000000000E+20
 34
1.000000000000000E+20
 15
-1.000000000000000E+20
 25
-1.000000000000000E+20
 35
-1.000000000000000E+20
146
0.0
 13
0.0
 23
0.0
 33
0.0
 16
1.0
 26
0.0
 36
0.0
 17
0.0
 27
1.0
 37
0.0
 76
     0
330
1F
331
29
1001
ACAD_PSEXT
1000
Adobe PDF Converter.pc3
1000
Adobe PDF Converter
1000
桌面\*.pdf
1000

1070
     0
  0
MATERIAL
  5
4FEE
102
{ACAD_XDICTIONARY
360
4FEF
102
}
102
{ACAD_REACTORS
330
4FE5
102
}
330
4FE5
100
AcDbMaterial
  1
ByBlock
 72
     0
 43
0.0208333333333333
 43
0.0
 43
0.0
 43
0.0
 43
0.0
 43
0.0208333333333333
 43
0.0
 43
0.0
 43
0.0
 43
0.0
 43
1.0
 43
0.0
 43
0.0
 43
0.0
 43
0.0
 43
1.0
 77
     0
 47
0.0208333333333333
 47
0.0
 47
0.0
 47
0.0
 47
0.0
 47
0.0208333333333333
 47
0.0
 47
0.0
 47
0.0
 47
0.0
 47
1.0
 47
0.0
 47
0.0
 47
0.0
 47
0.0
 47
1.0
171
     0
 49
0.0208333333333333
 49
0.0
 49
0.0
 49
0.0
 49
0.0
 49
0.0208333333333333
 49
0.0
 49
0.0
 49
0.0
 49
0.0
 49
1.0
 49
0.0
 49
0.0
 49
0.0
 49
0.0
 49
1.0
175
     0
142
0.0208333333333333
142
0.0
142
0.0
142
0.0
142
0.0
142
0.0208333333333333
142
0.0
142
0.0
142
0.0
142
0.0
142
1.0
142
0.0
142
0.0
142
0.0
142
0.0
142
1.0
179
     0
144
0.0208333333333333
144
0.0
144
0.0
144
0.0
144
0.0
144
0.0208333333333333
144
0.0
144
0.0
144
0.0
144
0.0
144
1.0
144
0.0
144
0.0
144
0.0
144
0.0
144
1.0
147
0.0208333333333333
147
0.0
147
0.0
147
0.0
147
0.0
147
0.0208333333333333
147
0.0
147
0.0
147
0.0
147
0.0
147
1.0
147
0.0
147
0.0
147
0.0
147
0.0
147
1.0
  0
MATERIAL
  5
4FE6
102
{ACAD_XDICTIONARY
360
4FE7
102
}
102
{ACAD_REACTORS
330
4FE5
102
}
330
4FE5
100
AcDbMaterial
  1
ByLayer
 72
     0
 43
0.0208333333333333
 43
0.0
 43
0.0
 43
0.0
 43
0.0
 43
0.0208333333333333
 43
0.0
 43
0.0
 43
0.0
 43
0.0
 43
1.0
 43
0.0
 43
0.0
 43
0.0
 43
0.0
 43
1.0
 77
     0
 47
0.0208333333333333
 47
0.0
 47
0.0
 47
0.0
 47
0.0
 47
0.0208333333333333
 47
0.0
 47
0.0
 47
0.0
 47
0.0
 47
1.0
 47
0.0
 47
0.0
 47
0.0
 47
0.0
 47
1.0
171
     0
 49
0.0208333333333333
 49
0.0
 49
0.0
 49
0.0
 49
0.0
 49
0.0208333333333333
 49
0.0
 49
0.0
 49
0.0
 49
0.0
 49
1.0
 49
0.0
 49
0.0
 49
0.0
 49
0.0
 49
1.0
175
     0
142
0.0208333333333333
142
0.0
142
0.0
142
0.0
142
0.0
142
0.0208333333333333
142
0.0
142
0.0
142
0.0
142
0.0
142
1.0
142
0.0
142
0.0
142
0.0
142
0.0
142
1.0
179
     0
144
0.0208333333333333
144
0.0
144
0.0
144
0.0
144
0.0
144
0.0208333333333333
144
0.0
144
0.0
144
0.0
144
0.0
144
1.0
144
0.0
144
0.0
144
0.0
144
0.0
144
1.0
147
0.0208333333333333
147
0.0
147
0.0
147
0.0
147
0.0
147
0.0208333333333333
147
0.0
147
0.0
147
0.0
147
0.0
147
1.0
147
0.0
147
0.0
147
0.0
147
0.0
147
1.0
  0
MATERIAL
  5
4FF6
102
{ACAD_XDICTIONARY
360
4FF7
102
}
102
{ACAD_REACTORS
330
4FE5
102
}
330
4FE5
100
AcDbMaterial
  1
Global
 72
     0
 43
0.0208333333333333
 43
0.0
 43
0.0
 43
0.0
 43
0.0
 43
0.0208333333333333
 43
0.0
 43
0.0
 43
0.0
 43
0.0
 43
1.0
 43
0.0
 43
0.0
 43
0.0
 43
0.0
 43
1.0
 77
     0
 47
0.0208333333333333
 47
0.0
 47
0.0
 47
0.0
 47
0.0
 47
0.0208333333333333
 47
0.0
 47
0.0
 47
0.0
 47
0.0
 47
1.0
 47
0.0
 47
0.0
 47
0.0
 47
0.0
 47
1.0
171
     0
 49
0.0208333333333333
 49
0.0
 49
0.0
 49
0.0
 49
0.0
 49
0.0208333333333333
 49
0.0
 49
0.0
 49
0.0
 49
0.0
 49
1.0
 49
0.0
 49
0.0
 49
0.0
 49
0.0
 49
1.0
175
     0
142
0.0208333333333333
142
0.0
142
0.0
142
0.0
142
0.0
142
0.0208333333333333
142
0.0
142
0.0
142
0.0
142
0.0
142
1.0
142
0.0
142
0.0
142
0.0
142
0.0
142
1.0
179
     0
144
0.0208333333333333
144
0.0
144
0.0
144
0.0
144
0.0
144
0.0208333333333333
144
0.0
144
0.0
144
0.0
144
0.0
144
1.0
144
0.0
144
0.0
144
0.0
144
0.0
144
1.0
147
0.0208333333333333
147
0.0
147
0.0
147
0.0
147
0.0
147
0.0208333333333333
147
0.0
147
0.0
147
0.0
147
0.0
147
1.0
147
0.0
147
0.0
147
0.0
147
0.0
147
1.0
  0
MLEADERSTYLE
  5
5023
102
{ACAD_REACTORS
330
5022
102
}
330
5022
100
AcDbMLeaderStyle
170
     2
171
     1
172
     0
 90
        2
 40
0.0
 41
0.0
173
     1
 91
-1056964608
340
14
 92
       -2
290
     1
 42
0.09
291
     1
 43
0.36
  3
Standard
 44
0.18
300

342
11
174
     1
178
     6
175
     1
176
     0
 93
-1056964608
 45
0.18
292
     0
297
     0
 46
0.18
 94
-1056964608
 47
1.0
 49
1.0
140
1.0
293
     1
141
0.0
294
     1
177
     0
142
1.0
295
     0
296
     0
143
0.125
1001
ACAD_MLEADERVER
1070
     2
  0
MLINESTYLE
  5
18
102
{ACAD_REACTORS
330
17
102
}
330
17
100
AcDbMlineStyle
  2
STANDARD
 70
     0
  3

 62
   256
 51
90.0
 52
90.0
 71
     2
 49
0.5
 62
   256
  6
BYLAYER
 49
-0.5
 62
   256
  6
BYLAYER
  0
ACDBPLACEHOLDER
  5
F
102
{ACAD_REACTORS
330
E
102
}
330
E
  0
MENTALRAYRENDERSETTINGS
  5
6538
102
{ACAD_REACTORS
330
6537
102
}
330
6537
100
AcDbRenderSettings
 90
        2
  1
中
290
     1
290
     1
290
     1
290
     1
  1

  1
渲染质量好于“低级”。包括纹理过滤并且强制双面处于激活状态。处理中等级反锯齿和 5 反射/折射的光线跟踪深度。
 90
        0
100
AcDbMentalRayRenderSettings
 90
        2
 90
        0
 90
        1
 70
     2
 40
3.0
 40
3.0
 40
0.0500000007450581
 40
0.0500000007450581
 40
0.0500000007450581
 40
0.0500000007450581
 70
     0
290
     0
290
     1
 90
        5
 90
        5
 90
        5
290
     0
 90
      500
290
     0
 40
1.0
 90
    10000
 90
        5
 90
        5
 90
        5
290
     0
 90
      200
290
     0
290
     0
290
     0
 40
0.1
 40
1.0
 40
1500.0
 70
     0
 70
     0
 40
10.0
 70
     0
 70
     0
290
     0
  1

 90
       32
 70
     0
 90
     1048
290
     0
 40
1.0
  0
SCALE
  5
5001
102
{ACAD_REACTORS
330
5000
102
}
330
5000
100
AcDbScale
 70
     0
300
1:1
140
1.0
141
1.0
290
     1
  0
SCALE
  5
5002
102
{ACAD_REACTORS
330
5000
102
}
330
5000
100
AcDbScale
 70
     0
300
1:2
140
1.0
141
2.0
290
     0
  0
SCALE
  5
5003
102
{ACAD_REACTORS
330
5000
102
}
330
5000
100
AcDbScale
 70
     0
300
1:4
140
1.0
141
4.0
290
     0
  0
SCALE
  5
5004
102
{ACAD_REACTORS
330
5000
102
}
330
5000
100
AcDbScale
 70
     0
300
1:5
140
1.0
141
5.0
290
     0
  0
SCALE
  5
5005
102
{ACAD_REACTORS
330
5000
102
}
330
5000
100
AcDbScale
 70
     0
300
1:8
140
1.0
141
8.0
290
     0
  0
SCALE
  5
5006
102
{ACAD_REACTORS
330
5000
102
}
330
5000
100
AcDbScale
 70
     0
300
1:10
140
1.0
141
10.0
290
     0
  0
SCALE
  5
5007
102
{ACAD_REACTORS
330
5000
102
}
330
5000
100
AcDbScale
 70
     0
300
1:16
140
1.0
141
16.0
290
     0
  0
SCALE
  5
5008
102
{ACAD_REACTORS
330
5000
102
}
330
5000
100
AcDbScale
 70
     0
300
1:20
140
1.0
141
20.0
290
     0
  0
SCALE
  5
5009
102
{ACAD_REACTORS
330
5000
102
}
330
5000
100
AcDbScale
 70
     0
300
1:30
140
1.0
141
30.0
290
     0
  0
SCALE
  5
500A
102
{ACAD_REACTORS
330
5000
102
}
330
5000
100
AcDbScale
 70
     0
300
1:40
140
1.0
141
40.0
290
     0
  0
SCALE
  5
500B
102
{ACAD_REACTORS
330
5000
102
}
330
5000
100
AcDbScale
 70
     0
300
1:50
140
1.0
141
50.0
290
     0
  0
SCALE
  5
500C
102
{ACAD_REACTORS
330
5000
102
}
330
5000
100
AcDbScale
 70
     0
300
1:100
140
1.0
141
100.0
290
     0
  0
SCALE
  5
500D
102
{ACAD_REACTORS
330
5000
102
}
330
5000
100
AcDbScale
 70
     0
300
2:1
140
2.0
141
1.0
290
     0
  0
SCALE
  5
500E
102
{ACAD_REACTORS
330
5000
102
}
330
5000
100
AcDbScale
 70
     0
300
4:1
140
4.0
141
1.0
290
     0
  0
SCALE
  5
500F
102
{ACAD_REACTORS
330
5000
102
}
330
5000
100
AcDbScale
 70
     0
300
8:1
140
8.0
141
1.0
290
     0
  0
SCALE
  5
5010
102
{ACAD_REACTORS
330
5000
102
}
330
5000
100
AcDbScale
 70
     0
300
10:1
140
10.0
141
1.0
290
     0
  0
SCALE
  5
5011
102
{ACAD_REACTORS
330
5000
102
}
330
5000
100
AcDbScale
 70
     0
300
100:1
140
100.0
141
1.0
290
     0
  0
SCALE
  5
5012
102
{ACAD_REACTORS
330
5000
102
}
330
5000
100
AcDbScale
 70
     0
300
1/128" = 1'-0"
140
0.0078125
141
12.0
290
     0
  0
SCALE
  5
5013
102
{ACAD_REACTORS
330
5000
102
}
330
5000
100
AcDbScale
 70
     0
300
1/64" = 1'-0"
140
0.015625
141
12.0
290
     0
  0
SCALE
  5
5014
102
{ACAD_REACTORS
330
5000
102
}
330
5000
100
AcDbScale
 70
     0
300
1/32" = 1'-0"
140
0.03125
141
12.0
290
     0
  0
SCALE
  5
5015
102
{ACAD_REACTORS
330
5000
102
}
330
5000
100
AcDbScale
 70
     0
300
1/16" = 1'-0"
140
0.0625
141
12.0
290
     0
  0
SCALE
  5
5016
102
{ACAD_REACTORS
330
5000
102
}
330
5000
100
AcDbScale
 70
     0
300
3/32" = 1'-0"
140
0.09375
141
12.0
290
     0
  0
SCALE
  5
5017
102
{ACAD_REACTORS
330
5000
102
}
330
5000
100
AcDbScale
 70
     0
300
1/8" = 1'-0"
140
0.125
141
12.0
290
     0
  0
SCALE
  5
5018
102
{ACAD_REACTORS
330
5000
102
}
330
5000
100
AcDbScale
 70
     0
300
3/16" = 1'-0"
140
0.1875
141
12.0
290
     0
  0
SCALE
  5
5019
102
{ACAD_REACTORS
330
5000
102
}
330
5000
100
AcDbScale
 70
     0
300
1/4" = 1'-0"
140
0.25
141
12.0
290
     0
  0
SCALE
  5
501A
102
{ACAD_REACTORS
330
5000
102
}
330
5000
100
AcDbScale
 70
     0
300
3/8" = 1'-0"
140
0.375
141
12.0
290
     0
  0
SCALE
  5
501B
102
{ACAD_REACTORS
330
5000
102
}
330
5000
100
AcDbScale
 70
     0
300
1/2" = 1'-0"
140
0.5
141
12.0
290
     0
  0
SCALE
  5
501C
102
{ACAD_REACTORS
330
5000
102
}
330
5000
100
AcDbScale
 70
     0
300
3/4" = 1'-0"
140
0.75
141
12.0
290
     0
  0
SCALE
  5
501D
102
{ACAD_REACTORS
330
5000
102
}
330
5000
100
AcDbScale
 70
     0
300
1" = 1'-0"
140
1.0
141
12.0
290
     0
  0
SCALE
  5
501E
102
{ACAD_REACTORS
330
5000
102
}
330
5000
100
AcDbScale
 70
     0
300
1-1/2" = 1'-0"
140
1.5
141
12.0
290
     0
  0
SCALE
  5
501F
102
{ACAD_REACTORS
330
5000
102
}
330
5000
100
AcDbScale
 70
     0
300
3" = 1'-0"
140
3.0
141
12.0
290
     0
  0
SCALE
  5
5020
102
{ACAD_REACTORS
330
5000
102
}
330
5000
100
AcDbScale
 70
     0
300
6" = 1'-0"
140
6.0
141
12.0
290
     0
  0
SCALE
  5
5021
102
{ACAD_REACTORS
330
5000
102
}
330
5000
100
AcDbScale
 70
     0
300
1'-0" = 1'-0"
140
12.0
141
12.0
290
     0
  0
TABLESTYLE
  5
4FFF
102
{ACAD_XDICTIONARY
360
50D6
102
}
102
{ACAD_REACTORS
330
4FE3
102
}
330
4FE3
100
AcDbTableStyle
  3
Standard
 70
     0
 71
     0
 40
0.06
 41
0.06
280
     0
281
     0
  7
Standard
140
0.18
170
     2
 62
     0
 63
     7
283
     0
 90
      512
 91
        0
  1

274
    -2
284
     1
 64
     0
275
    -2
285
     1
 65
     0
276
    -2
286
     1
 66
     0
277
    -2
287
     1
 67
     0
278
    -2
288
     1
 68
     0
279
    -2
289
     1
 69
     0
  7
Standard
140
0.25
170
     5
 62
     0
 63
     7
283
     0
 90
      512
 91
        0
  1

274
    -2
284
     1
 64
     0
275
    -2
285
     1
 65
     0
276
    -2
286
     1
 66
     0
277
    -2
287
     1
 67
     0
278
    -2
288
     1
 68
     0
279
    -2
289
     1
 69
     0
  7
Standard
140
0.18
170
     5
 62
     0
 63
     7
283
     0
 90
      512
 91
        0
  1

274
    -2
284
     1
 64
     0
275
    -2
285
     1
 65
     0
276
    -2
286
     1
 66
     0
277
    -2
287
     1
 67
     0
278
    -2
288
     1
 68
     0
279
    -2
289
     1
 69
     0
  0
VISUALSTYLE
  5
2F
102
{ACAD_REACTORS
330
2A
102
}
330
2A
100
AcDbVisualStyle
  2
2dWireframe
 70
     4
 71
     0
 72
     2
 73
     0
 90
        0
 40
-0.6
 41
-30.0
 62
     5
 63
     7
 74
     1
 91
        4
 64
     7
 65
   257
 75
     1
175
     1
 42
1.0
 92
        0
 66
   257
 43
1.0
 76
     1
 77
     6
 78
     2
 67
     7
 79
     5
170
     0
171
     0
290
     0
174
     0
 93
        1
 44
0.0
173
     0
291
     0
 45
0.0
1001
ACAD
1000
AcDbSavedByObjectVersion
1070
     0
1000
AcDbSavedByObjectVersion
1070
     0
1000
AcDbSavedByObjectVersion
1070
     0
1000
AcDbSavedByObjectVersion
1070
     0
1000
AcDbSavedByObjectVersion
1070
     0
1000
AcDbSavedByObjectVersion
1070
     0
1000
AcDbSavedByObjectVersion
1070
     0
1000
AcDbSavedByObjectVersion
1070
     0
1000
AcDbSavedByObjectVersion
1070
     0
1000
AcDbSavedByObjectVersion
1070
     0
1000
AcDbSavedByObjectVersion
1070
     0
1000
AcDbSavedByObjectVersion
1070
     0
1000
AcDbSavedByObjectVersion
1070
     0
1000
AcDbSavedByObjectVersion
1070
     0
1000
AcDbSavedByObjectVersion
1070
     0
1000
AcDbSavedByObjectVersion
1070
     0
1000
AcDbSavedByObjectVersion
1070
     0
1000
AcDbSavedByObjectVersion
1070
     0
1000
AcDbSavedByObjectVersion
1070
     0
1000
AcDbSavedByObjectVersion
1070
     0
1000
AcDbSavedByObjectVersion
1070
     0
1000
AcDbSavedByObjectVersion
1070
     0
1000
AcDbSavedByObjectVersion
1070
     0
1000
AcDbSavedByObjectVersion
1070
     0
1000
AcDbSavedByObjectVersion
1070
     0
1000
AcDbSavedByObjectVersion
1070
     0
1000
AcDbSavedByObjectVersion
1070
     0
1000
AcDbSavedByObjectVersion
1070
     0
1000
AcDbSavedByObjectVersion
1070
     0
1000
AcDbSavedByObjectVersion
1070
     0
1000
AcDbSavedByObjectVersion
1070
     0
1000
AcDbSavedByObjectVersion
1070
     0
1000
AcDbSavedByObjectVersion
1070
     0
1000
AcDbSavedByObjectVersion
1070
     0
1000
AcDbSavedByObjectVersion
1070
     0
1000
AcDbSavedByObjectVersion
1070
     0
1000
AcDbSavedByObjectVersion
1070
     0
1000
AcDbSavedByObjectVersion
1070
     0
1000
AcDbSavedByObjectVersion
1070
     0
1000
AcDbSavedByObjectVersion
1070
     0
1000
AcDbSavedByObjectVersion
1070
     0
1000
AcDbSavedByObjectVersion
1070
     0
1000
AcDbSavedByObjectVersion
1070
     0
1000
AcDbSavedByObjectVersion
1070
     0
  0
VISUALSTYLE
  5
31
102
{ACAD_REACTORS
330
2A
102
}
330
2A
100
AcDbVisualStyle
  2
3D Hidden
 70
     6
 71
     1
 72
     2
 73
     2
 90
        0
 40
-0.6
 41
-30.0
 62
     5
 63
     7
 74
     2
 91
        2
 64
     7
 65
   257
 75
     2
175
     1
 42
40.0
 92
        0
 66
   257
 43
1.0
 76
     1
 77
     6
 78
     2
 67
     7
 79
     3
170
     0
171
     0
290
     0
174
     0
 93
        1
 44
0.0
173
     0
291
     0
 45
0.0
1001
ACAD
1000
AcDbSavedByObjectVersion
1070
     0
1000
AcDbSavedByObjectVersion
1070
     0
1000
AcDbSavedByObjectVersion
1070
     0
1000
AcDbSavedByObjectVersion
1070
     0
1000
AcDbSavedByObjectVersion
1070
     0
1000
AcDbSavedByObjectVersion
1070
     0
1000
AcDbSavedByObjectVersion
1070
     0
1000
AcDbSavedByObjectVersion
1070
     0
1000
AcDbSavedByObjectVersion
1070
     0
1000
AcDbSavedByObjectVersion
1070
     0
1000
AcDbSavedByObjectVersion
1070
     0
1000
AcDbSavedByObjectVersion
1070
     0
1000
AcDbSavedByObjectVersion
1070
     0
1000
AcDbSavedByObjectVersion
1070
     0
1000
AcDbSavedByObjectVersion
1070
     0
1000
AcDbSavedByObjectVersion
1070
     0
1000
AcDbSavedByObjectVersion
1070
     0
1000
AcDbSavedByObjectVersion
1070
     0
1000
AcDbSavedByObjectVersion
1070
     0
1000
AcDbSavedByObjectVersion
1070
     0
1000
AcDbSavedByObjectVersion
1070
     0
1000
AcDbSavedByObjectVersion
1070
     0
1000
AcDbSavedByObjectVersion
1070
     0
1000
AcDbSavedByObjectVersion
1070
     0
1000
AcDbSavedByObjectVersion
1070
     0
1000
AcDbSavedByObjectVersion
1070
     0
1000
AcDbSavedByObjectVersion
1070
     0
1000
AcDbSavedByObjectVersion
1070
     0
1000
AcDbSavedByObjectVersion
1070
     0
1000
AcDbSavedByObjectVersion
1070
     0
1000
AcDbSavedByObjectVersion
1070
     0
1000
AcDbSavedByObjectVersion
1070
     0
1000
AcDbSavedByObjectVersion
1070
     0
1000
AcDbSavedByObjectVersion
1070
     0
1000
AcDbSavedByObjectVersion
1070
     0
1000
AcDbSavedByObjectVersion
1070
     0
1000
AcDbSavedByObjectVersion
1070
     0
1000
AcDbSavedByObjectVersion
1070
     0
1000
AcDbSavedByObjectVersion
1070
     0
1000
AcDbSavedByObjectVersion
1070
     0
1000
AcDbSavedByObjectVersion
1070
     0
1000
AcDbSavedByObjectVersion
1070
     0
1000
AcDbSavedByObjectVersion
1070
     0
1000
AcDbSavedByObjectVersion
1070
     0
  0
VISUALSTYLE
  5
30
102
{ACAD_REACTORS
330
2A
102
}
330
2A
100
AcDbVisualStyle
  2
3dWireframe
 70
     5
 71
     0
 72
     2
 73
     0
 90
        0
 40
-0.6
 41
-30.0
 62
     5
 63
     7
 74
     1
 91
        4
 64
     7
 65
   257
 75
     1
175
     1
 42
1.0
 92
        0
 66
   257
 43
1.0
 76
     1
 77
     6
 78
     2
 67
     7
 79
     5
170
     0
171
     0
290
     0
174
     0
 93
        1
 44
0.0
173
     0
291
     0
 45
0.0
1001
ACAD
1000
AcDbSavedByObjectVersion
1070
     0
1000
AcDbSavedByObjectVersion
1070
     0
1000
AcDbSavedByObjectVersion
1070
     0
1000
AcDbSavedByObjectVersion
1070
     0
1000
AcDbSavedByObjectVersion
1070
     0
1000
AcDbSavedByObjectVersion
1070
     0
1000
AcDbSavedByObjectVersion
1070
     0
1000
AcDbSavedByObjectVersion
1070
     0
1000
AcDbSavedByObjectVersion
1070
     0
1000
AcDbSavedByObjectVersion
1070
     0
1000
AcDbSavedByObjectVersion
1070
     0
1000
AcDbSavedByObjectVersion
1070
     0
1000
AcDbSavedByObjectVersion
1070
     0
1000
AcDbSavedByObjectVersion
1070
     0
1000
AcDbSavedByObjectVersion
1070
     0
1000
AcDbSavedByObjectVersion
1070
     0
1000
AcDbSavedByObjectVersion
1070
     0
1000
AcDbSavedByObjectVersion
1070
     0
1000
AcDbSavedByObjectVersion
1070
     0
1000
AcDbSavedByObjectVersion
1070
     0
1000
AcDbSavedByObjectVersion
1070
     0
1000
AcDbSavedByObjectVersion
1070
     0
1000
AcDbSavedByObjectVersion
1070
     0
1000
AcDbSavedByObjectVersion
1070
     0
1000
AcDbSavedByObjectVersion
1070
     0
1000
AcDbSavedByObjectVersion
1070
     0
1000
AcDbSavedByObjectVersion
1070
     0
1000
AcDbSavedByObjectVersion
1070
     0
1000
AcDbSavedByObjectVersion
1070
     0
1000
AcDbSavedByObjectVersion
1070
     0
1000
AcDbSavedByObjectVersion
1070
     0
1000
AcDbSavedByObjectVersion
1070
     0
1000
AcDbSavedByObjectVersion
1070
     0
1000
AcDbSavedByObjectVersion
1070
     0
1000
AcDbSavedByObjectVersion
1070
     0
1000
AcDbSavedByObjectVersion
1070
     0
1000
AcDbSavedByObjectVersion
1070
     0
1000
AcDbSavedByObjectVersion
1070
     0
1000
AcDbSavedByObjectVersion
1070
     0
1000
AcDbSavedByObjectVersion
1070
     0
1000
AcDbSavedByObjectVersion
1070
     0
1000
AcDbSavedByObjectVersion
1070
     0
1000
AcDbSavedByObjectVersion
1070
     0
1000
AcDbSavedByObjectVersion
1070
     0
  0
VISUALSTYLE
  5
32
102
{ACAD_REACTORS
330
2A
102
}
330
2A
100
AcDbVisualStyle
  2
Basic
 70
     7
 71
     1
 72
     0
 73
     1
 90
        0
 40
-0.6
 41
-30.0
 62
     5
 63
     7
 74
     0
 91
        4
 64
     7
 65
   257
 75
     1
175
     1
 42
1.0
 92
        8
 66
     7
 43
1.0
 76
     1
 77
     6
 78
     2
 67
     7
 79
     5
170
     0
171
     0
290
     0
174
     0
 93
        1
 44
0.0
173
     0
291
     1
 45
0.0
1001
ACAD
1000
AcDbSavedByObjectVersion
1070
     0
1000
AcDbSavedByObjectVersion
1070
     0
1000
AcDbSavedByObjectVersion
1070
     0
1000
AcDbSavedByObjectVersion
1070
     0
1000
AcDbSavedByObjectVersion
1070
     0
1000
AcDbSavedByObjectVersion
1070
     0
1000
AcDbSavedByObjectVersion
1070
     0
1000
AcDbSavedByObjectVersion
1070
     0
1000
AcDbSavedByObjectVersion
1070
     0
1000
AcDbSavedByObjectVersion
1070
     0
1000
AcDbSavedByObjectVersion
1070
     0
1000
AcDbSavedByObjectVersion
1070
     0
1000
AcDbSavedByObjectVersion
1070
     0
1000
AcDbSavedByObjectVersion
1070
     0
1000
AcDbSavedByObjectVersion
1070
     0
1000
AcDbSavedByObjectVersion
1070
     0
1000
AcDbSavedByObjectVersion
1070
     0
1000
AcDbSavedByObjectVersion
1070
     0
1000
AcDbSavedByObjectVersion
1070
     0
1000
AcDbSavedByObjectVersion
1070
     0
1000
AcDbSavedByObjectVersion
1070
     0
1000
AcDbSavedByObjectVersion
1070
     0
1000
AcDbSavedByObjectVersion
1070
     0
1000
AcDbSavedByObjectVersion
1070
     0
1000
AcDbSavedByObjectVersion
1070
     0
1000
AcDbSavedByObjectVersion
1070
     0
1000
AcDbSavedByObjectVersion
1070
     0
1000
AcDbSavedByObjectVersion
1070
     0
1000
AcDbSavedByObjectVersion
1070
     0
1000
AcDbSavedByObjectVersion
1070
     0
1000
AcDbSavedByObjectVersion
1070
     0
1000
AcDbSavedByObjectVersion
1070
     0
1000
AcDbSavedByObjectVersion
1070
     0
1000
AcDbSavedByObjectVersion
1070
     0
1000
AcDbSavedByObjectVersion
1070
     0
1000
AcDbSavedByObjectVersion
1070
     0
1000
AcDbSavedByObjectVersion
1070
     0
1000
AcDbSavedByObjectVersion
1070
     0
1000
AcDbSavedByObjectVersion
1070
     0
1000
AcDbSavedByObjectVersion
1070
     0
1000
AcDbSavedByObjectVersion
1070
     0
1000
AcDbSavedByObjectVersion
1070
     0
1000
AcDbSavedByObjectVersion
1070
     0
1000
AcDbSavedByObjectVersion
1070
     0
  0
VISUALSTYLE
  5
36
102
{ACAD_REACTORS
330
2A
102
}
330
2A
100
AcDbVisualStyle
  2
Brighten
 70
    12
 71
     2
 72
     2
 73
     0
 90
        0
 40
-0.6
 41
-30.0
 62
     5
 63
     7
 74
     1
 91
        4
 64
     7
 65
   257
 75
     1
175
     1
 42
1.0
 92
        8
 66
     7
 43
1.0
 76
     1
 77
     6
 78
     2
 67
     7
 79
     5
170
     0
171
     0
290
     0
174
     0
 93
        1
 44
50.0
173
     0
291
     1
 45
0.0
1001
ACAD
1000
AcDbSavedByObjectVersion
1070
     0
1000
AcDbSavedByObjectVersion
1070
     0
1000
AcDbSavedByObjectVersion
1070
     0
1000
AcDbSavedByObjectVersion
1070
     0
1000
AcDbSavedByObjectVersion
1070
     0
1000
AcDbSavedByObjectVersion
1070
     0
1000
AcDbSavedByObjectVersion
1070
     0
1000
AcDbSavedByObjectVersion
1070
     0
1000
AcDbSavedByObjectVersion
1070
     0
1000
AcDbSavedByObjectVersion
1070
     0
1000
AcDbSavedByObjectVersion
1070
     0
1000
AcDbSavedByObjectVersion
1070
     0
1000
AcDbSavedByObjectVersion
1070
     0
1000
AcDbSavedByObjectVersion
1070
     0
1000
AcDbSavedByObjectVersion
1070
     0
1000
AcDbSavedByObjectVersion
1070
     0
1000
AcDbSavedByObjectVersion
1070
     0
1000
AcDbSavedByObjectVersion
1070
     0
1000
AcDbSavedByObjectVersion
1070
     0
1000
AcDbSavedByObjectVersion
1070
     0
1000
AcDbSavedByObjectVersion
1070
     0
1000
AcDbSavedByObjectVersion
1070
     0
1000
AcDbSavedByObjectVersion
1070
     0
1000
AcDbSavedByObjectVersion
1070
     0
1000
AcDbSavedByObjectVersion
1070
     0
1000
AcDbSavedByObjectVersion
1070
     0
1000
AcDbSavedByObjectVersion
1070
     0
1000
AcDbSavedByObjectVersion
1070
     0
1000
AcDbSavedByObjectVersion
1070
     0
1000
AcDbSavedByObjectVersion
1070
     0
1000
AcDbSavedByObjectVersion
1070
     0
1000
AcDbSavedByObjectVersion
1070
     0
1000
AcDbSavedByObjectVersion
1070
     0
1000
AcDbSavedByObjectVersion
1070
     0
1000
AcDbSavedByObjectVersion
1070
     0
1000
AcDbSavedByObjectVersion
1070
     0
1000
AcDbSavedByObjectVersion
1070
     0
1000
AcDbSavedByObjectVersion
1070
     0
1000
AcDbSavedByObjectVersion
1070
     0
1000
AcDbSavedByObjectVersion
1070
     0
1000
AcDbSavedByObjectVersion
1070
     0
1000
AcDbSavedByObjectVersion
1070
     0
1000
AcDbSavedByObjectVersion
1070
     0
1000
AcDbSavedByObjectVersion
1070
     0
  0
VISUALSTYLE
  5
3A
102
{ACAD_REACTORS
330
2A
102
}
330
2A
100
AcDbVisualStyle
  2
ColorChange
 70
    16
 71
     2
 72
     2
 73
     3
 90
        0
 40
-0.6
 41
-30.0
 62
     5
 63
     8
 74
     1
 91
        4
 64
     7
 65
   257
 75
     1
175
     1
 42
1.0
 92
        8
 66
     8
 43
1.0
 76
     1
 77
     6
 78
     2
 67
     7
 79
     5
170
     0
171
     0
290
     0
174
     0
 93
        1
 44
0.0
173
     0
291
     1
 45
0.0
1001
ACAD
1000
AcDbSavedByObjectVersion
1070
     0
1000
AcDbSavedByObjectVersion
1070
     0
1000
AcDbSavedByObjectVersion
1070
     0
1000
AcDbSavedByObjectVersion
1070
     0
1000
AcDbSavedByObjectVersion
1070
     0
1000
AcDbSavedByObjectVersion
1070
     0
1000
AcDbSavedByObjectVersion
1070
     0
1000
AcDbSavedByObjectVersion
1070
     0
1000
AcDbSavedByObjectVersion
1070
     0
1000
AcDbSavedByObjectVersion
1070
     0
1000
AcDbSavedByObjectVersion
1070
     0
1000
AcDbSavedByObjectVersion
1070
     0
1000
AcDbSavedByObjectVersion
1070
     0
1000
AcDbSavedByObjectVersion
1070
     0
1000
AcDbSavedByObjectVersion
1070
     0
1000
AcDbSavedByObjectVersion
1070
     0
1000
AcDbSavedByObjectVersion
1070
     0
1000
AcDbSavedByObjectVersion
1070
     0
1000
AcDbSavedByObjectVersion
1070
     0
1000
AcDbSavedByObjectVersion
1070
     0
1000
AcDbSavedByObjectVersion
1070
     0
1000
AcDbSavedByObjectVersion
1070
     0
1000
AcDbSavedByObjectVersion
1070
     0
1000
AcDbSavedByObjectVersion
1070
     0
1000
AcDbSavedByObjectVersion
1070
     0
1000
AcDbSavedByObjectVersion
1070
     0
1000
AcDbSavedByObjectVersion
1070
     0
1000
AcDbSavedByObjectVersion
1070
     0
1000
AcDbSavedByObjectVersion
1070
     0
1000
AcDbSavedByObjectVersion
1070
     0
1000
AcDbSavedByObjectVersion
1070
     0
1000
AcDbSavedByObjectVersion
1070
     0
1000
AcDbSavedByObjectVersion
1070
     0
1000
AcDbSavedByObjectVersion
1070
     0
1000
AcDbSavedByObjectVersion
1070
     0
1000
AcDbSavedByObjectVersion
1070
     0
1000
AcDbSavedByObjectVersion
1070
     0
1000
AcDbSavedByObjectVersion
1070
     0
1000
AcDbSavedByObjectVersion
1070
     0
1000
AcDbSavedByObjectVersion
1070
     0
1000
AcDbSavedByObjectVersion
1070
     0
1000
AcDbSavedByObjectVersion
1070
     0
1000
AcDbSavedByObjectVersion
1070
     0
1000
AcDbSavedByObjectVersion
1070
     0
  0
VISUALSTYLE
  5
34
102
{ACAD_REACTORS
330
2A
102
}
330
2A
100
AcDbVisualStyle
  2
Conceptual
 70
     9
 71
     3
 72
     2
 73
     0
 90
        0
 40
-0.6
 41
-30.0
 62
     5
 63
     7
 74
     2
 91
        2
 64
     7
 65
   257
 75
     1
175
     1
 42
40.0
 92
        8
 66
     7
 43
1.0
 76
     1
 77
     6
 78
     2
 67
     7
 79
     3
170
     0
171
     0
290
     0
174
     0
 93
        1
 44
0.0
173
     0
291
     0
 45
0.0
1001
ACAD
1000
AcDbSavedByObjectVersion
1070
     0
1000
AcDbSavedByObjectVersion
1070
     0
1000
AcDbSavedByObjectVersion
1070
     0
1000
AcDbSavedByObjectVersion
1070
     0
1000
AcDbSavedByObjectVersion
1070
     0
1000
AcDbSavedByObjectVersion
1070
     0
1000
AcDbSavedByObjectVersion
1070
     0
1000
AcDbSavedByObjectVersion
1070
     0
1000
AcDbSavedByObjectVersion
1070
     0
1000
AcDbSavedByObjectVersion
1070
     0
1000
AcDbSavedByObjectVersion
1070
     0
1000
AcDbSavedByObjectVersion
1070
     0
1000
AcDbSavedByObjectVersion
1070
     0
1000
AcDbSavedByObjectVersion
1070
     0
1000
AcDbSavedByObjectVersion
1070
     0
1000
AcDbSavedByObjectVersion
1070
     0
1000
AcDbSavedByObjectVersion
1070
     0
1000
AcDbSavedByObjectVersion
1070
     0
1000
AcDbSavedByObjectVersion
1070
     0
1000
AcDbSavedByObjectVersion
1070
     0
1000
AcDbSavedByObjectVersion
1070
     0
1000
AcDbSavedByObjectVersion
1070
     0
1000
AcDbSavedByObjectVersion
1070
     0
1000
AcDbSavedByObjectVersion
1070
     0
1000
AcDbSavedByObjectVersion
1070
     0
1000
AcDbSavedByObjectVersion
1070
     0
1000
AcDbSavedByObjectVersion
1070
     0
1000
AcDbSavedByObjectVersion
1070
     0
1000
AcDbSavedByObjectVersion
1070
     0
1000
AcDbSavedByObjectVersion
1070
     0
1000
AcDbSavedByObjectVersion
1070
     0
1000
AcDbSavedByObjectVersion
1070
     0
1000
AcDbSavedByObjectVersion
1070
     0
1000
AcDbSavedByObjectVersion
1070
     0
1000
AcDbSavedByObjectVersion
1070
     0
1000
AcDbSavedByObjectVersion
1070
     0
1000
AcDbSavedByObjectVersion
1070
     0
1000
AcDbSavedByObjectVersion
1070
     0
1000
AcDbSavedByObjectVersion
1070
     0
1000
AcDbSavedByObjectVersion
1070
     0
1000
AcDbSavedByObjectVersion
1070
     0
1000
AcDbSavedByObjectVersion
1070
     0
1000
AcDbSavedByObjectVersion
1070
     0
1000
AcDbSavedByObjectVersion
1070
     0
  0
VISUALSTYLE
  5
35
102
{ACAD_REACTORS
330
2A
102
}
330
2A
100
AcDbVisualStyle
  2
Dim
 70
    11
 71
     2
 72
     2
 73
     0
 90
        0
 40
-0.6
 41
-30.0
 62
     5
 63
     7
 74
     1
 91
        4
 64
     7
 65
   257
 75
     1
175
     1
 42
1.0
 92
        8
 66
     7
 43
1.0
 76
     1
 77
     6
 78
     2
 67
     7
 79
     5
170
     0
171
     0
290
     0
174
     0
 93
        1
 44
-50.0
173
     0
291
     1
 45
0.0
1001
ACAD
1000
AcDbSavedByObjectVersion
1070
     0
1000
AcDbSavedByObjectVersion
1070
     0
1000
AcDbSavedByObjectVersion
1070
     0
1000
AcDbSavedByObjectVersion
1070
     0
1000
AcDbSavedByObjectVersion
1070
     0
1000
AcDbSavedByObjectVersion
1070
     0
1000
AcDbSavedByObjectVersion
1070
     0
1000
AcDbSavedByObjectVersion
1070
     0
1000
AcDbSavedByObjectVersion
1070
     0
1000
AcDbSavedByObjectVersion
1070
     0
1000
AcDbSavedByObjectVersion
1070
     0
1000
AcDbSavedByObjectVersion
1070
     0
1000
AcDbSavedByObjectVersion
1070
     0
1000
AcDbSavedByObjectVersion
1070
     0
1000
AcDbSavedByObjectVersion
1070
     0
1000
AcDbSavedByObjectVersion
1070
     0
1000
AcDbSavedByObjectVersion
1070
     0
1000
AcDbSavedByObjectVersion
1070
     0
1000
AcDbSavedByObjectVersion
1070
     0
1000
AcDbSavedByObjectVersion
1070
     0
1000
AcDbSavedByObjectVersion
1070
     0
1000
AcDbSavedByObjectVersion
1070
     0
1000
AcDbSavedByObjectVersion
1070
     0
1000
AcDbSavedByObjectVersion
1070
     0
1000
AcDbSavedByObjectVersion
1070
     0
1000
AcDbSavedByObjectVersion
1070
     0
1000
AcDbSavedByObjectVersion
1070
     0
1000
AcDbSavedByObjectVersion
1070
     0
1000
AcDbSavedByObjectVersion
1070
     0
1000
AcDbSavedByObjectVersion
1070
     0
1000
AcDbSavedByObjectVersion
1070
     0
1000
AcDbSavedByObjectVersion
1070
     0
1000
AcDbSavedByObjectVersion
1070
     0
1000
AcDbSavedByObjectVersion
1070
     0
1000
AcDbSavedByObjectVersion
1070
     0
1000
AcDbSavedByObjectVersion
1070
     0
1000
AcDbSavedByObjectVersion
1070
     0
1000
AcDbSavedByObjectVersion
1070
     0
1000
AcDbSavedByObjectVersion
1070
     0
1000
AcDbSavedByObjectVersion
1070
     0
1000
AcDbSavedByObjectVersion
1070
     0
1000
AcDbSavedByObjectVersion
1070
     0
1000
AcDbSavedByObjectVersion
1070
     0
1000
AcDbSavedByObjectVersion
1070
     0
  0
VISUALSTYLE
  5
39
102
{ACAD_REACTORS
330
2A
102
}
330
2A
100
AcDbVisualStyle
  2
Facepattern
 70
    15
 71
     2
 72
     2
 73
     0
 90
        0
 40
-0.6
 41
-30.0
 62
     5
 63
     7
 74
     1
 91
        4
 64
     7
 65
   257
 75
     1
175
     1
 42
1.0
 92
        8
 66
     7
 43
1.0
 76
     1
 77
     6
 78
     2
 67
     7
 79
     5
170
     0
171
     0
290
     0
174
     0
 93
        1
 44
0.0
173
     0
291
     1
 45
0.0
1001
ACAD
1000
AcDbSavedByObjectVersion
1070
     0
1000
AcDbSavedByObjectVersion
1070
     0
1000
AcDbSavedByObjectVersion
1070
     0
1000
AcDbSavedByObjectVersion
1070
     0
1000
AcDbSavedByObjectVersion
1070
     0
1000
AcDbSavedByObjectVersion
1070
     0
1000
AcDbSavedByObjectVersion
1070
     0
1000
AcDbSavedByObjectVersion
1070
     0
1000
AcDbSavedByObjectVersion
1070
     0
1000
AcDbSavedByObjectVersion
1070
     0
1000
AcDbSavedByObjectVersion
1070
     0
1000
AcDbSavedByObjectVersion
1070
     0
1000
AcDbSavedByObjectVersion
1070
     0
1000
AcDbSavedByObjectVersion
1070
     0
1000
AcDbSavedByObjectVersion
1070
     0
1000
AcDbSavedByObjectVersion
1070
     0
1000
AcDbSavedByObjectVersion
1070
     0
1000
AcDbSavedByObjectVersion
1070
     0
1000
AcDbSavedByObjectVersion
1070
     0
1000
AcDbSavedByObjectVersion
1070
     0
1000
AcDbSavedByObjectVersion
1070
     0
1000
AcDbSavedByObjectVersion
1070
     0
1000
AcDbSavedByObjectVersion
1070
     0
1000
AcDbSavedByObjectVersion
1070
     0
1000
AcDbSavedByObjectVersion
1070
     0
1000
AcDbSavedByObjectVersion
1070
     0
1000
AcDbSavedByObjectVersion
1070
     0
1000
AcDbSavedByObjectVersion
1070
     0
1000
AcDbSavedByObjectVersion
1070
     0
1000
AcDbSavedByObjectVersion
1070
     0
1000
AcDbSavedByObjectVersion
1070
     0
1000
AcDbSavedByObjectVersion
1070
     0
1000
AcDbSavedByObjectVersion
1070
     0
1000
AcDbSavedByObjectVersion
1070
     0
1000
AcDbSavedByObjectVersion
1070
     0
1000
AcDbSavedByObjectVersion
1070
     0
1000
AcDbSavedByObjectVersion
1070
     0
1000
AcDbSavedByObjectVersion
1070
     0
1000
AcDbSavedByObjectVersion
1070
     0
1000
AcDbSavedByObjectVersion
1070
     0
1000
AcDbSavedByObjectVersion
1070
     0
1000
AcDbSavedByObjectVersion
1070
     0
1000
AcDbSavedByObjectVersion
1070
     0
1000
AcDbSavedByObjectVersion
1070
     0
  0
VISUALSTYLE
  5
2B
102
{ACAD_REACTORS
330
2A
102
}
330
2A
100
AcDbVisualStyle
  2
Flat
 70
     0
 71
     2
 72
     1
 73
     1
 90
        2
 40
-0.6
 41
30.0
 62
     5
 63
     7
 74
     0
 91
        4
 64
     7
 65
   257
 75
     1
175
     1
 42
1.0
 92
        8
 66
     7
 43
1.0
 76
     1
 77
     6
 78
     2
 67
     7
 79
     5
170
     0
171
     0
290
     0
174
     0
 93
       13
 44
0.0
173
     0
291
     1
 45
0.0
1001
ACAD
1000
AcDbSavedByObjectVersion
1070
     0
1000
AcDbSavedByObjectVersion
1070
     0
1000
AcDbSavedByObjectVersion
1070
     0
1000
AcDbSavedByObjectVersion
1070
     0
1000
AcDbSavedByObjectVersion
1070
     0
1000
AcDbSavedByObjectVersion
1070
     0
1000
AcDbSavedByObjectVersion
1070
     0
1000
AcDbSavedByObjectVersion
1070
     0
1000
AcDbSavedByObjectVersion
1070
     0
1000
AcDbSavedByObjectVersion
1070
     0
1000
AcDbSavedByObjectVersion
1070
     0
1000
AcDbSavedByObjectVersion
1070
     0
1000
AcDbSavedByObjectVersion
1070
     0
1000
AcDbSavedByObjectVersion
1070
     0
1000
AcDbSavedByObjectVersion
1070
     0
1000
AcDbSavedByObjectVersion
1070
     0
1000
AcDbSavedByObjectVersion
1070
     0
1000
AcDbSavedByObjectVersion
1070
     0
1000
AcDbSavedByObjectVersion
1070
     0
1000
AcDbSavedByObjectVersion
1070
     0
1000
AcDbSavedByObjectVersion
1070
     0
1000
AcDbSavedByObjectVersion
1070
     0
1000
AcDbSavedByObjectVersion
1070
     0
1000
AcDbSavedByObjectVersion
1070
     0
1000
AcDbSavedByObjectVersion
1070
     0
1000
AcDbSavedByObjectVersion
1070
     0
1000
AcDbSavedByObjectVersion
1070
     0
1000
AcDbSavedByObjectVersion
1070
     0
1000
AcDbSavedByObjectVersion
1070
     0
1000
AcDbSavedByObjectVersion
1070
     0
1000
AcDbSavedByObjectVersion
1070
     0
1000
AcDbSavedByObjectVersion
1070
     0
1000
AcDbSavedByObjectVersion
1070
     0
1000
AcDbSavedByObjectVersion
1070
     0
1000
AcDbSavedByObjectVersion
1070
     0
1000
AcDbSavedByObjectVersion
1070
     0
1000
AcDbSavedByObjectVersion
1070
     0
1000
AcDbSavedByObjectVersion
1070
     0
1000
AcDbSavedByObjectVersion
1070
     0
1000
AcDbSavedByObjectVersion
1070
     0
1000
AcDbSavedByObjectVersion
1070
     0
1000
AcDbSavedByObjectVersion
1070
     0
1000
AcDbSavedByObjectVersion
1070
     0
1000
AcDbSavedByObjectVersion
1070
     0
  0
VISUALSTYLE
  5
2C
102
{ACAD_REACTORS
330
2A
102
}
330
2A
100
AcDbVisualStyle
  2
FlatWithEdges
 70
     1
 71
     2
 72
     1
 73
     1
 90
        2
 40
-0.6
 41
30.0
 62
     5
 63
     7
 74
     1
 91
        4
 64
     7
 65
   257
 75
     1
175
     1
 42
1.0
 92
        0
 66
   257
 43
1.0
 76
     1
 77
     6
 78
     2
 67
     7
 79
     5
170
     0
171
     0
290
     0
174
     0
 93
       13
 44
0.0
173
     0
291
     1
 45
0.0
1001
ACAD
1000
AcDbSavedByObjectVersion
1070
     0
1000
AcDbSavedByObjectVersion
1070
     0
1000
AcDbSavedByObjectVersion
1070
     0
1000
AcDbSavedByObjectVersion
1070
     0
1000
AcDbSavedByObjectVersion
1070
     0
1000
AcDbSavedByObjectVersion
1070
     0
1000
AcDbSavedByObjectVersion
1070
     0
1000
AcDbSavedByObjectVersion
1070
     0
1000
AcDbSavedByObjectVersion
1070
     0
1000
AcDbSavedByObjectVersion
1070
     0
1000
AcDbSavedByObjectVersion
1070
     0
1000
AcDbSavedByObjectVersion
1070
     0
1000
AcDbSavedByObjectVersion
1070
     0
1000
AcDbSavedByObjectVersion
1070
     0
1000
AcDbSavedByObjectVersion
1070
     0
1000
AcDbSavedByObjectVersion
1070
     0
1000
AcDbSavedByObjectVersion
1070
     0
1000
AcDbSavedByObjectVersion
1070
     0
1000
AcDbSavedByObjectVersion
1070
     0
1000
AcDbSavedByObjectVersion
1070
     0
1000
AcDbSavedByObjectVersion
1070
     0
1000
AcDbSavedByObjectVersion
1070
     0
1000
AcDbSavedByObjectVersion
1070
     0
1000
AcDbSavedByObjectVersion
1070
     0
1000
AcDbSavedByObjectVersion
1070
     0
1000
AcDbSavedByObjectVersion
1070
     0
1000
AcDbSavedByObjectVersion
1070
     0
1000
AcDbSavedByObjectVersion
1070
     0
1000
AcDbSavedByObjectVersion
1070
     0
1000
AcDbSavedByObjectVersion
1070
     0
1000
AcDbSavedByObjectVersion
1070
     0
1000
AcDbSavedByObjectVersion
1070
     0
1000
AcDbSavedByObjectVersion
1070
     0
1000
AcDbSavedByObjectVersion
1070
     0
1000
AcDbSavedByObjectVersion
1070
     0
1000
AcDbSavedByObjectVersion
1070
     0
1000
AcDbSavedByObjectVersion
1070
     0
1000
AcDbSavedByObjectVersion
1070
     0
1000
AcDbSavedByObjectVersion
1070
     0
1000
AcDbSavedByObjectVersion
1070
     0
1000
AcDbSavedByObjectVersion
1070
     0
1000
AcDbSavedByObjectVersion
1070
     0
1000
AcDbSavedByObjectVersion
1070
     0
1000
AcDbSavedByObjectVersion
1070
     0
  0
VISUALSTYLE
  5
2D
102
{ACAD_REACTORS
330
2A
102
}
330
2A
100
AcDbVisualStyle
  2
Gouraud
 70
     2
 71
     2
 72
     2
 73
     1
 90
        2
 40
-0.6
 41
30.0
 62
     5
 63
     7
 74
     0
 91
        4
 64
     7
 65
   257
 75
     1
175
     1
 42
1.0
 92
        0
 66
     7
 43
1.0
 76
     1
 77
     6
 78
     2
 67
     7
 79
     5
170
     0
171
     0
290
     0
174
     0
 93
       13
 44
0.0
173
     0
291
     1
 45
0.0
1001
ACAD
1000
AcDbSavedByObjectVersion
1070
     0
1000
AcDbSavedByObjectVersion
1070
     0
1000
AcDbSavedByObjectVersion
1070
     0
1000
AcDbSavedByObjectVersion
1070
     0
1000
AcDbSavedByObjectVersion
1070
     0
1000
AcDbSavedByObjectVersion
1070
     0
1000
AcDbSavedByObjectVersion
1070
     0
1000
AcDbSavedByObjectVersion
1070
     0
1000
AcDbSavedByObjectVersion
1070
     0
1000
AcDbSavedByObjectVersion
1070
     0
1000
AcDbSavedByObjectVersion
1070
     0
1000
AcDbSavedByObjectVersion
1070
     0
1000
AcDbSavedByObjectVersion
1070
     0
1000
AcDbSavedByObjectVersion
1070
     0
1000
AcDbSavedByObjectVersion
1070
     0
1000
AcDbSavedByObjectVersion
1070
     0
1000
AcDbSavedByObjectVersion
1070
     0
1000
AcDbSavedByObjectVersion
1070
     0
1000
AcDbSavedByObjectVersion
1070
     0
1000
AcDbSavedByObjectVersion
1070
     0
1000
AcDbSavedByObjectVersion
1070
     0
1000
AcDbSavedByObjectVersion
1070
     0
1000
AcDbSavedByObjectVersion
1070
     0
1000
AcDbSavedByObjectVersion
1070
     0
1000
AcDbSavedByObjectVersion
1070
     0
1000
AcDbSavedByObjectVersion
1070
     0
1000
AcDbSavedByObjectVersion
1070
     0
1000
AcDbSavedByObjectVersion
1070
     0
1000
AcDbSavedByObjectVersion
1070
     0
1000
AcDbSavedByObjectVersion
1070
     0
1000
AcDbSavedByObjectVersion
1070
     0
1000
AcDbSavedByObjectVersion
1070
     0
1000
AcDbSavedByObjectVersion
1070
     0
1000
AcDbSavedByObjectVersion
1070
     0
1000
AcDbSavedByObjectVersion
1070
     0
1000
AcDbSavedByObjectVersion
1070
     0
1000
AcDbSavedByObjectVersion
1070
     0
1000
AcDbSavedByObjectVersion
1070
     0
1000
AcDbSavedByObjectVersion
1070
     0
1000
AcDbSavedByObjectVersion
1070
     0
1000
AcDbSavedByObjectVersion
1070
     0
1000
AcDbSavedByObjectVersion
1070
     0
1000
AcDbSavedByObjectVersion
1070
     0
1000
AcDbSavedByObjectVersion
1070
     0
  0
VISUALSTYLE
  5
2E
102
{ACAD_REACTORS
330
2A
102
}
330
2A
100
AcDbVisualStyle
  2
GouraudWithEdges
 70
     3
 71
     2
 72
     2
 73
     1
 90
        2
 40
-0.6
 41
30.0
 62
     5
 63
     7
 74
     1
 91
        4
 64
     7
 65
   257
 75
     1
175
     1
 42
1.0
 92
        0
 66
   257
 43
1.0
 76
     1
 77
     6
 78
     2
 67
     7
 79
     5
170
     0
171
     0
290
     0
174
     0
 93
       13
 44
0.0
173
     0
291
     1
 45
0.0
1001
ACAD
1000
AcDbSavedByObjectVersion
1070
     0
1000
AcDbSavedByObjectVersion
1070
     0
1000
AcDbSavedByObjectVersion
1070
     0
1000
AcDbSavedByObjectVersion
1070
     0
1000
AcDbSavedByObjectVersion
1070
     0
1000
AcDbSavedByObjectVersion
1070
     0
1000
AcDbSavedByObjectVersion
1070
     0
1000
AcDbSavedByObjectVersion
1070
     0
1000
AcDbSavedByObjectVersion
1070
     0
1000
AcDbSavedByObjectVersion
1070
     0
1000
AcDbSavedByObjectVersion
1070
     0
1000
AcDbSavedByObjectVersion
1070
     0
1000
AcDbSavedByObjectVersion
1070
     0
1000
AcDbSavedByObjectVersion
1070
     0
1000
AcDbSavedByObjectVersion
1070
     0
1000
AcDbSavedByObjectVersion
1070
     0
1000
AcDbSavedByObjectVersion
1070
     0
1000
AcDbSavedByObjectVersion
1070
     0
1000
AcDbSavedByObjectVersion
1070
     0
1000
AcDbSavedByObjectVersion
1070
     0
1000
AcDbSavedByObjectVersion
1070
     0
1000
AcDbSavedByObjectVersion
1070
     0
1000
AcDbSavedByObjectVersion
1070
     0
1000
AcDbSavedByObjectVersion
1070
     0
1000
AcDbSavedByObjectVersion
1070
     0
1000
AcDbSavedByObjectVersion
1070
     0
1000
AcDbSavedByObjectVersion
1070
     0
1000
AcDbSavedByObjectVersion
1070
     0
1000
AcDbSavedByObjectVersion
1070
     0
1000
AcDbSavedByObjectVersion
1070
     0
1000
AcDbSavedByObjectVersion
1070
     0
1000
AcDbSavedByObjectVersion
1070
     0
1000
AcDbSavedByObjectVersion
1070
     0
1000
AcDbSavedByObjectVersion
1070
     0
1000
AcDbSavedByObjectVersion
1070
     0
1000
AcDbSavedByObjectVersion
1070
     0
1000
AcDbSavedByObjectVersion
1070
     0
1000
AcDbSavedByObjectVersion
1070
     0
1000
AcDbSavedByObjectVersion
1070
     0
1000
AcDbSavedByObjectVersion
1070
     0
1000
AcDbSavedByObjectVersion
1070
     0
1000
AcDbSavedByObjectVersion
1070
     0
1000
AcDbSavedByObjectVersion
1070
     0
1000
AcDbSavedByObjectVersion
1070
     0
  0
VISUALSTYLE
  5
38
102
{ACAD_REACTORS
330
2A
102
}
330
2A
100
AcDbVisualStyle
  2
Linepattern
 70
    14
 71
     2
 72
     2
 73
     0
 90
        0
 40
-0.6
 41
-30.0
 62
     5
 63
     7
 74
     1
 91
        4
 64
     7
 65
   257
 75
     7
175
     7
 42
1.0
 92
        8
 66
     7
 43
1.0
 76
     1
 77
     6
 78
     2
 67
     7
 79
     5
170
     0
171
     0
290
     0
174
     0
 93
        1
 44
0.0
173
     0
291
     1
 45
0.0
1001
ACAD
1000
AcDbSavedByObjectVersion
1070
     0
1000
AcDbSavedByObjectVersion
1070
     0
1000
AcDbSavedByObjectVersion
1070
     0
1000
AcDbSavedByObjectVersion
1070
     0
1000
AcDbSavedByObjectVersion
1070
     0
1000
AcDbSavedByObjectVersion
1070
     0
1000
AcDbSavedByObjectVersion
1070
     0
1000
AcDbSavedByObjectVersion
1070
     0
1000
AcDbSavedByObjectVersion
1070
     0
1000
AcDbSavedByObjectVersion
1070
     0
1000
AcDbSavedByObjectVersion
1070
     0
1000
AcDbSavedByObjectVersion
1070
     0
1000
AcDbSavedByObjectVersion
1070
     0
1000
AcDbSavedByObjectVersion
1070
     0
1000
AcDbSavedByObjectVersion
1070
     0
1000
AcDbSavedByObjectVersion
1070
     0
1000
AcDbSavedByObjectVersion
1070
     0
1000
AcDbSavedByObjectVersion
1070
     0
1000
AcDbSavedByObjectVersion
1070
     0
1000
AcDbSavedByObjectVersion
1070
     0
1000
AcDbSavedByObjectVersion
1070
     0
1000
AcDbSavedByObjectVersion
1070
     0
1000
AcDbSavedByObjectVersion
1070
     0
1000
AcDbSavedByObjectVersion
1070
     0
1000
AcDbSavedByObjectVersion
1070
     0
1000
AcDbSavedByObjectVersion
1070
     0
1000
AcDbSavedByObjectVersion
1070
     0
1000
AcDbSavedByObjectVersion
1070
     0
1000
AcDbSavedByObjectVersion
1070
     0
1000
AcDbSavedByObjectVersion
1070
     0
1000
AcDbSavedByObjectVersion
1070
     0
1000
AcDbSavedByObjectVersion
1070
     0
1000
AcDbSavedByObjectVersion
1070
     0
1000
AcDbSavedByObjectVersion
1070
     0
1000
AcDbSavedByObjectVersion
1070
     0
1000
AcDbSavedByObjectVersion
1070
     0
1000
AcDbSavedByObjectVersion
1070
     0
1000
AcDbSavedByObjectVersion
1070
     0
1000
AcDbSavedByObjectVersion
1070
     0
1000
AcDbSavedByObjectVersion
1070
     0
1000
AcDbSavedByObjectVersion
1070
     0
1000
AcDbSavedByObjectVersion
1070
     0
1000
AcDbSavedByObjectVersion
1070
     0
1000
AcDbSavedByObjectVersion
1070
     0
  0
VISUALSTYLE
  5
33
102
{ACAD_REACTORS
330
2A
102
}
330
2A
100
AcDbVisualStyle
  2
Realistic
 70
     8
 71
     2
 72
     2
 73
     0
 90
        0
 40
-0.6
 41
-30.0
 62
     5
 63
     7
 74
     1
 91
        0
 64
     7
 65
   257
 75
     1
175
     1
 42
1.0
 92
        8
 66
     8
 43
1.0
 76
     1
 77
     6
 78
     2
 67
     7
 79
     5
170
     0
171
     0
290
     0
174
     0
 93
       13
 44
0.0
173
     0
291
     0
 45
0.0
1001
ACAD
1000
AcDbSavedByObjectVersion
1070
     0
1000
AcDbSavedByObjectVersion
1070
     0
1000
AcDbSavedByObjectVersion
1070
     0
1000
AcDbSavedByObjectVersion
1070
     0
1000
AcDbSavedByObjectVersion
1070
     0
1000
AcDbSavedByObjectVersion
1070
     0
1000
AcDbSavedByObjectVersion
1070
     0
1000
AcDbSavedByObjectVersion
1070
     0
1000
AcDbSavedByObjectVersion
1070
     0
1000
AcDbSavedByObjectVersion
1070
     0
1000
AcDbSavedByObjectVersion
1070
     0
1000
AcDbSavedByObjectVersion
1070
     0
1000
AcDbSavedByObjectVersion
1070
     0
1000
AcDbSavedByObjectVersion
1070
     0
1000
AcDbSavedByObjectVersion
1070
     0
1000
AcDbSavedByObjectVersion
1070
     0
1000
AcDbSavedByObjectVersion
1070
     0
1000
AcDbSavedByObjectVersion
1070
     0
1000
AcDbSavedByObjectVersion
1070
     0
1000
AcDbSavedByObjectVersion
1070
     0
1000
AcDbSavedByObjectVersion
1070
     0
1000
AcDbSavedByObjectVersion
1070
     0
1000
AcDbSavedByObjectVersion
1070
     0
1000
AcDbSavedByObjectVersion
1070
     0
1000
AcDbSavedByObjectVersion
1070
     0
1000
AcDbSavedByObjectVersion
1070
     0
1000
AcDbSavedByObjectVersion
1070
     0
1000
AcDbSavedByObjectVersion
1070
     0
1000
AcDbSavedByObjectVersion
1070
     0
1000
AcDbSavedByObjectVersion
1070
     0
1000
AcDbSavedByObjectVersion
1070
     0
1000
AcDbSavedByObjectVersion
1070
     0
1000
AcDbSavedByObjectVersion
1070
     0
1000
AcDbSavedByObjectVersion
1070
     0
1000
AcDbSavedByObjectVersion
1070
     0
1000
AcDbSavedByObjectVersion
1070
     0
1000
AcDbSavedByObjectVersion
1070
     0
1000
AcDbSavedByObjectVersion
1070
     0
1000
AcDbSavedByObjectVersion
1070
     0
1000
AcDbSavedByObjectVersion
1070
     0
1000
AcDbSavedByObjectVersion
1070
     0
1000
AcDbSavedByObjectVersion
1070
     0
1000
AcDbSavedByObjectVersion
1070
     0
1000
AcDbSavedByObjectVersion
1070
     0
  0
VISUALSTYLE
  5
37
102
{ACAD_REACTORS
330
2A
102
}
330
2A
100
AcDbVisualStyle
  2
Thicken
 70
    13
 71
     2
 72
     2
 73
     0
 90
        0
 40
-0.6
 41
-30.0
 62
     5
 63
     7
 74
     1
 91
        4
 64
     7
 65
   257
 75
     1
175
     1
 42
1.0
 92
       12
 66
     7
 43
1.0
 76
     1
 77
     6
 78
     2
 67
     7
 79
     5
170
     0
171
     0
290
     0
174
     0
 93
        1
 44
0.0
173
     0
291
     1
 45
0.0
1001
ACAD
1000
AcDbSavedByObjectVersion
1070
     0
1000
AcDbSavedByObjectVersion
1070
     0
1000
AcDbSavedByObjectVersion
1070
     0
1000
AcDbSavedByObjectVersion
1070
     0
1000
AcDbSavedByObjectVersion
1070
     0
1000
AcDbSavedByObjectVersion
1070
     0
1000
AcDbSavedByObjectVersion
1070
     0
1000
AcDbSavedByObjectVersion
1070
     0
1000
AcDbSavedByObjectVersion
1070
     0
1000
AcDbSavedByObjectVersion
1070
     0
1000
AcDbSavedByObjectVersion
1070
     0
1000
AcDbSavedByObjectVersion
1070
     0
1000
AcDbSavedByObjectVersion
1070
     0
1000
AcDbSavedByObjectVersion
1070
     0
1000
AcDbSavedByObjectVersion
1070
     0
1000
AcDbSavedByObjectVersion
1070
     0
1000
AcDbSavedByObjectVersion
1070
     0
1000
AcDbSavedByObjectVersion
1070
     0
1000
AcDbSavedByObjectVersion
1070
     0
1000
AcDbSavedByObjectVersion
1070
     0
1000
AcDbSavedByObjectVersion
1070
     0
1000
AcDbSavedByObjectVersion
1070
     0
1000
AcDbSavedByObjectVersion
1070
     0
1000
AcDbSavedByObjectVersion
1070
     0
1000
AcDbSavedByObjectVersion
1070
     0
1000
AcDbSavedByObjectVersion
1070
     0
1000
AcDbSavedByObjectVersion
1070
     0
1000
AcDbSavedByObjectVersion
1070
     0
1000
AcDbSavedByObjectVersion
1070
     0
1000
AcDbSavedByObjectVersion
1070
     0
1000
AcDbSavedByObjectVersion
1070
     0
1000
AcDbSavedByObjectVersion
1070
     0
1000
AcDbSavedByObjectVersion
1070
     0
1000
AcDbSavedByObjectVersion
1070
     0
1000
AcDbSavedByObjectVersion
1070
     0
1000
AcDbSavedByObjectVersion
1070
     0
1000
AcDbSavedByObjectVersion
1070
     0
1000
AcDbSavedByObjectVersion
1070
     0
1000
AcDbSavedByObjectVersion
1070
     0
1000
AcDbSavedByObjectVersion
1070
     0
1000
AcDbSavedByObjectVersion
1070
     0
1000
AcDbSavedByObjectVersion
1070
     0
1000
AcDbSavedByObjectVersion
1070
     0
1000
AcDbSavedByObjectVersion
1070
     0
  0
DICTIONARYVAR
  5
510B
102
{ACAD_REACTORS
330
5108
102
}
330
5108
100
DictionaryVariables
280
     0
  1
1:1
  0
DICTIONARYVAR
  5
510A
102
{ACAD_REACTORS
330
5108
102
}
330
5108
100
DictionaryVariables
280
     0
  1
STANDARD
  0
DICTIONARYVAR
  5
5109
102
{ACAD_REACTORS
330
5108
102
}
330
5108
100
DictionaryVariables
280
     0
  1
STANDARD
  0
DICTIONARYVAR
  5
510E
102
{ACAD_REACTORS
330
5108
102
}
330
5108
100
DictionaryVariables
280
     0
  1
1
  0
DICTIONARYVAR
  5
510D
102
{ACAD_REACTORS
330
5108
102
}
330
5108
100
DictionaryVariables
280
     0
  1
0
  0
DICTIONARYVAR
  5
1B5C1
102
{ACAD_REACTORS
330
5108
102
}
330
5108
100
DictionaryVariables
280
     0
  1
0
  0
DICTIONARYVAR
  5
1B5C0
102
{ACAD_REACTORS
330
5108
102
}
330
5108
100
DictionaryVariables
280
     0
  1
0
  0
DICTIONARYVAR
  5
510C
102
{ACAD_REACTORS
330
5108
102
}
330
5108
100
DictionaryVariables
280
     0
  1
127
  0
XRECORD
  5
1AC54
102
{ACAD_REACTORS
330
1AC53
102
}
330
1AC53
100
AcDbXrecord
280
     1
330
11089
  0
VLO-VL
  5
1B519
102
{ACAD_REACTORS
330
1B518
102
}
330
1B518
100
vlo_VL
 90
   -64512
 91
       12
 92
        1
 40
2.5
300
(&VLO-R . 0)
  0
DICTIONARY
  5
4FEF
330
4FEE
100
AcDbDictionary
280
     1
281
     1
  3
ACAD_XREC_ROUNDTRIP
360
7C2C
  3
BUMPTILE
360
4FF1
  3
DIFFUSETILE
360
4FF0
  3
OPACITYTILE
360
4FF4
  3
REFLECTIONTILE
360
4FF3
  3
REFRACTIONTILE
360
4FF5
  3
SPECULARTILE
360
4FF2
  0
DICTIONARY
  5
4FE7
330
4FE6
100
AcDbDictionary
280
     1
281
     1
  3
ACAD_XREC_ROUNDTRIP
360
7C2B
  3
BUMPTILE
360
4FE9
  3
DIFFUSETILE
360
4FE8
  3
OPACITYTILE
360
4FEC
  3
REFLECTIONTILE
360
4FEB
  3
REFRACTIONTILE
360
4FED
  3
SPECULARTILE
360
4FEA
  0
DICTIONARY
  5
4FF7
330
4FF6
100
AcDbDictionary
280
     1
281
     1
  3
ACAD_XREC_ROUNDTRIP
360
7C2D
  3
BUMPTILE
360
4FF9
  3
DIFFUSETILE
360
4FF8
  3
OPACITYTILE
360
4FFC
  3
REFLECTIONTILE
360
4FFB
  3
REFRACTIONTILE
360
4FFD
  3
SPECULARTILE
360
4FFA
  0
DICTIONARY
  5
50D6
330
4FFF
100
AcDbDictionary
280
     1
281
     1
  3
ACAD_ROUNDTRIP_2008_TABLESTYLE_CELLSTYLEMAP
360
1B5DD
  0
XRECORD
  5
7C2C
102
{ACAD_REACTORS
330
4FEF
102
}
330
4FEF
100
AcDbXrecord
280
     1
102
MATERIAL
148
0.0
149
0.0
149
0.0
 93
        0
 94
      127
282
     0
 72
     0
 77
     0
171
     0
175
     0
179
     0
273
     0
  0
XRECORD
  5
4FF1
102
{ACAD_REACTORS
330
4FEF
102
}
330
4FEF
100
AcDbXrecord
280
     1
270
     1
271
     1
  0
XRECORD
  5
4FF0
102
{ACAD_REACTORS
330
4FEF
102
}
330
4FEF
100
AcDbXrecord
280
     1
270
     1
271
     1
  0
XRECORD
  5
4FF4
102
{ACAD_REACTORS
330
4FEF
102
}
330
4FEF
100
AcDbXrecord
280
     1
270
     1
271
     1
  0
XRECORD
  5
4FF3
102
{ACAD_REACTORS
330
4FEF
102
}
330
4FEF
100
AcDbXrecord
280
     1
270
     1
271
     1
  0
XRECORD
  5
4FF5
102
{ACAD_REACTORS
330
4FEF
102
}
330
4FEF
100
AcDbXrecord
280
     1
270
     1
271
     1
  0
XRECORD
  5
4FF2
102
{ACAD_REACTORS
330
4FEF
102
}
330
4FEF
100
AcDbXrecord
280
     1
270
     1
271
     1
  0
XRECORD
  5
7C2B
102
{ACAD_REACTORS
330
4FE7
102
}
330
4FE7
100
AcDbXrecord
280
     1
102
MATERIAL
148
0.0
149
0.0
149
0.0
 93
        0
 94
      127
282
     0
 72
     0
 77
     0
171
     0
175
     0
179
     0
273
     0
  0
XRECORD
  5
4FE9
102
{ACAD_REACTORS
330
4FE7
102
}
330
4FE7
100
AcDbXrecord
280
     1
270
     1
271
     1
  0
XRECORD
  5
4FE8
102
{ACAD_REACTORS
330
4FE7
102
}
330
4FE7
100
AcDbXrecord
280
     1
270
     1
271
     1
  0
XRECORD
  5
4FEC
102
{ACAD_REACTORS
330
4FE7
102
}
330
4FE7
100
AcDbXrecord
280
     1
270
     1
271
     1
  0
XRECORD
  5
4FEB
102
{ACAD_REACTORS
330
4FE7
102
}
330
4FE7
100
AcDbXrecord
280
     1
270
     1
271
     1
  0
XRECORD
  5
4FED
102
{ACAD_REACTORS
330
4FE7
102
}
330
4FE7
100
AcDbXrecord
280
     1
270
     1
271
     1
  0
XRECORD
  5
4FEA
102
{ACAD_REACTORS
330
4FE7
102
}
330
4FE7
100
AcDbXrecord
280
     1
270
     1
271
     1
  0
XRECORD
  5
7C2D
102
{ACAD_REACTORS
330
4FF7
102
}
330
4FF7
100
AcDbXrecord
280
     1
102
MATERIAL
148
0.0
149
0.0
149
0.0
 93
        0
 94
      127
282
     0
 72
     0
 77
     0
171
     0
175
     0
179
     0
273
     0
  0
XRECORD
  5
4FF9
102
{ACAD_REACTORS
330
4FF7
102
}
330
4FF7
100
AcDbXrecord
280
     1
270
     1
271
     1
  0
XRECORD
  5
4FF8
102
{ACAD_REACTORS
330
4FF7
102
}
330
4FF7
100
AcDbXrecord
280
     1
270
     1
271
     1
  0
XRECORD
  5
4FFC
102
{ACAD_REACTORS
330
4FF7
102
}
330
4FF7
100
AcDbXrecord
280
     1
270
     1
271
     1
  0
XRECORD
  5
4FFB
102
{ACAD_REACTORS
330
4FF7
102
}
330
4FF7
100
AcDbXrecord
280
     1
270
     1
271
     1
  0
XRECORD
  5
4FFD
102
{ACAD_REACTORS
330
4FF7
102
}
330
4FF7
100
AcDbXrecord
280
     1
270
     1
271
     1
  0
XRECORD
  5
4FFA
102
{ACAD_REACTORS
330
4FF7
102
}
330
4FF7
100
AcDbXrecord
280
     1
270
     1
271
     1
  0
CELLSTYLEMAP
  5
1B5DD
102
{ACAD_REACTORS
330
50D6
102
}
330
50D6
100
AcDbCellStyleMap
 90
        3
300
CELLSTYLE
  1
TABLEFORMAT_BEGIN
 90
        5
170
     1
 91
        0
 92
    32768
 62
   257
 93
        1
300
CONTENTFORMAT
  1
CONTENTFORMAT_BEGIN
 90
        0
 91
        0
 92
      512
 93
        0
300

 40
0.0
140
1.0
 94
        5
 62
     0
340
11
144
0.25
309
CONTENTFORMAT_END
171
     1
301
MARGIN
  1
CELLMARGIN_BEGIN
 40
0.06
 40
0.06
 40
0.06
 40
0.06
 40
0.18
 40
0.18
309
CELLMARGIN_END
 94
        6
 95
        1
302
GRIDFORMAT
  1
GRIDFORMAT_BEGIN
 90
        0
 91
        1
 62
     0
 92
       -2
340
0
 93
        0
 40
0.045
309
GRIDFORMAT_END
 95
        2
302
GRIDFORMAT
  1
GRIDFORMAT_BEGIN
 90
        0
 91
        1
 62
     0
 92
       -2
340
0
 93
        0
 40
0.045
309
GRIDFORMAT_END
 95
        4
302
GRIDFORMAT
  1
GRIDFORMAT_BEGIN
 90
        0
 91
        1
 62
     0
 92
       -2
340
0
 93
        0
 40
0.045
309
GRIDFORMAT_END
 95
        8
302
GRIDFORMAT
  1
GRIDFORMAT_BEGIN
 90
        0
 91
        1
 62
     0
 92
       -2
340
0
 93
        0
 40
0.045
309
GRIDFORMAT_END
 95
       16
302
GRIDFORMAT
  1
GRIDFORMAT_BEGIN
 90
        0
 91
        1
 62
     0
 92
       -2
340
0
 93
        0
 40
0.045
309
GRIDFORMAT_END
 95
       32
302
GRIDFORMAT
  1
GRIDFORMAT_BEGIN
 90
        0
 91
        1
 62
     0
 92
       -2
340
0
 93
        0
 40
0.045
309
GRIDFORMAT_END
309
TABLEFORMAT_END
  1
CELLSTYLE_BEGIN
 90
        1
 91
        1
300
_TITLE
309
CELLSTYLE_END
300
CELLSTYLE
  1
TABLEFORMAT_BEGIN
 90
        5
170
     1
 91
        0
 92
        0
 62
   257
 93
        1
300
CONTENTFORMAT
  1
CONTENTFORMAT_BEGIN
 90
        0
 91
        0
 92
      512
 93
        0
300

 40
0.0
140
1.0
 94
        5
 62
     0
340
11
144
0.18
309
CONTENTFORMAT_END
171
     1
301
MARGIN
  1
CELLMARGIN_BEGIN
 40
0.06
 40
0.06
 40
0.06
 40
0.06
 40
0.18
 40
0.18
309
CELLMARGIN_END
 94
        6
 95
        1
302
GRIDFORMAT
  1
GRIDFORMAT_BEGIN
 90
        0
 91
        1
 62
     0
 92
       -2
340
0
 93
        0
 40
0.045
309
GRIDFORMAT_END
 95
        2
302
GRIDFORMAT
  1
GRIDFORMAT_BEGIN
 90
        0
 91
        1
 62
     0
 92
       -2
340
0
 93
        0
 40
0.045
309
GRIDFORMAT_END
 95
        4
302
GRIDFORMAT
  1
GRIDFORMAT_BEGIN
 90
        0
 91
        1
 62
     0
 92
       -2
340
0
 93
        0
 40
0.045
309
GRIDFORMAT_END
 95
        8
302
GRIDFORMAT
  1
GRIDFORMAT_BEGIN
 90
        0
 91
        1
 62
     0
 92
       -2
340
0
 93
        0
 40
0.045
309
GRIDFORMAT_END
 95
       16
302
GRIDFORMAT
  1
GRIDFORMAT_BEGIN
 90
        0
 91
        1
 62
     0
 92
       -2
340
0
 93
        0
 40
0.045
309
GRIDFORMAT_END
 95
       32
302
GRIDFORMAT
  1
GRIDFORMAT_BEGIN
 90
        0
 91
        1
 62
     0
 92
       -2
340
0
 93
        0
 40
0.045
309
GRIDFORMAT_END
309
TABLEFORMAT_END
  1
CELLSTYLE_BEGIN
 90
        2
 91
        1
300
_HEADER
309
CELLSTYLE_END
300
CELLSTYLE
  1
TABLEFORMAT_BEGIN
 90
        5
170
     1
 91
        0
 92
        0
 62
   257
 93
        1
300
CONTENTFORMAT
  1
CONTENTFORMAT_BEGIN
 90
        0
 91
        0
 92
      512
 93
        0
300

 40
0.0
140
1.0
 94
        2
 62
     0
340
11
144
0.18
309
CONTENTFORMAT_END
171
     1
301
MARGIN
  1
CELLMARGIN_BEGIN
 40
0.06
 40
0.06
 40
0.06
 40
0.06
 40
0.18
 40
0.18
309
CELLMARGIN_END
 94
        6
 95
        1
302
GRIDFORMAT
  1
GRIDFORMAT_BEGIN
 90
        0
 91
        1
 62
     0
 92
       -2
340
0
 93
        0
 40
0.045
309
GRIDFORMAT_END
 95
        2
302
GRIDFORMAT
  1
GRIDFORMAT_BEGIN
 90
        0
 91
        1
 62
     0
 92
       -2
340
0
 93
        0
 40
0.045
309
GRIDFORMAT_END
 95
        4
302
GRIDFORMAT
  1
GRIDFORMAT_BEGIN
 90
        0
 91
        1
 62
     0
 92
       -2
340
0
 93
        0
 40
0.045
309
GRIDFORMAT_END
 95
        8
302
GRIDFORMAT
  1
GRIDFORMAT_BEGIN
 90
        0
 91
        1
 62
     0
 92
       -2
340
0
 93
        0
 40
0.045
309
GRIDFORMAT_END
 95
       16
302
GRIDFORMAT
  1
GRIDFORMAT_BEGIN
 90
        0
 91
        1
 62
     0
 92
       -2
340
0
 93
        0
 40
0.045
309
GRIDFORMAT_END
 95
       32
302
GRIDFORMAT
  1
GRIDFORMAT_BEGIN
 90
        0
 91
        1
 62
     0
 92
       -2
340
0
 93
        0
 40
0.045
309
GRIDFORMAT_END
309
TABLEFORMAT_END
  1
CELLSTYLE_BEGIN
 90
        3
 91
        2
300
_DATA
309
CELLSTYLE_END
  0
ENDSEC
  0
EOF
