  0
SECTION
  2
HEADER
  9
$ACADVER
  1
AC1021
  9
$ACADMAINTVER
 70
    25
  9
$DWGCODEPAGE
  3
ANSI_936
  9
$LASTSAVEDBY
  1
yp.zhu
  9
$INSBASE
 10
0.0
 20
0.0
 30
0.0
  9
$EXTMIN
 10
460.7034316775411
 20
209.950835212446
 30
-0.0000000000000052
  9
$EXTMAX
 10
609.2259684207676
 20
314.9911362797297
 30
0.00000000000001
  9
$LIMMIN
 10
0.0
 20
0.0
  9
$LIMMAX
 10
12.0
 20
9.0
  9
$ORTHOMODE
 70
     1
  9
$REGENMODE
 70
     1
  9
$FILLMODE
 70
     1
  9
$QTEXTMODE
 70
     0
  9
$MIRRTEXT
 70
     1
  9
$LTSCALE
 40
1.0
  9
$ATTMODE
 70
     1
  9
$TEXTSIZE
 40
0.2
  9
$TRACEWID
 40
0.05
  9
$TEXTSTYLE
  7
Standard
  9
$CLAYER
  8
DIM
  9
$CELTYPE
  6
ByLayer
  9
$CECOLOR
 62
   256
  9
$CELTSCALE
 40
1.0
  9
$DISPSILH
 70
     0
  9
$DIMSCALE
 40
1.0
  9
$DIMASZ
 40
1.5
  9
$DIMEXO
 40
0.2
  9
$DIMDLI
 40
0.2
  9
$DIMRND
 40
0.0
  9
$DIMDLE
 40
0.0
  9
$DIMEXE
 40
0.5
  9
$DIMTP
 40
0.0
  9
$DIMTM
 40
0.0
  9
$DIMTXT
 40
2.5
  9
$DIMCEN
 40
0.0
  9
$DIMTSZ
 40
0.0
  9
$DIMTOL
 70
     0
  9
$DIMLIM
 70
     0
  9
$DIMTIH
 70
     0
  9
$DIMTOH
 70
     0
  9
$DIMSE1
 70
     0
  9
$DIMSE2
 70
     0
  9
$DIMTAD
 70
     1
  9
$DIMZIN
 70
     8
  9
$DIMBLK
  1

  9
$DIMASO
 70
     1
  9
$DIMSHO
 70
     1
  9
$DIMPOST
  1

  9
$DIMAPOST
  1

  9
$DIMALT
 70
     0
  9
$DIMALTD
 70
     2
  9
$DIMALTF
 40
25.4
  9
$DIMLFAC
 40
1.0
  9
$DIMTOFL
 70
     0
  9
$DIMTVP
 40
0.0
  9
$DIMTIX
 70
     0
  9
$DIMSOXD
 70
     0
  9
$DIMSAH
 70
     0
  9
$DIMBLK1
  1

  9
$DIMBLK2
  1

  9
$DIMSTYLE
  2
01
  9
$DIMCLRD
 70
     1
  9
$DIMCLRE
 70
     6
  9
$DIMCLRT
 70
     4
  9
$DIMTFAC
 40
1.0
  9
$DIMGAP
 40
0.3
  9
$DIMJUST
 70
     0
  9
$DIMSD1
 70
     0
  9
$DIMSD2
 70
     0
  9
$DIMTOLJ
 70
     1
  9
$DIMTZIN
 70
     0
  9
$DIMALTZ
 70
     0
  9
$DIMALTTZ
 70
     0
  9
$DIMUPT
 70
     0
  9
$DIMDEC
 70
     2
  9
$DIMTDEC
 70
     2
  9
$DIMALTU
 70
     2
  9
$DIMALTTD
 70
     2
  9
$DIMTXSTY
  7
Romans字体
  9
$DIMAUNIT
 70
     0
  9
$DIMADEC
 70
     2
  9
$DIMALTRND
 40
0.0
  9
$DIMAZIN
 70
     2
  9
$DIMDSEP
 70
    46
  9
$DIMATFIT
 70
     3
  9
$DIMFRAC
 70
     0
  9
$DIMLDRBLK
  1

  9
$DIMLUNIT
 70
     2
  9
$DIMLWD
 70
    -2
  9
$DIMLWE
 70
    -2
  9
$DIMTMOVE
 70
     0
  9
$DIMFXL
 40
1.0
  9
$DIMFXLON
 70
     0
  9
$DIMJOGANG
 40
0.7853981633974483
  9
$DIMTFILL
 70
     0
  9
$DIMTFILLCLR
 70
     0
  9
$DIMARCSYM
 70
     0
  9
$DIMLTYPE
  6

  9
$DIMLTEX1
  6

  9
$DIMLTEX2
  6

  9
$LUNITS
 70
     2
  9
$LUPREC
 70
     4
  9
$SKETCHINC
 40
0.1
  9
$FILLETRAD
 40
0.5
  9
$AUNITS
 70
     0
  9
$AUPREC
 70
     0
  9
$MENU
  1
.
  9
$ELEVATION
 40
0.0
  9
$PELEVATION
 40
0.0
  9
$THICKNESS
 40
0.0
  9
$LIMCHECK
 70
     0
  9
$CHAMFERA
 40
0.5
  9
$CHAMFERB
 40
0.5
  9
$CHAMFERC
 40
1.0
  9
$CHAMFERD
 40
0.0
  9
$SKPOLY
 70
     0
  9
$TDCREATE
 40
2456524.383632987
  9
$TDUCREATE
 40
2456524.050299653
  9
$TDUPDATE
 40
2460301.647863333
  9
$TDUUPDATE
 40
2460301.314530000
  9
$TDINDWG
 40
0.9775349421
  9
$TDUSRTIMER
 40
0.9775091319
  9
$USRTIMER
 70
     1
  9
$ANGBASE
 50
0.0
  9
$ANGDIR
 70
     0
  9
$PDMODE
 70
     0
  9
$PDSIZE
 40
0.0
  9
$PLINEWID
 40
0.0
  9
$SPLFRAME
 70
     0
  9
$SPLINETYPE
 70
     6
  9
$SPLINESEGS
 70
     8
  9
$HANDSEED
  5
1BAAF
  9
$SURFTAB1
 70
     6
  9
$SURFTAB2
 70
     6
  9
$SURFTYPE
 70
     6
  9
$SURFU
 70
     6
  9
$SURFV
 70
     6
  9
$UCSBASE
  2

  9
$UCSNAME
  2

  9
$UCSORG
 10
0.0
 20
0.0
 30
0.0
  9
$UCSXDIR
 10
1.0
 20
0.0
 30
0.0
  9
$UCSYDIR
 10
0.0
 20
1.0
 30
0.0
  9
$UCSORTHOREF
  2

  9
$UCSORTHOVIEW
 70
     0
  9
$UCSORGTOP
 10
0.0
 20
0.0
 30
0.0
  9
$UCSORGBOTTOM
 10
0.0
 20
0.0
 30
0.0
  9
$UCSORGLEFT
 10
0.0
 20
0.0
 30
0.0
  9
$UCSORGRIGHT
 10
0.0
 20
0.0
 30
0.0
  9
$UCSORGFRONT
 10
0.0
 20
0.0
 30
0.0
  9
$UCSORGBACK
 10
0.0
 20
0.0
 30
0.0
  9
$PUCSBASE
  2

  9
$PUCSNAME
  2

  9
$PUCSORG
 10
0.0
 20
0.0
 30
0.0
  9
$PUCSXDIR
 10
1.0
 20
0.0
 30
0.0
  9
$PUCSYDIR
 10
0.0
 20
1.0
 30
0.0
  9
$PUCSORTHOREF
  2

  9
$PUCSORTHOVIEW
 70
     0
  9
$PUCSORGTOP
 10
0.0
 20
0.0
 30
0.0
  9
$PUCSORGBOTTOM
 10
0.0
 20
0.0
 30
0.0
  9
$PUCSORGLEFT
 10
0.0
 20
0.0
 30
0.0
  9
$PUCSORGRIGHT
 10
0.0
 20
0.0
 30
0.0
  9
$PUCSORGFRONT
 10
0.0
 20
0.0
 30
0.0
  9
$PUCSORGBACK
 10
0.0
 20
0.0
 30
0.0
  9
$USERI1
 70
     0
  9
$USERI2
 70
     0
  9
$USERI3
 70
     0
  9
$USERI4
 70
     0
  9
$USERI5
 70
     0
  9
$USERR1
 40
0.0
  9
$USERR2
 40
0.0
  9
$USERR3
 40
0.0
  9
$USERR4
 40
0.0
  9
$USERR5
 40
2.5
  9
$WORLDVIEW
 70
     1
  9
$SHADEDGE
 70
     3
  9
$SHADEDIF
 70
    70
  9
$TILEMODE
 70
     1
  9
$MAXACTVP
 70
    64
  9
$PINSBASE
 10
0.0
 20
0.0
 30
0.0
  9
$PLIMCHECK
 70
     0
  9
$PEXTMIN
 10
1.000000000000000E+20
 20
1.000000000000000E+20
 30
1.000000000000000E+20
  9
$PEXTMAX
 10
-1.000000000000000E+20
 20
-1.000000000000000E+20
 30
-1.000000000000000E+20
  9
$PLIMMIN
 10
0.0
 20
0.0
  9
$PLIMMAX
 10
12.0
 20
9.0
  9
$UNITMODE
 70
     0
  9
$VISRETAIN
 70
     1
  9
$PLINEGEN
 70
     0
  9
$PSLTSCALE
 70
     1
  9
$TREEDEPTH
 70
  3020
  9
$CMLSTYLE
  2
Standard
  9
$CMLJUST
 70
     0
  9
$CMLSCALE
 40
1.0
  9
$PROXYGRAPHICS
 70
     1
  9
$MEASUREMENT
 70
     0
  9
$CELWEIGHT
370
    -1
  9
$ENDCAPS
280
     0
  9
$JOINSTYLE
280
     0
  9
$LWDISPLAY
290
     0
  9
$INSUNITS
 70
     1
  9
$HYPERLINKBASE
  1

  9
$STYLESHEET
  1
monochrome.ctb
  9
$XEDIT
290
     1
  9
$CEPSNTYPE
380
     0
  9
$PSTYLEMODE
290
     1
  9
$FINGERPRINTGUID
  2
{4A02065B-8BB3-4A96-9036-502DC906C165}
  9
$VERSIONGUID
  2
{415A0697-03D9-469E-9DAC-BFF986BEEF19}
  9
$EXTNAMES
290
     1
  9
$PSVPSCALE
 40
0.0
  9
$OLESTARTUP
290
     0
  9
$SORTENTS
280
   127
  9
$INDEXCTL
280
     0
  9
$HIDETEXT
280
     0
  9
$XCLIPFRAME
290
     0
  9
$HALOGAP
280
     0
  9
$OBSCOLOR
 70
   257
  9
$OBSLTYPE
280
     0
  9
$INTERSECTIONDISPLAY
280
     0
  9
$INTERSECTIONCOLOR
 70
   257
  9
$DIMASSOC
280
     1
  9
$PROJECTNAME
  1

  9
$CAMERADISPLAY
290
     0
  9
$LENSLENGTH
 40
50.0
  9
$CAMERAHEIGHT
 40
0.0
  9
$STEPSPERSEC
 40
2.0
  9
$STEPSIZE
 40
6.0
  9
$3DDWFPREC
 40
2.0
  9
$PSOLWIDTH
 40
0.25
  9
$PSOLHEIGHT
 40
4.0
  9
$LOFTANG1
 40
1.570796326794896
  9
$LOFTANG2
 40
1.570796326794896
  9
$LOFTMAG1
 40
0.0
  9
$LOFTMAG2
 40
0.0
  9
$LOFTPARAM
 70
     7
  9
$LOFTNORMALS
280
     1
  9
$LATITUDE
 40
37.795
  9
$LONGITUDE
 40
-122.394
  9
$NORTHDIRECTION
 40
0.0
  9
$TIMEZONE
 70
 -8000
  9
$LIGHTGLYPHDISPLAY
280
     1
  9
$TILEMODELIGHTSYNCH
280
     1
  9
$CMATERIAL
347
4FE6
  9
$SOLIDHIST
280
     1
  9
$SHOWHIST
280
     1
  9
$DWFFRAME
280
     2
  9
$DGNFRAME
280
     0
  9
$REALWORLDSCALE
290
     1
  9
$INTERFERECOLOR
 62
     1
  9
$INTERFEREOBJVS
345
33
  9
$INTERFEREVPVS
346
30
  9
$CSHADOW
280
     0
  9
$SHADOWPLANELOCATION
 40
0.0
  0
ENDSEC
  0
SECTION
  2
CLASSES
  0
CLASS
  1
ACDBDICTIONARYWDFLT
  2
AcDbDictionaryWithDefault
  3
ObjectDBX Classes
 90
        0
 91
        1
280
     0
281
     0
  0
CLASS
  1
VISUALSTYLE
  2
AcDbVisualStyle
  3
ObjectDBX Classes
 90
     4095
 91
       16
280
     0
281
     0
  0
CLASS
  1
MATERIAL
  2
AcDbMaterial
  3
ObjectDBX Classes
 90
     1153
 91
        3
280
     0
281
     0
  0
CLASS
  1
TABLESTYLE
  2
AcDbTableStyle
  3
ObjectDBX Classes
 90
     4095
 91
        1
280
     0
281
     0
  0
CLASS
  1
SCALE
  2
AcDbScale
  3
ObjectDBX Classes
 90
     1153
 91
       33
280
     0
281
     0
  0
CLASS
  1
MLEADERSTYLE
  2
AcDbMLeaderStyle
  3
ACDB_MLEADERSTYLE_CLASS
 90
     4095
 91
        1
280
     0
281
     0
  0
CLASS
  1
CELLSTYLEMAP
  2
AcDbCellStyleMap
  3
ObjectDBX Classes
 90
     1152
 91
        3
280
     0
281
     0
  0
CLASS
  1
DICTIONARYVAR
  2
AcDbDictionaryVar
  3
ObjectDBX Classes
 90
        0
 91
        8
280
     0
281
     0
  0
CLASS
  1
SORTENTSTABLE
  2
AcDbSortentsTable
  3
ObjectDBX Classes
 90
        0
 91
        1
280
     0
281
     0
  0
CLASS
  1
ACAD_EVALUATION_GRAPH
  2
AcDbEvalGraph
  3
ObjectDBX Classes
 90
     1153
 91
        0
280
     0
281
     0
  0
CLASS
  1
ACAECUSTOBJ
  2
AcAeEditorObj
  3
AcAeEditorObj
 90
     1024
 91
        0
280
     0
281
     0
  0
CLASS
  1
ACDB_DYNAMICBLOCKPURGEPREVENTER_VERSION
  2
AcDbDynamicBlockPurgePreventer
  3
ObjectDBX Classes
 90
     1153
 91
        0
280
     0
281
     0
  0
CLASS
  1
MENTALRAYRENDERSETTINGS
  2
AcDbMentalRayRenderSettings
  3
SCENEOE
 90
     1024
 91
        1
280
     0
281
     0
  0
CLASS
  1
ACDB_BLOCKREPRESENTATION_DATA
  2
AcDbBlockRepresentationData
  3
ObjectDBX Classes
 90
     1153
 91
        0
280
     0
281
     0
  0
CLASS
  1
DIMASSOC
  2
AcDbDimAssoc
  3
"AcDbDimAssoc|Product Desc:     AcDim ARX App For Dimension|Company:          Autodesk, Inc.|WEB Address:      www.autodesk.com"
 90
        0
 91
        6
280
     0
281
     0
  0
CLASS
  1
VLO-VL
  2
vlo_VL
  3
VL|AutoLISP based application
 90
      129
 91
        1
280
     0
281
     0
  0
ENDSEC
  0
SECTION
  2
TABLES
  0
TABLE
  2
VPORT
  5
8
102
{ACAD_XDICTIONARY
360
50EE
102
}
330
0
100
AcDbSymbolTable
 70
     1
  0
VPORT
  5
29
330
8
100
AcDbSymbolTableRecord
100
AcDbViewportTableRecord
  2
*Active
 70
     0
 10
0.0
 20
0.0
 11
1.0
 21
1.0
 12
429.9992031772458
 22
113.96875497749
 13
0.0
 23
0.0
 14
0.5
 24
0.5
 15
0.5
 25
0.5
 16
0.0
 26
0.0
 36
1.0
 17
104.9654968719086
 27
148.5022307685978
 37
0.0
 40
105.8023830580983
 41
2.203389830508474
 42
50.0
 43
0.0
 44
0.0
 50
0.0
 51
0.0
 71
     0
 72
   100
 73
     1
 74
     3
 75
     0
 76
     0
 77
     0
 78
     0
281
     0
 65
     1
110
0.0
120
0.0
130
0.0
111
1.0
121
0.0
131
0.0
112
0.0
122
1.0
132
0.0
 79
     0
146
0.0
348
2F
 60
     3
 61
     5
292
     1
282
     1
141
0.0
142
0.0
 63
   250
421
  3355443
  0
ENDTAB
  0
TABLE
  2
LTYPE
  5
5
330
0
100
AcDbSymbolTable
 70
     2
  0
LTYPE
  5
14
330
5
100
AcDbSymbolTableRecord
100
AcDbLinetypeTableRecord
  2
ByBlock
 70
     0
  3

 72
    65
 73
     0
 40
0.0
  0
LTYPE
  5
15
330
5
100
AcDbSymbolTableRecord
100
AcDbLinetypeTableRecord
  2
ByLayer
 70
     0
  3

 72
    65
 73
     0
 40
0.0
  0
LTYPE
  5
16
330
5
100
AcDbSymbolTableRecord
100
AcDbLinetypeTableRecord
  2
Continuous
 70
     0
  3
Solid line
 72
    65
 73
     0
 40
0.0
  0
LTYPE
  5
1B48B
330
5
100
AcDbSymbolTableRecord
100
AcDbLinetypeTableRecord
  2
CENTERX2
 70
     0
  3
Center (2x) ________  __  ________  __  _____
 72
    65
 73
     4
 40
4.0
 49
2.5
 74
     0
 49
-0.5
 74
     0
 49
0.5
 74
     0
 49
-0.5
 74
     0
  0
ENDTAB
  0
TABLE
  2
LAYER
  5
2
102
{ACAD_XDICTIONARY
360
50B8
102
}
330
0
100
AcDbSymbolTable
 70
     7
  0
LAYER
  5
10
102
{ACAD_XDICTIONARY
360
50D0
102
}
330
2
100
AcDbSymbolTableRecord
100
AcDbLayerTableRecord
  2
0
 70
     0
 62
     7
  6
Continuous
370
    30
390
F
347
4FF6
  0
LAYER
  5
3B
102
{ACAD_XDICTIONARY
360
50D2
102
}
330
2
100
AcDbSymbolTableRecord
100
AcDbLayerTableRecord
  2
图层 1
 70
     0
 62
     7
  6
Continuous
370
    -3
390
F
347
4FF6
  0
LAYER
  5
50AE
102
{ACAD_XDICTIONARY
360
50AF
102
}
330
2
100
AcDbSymbolTableRecord
100
AcDbLayerTableRecord
  2
图框
 70
     0
 62
     7
  6
Continuous
370
    20
390
F
347
4FF6
  0
LAYER
  5
5141
330
2
100
AcDbSymbolTableRecord
100
AcDbLayerTableRecord
  2
Defpoints
 70
     0
 62
     7
  6
Continuous
290
     0
370
    -3
390
F
347
4FF6
  0
LAYER
  5
5144
330
2
100
AcDbSymbolTableRecord
100
AcDbLayerTableRecord
  2
DIM
 70
     0
 62
     3
  6
Continuous
370
    15
390
F
347
4FF6
1001
AcAecLayerStandard
1000

1000

  0
LAYER
  5
52F3
330
2
100
AcDbSymbolTableRecord
100
AcDbLayerTableRecord
  2
打标文字
 70
     0
 62
     3
  6
Continuous
370
    20
390
F
347
4FF6
  0
LAYER
  5
1B48C
102
{ACAD_XDICTIONARY
360
1B48D
102
}
330
2
100
AcDbSymbolTableRecord
100
AcDbLayerTableRecord
  2
Cen
 70
     0
 62
     1
  6
CENTERX2
370
    13
390
F
347
4FF6
  0
ENDTAB
  0
TABLE
  2
STYLE
  5
3
330
0
100
AcDbSymbolTable
 70
     5
  0
STYLE
  5
11
330
3
100
AcDbSymbolTableRecord
100
AcDbTextStyleTableRecord
  2
Standard
 70
     0
 40
0.0
 41
0.75
 50
0.0
 71
     0
 42
0.2
  3

  4

1001
ACAD
1000
仿宋_GB2312
1071
    34353
  0
STYLE
  5
FD48
330
3
100
AcDbSymbolTableRecord
100
AcDbTextStyleTableRecord
  2
Romans字体
 70
     0
 40
0.0
 41
0.75
 50
0.0
 71
     0
 42
0.2
  3
romans.shx
  4

  0
STYLE
  5
11080
330
3
100
AcDbSymbolTableRecord
100
AcDbTextStyleTableRecord
  2
工程字
 70
     0
 40
0.0
 41
1.0
 50
0.0
 71
     0
 42
3.5
  3
gbenor.shx
  4
gbcbig.shx
  0
STYLE
  5
11081
330
3
100
AcDbSymbolTableRecord
100
AcDbTextStyleTableRecord
  2
Chinese
 70
     0
 40
0.0
 41
1.0
 50
0.0
 71
     0
 42
2.5
  3
PMingLiU.ttf
  4

1001
ACAD
1000
PMingLiU
1071
    34834
  0
ENDTAB
  0
TABLE
  2
VIEW
  5
6
330
0
100
AcDbSymbolTable
 70
     0
  0
ENDTAB
  0
TABLE
  2
UCS
  5
7
330
0
100
AcDbSymbolTable
 70
     0
  0
ENDTAB
  0
TABLE
  2
APPID
  5
9
330
0
100
AcDbSymbolTable
 70
    19
  0
APPID
  5
12
330
9
100
AcDbSymbolTableRecord
100
AcDbRegAppTableRecord
  2
ACAD
 70
     0
  0
APPID
  5
5024
330
9
100
AcDbSymbolTableRecord
100
AcDbRegAppTableRecord
  2
ACAD_MLEADERVER
 70
     0
  0
APPID
  5
50B5
330
9
100
AcDbSymbolTableRecord
100
AcDbRegAppTableRecord
  2
AcDbDynamicBlockGUID
 70
     0
  0
APPID
  5
50B6
330
9
100
AcDbSymbolTableRecord
100
AcDbRegAppTableRecord
  2
AcDbBlockRepETag
 70
     0
  0
APPID
  5
50B7
330
9
100
AcDbSymbolTableRecord
100
AcDbRegAppTableRecord
  2
ACAD_PSEXT
 70
     0
  0
APPID
  5
50CF
330
9
100
AcDbSymbolTableRecord
100
AcDbRegAppTableRecord
  2
AcadAnnoPO
 70
     0
  0
APPID
  5
5146
330
9
100
AcDbSymbolTableRecord
100
AcDbRegAppTableRecord
  2
AcAecLayerStandard
 70
     0
  0
APPID
  5
5147
330
9
100
AcDbSymbolTableRecord
100
AcDbRegAppTableRecord
  2
ACAD_DSTYLE_DIMJAG
 70
     0
  0
APPID
  5
5148
330
9
100
AcDbSymbolTableRecord
100
AcDbRegAppTableRecord
  2
ACAD_DSTYLE_DIMTALN
 70
     0
  0
APPID
  5
52AD
330
9
100
AcDbSymbolTableRecord
100
AcDbRegAppTableRecord
  2
ACAUTHENVIRON
 70
     0
  0
APPID
  5
52B0
330
9
100
AcDbSymbolTableRecord
100
AcDbRegAppTableRecord
  2
AcDbDynamicBlockTrueName
 70
     0
  0
APPID
  5
67C6
330
9
100
AcDbSymbolTableRecord
100
AcDbRegAppTableRecord
  2
ACAD_EXEMPT_FROM_CAD_STANDARDS
 70
     0
  0
APPID
  5
6838
330
9
100
AcDbSymbolTableRecord
100
AcDbRegAppTableRecord
  2
ACAD_NAV_VCDISPLAY
 70
     0
  0
APPID
  5
70A9
330
9
100
AcDbSymbolTableRecord
100
AcDbRegAppTableRecord
  2
DCO15
 70
     0
  0
APPID
  5
8725
330
9
100
AcDbSymbolTableRecord
100
AcDbRegAppTableRecord
  2
AcDbBlockRepBTag
 70
     0
  0
APPID
  5
FE64
330
9
100
AcDbSymbolTableRecord
100
AcDbRegAppTableRecord
  2
ACAD_DSTYLE_DIMRADIAL_EXTENSION
 70
     0
  0
APPID
  5
FF93
330
9
100
AcDbSymbolTableRecord
100
AcDbRegAppTableRecord
  2
ACAD_DSTYLE_DIMBREAK
 70
     0
  0
APPID
  5
14250
330
9
100
AcDbSymbolTableRecord
100
AcDbRegAppTableRecord
  2
GradientColor1ACI
 70
     0
  0
APPID
  5
14251
330
9
100
AcDbSymbolTableRecord
100
AcDbRegAppTableRecord
  2
GradientColor2ACI
 70
     0
  0
ENDTAB
  0
TABLE
  2
DIMSTYLE
  5
A
330
0
100
AcDbSymbolTable
 70
     3
100
AcDbDimStyleTable
 71
     2
340
5145
340
27
  0
DIMSTYLE
105
27
330
A
100
AcDbSymbolTableRecord
100
AcDbDimStyleTableRecord
  2
Standard
 70
     0
340
11
  0
DIMSTYLE
105
5145
102
{ACAD_REACTORS
330
1B581
330
1B57E
330
1B57B
330
1B578
330
1B572
330
1B575
102
}
330
A
100
AcDbSymbolTableRecord
100
AcDbDimStyleTableRecord
  2
01
 70
     0
 41
1.5
 42
0.2
 43
0.2
 44
0.5
 73
     0
 74
     0
 77
     1
 78
     8
 79
     2
140
2.5
141
0.0
147
0.3
176
     1
177
     6
178
     4
179
     2
271
     2
272
     2
340
FD48
1001
ACAD_DSTYLE_DIMJAG
1070
   388
1040
1.5
1001
ACAD_DSTYLE_DIMTALN
1070
   392
1070
     0
  0
ENDTAB
  0
TABLE
  2
BLOCK_RECORD
  5
1
330
0
100
AcDbSymbolTable
 70
     9
  0
BLOCK_RECORD
  5
1F
102
{ACAD_XDICTIONARY
360
67C0
102
}
330
1
100
AcDbSymbolTableRecord
100
AcDbBlockTableRecord
  2
*Model_Space
340
22
 70
     0
280
     1
281
     0
  0
BLOCK_RECORD
  5
1B
330
1
100
AcDbSymbolTableRecord
100
AcDbBlockTableRecord
  2
*Paper_Space
340
1E
 70
     0
280
     1
281
     0
  0
BLOCK_RECORD
  5
23
330
1
100
AcDbSymbolTableRecord
100
AcDbBlockTableRecord
  2
*Paper_Space0
340
26
 70
     0
280
     1
281
     0
  0
BLOCK_RECORD
  5
10FE8
102
{ACAD_XDICTIONARY
360
1B9C0
102
}
330
1
100
AcDbSymbolTableRecord
100
AcDbBlockTableRecord
  2
A4图框-NEW
340
0
310
2800000020000000200000000100080000000000000400000000000000000000000000000000000000000000000080000080000000808000800000008000800080800000C0C0C000C0DCC000F0CAA6000020400000206000002080000020A0000020C0000020E00000400000004020000040400000406000004080000040A0
310
000040C0000040E00000600000006020000060400000606000006080000060A0000060C0000060E00000800000008020000080400000806000008080000080A0000080C0000080E00000A0000000A0200000A0400000A0600000A0800000A0A00000A0C00000A0E00000C0000000C0200000C0400000C0600000C0800000C0
310
A00000C0C00000C0E00000E0000000E0200000E0400000E0600000E0800000E0A00000E0C00000E0E00040000000400020004000400040006000400080004000A0004000C0004000E00040200000402020004020400040206000402080004020A0004020C0004020E000404000004040200040404000404060004040800040
310
40A0004040C0004040E00040600000406020004060400040606000406080004060A0004060C0004060E00040800000408020004080400040806000408080004080A0004080C0004080E00040A0000040A0200040A0400040A0600040A0800040A0A00040A0C00040A0E00040C0000040C0200040C0400040C0600040C08000
310
40C0A00040C0C00040C0E00040E0000040E0200040E0400040E0600040E0800040E0A00040E0C00040E0E00080000000800020008000400080006000800080008000A0008000C0008000E00080200000802020008020400080206000802080008020A0008020C0008020E00080400000804020008040400080406000804080
310
008040A0008040C0008040E00080600000806020008060400080606000806080008060A0008060C0008060E00080800000808020008080400080806000808080008080A0008080C0008080E00080A0000080A0200080A0400080A0600080A0800080A0A00080A0C00080A0E00080C0000080C0200080C0400080C0600080C0
310
800080C0A00080C0C00080C0E00080E0000080E0200080E0400080E0600080E0800080E0A00080E0C00080E0E000C0000000C0002000C0004000C0006000C0008000C000A000C000C000C000E000C0200000C0202000C0204000C0206000C0208000C020A000C020C000C020E000C0400000C0402000C0404000C0406000C0
310
408000C040A000C040C000C040E000C0600000C0602000C0604000C0606000C0608000C060A000C060C000C060E000C0800000C0802000C0804000C0806000C0808000C080A000C080C000C080E000C0A00000C0A02000C0A04000C0A06000C0A08000C0A0A000C0A0C000C0A0E000C0C00000C0C02000C0C04000C0C06000
310
C0C08000C0C0A000F0FBFF00A4A0A000808080000000FF0000FF000000FFFF00FF000000FF00FF00FFFF0000FFFFFF0000000000000000000000000000000000000000000000000000000000000000000000000000000000000000000000000000000000000000000000000000000000000000000000000000000000000000
310
000000000000000000000000000000000000000000000000000000000000000000000000000000000000000000000000000000000000000000000000000000000000000000000000000000000000000000000000000000000000000000000000000000000000000000000000000000000000F9F9F9F9F9F9F9F9F9F9F9F9F9
310
F9F9F9F9F9F9F9F9F9F9F9F9F9F9FF00000000F9FF000000000000000000FFFFFFFFFFFFFFFFFFFFFFFFF9FAFAFAFF00000000F9FF000000000000000000FFFFFFFFFFFFFFFFFFFFFFFFFFFFFFFFFF00000000F9FD000000000000000000FFFFFFFFFFFFFFFFFFFFFFFFFFFFFFFFFF00000000F9FF000000000000000000FF
310
FFFFFFFFFFFFFFFFFFFFFFFFFFFFFFFF00000000F9FD000000000000000000FFFFFFFFFFFFFFFFFFFFFFFFFFFFFFFFFF00000000F9FF00000000000000000000000000000000000000000000000000FF00000000F9FD00000000000000000000000000000000000000000000000000FF00000000F9FF000000000000000000
310
00000000000000000000000000000000FF00000000F9FD00000000000000000000000000000000000000000000000000FF00000000F9FF00000000000000000000000000000000000000000000000000FF00000000F9FD00000000000000000000000000000000000000000000000000FF00000000F9FD0000000000000000
310
0000000000000000000000000000000000FF00000000F9FF00000000000000000000000000000000000000000000000000FF00000000F9FD00000000000000000000000000000000000000000000000000FF00000000F9FF00000000000000000000000000000000000000000000000000FF00000000F9FD00000000000000
310
000000000000000000000000000000000000FF00000000F9FF00000000000000000000000000000000000000000000000000FF00000000F9FFFFFFFFFFFFFFFFFFFFFFFFFFFFFFFFFFFFFFFFFFFFFFFFFFFFFF00000000F9FFFFFFF9F9F9F9F9F9F9F9F9F9F9F9F9F9F9F9F9F9F9F9F9F9F9F9000000000000000000000000
310
00000000000000000000000000000000000000000000000000000000000000000000000000000000000000000000000000000000000000000000000000000000000000000000000000000000000000000000000000000000000000000000000000000000000000000000000000000000000000000000000000000000000000
310
0000000000000000000000000000000000000000000000000000000000000000000000000000000000000000000000000000000000000000
102
{BLKREFS
331
11089
102
}
 70
     4
280
     1
281
     0
1001
AcDbDynamicBlockGUID
1000
{5CB2AA9A-37CD-4A6E-8AE5-4206C519BB30}
1001
AcDbBlockRepETag
1070
     1
1071
      149
  0
BLOCK_RECORD
  5
1B584
330
1
100
AcDbSymbolTableRecord
100
AcDbBlockTableRecord
  2
*D2
340
0
 70
     0
280
     1
281
     0
  0
BLOCK_RECORD
  5
1B590
330
1
100
AcDbSymbolTableRecord
100
AcDbBlockTableRecord
  2
*D3
340
0
 70
     0
280
     1
281
     0
  0
BLOCK_RECORD
  5
1B59C
330
1
100
AcDbSymbolTableRecord
100
AcDbBlockTableRecord
  2
*D4
340
0
 70
     0
280
     1
281
     0
  0
BLOCK_RECORD
  5
1B5A9
330
1
100
AcDbSymbolTableRecord
100
AcDbBlockTableRecord
  2
*D5
340
0
 70
     0
280
     1
281
     0
  0
BLOCK_RECORD
  5
1B5B5
330
1
100
AcDbSymbolTableRecord
100
AcDbBlockTableRecord
  2
*D6
340
0
 70
     0
280
     1
281
     0
  0
BLOCK_RECORD
  5
1B5C1
330
1
100
AcDbSymbolTableRecord
100
AcDbBlockTableRecord
  2
*D7
340
0
 70
     0
280
     1
281
     0
  0
ENDTAB
  0
ENDSEC
  0
SECTION
  2
BLOCKS
  0
BLOCK
  5
20
330
1F
100
AcDbEntity
  8
0
100
AcDbBlockBegin
  2
*Model_Space
 70
     0
 10
0.0
 20
0.0
 30
0.0
  3
*Model_Space
  1

  0
ENDBLK
  5
21
330
1F
100
AcDbEntity
  8
0
100
AcDbBlockEnd
  0
BLOCK
  5
1C
330
1B
100
AcDbEntity
 67
     1
  8
0
100
AcDbBlockBegin
  2
*Paper_Space
 70
     0
 10
0.0
 20
0.0
 30
0.0
  3
*Paper_Space
  1

  0
ENDBLK
  5
1D
330
1B
100
AcDbEntity
 67
     1
  8
0
100
AcDbBlockEnd
  0
BLOCK
  5
24
330
23
100
AcDbEntity
 67
     1
  8
0
100
AcDbBlockBegin
  2
*Paper_Space0
 70
     0
 10
0.0
 20
0.0
 30
0.0
  3
*Paper_Space0
  1

  0
ENDBLK
  5
25
330
23
100
AcDbEntity
 67
     1
  8
0
100
AcDbBlockEnd
  0
BLOCK
  5
10FEA
330
10FE8
100
AcDbEntity
  8
0
100
AcDbBlockBegin
  2
A4图框-NEW
 70
     0
 10
0.0
 20
0.0
 30
0.0
  3
A4图框-NEW
  1

  0
MTEXT
  5
1B92B
102
{ACAD_XDICTIONARY
360
1BA97
102
}
330
10FE8
100
AcDbEntity
  8
图框
 62
     3
100
AcDbMText
 10
967.6594956750133
 20
499.7664151964293
 30
0.0
 40
2.985513575034151
 41
15.50176341157864
 46
6.292658374511018
 71
     5
 72
     5
  1
BQ LUO
  7
Romans字体
 73
     1
 44
1.0
1001
AcDbBlockRepETag
1070
     1
1071
        0
1005
1B92B
1001
ACAD
1000
ACAD_MTEXT_DEFINED_HEIGHT_BEGIN
1070
    46
1040
6.292658374511018
1000
ACAD_MTEXT_DEFINED_HEIGHT_END
  0
MTEXT
  5
1B92C
330
10FE8
100
AcDbEntity
  8
图框
 62
     3
100
AcDbMText
 10
983.041569333247
 20
499.7664151964293
 30
0.0
 40
2.487927979195124
 41
15.26238390489051
 46
6.292658374511042
 71
     5
 72
     5
  1
{\W0.7;18.10.2010}
  7
Romans字体
 73
     1
 44
1.0
1001
AcDbBlockRepETag
1070
     1
1071
        1
1005
1B92C
1001
ACAD
1000
ACAD_MTEXT_DEFINED_HEIGHT_BEGIN
1070
    46
1040
6.292658374511042
1000
ACAD_MTEXT_DEFINED_HEIGHT_END
  0
MTEXT
  5
1B92D
330
10FE8
100
AcDbEntity
  8
图框
 62
     3
100
AcDbMText
 10
1012.477254728976
 20
487.1810984474071
 30
0.0
 40
2.985513575034151
 41
17.64876416884615
 46
6.292658374511455
 71
     5
 72
     5
  1
YY LIN
  7
Romans字体
 73
     1
 44
1.0
1001
AcDbBlockRepETag
1070
     1
1071
        2
1005
1B92D
1001
ACAD
1000
ACAD_MTEXT_DEFINED_HEIGHT_BEGIN
1070
    46
1040
6.292658374511455
1000
ACAD_MTEXT_DEFINED_HEIGHT_END
  0
MTEXT
  5
1B92E
330
10FE8
100
AcDbEntity
  8
图框
 62
     3
100
AcDbMText
 10
1028.977802139886
 20
487.1810984474071
 30
0.0
 40
2.487927979195124
 41
15.35233065297276
 46
6.292658374511495
 71
     5
 72
     5
  1
{\W0.7;18.10.2010}
  7
Romans字体
 73
     1
 44
1.0
1001
AcDbBlockRepETag
1070
     1
1071
        3
1005
1B92E
1001
ACAD
1000
ACAD_MTEXT_DEFINED_HEIGHT_BEGIN
1070
    46
1040
6.292658374511495
1000
ACAD_MTEXT_DEFINED_HEIGHT_END
  0
MTEXT
  5
1B92F
330
10FE8
100
AcDbEntity
  8
图框
 62
     3
100
AcDbMText
 10
1063.722665487208
 20
525.4145966538831
 30
0.0
 40
2.985513575034151
 41
32.4973914334545
 46
11.82914190181707
 71
     5
 72
     5
  1
-
  7
Romans字体
 73
     1
 44
1.0
1001
AcDbBlockRepETag
1070
     1
1071
        4
1005
1B92F
1001
ACAD
1000
ACAD_MTEXT_DEFINED_HEIGHT_BEGIN
1070
    46
1040
11.82914190181707
1000
ACAD_MTEXT_DEFINED_HEIGHT_END
  0
MTEXT
  5
1B930
330
10FE8
100
AcDbEntity
  8
图框
 62
     3
100
AcDbMText
 10
1063.727338552349
 20
513.5854547520641
 30
0.0
 40
2.985513575034151
 41
32.48804530317308
 46
11.82914190182139
 71
     5
 72
     5
  1
-
  7
Romans字体
 73
     1
 44
1.0
1001
AcDbBlockRepETag
1070
     1
1071
        5
1005
1B930
1001
ACAD
1000
ACAD_MTEXT_DEFINED_HEIGHT_BEGIN
1070
    46
1040
11.82914190182139
1000
ACAD_MTEXT_DEFINED_HEIGHT_END
  0
MTEXT
  5
1B931
330
10FE8
100
AcDbEntity
  8
图框
 62
     3
100
AcDbMText
 10
1110.122306614152
 20
526.8006839312707
 30
0.0
 40
2.985513575034151
 41
33.61239199242139
 46
9.05696734704178
 71
     5
 72
     5
  1
-
  7
Romans字体
 73
     1
 44
1.0
1001
AcDbBlockRepETag
1070
     1
1071
        6
1005
1B931
1001
ACAD
1000
ACAD_MTEXT_DEFINED_HEIGHT_BEGIN
1070
    46
1040
9.05696734704178
1000
ACAD_MTEXT_DEFINED_HEIGHT_END
  0
MTEXT
  5
1B932
330
10FE8
100
AcDbEntity
  8
图框
 62
     3
100
AcDbMText
 10
1110.122306614152
 20
500.2775205517162
 30
0.0
 40
2.985513575034151
 41
33.61239199242139
 46
8.871557304763419
 71
     5
 72
     5
  1
-
  7
Romans字体
 73
     1
 44
1.0
1001
AcDbBlockRepETag
1070
     1
1071
        7
1005
1B932
1001
ACAD
1000
ACAD_MTEXT_DEFINED_HEIGHT_BEGIN
1070
    46
1040
8.871557304763419
1000
ACAD_MTEXT_DEFINED_HEIGHT_END
  0
MTEXT
  5
1B933
330
10FE8
100
AcDbEntity
  8
图框
 62
     3
100
AcDbMText
 10
967.6594956750133
 20
493.4737568219182
 30
0.0
 40
2.985513575034151
 41
15.50176341157864
 46
6.292658374510335
 71
     5
 72
     5
  1
P RAO
  7
Romans字体
 73
     1
 44
1.0
1001
AcDbBlockRepETag
1070
     1
1071
        8
1005
1B933
1001
ACAD
1000
ACAD_MTEXT_DEFINED_HEIGHT_BEGIN
1070
    46
1040
6.292658374510335
1000
ACAD_MTEXT_DEFINED_HEIGHT_END
  0
MTEXT
  5
1B934
330
10FE8
100
AcDbEntity
  8
图框
 62
     3
100
AcDbMText
 10
983.041569333247
 20
493.2441970450405
 30
0.0
 40
2.487927979195124
 41
15.26238390489051
 46
6.751777928266487
 71
     5
 72
     5
  1
{\W0.7;18.10.2010}
  7
Romans字体
 73
     1
 44
1.0
1001
AcDbBlockRepETag
1070
     1
1071
        9
1005
1B934
1001
ACAD
1000
ACAD_MTEXT_DEFINED_HEIGHT_BEGIN
1070
    46
1040
6.751777928266487
1000
ACAD_MTEXT_DEFINED_HEIGHT_END
  0
MTEXT
  5
1B935
330
10FE8
100
AcDbEntity
  8
图框
 62
     3
100
AcDbMText
 10
1012.477254728976
 20
499.7664151964291
 30
0.0
 40
2.985513575034151
 41
17.64876416884615
 46
6.292658374511397
 71
     5
 72
     5
  1
-
  7
Romans字体
 73
     1
 44
1.0
1001
AcDbBlockRepETag
1070
     1
1071
       10
1005
1B935
1001
ACAD
1000
ACAD_MTEXT_DEFINED_HEIGHT_BEGIN
1070
    46
1040
6.292658374511397
1000
ACAD_MTEXT_DEFINED_HEIGHT_END
  0
MTEXT
  5
1B936
330
10FE8
100
AcDbEntity
  8
图框
 62
     3
100
AcDbMText
 10
1028.977802139886
 20
499.7664151964289
 30
0.0
 40
2.487927979195124
 41
15.35233065297265
 46
6.292658374511382
 71
     5
 72
     5
  1
-
  7
Romans字体
 73
     1
 44
1.0
1001
AcDbBlockRepETag
1070
     1
1071
       11
1005
1B936
1001
ACAD
1000
ACAD_MTEXT_DEFINED_HEIGHT_BEGIN
1070
    46
1040
6.292658374511382
1000
ACAD_MTEXT_DEFINED_HEIGHT_END
  0
MTEXT
  5
1B937
330
10FE8
100
AcDbEntity
  8
图框
 62
     3
100
AcDbMText
 10
967.6594956750133
 20
487.1810984474071
 30
0.0
 40
2.985513575034151
 41
15.50176341157863
 46
6.292658374511478
 71
     5
 72
     5
  1
-
  7
Romans字体
 73
     1
 44
1.0
1001
AcDbBlockRepETag
1070
     1
1071
       12
1005
1B937
1001
ACAD
1000
ACAD_MTEXT_DEFINED_HEIGHT_BEGIN
1070
    46
1040
6.292658374511478
1000
ACAD_MTEXT_DEFINED_HEIGHT_END
  0
MTEXT
  5
1B938
330
10FE8
100
AcDbEntity
  8
图框
 62
     3
100
AcDbMText
 10
983.041569333247
 20
487.1810984474071
 30
0.0
 40
2.487927979195124
 41
15.26238390489062
 46
6.292658374511495
 71
     5
 72
     5
  1
-
  7
Romans字体
 73
     1
 44
1.0
1001
AcDbBlockRepETag
1070
     1
1071
       13
1005
1B938
1001
ACAD
1000
ACAD_MTEXT_DEFINED_HEIGHT_BEGIN
1070
    46
1040
6.292658374511495
1000
ACAD_MTEXT_DEFINED_HEIGHT_END
  0
MTEXT
  5
1B939
330
10FE8
100
AcDbEntity
  8
图框
 62
     3
100
AcDbMText
 10
1074.556686986741
 20
495.8417418993361
 30
0.0
 40
2.985513575034151
 41
10.82934843438978
 46
7.886094601210427
 71
     5
 72
     5
  1
-
  7
Romans字体
 73
     1
 44
1.0
1001
AcDbBlockRepETag
1070
     1
1071
       14
1005
1B939
1001
ACAD
1000
ACAD_MTEXT_DEFINED_HEIGHT_BEGIN
1070
    46
1040
7.886094601210427
1000
ACAD_MTEXT_DEFINED_HEIGHT_END
  0
LINE
  5
1B93A
330
10FE8
100
AcDbEntity
  8
图框
370
    -3
100
AcDbLine
 10
1036.653967466372
 20
499.7847891999413
 30
0.0
 11
1079.971361203936
 21
499.7847891999413
 31
0.0
1001
AcDbBlockRepETag
1070
     1
1071
       15
1005
1B93A
  0
MTEXT
  5
1B93B
330
10FE8
100
AcDbEntity
  8
图框
 62
     1
370
    20
100
AcDbMText
 10
1108.26336443907
 20
491.5162596080882
 30
0.0
 40
2.699054613030988
 41
82.30831305643079
 46
0.0
 71
     5
 72
     5
  1
{\fSimHei|b0|i0|c134|p2;厦门唯恩电气有限公司}
 73
     1
 44
1.0
1001
AcDbBlockRepETag
1070
     1
1071
       16
1005
1B93B
  0
MTEXT
  5
1B93C
330
10FE8
100
AcDbEntity
  8
图框
 62
     3
370
    20
100
AcDbMText
 10
1108.435451459908
 20
487.298967726064
 30
0.0
 40
1.652482416141417
 41
68.08558693693567
 46
0.0
 71
     5
 72
     5
  1
{\fArial Narrow|b0|i0|c0|p34;XIAMEN WAIN ELECTRICAL CO.LTD}
  7
工程字
 73
     1
 44
1.0
1001
AcDbBlockRepETag
1070
     1
1071
       17
1005
1B93C
  0
MTEXT
  5
1B93D
330
10FE8
100
AcDbEntity
  8
图框
 62
     1
370
    20
100
AcDbMText
 10
1085.711816899387
 20
491.0944802995856
 30
0.0
 40
2.005930044038334
 41
5.047240019334847
 46
0.0
 71
     1
 72
     5
  1
{\fArial|b0|i0|c0|p34;A}
  7
Chinese
 73
     1
 44
1.0
1001
AcDbBlockRepETag
1070
     1
1071
       18
1005
1B93D
  0
MTEXT
  5
1B93E
330
10FE8
100
AcDbEntity
  8
图框
 62
     1
370
    20
100
AcDbMText
 10
1088.213485935716
 20
491.0944802995856
 30
0.0
 40
2.005930044038334
 41
5.047240019334847
 46
0.0
 71
     1
 72
     5
  1
{\fArial|b0|i0|c0|p34;I}
  7
Chinese
 73
     1
 44
1.0
1001
AcDbBlockRepETag
1070
     1
1071
       19
1005
1B93E
  0
MTEXT
  5
1B93F
330
10FE8
100
AcDbEntity
  8
图框
 62
     1
370
    20
100
AcDbMText
 10
1089.142375222864
 20
491.0822866326808
 30
0.0
 40
2.005930044038334
 41
5.047240019334847
 46
0.0
 71
     1
 72
     5
  1
{\fArial|b0|i0|c0|p34;N}
  7
Chinese
 73
     1
 44
1.0
1001
AcDbBlockRepETag
1070
     1
1071
       20
1005
1B93F
  0
MTEXT
  5
1B940
330
10FE8
100
AcDbEntity
  8
图框
100
AcDbMText
 10
1069.142012769545
 20
487.9667319294409
 30
0.0
 40
2.252848170144607
 41
21.65869686878327
 46
7.863925338579296
 71
     5
 72
     5
  1
{\W0.5;\C1;All Dimensions in mm\POriginal Size DIN A 4}
  7
Romans字体
 73
     1
 44
1.0
1001
AcDbBlockRepETag
1070
     1
1071
       21
1005
1B940
1001
ACAD
1000
ACAD_MTEXT_DEFINED_HEIGHT_BEGIN
1070
    46
1040
7.863925338579296
1000
ACAD_MTEXT_DEFINED_HEIGHT_END
  0
MTEXT
  5
1B941
330
10FE8
100
AcDbEntity
  8
图框
  6
ByBlock
 62
     6
370
    18
100
AcDbMText
 10
1127.40434942308
 20
508.7896535755975
 30
0.0
 40
2.651776162684904
 41
2.557913877927211
 46
0.0
 71
     1
 72
     5
  1
A
  7
Romans字体
 11
0.0000000000000001
 21
1.0
 31
0.0
 73
     1
 44
1.0
1001
AcDbBlockRepETag
1070
     1
1071
       22
1005
1B941
  0
MTEXT
  5
1B942
330
10FE8
100
AcDbEntity
  8
图框
 62
     6
100
AcDbMText
 10
1127.40434942308
 20
556.3746573232886
 30
0.0
 40
2.651776162684904
 41
2.557913877927211
 46
0.0
 71
     1
 72
     5
  1
B
  7
Romans字体
 11
0.0000000000000001
 21
1.0
 31
0.0
 73
     1
 44
1.0
1001
AcDbBlockRepETag
1070
     1
1071
       23
1005
1B942
  0
MTEXT
  5
1B943
330
10FE8
100
AcDbEntity
  8
图框
 62
     6
100
AcDbMText
 10
1127.40434942308
 20
607.5539372630998
 30
0.0
 40
2.651776162684904
 41
2.557913877927211
 46
0.0
 71
     1
 72
     5
  1
C
  7
Romans字体
 11
0.0000000000000001
 21
1.0
 31
0.0
 73
     1
 44
1.0
1001
AcDbBlockRepETag
1070
     1
1071
       24
1005
1B943
  0
MTEXT
  5
1B944
330
10FE8
100
AcDbEntity
  8
图框
 62
     6
100
AcDbMText
 10
1127.40434942308
 20
658.7332172029115
 30
0.0
 40
2.651776162684904
 41
2.557913877927211
 46
0.0
 71
     1
 72
     5
  1
D
  7
Romans字体
 11
0.0000000000000001
 21
1.0
 31
0.0
 73
     1
 44
1.0
1001
AcDbBlockRepETag
1070
     1
1071
       25
1005
1B944
  0
LINE
  5
1B945
330
10FE8
100
AcDbEntity
  8
图框
 62
     6
100
AcDbLine
 10
1130.411601781241
 20
634.0726090796082
 30
0.0
 11
1126.928502610363
 21
634.0726090796082
 31
0.0
1001
AcDbBlockRepETag
1070
     1
1071
       26
1005
1B945
  0
LINE
  5
1B946
330
10FE8
100
AcDbEntity
  8
图框
 62
     6
100
AcDbLine
 10
1130.411601781241
 20
582.89332913979
 30
0.0
 11
1126.928502610363
 21
582.89332913979
 31
0.0
1001
AcDbBlockRepETag
1070
     1
1071
       27
1005
1B946
  0
MTEXT
  5
1B947
330
10FE8
100
AcDbEntity
  8
图框
 62
     6
100
AcDbMText
 10
1105.329704038389
 20
483.6164543011163
 30
0.0
 40
2.651776162684904
 41
2.557913877927211
 46
0.0
 71
     1
 72
     5
  1
6
  7
Romans字体
 73
     1
 44
1.0
1001
AcDbBlockRepETag
1070
     1
1071
       28
1005
1B947
  0
LINE
  5
1B948
330
10FE8
100
AcDbEntity
  8
图框
 62
     6
100
AcDbLine
 10
1081.088565155284
 20
484.0347692601515
 30
0.0
 11
1081.088565155284
 21
480.5347692601475
 31
0.0
1001
AcDbBlockRepETag
1070
     1
1071
       29
1005
1B948
  0
MTEXT
  5
1B949
330
10FE8
100
AcDbEntity
  8
图框
 62
     6
100
AcDbMText
 10
1055.900596365941
 20
483.520053108993
 30
0.0
 40
2.651776162684904
 41
2.557913877927211
 46
0.0
 71
     1
 72
     5
  1
5
  7
Romans字体
 73
     1
 44
1.0
1001
AcDbBlockRepETag
1070
     1
1071
       30
1005
1B949
  0
LINE
  5
1B94A
330
10FE8
100
AcDbEntity
  8
图框
 62
     6
100
AcDbLine
 10
1031.553386436349
 20
484.0347692601515
 30
0.0
 11
1031.553386436349
 21
480.5347692601475
 31
0.0
1001
AcDbBlockRepETag
1070
     1
1071
       31
1005
1B94A
  0
MTEXT
  5
1B94B
330
10FE8
100
AcDbEntity
  8
图框
 62
     6
100
AcDbMText
 10
1006.383180575197
 20
483.5687958215896
 30
0.0
 40
2.651776162684904
 41
2.557913877927211
 46
0.0
 71
     1
 72
     5
  1
4
  7
Romans字体
 73
     1
 44
1.0
1001
AcDbBlockRepETag
1070
     1
1071
       32
1005
1B94B
  0
LINE
  5
1B94C
330
10FE8
100
AcDbEntity
  8
图框
 62
     6
100
AcDbLine
 10
982.0182077173887
 20
484.0347692601515
 30
0.0
 11
982.0182077173887
 21
480.5347692601475
 31
0.0
1001
AcDbBlockRepETag
1070
     1
1071
       33
1005
1B94C
  0
MTEXT
  5
1B94D
330
10FE8
100
AcDbEntity
  8
图框
 62
     6
100
AcDbMText
 10
956.8302389280352
 20
483.5989680297948
 30
0.0
 40
2.651776162684904
 41
2.557913877927211
 46
0.0
 71
     1
 72
     5
  1
3
  7
Romans字体
 73
     1
 44
1.0
1001
AcDbBlockRepETag
1070
     1
1071
       34
1005
1B94D
  0
LINE
  5
1B94E
330
10FE8
100
AcDbEntity
  8
图框
 62
     6
100
AcDbLine
 10
932.4830289984245
 20
484.0347692601515
 30
0.0
 11
932.4830289984245
 21
480.5347692601475
 31
0.0
1001
AcDbBlockRepETag
1070
     1
1071
       35
1005
1B94E
  0
MTEXT
  5
1B94F
330
10FE8
100
AcDbEntity
  8
图框
 62
     6
100
AcDbMText
 10
906.0252349826365
 20
483.6475250013156
 30
0.0
 40
2.651776162684904
 41
2.557913877927211
 46
0.0
 71
     1
 72
     5
  1
2
  7
Romans字体
 73
     1
 44
1.0
1001
AcDbBlockRepETag
1070
     1
1071
       36
1005
1B94F
  0
LINE
  5
1B950
330
10FE8
100
AcDbEntity
  8
图框
 62
     6
100
AcDbLine
 10
882.9478502794648
 20
484.0347692601515
 30
0.0
 11
882.9478502794648
 21
480.5347692601475
 31
0.0
1001
AcDbBlockRepETag
1070
     1
1071
       37
1005
1B950
  0
MTEXT
  5
1B951
330
10FE8
100
AcDbEntity
  8
图框
 62
     6
100
AcDbMText
 10
857.7598814901191
 20
483.651829494754
 30
0.0
 40
2.651776162684904
 41
2.557913877927211
 46
0.0
 71
     1
 72
     5
  1
1
  7
Romans字体
 73
     1
 44
1.0
1001
AcDbBlockRepETag
1070
     1
1071
       38
1005
1B951
  0
LINE
  5
1B952
330
10FE8
100
AcDbEntity
  8
图框
370
    50
100
AcDbLine
 10
836.8548209370597
 20
484.0347692601515
 30
0.0
 11
1126.928502610363
 21
484.0347692601515
 31
0.0
1001
AcDbBlockRepETag
1070
     1
1071
       39
1005
1B952
  0
LINE
  5
1B953
330
10FE8
100
AcDbEntity
  8
图框
370
    50
100
AcDbLine
 10
836.9128518455362
 20
484.0178684310246
 30
0.0
 11
836.9128518455394
 21
675.0207195125422
 31
0.0
1001
AcDbBlockRepETag
1070
     1
1071
       40
1005
1B953
  0
MTEXT
  5
1B954
330
10FE8
100
AcDbEntity
  8
图框
 62
     6
100
AcDbMText
 10
833.8475685789031
 20
658.7332172029115
 30
0.0
 40
2.651776162684904
 41
2.557913877927211
 46
0.0
 71
     1
 72
     5
  1
D
  7
Romans字体
 11
0.0000000000000001
 21
1.0
 31
0.0
 73
     1
 44
1.0
1001
AcDbBlockRepETag
1070
     1
1071
       41
1005
1B954
  0
LINE
  5
1B955
330
10FE8
100
AcDbEntity
  8
图框
 62
     6
100
AcDbLine
 10
836.9128518455386
 20
634.0726090796082
 30
0.0
 11
833.4128518455365
 21
634.0726090796082
 31
0.0
1001
AcDbBlockRepETag
1070
     1
1071
       42
1005
1B955
  0
MTEXT
  5
1B956
330
10FE8
100
AcDbEntity
  8
图框
 62
     6
100
AcDbMText
 10
833.9039177480142
 20
607.5539372630998
 30
0.0
 40
2.651776162684904
 41
2.557913877927211
 46
0.0
 71
     1
 72
     5
  1
C
  7
Romans字体
 11
0.0000000000000001
 21
1.0
 31
0.0
 73
     1
 44
1.0
1001
AcDbBlockRepETag
1070
     1
1071
       43
1005
1B956
  0
LINE
  5
1B957
330
10FE8
100
AcDbEntity
  8
图框
 62
     6
100
AcDbLine
 10
836.9128518455378
 20
582.89332913979
 30
0.0
 11
833.4128518455365
 21
582.89332913979
 31
0.0
1001
AcDbBlockRepETag
1070
     1
1071
       44
1005
1B957
  0
MTEXT
  5
1B958
330
10FE8
100
AcDbEntity
  8
图框
 62
     6
100
AcDbMText
 10
833.9039177480142
 20
556.3746573232886
 30
0.0
 40
2.651776162684904
 41
2.557913877927211
 46
0.0
 71
     1
 72
     5
  1
B
  7
Romans字体
 11
0.0000000000000001
 21
1.0
 31
0.0
 73
     1
 44
1.0
1001
AcDbBlockRepETag
1070
     1
1071
       45
1005
1B958
  0
LINE
  5
1B959
330
10FE8
100
AcDbEntity
  8
图框
 62
     6
100
AcDbLine
 10
836.9128518455367
 20
531.714049199969
 30
0.0
 11
833.4128518455365
 21
531.714049199969
 31
0.0
1001
AcDbBlockRepETag
1070
     1
1071
       46
1005
1B959
  0
MTEXT
  5
1B95A
330
10FE8
100
AcDbEntity
  8
图框
 62
     6
100
AcDbMText
 10
833.9039177480142
 20
508.7896535755975
 30
0.0
 40
2.651776162684904
 41
2.557913877927211
 46
0.0
 71
     1
 72
     5
  1
A
  7
Romans字体
 11
0.0000000000000001
 21
1.0
 31
0.0
 73
     1
 44
1.0
1001
AcDbBlockRepETag
1070
     1
1071
       47
1005
1B95A
  0
LINE
  5
1B95B
330
10FE8
100
AcDbEntity
  8
图框
370
    -3
100
AcDbLine
 10
836.9128518455394
 20
675.0207195125422
 30
0.0
 11
836.9128518455394
 21
684.5021384922564
 31
0.0
1001
AcDbBlockRepETag
1070
     1
1071
       48
1005
1B95B
  0
LINE
  5
1B95C
330
10FE8
100
AcDbEntity
  8
图框
370
    -3
100
AcDbLine
 10
842.6237321475781
 20
675.5347692601515
 30
0.0
 11
842.6237321475781
 21
685.0161882398658
 31
0.0
1001
AcDbBlockRepETag
1070
     1
1071
       49
1005
1B95C
  0
LINE
  5
1B95D
330
10FE8
100
AcDbEntity
  8
图框
370
    -3
100
AcDbLine
 10
848.3346124496179
 20
675.5347692601515
 30
0.0
 11
848.3346124496179
 21
685.0161882398658
 31
0.0
1001
AcDbBlockRepETag
1070
     1
1071
       50
1005
1B95D
  0
LINE
  5
1B95E
330
10FE8
100
AcDbEntity
  8
图框
370
    -3
100
AcDbLine
 10
854.0454927516588
 20
675.5347692601515
 30
0.0
 11
854.0454927516588
 21
685.0161882398658
 31
0.0
1001
AcDbBlockRepETag
1070
     1
1071
       51
1005
1B95E
  0
LINE
  5
1B95F
330
10FE8
100
AcDbEntity
  8
图框
370
    -3
100
AcDbLine
 10
861.5351874539182
 20
675.5347692601515
 30
0.0
 11
861.5351874539182
 21
686.7901958362482
 31
0.0
1001
AcDbBlockRepETag
1070
     1
1071
       52
1005
1B95F
  0
MTEXT
  5
1B960
330
10FE8
100
AcDbEntity
  8
图框
 62
     6
100
AcDbMText
 10
1105.329704038389
 20
678.859919059449
 30
0.0
 40
2.651776162684904
 41
2.557913877927211
 46
0.0
 71
     1
 72
     5
  1
6
  7
Romans字体
 73
     1
 44
1.0
1001
AcDbBlockRepETag
1070
     1
1071
       53
1005
1B960
  0
LINE
  5
1B961
330
10FE8
100
AcDbEntity
  8
图框
 62
     6
100
AcDbLine
 10
1081.088565155284
 20
679.0347692601516
 30
0.0
 11
1081.088565155284
 21
675.5347692601515
 31
0.0
1001
AcDbBlockRepETag
1070
     1
1071
       54
1005
1B961
  0
MTEXT
  5
1B962
330
10FE8
100
AcDbEntity
  8
图框
 62
     6
100
AcDbMText
 10
1055.900596365941
 20
678.859919059449
 30
0.0
 40
2.651776162684904
 41
2.557913877927211
 46
0.0
 71
     1
 72
     5
  1
5
  7
Romans字体
 73
     1
 44
1.0
1001
AcDbBlockRepETag
1070
     1
1071
       55
1005
1B962
  0
LINE
  5
1B963
330
10FE8
100
AcDbEntity
  8
图框
 62
     6
100
AcDbLine
 10
1031.553386436349
 20
679.0347692601516
 30
0.0
 11
1031.553386436349
 21
675.5347692601515
 31
0.0
1001
AcDbBlockRepETag
1070
     1
1071
       56
1005
1B963
  0
MTEXT
  5
1B964
330
10FE8
100
AcDbEntity
  8
图框
 62
     6
100
AcDbMText
 10
1006.36541764698
 20
678.7312083656147
 30
0.0
 40
2.651776162684904
 41
2.557913877927211
 46
0.0
 71
     1
 72
     5
  1
4
  7
Romans字体
 73
     1
 44
1.0
1001
AcDbBlockRepETag
1070
     1
1071
       57
1005
1B964
  0
LINE
  5
1B965
330
10FE8
100
AcDbEntity
  8
图框
 62
     6
100
AcDbLine
 10
982.0182077173887
 20
679.0347692601516
 30
0.0
 11
982.0182077173887
 21
675.5347692601515
 31
0.0
1001
AcDbBlockRepETag
1070
     1
1071
       58
1005
1B965
  0
MTEXT
  5
1B966
330
10FE8
100
AcDbEntity
  8
图框
 62
     6
100
AcDbMText
 10
956.8302389280352
 20
678.859919059449
 30
0.0
 40
2.651776162684904
 41
2.557913877927211
 46
0.0
 71
     1
 72
     5
  1
3
  7
Romans字体
 73
     1
 44
1.0
1001
AcDbBlockRepETag
1070
     1
1071
       59
1005
1B966
  0
LINE
  5
1B967
330
10FE8
100
AcDbEntity
  8
图框
 62
     6
100
AcDbLine
 10
932.4830289984245
 20
679.0347692601516
 30
0.0
 11
932.4830289984245
 21
675.5347692601515
 31
0.0
1001
AcDbBlockRepETag
1070
     1
1071
       60
1005
1B967
  0
MTEXT
  5
1B968
330
10FE8
100
AcDbEntity
  8
图框
 62
     6
100
AcDbMText
 10
907.295060209082
 20
678.859919059449
 30
0.0
 40
2.651776162684904
 41
2.557913877927211
 46
0.0
 71
     1
 72
     5
  1
2
  7
Romans字体
 73
     1
 44
1.0
1001
AcDbBlockRepETag
1070
     1
1071
       61
1005
1B968
  0
LINE
  5
1B969
330
10FE8
100
AcDbEntity
  8
图框
 62
     6
100
AcDbLine
 10
882.9478502794648
 20
678.7962435131815
 30
0.0
 11
882.9478502794648
 21
675.5347692601515
 31
0.0
1001
AcDbBlockRepETag
1070
     1
1071
       62
1005
1B969
  0
MTEXT
  5
1B96A
330
10FE8
100
AcDbEntity
  8
图框
 62
     6
100
AcDbMText
 10
862.6286629643733
 20
678.859919059449
 30
0.0
 40
2.651776162684904
 41
2.557913877927211
 46
0.0
 71
     1
 72
     5
  1
1
  7
Romans字体
 73
     1
 44
1.0
1001
AcDbBlockRepETag
1070
     1
1071
       63
1005
1B96A
  0
LINE
  5
1B96B
330
10FE8
100
AcDbEntity
  8
图框
370
    -3
100
AcDbLine
 10
836.9128518455394
 20
675.0207195125422
 30
0.0
 11
836.9128518455394
 21
686.7901958362482
 31
0.0
1001
AcDbBlockRepETag
1070
     1
1071
       64
1005
1B96B
  0
LINE
  5
1B96C
330
10FE8
100
AcDbEntity
  8
图框
370
    50
100
AcDbLine
 10
836.9128518455394
 20
675.5347692601515
 30
0.0
 11
1126.928502610363
 21
675.5347692601515
 31
0.0
1001
AcDbBlockRepETag
1070
     1
1071
       65
1005
1B96C
  0
LINE
  5
1B96D
330
10FE8
100
AcDbEntity
  8
图框
370
    -3
100
AcDbLine
 10
842.6237321475781
 20
675.5347692601515
 30
0.0
 11
842.6237321475781
 21
686.7901958362482
 31
0.0
1001
AcDbBlockRepETag
1070
     1
1071
       66
1005
1B96D
  0
LINE
  5
1B96E
330
10FE8
100
AcDbEntity
  8
图框
370
    -3
100
AcDbLine
 10
848.3346124496179
 20
675.5347692601515
 30
0.0
 11
848.3346124496179
 21
686.7901958362482
 31
0.0
1001
AcDbBlockRepETag
1070
     1
1071
       67
1005
1B96E
  0
MTEXT
  5
1B96F
102
{ACAD_XDICTIONARY
360
1BA99
102
}
330
10FE8
100
AcDbEntity
  8
图框
100
AcDbMText
 10
857.7903401027889
 20
686.7901958362482
 30
0.0
 40
1.958998408821398
 41
11.25542657609672
 46
7.489694702258906
 71
     4
 72
     5
  1
\pi2.8203;档案员{\H0.7x;\P\pi1.4159;\Fromans|c134;Filing Clerk\fFangSong_GB2312|b0|i0|c134|p49; }
 11
-0.0000000000000002
 21
-1.0
 31
0.0
 73
     1
 44
1.0
1001
AcDbBlockRepETag
1070
     1
1071
       68
1005
1B96F
1001
ACAD
1000
ACAD_MTEXT_DEFINED_HEIGHT_BEGIN
1070
    46
1040
7.489694702258906
1000
ACAD_MTEXT_DEFINED_HEIGHT_END
  0
MTEXT
  5
1B970
102
{ACAD_XDICTIONARY
360
1BA9B
102
}
330
10FE8
100
AcDbEntity
  8
图框
100
AcDbMText
 10
845.479172298598
 20
686.7901958362482
 30
0.0
 40
1.958998408821398
 41
11.25542657609672
 46
5.710880302039671
 71
     4
 72
     5
  1
\pi0.7115;日期{\Fromans|c134;/Date}
 11
-0.0000000000000002
 21
-1.0
 31
0.0
 73
     1
 44
1.0
1001
AcDbBlockRepETag
1070
     1
1071
       69
1005
1B970
1001
ACAD
1000
ACAD_MTEXT_DEFINED_HEIGHT_BEGIN
1070
    46
1040
5.710880302039671
1000
ACAD_MTEXT_DEFINED_HEIGHT_END
  0
LINE
  5
1B971
330
10FE8
100
AcDbEntity
  8
图框
370
    -3
100
AcDbLine
 10
854.0454927516588
 20
675.5347692601515
 30
0.0
 11
854.0454927516588
 21
686.7901958362482
 31
0.0
1001
AcDbBlockRepETag
1070
     1
1071
       70
1005
1B971
  0
LINE
  5
1B972
330
10FE8
100
AcDbEntity
  8
图框
370
    -3
100
AcDbLine
 10
1036.653967466372
 20
531.3291676047914
 30
0.0
 11
1036.653967466372
 21
484.0126019753161
 31
0.0
1001
AcDbBlockRepETag
1070
     1
1071
       71
1005
1B972
  0
LINE
  5
1B973
330
10FE8
100
AcDbEntity
  8
图框
370
    -3
100
AcDbLine
 10
1047.483315900763
 20
507.6708838011533
 30
0.0
 11
1047.483315900763
 21
491.8986945987308
 31
0.0
1001
AcDbBlockRepETag
1070
     1
1071
       72
1005
1B973
  0
LINE
  5
1B974
330
10FE8
100
AcDbEntity
  8
图框
370
    -3
100
AcDbLine
 10
1058.312664335153
 20
507.6708838011533
 30
0.0
 11
1058.312664335153
 21
484.0347692601515
 31
0.0
1001
AcDbBlockRepETag
1070
     1
1071
       73
1005
1B974
  0
LINE
  5
1B975
330
10FE8
100
AcDbEntity
  8
图框
370
    25
100
AcDbLine
 10
1048.474135214456
 20
488.1095628329926
 30
0.0
 11
1054.946420288459
 21
488.1095628329926
 31
0.0
1001
AcDbBlockRepETag
1070
     1
1071
       74
1005
1B975
  0
LINE
  5
1B976
330
10FE8
100
AcDbEntity
  8
图框
370
    25
100
AcDbLine
 10
1054.232527365989
 20
487.0761716842634
 30
0.0
 11
1049.156490914508
 21
486.4576273751
 31
0.0
1001
AcDbBlockRepETag
1070
     1
1071
       75
1005
1B976
  0
LINE
  5
1B977
330
10FE8
100
AcDbEntity
  8
图框
370
    25
100
AcDbLine
 10
1054.232527365989
 20
489.1429539817209
 30
0.0
 11
1049.156490914508
 21
489.7614982908846
 31
0.0
1001
AcDbBlockRepETag
1070
     1
1071
       76
1005
1B977
  0
LINE
  5
1B978
330
10FE8
100
AcDbEntity
  8
图框
370
    25
100
AcDbLine
 10
1049.156490914508
 20
489.7614982908846
 30
0.0
 11
1049.156490914508
 21
486.4576273751
 31
0.0
1001
AcDbBlockRepETag
1070
     1
1071
       77
1005
1B978
  0
LINE
  5
1B979
330
10FE8
100
AcDbEntity
  8
图框
370
    25
100
AcDbLine
 10
1054.232527365989
 20
489.1429539817209
 30
0.0
 11
1054.232527365989
 21
487.0761716842634
 31
0.0
1001
AcDbBlockRepETag
1070
     1
1071
       78
1005
1B979
  0
CIRCLE
  5
1B97A
330
10FE8
100
AcDbEntity
  8
图框
370
    25
100
AcDbCircle
 10
1042.502700458579
 20
488.1095628329926
 30
0.0
 40
1.651935457891863
1001
AcDbBlockRepETag
1070
     1
1071
       79
1005
1B97A
  0
CIRCLE
  5
1B97B
330
10FE8
100
AcDbEntity
  8
图框
370
    25
100
AcDbCircle
 10
1042.502700458579
 20
488.1095628329926
 30
0.0
 40
1.033391148728775
1001
AcDbBlockRepETag
1070
     1
1071
       80
1005
1B97B
  0
LINE
  5
1B97C
330
10FE8
100
AcDbEntity
  8
图框
370
    25
100
AcDbLine
 10
1040.136872078216
 20
488.1095628329926
 30
0.0
 11
1044.868528838943
 21
488.1095628329926
 31
0.0
1001
AcDbBlockRepETag
1070
     1
1071
       81
1005
1B97C
  0
LINE
  5
1B97D
330
10FE8
100
AcDbEntity
  8
图框
370
    25
100
AcDbLine
 10
1042.502700458579
 20
490.475391213355
 30
0.0
 11
1042.502700458579
 21
485.743734452629
 31
0.0
1001
AcDbBlockRepETag
1070
     1
1071
       82
1005
1B97D
  0
LINE
  5
1B97E
330
10FE8
100
AcDbEntity
  8
图框
370
    -3
100
AcDbLine
 10
1069.142012769546
 20
507.6708838011533
 30
0.0
 11
1069.142012769546
 21
491.8986945987308
 31
0.0
1001
AcDbBlockRepETag
1070
     1
1071
       83
1005
1B97E
  0
MTEXT
  5
1B97F
330
10FE8
100
AcDbEntity
  8
图框
100
AcDbMText
 10
1086.643735910939
 20
526.8006839312707
 30
0.0
 40
2.154898249703542
 41
13.34474941400573
 46
9.056967347041775
 71
     5
 72
     5
  1
图号{\Ftxt|c134;\P\Fromans|c134;\W0.65;Drawing No.}
 73
     1
 44
1.0
1001
AcDbBlockRepETag
1070
     1
1071
       84
1005
1B97F
1001
ACAD
1000
ACAD_MTEXT_DEFINED_HEIGHT_BEGIN
1070
    46
1040
9.056967347041775
1000
ACAD_MTEXT_DEFINED_HEIGHT_END
  0
LINE
  5
1B980
330
10FE8
100
AcDbEntity
  8
图框
370
    -3
100
AcDbLine
 10
1093.316110617942
 20
531.3291676047914
 30
0.0
 11
1093.316110617942
 21
495.8417418993347
 31
0.0
1001
AcDbBlockRepETag
1070
     1
1071
       85
1005
1B980
  0
LINE
  5
1B981
330
10FE8
100
AcDbEntity
  8
图框
370
    -3
100
AcDbLine
 10
1047.473969770481
 20
531.3291676047914
 30
0.0
 11
1047.473969770481
 21
507.6708838011533
 31
0.0
1001
AcDbBlockRepETag
1070
     1
1071
       86
1005
1B981
  0
MTEXT
  5
1B982
330
10FE8
100
AcDbEntity
  8
图框
100
AcDbMText
 10
1063.72733855235
 20
503.7278365005473
 30
0.0
 40
2.252848170144607
 41
10.82934843439208
 46
7.886094601212128
 71
     5
 72
     5
  1
重量\P{\Fromans|c134;Weight}
 73
     1
 44
1.0
1001
AcDbBlockRepETag
1070
     1
1071
       87
1005
1B982
1001
ACAD
1000
ACAD_MTEXT_DEFINED_HEIGHT_BEGIN
1070
    46
1040
7.886094601212128
1000
ACAD_MTEXT_DEFINED_HEIGHT_END
  0
LINE
  5
1B983
330
10FE8
100
AcDbEntity
  8
图框
370
    -3
100
AcDbLine
 10
1036.653967466372
 20
519.5000257029746
 30
0.0
 11
1079.971361203936
 21
519.5000257029746
 31
0.0
1001
AcDbBlockRepETag
1070
     1
1071
       88
1005
1B983
  0
MTEXT
  5
1B984
330
10FE8
100
AcDbEntity
  8
图框
100
AcDbMText
 10
1074.556686986741
 20
503.7278365005473
 30
0.0
 40
2.252848170144607
 41
10.82934843438984
 46
7.886094601212141
 71
     5
 72
     5
  1
数量\P{\Fromans|c134;Qty.}
 73
     1
 44
1.0
1001
AcDbBlockRepETag
1070
     1
1071
       89
1005
1B984
1001
ACAD
1000
ACAD_MTEXT_DEFINED_HEIGHT_BEGIN
1070
    46
1040
7.886094601212141
1000
ACAD_MTEXT_DEFINED_HEIGHT_END
  0
LINE
  5
1B985
330
10FE8
100
AcDbEntity
  8
图框
370
    -3
100
AcDbLine
 10
1079.971361203936
 20
495.8417418993347
 30
0.0
 11
1126.928502610363
 21
495.8417418993342
 31
0.0
1001
AcDbBlockRepETag
1070
     1
1071
       90
1005
1B985
  0
LINE
  5
1B986
330
10FE8
100
AcDbEntity
  8
图框
370
    -3
100
AcDbLine
 10
1079.971361203936
 20
504.7132992040975
 30
0.0
 11
1126.928502610363
 21
504.7132992040975
 31
0.0
1001
AcDbBlockRepETag
1070
     1
1071
       91
1005
1B986
  0
MTEXT
  5
1B987
330
10FE8
100
AcDbEntity
  8
图框
100
AcDbMText
 10
1052.893317052817
 20
503.7278365005473
 30
0.0
 40
2.252848170144607
 41
10.83869456467139
 46
7.886094601212101
 71
     5
 72
     5
  1
版本\P{\Fromans|c134;REV.}
 73
     1
 44
1.0
1001
AcDbBlockRepETag
1070
     1
1071
       92
1005
1B987
1001
ACAD
1000
ACAD_MTEXT_DEFINED_HEIGHT_BEGIN
1070
    46
1040
7.886094601212101
1000
ACAD_MTEXT_DEFINED_HEIGHT_END
  0
MTEXT
  5
1B988
330
10FE8
100
AcDbEntity
  8
图框
100
AcDbMText
 10
1042.068641683568
 20
503.7278365005473
 30
0.0
 40
2.252848170144607
 41
10.8293484343908
 46
7.886094601212136
 71
     5
 72
     5
  1
比例\P{\Fromans|c134;Scale}
 73
     1
 44
1.0
1001
AcDbBlockRepETag
1070
     1
1071
       93
1005
1B988
1001
ACAD
1000
ACAD_MTEXT_DEFINED_HEIGHT_BEGIN
1070
    46
1040
7.886094601212136
1000
ACAD_MTEXT_DEFINED_HEIGHT_END
  0
LINE
  5
1B989
330
10FE8
100
AcDbEntity
  8
图框
370
    -3
100
AcDbLine
 10
1036.653967466372
 20
507.6708838011533
 30
0.0
 11
1079.971361203936
 21
507.6708838011533
 31
0.0
1001
AcDbBlockRepETag
1070
     1
1071
       94
1005
1B989
  0
LINE
  5
1B98A
330
10FE8
100
AcDbEntity
  8
图框
370
    -3
100
AcDbLine
 10
1036.653967466372
 20
491.8986945987308
 30
0.0
 11
1079.971361203936
 21
491.8986945987308
 31
0.0
1001
AcDbBlockRepETag
1070
     1
1071
       95
1005
1B98A
  0
LINE
  5
1B98B
330
10FE8
100
AcDbEntity
  8
图框
370
    -3
100
AcDbLine
 10
1079.971361203936
 20
531.3291676047914
 30
0.0
 11
1079.971361203936
 21
484.0125999975168
 31
0.0
1001
AcDbBlockRepETag
1070
     1
1071
       96
1005
1B98B
  0
MTEXT
  5
1B98C
330
10FE8
100
AcDbEntity
  8
图框
100
AcDbMText
 10
1042.063968618426
 20
525.4145966538832
 30
0.0
 40
2.252848170144607
 41
10.82000230410933
 46
11.82914190181708
 71
     5
 72
     5
  1
表面处理\P{\Fromans|c134;Finish}
 73
     1
 44
1.0
1001
AcDbBlockRepETag
1070
     1
1071
       97
1005
1B98C
1001
ACAD
1000
ACAD_MTEXT_DEFINED_HEIGHT_BEGIN
1070
    46
1040
11.82914190181708
1000
ACAD_MTEXT_DEFINED_HEIGHT_END
  0
MTEXT
  5
1B98D
330
10FE8
100
AcDbEntity
  8
图框
100
AcDbMText
 10
1042.063968618426
 20
513.5854547520639
 30
0.0
 40
2.252848170144607
 41
10.82000230410933
 46
11.8291419018212
 71
     5
 72
     5
  1
材料\P{\Fromans|c134;Material}
 73
     1
 44
1.0
1001
AcDbBlockRepETag
1070
     1
1071
       98
1005
1B98D
1001
ACAD
1000
ACAD_MTEXT_DEFINED_HEIGHT_BEGIN
1070
    46
1040
11.8291419018212
1000
ACAD_MTEXT_DEFINED_HEIGHT_END
  0
LINE
  5
1B98E
330
10FE8
100
AcDbEntity
  8
图框
370
    -3
100
AcDbLine
 10
1079.971361203936
 20
522.27220025775
 30
0.0
 11
1126.928502610363
 21
522.27220025775
 31
0.0
1001
AcDbBlockRepETag
1070
     1
1071
       99
1005
1B98E
  0
LINE
  5
1B98F
330
10FE8
100
AcDbEntity
  8
图框
370
    -3
100
AcDbLine
 10
1079.971361203936
 20
513.5854547520641
 30
0.0
 11
1126.928502610363
 21
513.5854547520639
 31
0.0
1001
AcDbBlockRepETag
1070
     1
1071
      100
1005
1B98F
  0
MTEXT
  5
1B990
330
10FE8
100
AcDbEntity
  8
图框
100
AcDbMText
 10
1086.643735910939
 20
517.9288275049072
 30
0.0
 40
1.958998408821398
 41
13.34474941400573
 46
8.686745505685811
 71
     5
 72
     5
  1
产品代号\P{\Fromans|c134;Part Code}
 73
     1
 44
1.0
1001
AcDbBlockRepETag
1070
     1
1071
      101
1005
1B990
1001
ACAD
1000
ACAD_MTEXT_DEFINED_HEIGHT_BEGIN
1070
    46
1040
8.686745505685811
1000
ACAD_MTEXT_DEFINED_HEIGHT_END
  0
LINE
  5
1B991
330
10FE8
100
AcDbEntity
  8
图框
370
    -3
100
AcDbLine
 10
946.9285026103634
 20
525.7982263931411
 30
0.0
 11
1036.653967466372
 21
525.7982263931411
 31
0.0
1001
AcDbBlockRepETag
1070
     1
1071
      102
1005
1B991
  0
LINE
  5
1B992
330
10FE8
100
AcDbEntity
  8
图框
370
    -3
100
AcDbLine
 10
946.9285026103634
 20
520.2672851814959
 30
0.0
 11
1036.653967466372
 21
520.2672851814959
 31
0.0
1001
AcDbBlockRepETag
1070
     1
1071
      103
1005
1B992
  0
LINE
  5
1B993
330
10FE8
100
AcDbEntity
  8
图框
370
    35
100
AcDbLine
 10
946.9285026103634
 20
531.3291676047914
 30
0.0
 11
1126.928502610363
 21
531.3291676047914
 31
0.0
1001
AcDbBlockRepETag
1070
     1
1071
      104
1005
1B993
  0
LINE
  5
1B994
330
10FE8
100
AcDbEntity
  8
图框
370
    -3
100
AcDbLine
 10
990.6727612856927
 20
509.2054027581959
 30
0.0
 11
990.6727612856927
 21
484.0347692601515
 31
0.0
1001
AcDbBlockRepETag
1070
     1
1071
      105
1005
1B994
  0
MTEXT
  5
1B995
102
{ACAD_XDICTIONARY
360
1BA9D
102
}
330
10FE8
100
AcDbEntity
  8
图框
100
AcDbMText
 10
997.1628169651232
 20
499.816589978722
 30
0.0
 40
2.252848170144607
 41
12.98011135886052
 46
6.19230880992475
 71
     5
 72
     5
  1
{\f仿宋_GB2312|b0|i0|c134|p49;标准化}\PStand.
  7
Romans字体
 73
     1
 44
1.0
1001
AcDbBlockRepETag
1070
     1
1071
      106
1005
1B995
1001
ACAD
1000
ACAD_MTEXT_DEFINED_HEIGHT_BEGIN
1070
    46
1040
6.19230880992475
1000
ACAD_MTEXT_DEFINED_HEIGHT_END
  0
LINE
  5
1B996
330
10FE8
100
AcDbEntity
  8
图框
370
    -3
100
AcDbLine
 10
975.4103773808022
 20
509.2054027581959
 30
0.0
 11
975.4103773808022
 21
484.0347692601515
 31
0.0
1001
AcDbBlockRepETag
1070
     1
1071
      107
1005
1B996
  0
MTEXT
  5
1B997
330
10FE8
100
AcDbEntity
  8
图框
100
AcDbMText
 10
984.5089229802068
 20
511.9708733640202
 30
0.0
 40
2.448748011026752
 41
38.287899328693
 46
5.530941211648832
 71
     5
 72
     5
  1
  变更描述{\Fromans|c134;/Description}
 73
     1
 44
1.0
1001
AcDbBlockRepETag
1070
     1
1071
      108
1005
1B997
1001
ACAD
1000
ACAD_MTEXT_DEFINED_HEIGHT_BEGIN
1070
    46
1040
5.530941211648832
1000
ACAD_MTEXT_DEFINED_HEIGHT_END
  0
MTEXT
  5
1B998
102
{ACAD_XDICTIONARY
360
1BA9F
102
}
330
10FE8
100
AcDbEntity
  8
图框
100
AcDbMText
 10
1012.466086049227
 20
511.9708733640202
 30
0.0
 40
1.958998408821398
 41
17.6264268093469
 46
5.530941211648825
 71
     5
 72
     5
  1
签名\P{\Fromans|c134;Signature} 
 73
     1
 44
1.0
1001
AcDbBlockRepETag
1070
     1
1071
      109
1005
1B998
1001
ACAD
1000
ACAD_MTEXT_DEFINED_HEIGHT_BEGIN
1070
    46
1040
5.530941211648825
1000
ACAD_MTEXT_DEFINED_HEIGHT_END
  0
MTEXT
  5
1B999
102
{ACAD_XDICTIONARY
360
1BAA1
102
}
330
10FE8
100
AcDbEntity
  8
图框
100
AcDbMText
 10
960.7558556394856
 20
511.9708733640202
 30
0.0
 40
1.958998408821398
 41
9.218235352749283
 46
5.530941211648841
 71
     5
 72
     5
  1
处数\P{\Fromans|c134;Number }
 73
     1
 44
1.0
1001
AcDbBlockRepETag
1070
     1
1071
      110
1005
1B999
1001
ACAD
1000
ACAD_MTEXT_DEFINED_HEIGHT_BEGIN
1070
    46
1040
5.530941211648841
1000
ACAD_MTEXT_DEFINED_HEIGHT_END
  0
LINE
  5
1B99A
330
10FE8
100
AcDbEntity
  8
图框
370
    -3
100
AcDbLine
 10
946.9285026103634
 20
514.7363439698449
 30
0.0
 11
1036.653967466372
 21
514.7363439698449
 31
0.0
1001
AcDbBlockRepETag
1070
     1
1071
      111
1005
1B99A
  0
LINE
  5
1B99B
330
10FE8
100
AcDbEntity
  8
图框
370
    -3
100
AcDbLine
 10
946.9285026103634
 20
509.2054027581959
 30
0.0
 11
1036.653967466372
 21
509.2054027581959
 31
0.0
1001
AcDbBlockRepETag
1070
     1
1071
      112
1005
1B99B
  0
LINE
  5
1B99C
330
10FE8
100
AcDbEntity
  8
图框
370
    -3
100
AcDbLine
 10
946.9285026103634
 20
502.9127443836848
 30
0.0
 11
1036.653967466372
 21
502.9127443836848
 31
0.0
1001
AcDbBlockRepETag
1070
     1
1071
      113
1005
1B99C
  0
LINE
  5
1B99D
330
10FE8
100
AcDbEntity
  8
图框
370
    -3
100
AcDbLine
 10
946.9285026103634
 20
496.620086009173
 30
0.0
 11
1036.653967466372
 21
496.620086009173
 31
0.0
1001
AcDbBlockRepETag
1070
     1
1071
      114
1005
1B99D
  0
LINE
  5
1B99E
330
10FE8
100
AcDbEntity
  8
图框
370
    35
380
     1
100
AcDbLine
 10
946.9285026103634
 20
531.3291676047914
 30
0.0
 11
946.9285026103634
 21
484.0347692601515
 31
0.0
1001
AcDbBlockRepETag
1070
     1
1071
      115
1005
1B99E
  0
LINE
  5
1B99F
330
10FE8
100
AcDbEntity
  8
图框
370
    -3
100
AcDbLine
 10
1021.301636813399
 20
531.3291676047914
 30
0.0
 11
1021.301636813399
 21
484.0347692601515
 31
0.0
1001
AcDbBlockRepETag
1070
     1
1071
      116
1005
1B99F
  0
LINE
  5
1B9A0
330
10FE8
100
AcDbEntity
  8
图框
370
    -3
100
AcDbLine
 10
1003.652872644553
 20
531.3291676047914
 30
0.0
 11
1003.652872644553
 21
484.0347692601515
 31
0.0
1001
AcDbBlockRepETag
1070
     1
1071
      117
1005
1B9A0
  0
LINE
  5
1B9A1
330
10FE8
100
AcDbEntity
  8
图框
370
    -3
100
AcDbLine
 10
965.3649733158603
 20
531.3291676047914
 30
0.0
 11
965.3649733158603
 21
509.2054027581959
 31
0.0
1001
AcDbBlockRepETag
1070
     1
1071
      118
1005
1B9A1
  0
LINE
  5
1B9A2
330
10FE8
100
AcDbEntity
  8
图框
370
    -3
100
AcDbLine
 10
956.1467379631109
 20
531.3291676047914
 30
0.0
 11
956.1467379631109
 21
509.2054027581959
 31
0.0
1001
AcDbBlockRepETag
1070
     1
1071
      119
1005
1B9A2
  0
MTEXT
  5
1B9A3
102
{ACAD_XDICTIONARY
360
1BAA3
102
}
330
10FE8
100
AcDbEntity
  8
图框
100
AcDbMText
 10
951.537620286737
 20
511.9708733640202
 30
0.0
 40
1.958998408821398
 41
9.218235352747692
 46
5.530941211648832
 71
     5
 72
     5
  1
标记\P{\Fromans|c134;Mark}
 73
     1
 44
1.0
1001
AcDbBlockRepETag
1070
     1
1071
      120
1005
1B9A3
1001
ACAD
1000
ACAD_MTEXT_DEFINED_HEIGHT_BEGIN
1070
    46
1040
5.530941211648832
1000
ACAD_MTEXT_DEFINED_HEIGHT_END
  0
MTEXT
  5
1B9A4
102
{ACAD_XDICTIONARY
360
1BAA5
102
}
330
10FE8
100
AcDbEntity
  8
图框
100
AcDbMText
 10
953.4185582897936
 20
493.4737568219182
 30
0.0
 40
2.252848170144607
 41
12.98011135886041
 46
6.292658374510382
 71
     5
 72
     5
  1
审核\P{\Fromans|c134;Checked}
 73
     1
 44
1.0
1001
AcDbBlockRepETag
1070
     1
1071
      121
1005
1B9A4
1001
ACAD
1000
ACAD_MTEXT_DEFINED_HEIGHT_BEGIN
1070
    46
1040
6.292658374510382
1000
ACAD_MTEXT_DEFINED_HEIGHT_END
  0
MTEXT
  5
1B9A5
102
{ACAD_XDICTIONARY
360
1BAA7
102
}
330
10FE8
100
AcDbEntity
  8
图框
100
AcDbMText
 10
953.4185582897936
 20
499.8775635376777
 30
0.0
 40
2.252848170144607
 41
12.98011135886041
 46
6.070361692014189
 71
     5
 72
     5
  1
绘图\P{\Fromans|c134;Drawn\Ftxt|c134; }
 73
     1
 44
1.0
1001
AcDbBlockRepETag
1070
     1
1071
      122
1005
1B9A5
1001
ACAD
1000
ACAD_MTEXT_DEFINED_HEIGHT_BEGIN
1070
    46
1040
6.070361692014189
1000
ACAD_MTEXT_DEFINED_HEIGHT_END
  0
ARC
  5
1B9A6
330
10FE8
100
AcDbEntity
  8
图框
 62
     4
370
    35
100
AcDbCircle
 10
1086.900627017421
 20
490.0179944151195
 30
0.0
 40
4.063310408393665
100
AcDbArc
 50
18.95237904564806
 51
161.0476209543519
1001
AcDbBlockRepETag
1070
     1
1071
      123
1005
1B9A6
  0
ARC
  5
1B9A7
330
10FE8
100
AcDbEntity
  8
图框
 62
     4
370
    35
100
AcDbCircle
 10
1086.900627017421
 20
490.0179944151195
 30
0.0
 40
4.063310408393665
100
AcDbArc
 50
198.952379045648
 51
341.0476209543519
1001
AcDbBlockRepETag
1070
     1
1071
      124
1005
1B9A7
  0
LINE
  5
1B9A8
330
10FE8
100
AcDbEntity
  8
图框
 62
     4
370
    35
100
AcDbLine
 10
1083.057593369548
 20
488.6983035966752
 30
0.0
 11
1090.74366066529
 21
488.6983035966752
 31
0.0
1001
AcDbBlockRepETag
1070
     1
1071
      125
1005
1B9A8
  0
LINE
  5
1B9A9
330
10FE8
100
AcDbEntity
  8
图框
 62
     4
370
    35
100
AcDbLine
 10
1083.057593369548
 20
491.3376852335652
 30
0.0
 11
1090.74366066529
 21
491.3376852335652
 31
0.0
1001
AcDbBlockRepETag
1070
     1
1071
      126
1005
1B9A9
  0
MTEXT
  5
1B9AA
330
10FE8
100
AcDbEntity
  8
图框
 62
     1
370
    20
100
AcDbMText
 10
1083.034582879669
 20
491.0506288081688
 30
0.0
 40
2.005930044038334
 41
5.047240019334847
 46
0.0
 71
     1
 72
     5
  1
{\fArial|b0|i0|c0|p34;W}
  7
Chinese
 73
     1
 44
1.0
1001
AcDbBlockRepETag
1070
     1
1071
      127
1005
1B9AA
  0
LINE
  5
1B9AB
330
10FE8
100
AcDbEntity
  8
图框
370
    -3
100
AcDbLine
 10
946.9285026103634
 20
490.327427634663
 30
0.0
 11
1036.653967466372
 21
490.327427634663
 31
0.0
1001
AcDbBlockRepETag
1070
     1
1071
      128
1005
1B9AB
  0
LINE
  5
1B9AC
330
10FE8
100
AcDbEntity
  8
图框
370
    -3
100
AcDbLine
 10
959.9086139692238
 20
509.2054027581959
 30
0.0
 11
959.9086139692238
 21
484.0347692601515
 31
0.0
1001
AcDbBlockRepETag
1070
     1
1071
      129
1005
1B9AC
  0
MTEXT
  5
1B9AD
330
10FE8
100
AcDbEntity
  8
图框
100
AcDbMText
 10
967.6594956750129
 20
506.0590735709403
 30
0.0
 40
2.252848170144607
 41
15.50176341157869
 46
6.292658374511246
 71
     5
 72
     5
  1
姓名{\Fromans|c134;/Name\Ftxt|c134; }
 73
     1
 44
1.0
1001
AcDbBlockRepETag
1070
     1
1071
      130
1005
1B9AD
1001
ACAD
1000
ACAD_MTEXT_DEFINED_HEIGHT_BEGIN
1070
    46
1040
6.292658374511246
1000
ACAD_MTEXT_DEFINED_HEIGHT_END
  0
MTEXT
  5
1B9AE
330
10FE8
100
AcDbEntity
  8
图框
100
AcDbMText
 10
983.0415693332477
 20
506.0590735709403
 30
0.0
 40
2.252848170144607
 41
15.26238390489042
 46
6.2926583745112
 71
     5
 72
     5
  1
日期{\Fromans|c134;/Date}
 73
     1
 44
1.0
1001
AcDbBlockRepETag
1070
     1
1071
      131
1005
1B9AE
1001
ACAD
1000
ACAD_MTEXT_DEFINED_HEIGHT_BEGIN
1070
    46
1040
6.2926583745112
1000
ACAD_MTEXT_DEFINED_HEIGHT_END
  0
LINE
  5
1B9AF
330
10FE8
100
AcDbEntity
  8
图框
370
    -3
100
AcDbLine
 10
946.9285026103634
 20
509.2054027581959
 30
0.0
 11
959.9086139692238
 21
502.9127443836848
 31
0.0
1001
AcDbBlockRepETag
1070
     1
1071
      132
1005
1B9AF
  0
MTEXT
  5
1B9B0
330
10FE8
100
AcDbEntity
  8
图框
100
AcDbMText
 10
1012.931405110086
 20
506.0185715840725
 30
0.0
 40
2.252848170144607
 41
16.93492221063566
 46
0.0
 71
     5
 72
     5
  1
姓名{\Fromans|c134;/Name}
 73
     1
 44
1.0
1001
AcDbBlockRepETag
1070
     1
1071
      133
1005
1B9B0
  0
MTEXT
  5
1B9B1
330
10FE8
100
AcDbEntity
  8
图框
100
AcDbMText
 10
1028.977802139886
 20
506.0590735709403
 30
0.0
 40
2.252848170144607
 41
15.35233065297283
 46
6.292658374511256
 71
     5
 72
     5
  1
日期{\Fromans|c134;/Date}
 73
     1
 44
1.0
1001
AcDbBlockRepETag
1070
     1
1071
      134
1005
1B9B1
1001
ACAD
1000
ACAD_MTEXT_DEFINED_HEIGHT_BEGIN
1070
    46
1040
6.292658374511256
1000
ACAD_MTEXT_DEFINED_HEIGHT_END
  0
LINE
  5
1B9B2
330
10FE8
100
AcDbEntity
  8
图框
370
    -3
100
AcDbLine
 10
1003.652872644553
 20
502.9127443836848
 30
0.0
 11
990.6727612856927
 21
509.2054027581959
 31
0.0
1001
AcDbBlockRepETag
1070
     1
1071
      135
1005
1B9B2
  0
MTEXT
  5
1B9B3
102
{ACAD_XDICTIONARY
360
1BAA9
102
}
330
10FE8
100
AcDbEntity
  8
图框
100
AcDbMText
 10
997.1628169651232
 20
487.1810984474071
 30
0.0
 40
2.252848170144607
 41
12.98011135886052
 46
6.292658374511517
 71
     5
 72
     5
  1
批准\P{\Fromans|c134;Approved}
 73
     1
 44
1.0
1001
AcDbBlockRepETag
1070
     1
1071
      136
1005
1B9B3
1001
ACAD
1000
ACAD_MTEXT_DEFINED_HEIGHT_BEGIN
1070
    46
1040
6.292658374511517
1000
ACAD_MTEXT_DEFINED_HEIGHT_END
  0
MTEXT
  5
1B9B4
102
{ACAD_XDICTIONARY
360
1BAAB
102
}
330
10FE8
100
AcDbEntity
  8
图框
100
AcDbMText
 10
953.4185582897936
 20
487.1810984474071
 30
0.0
 40
2.252848170144607
 41
12.98011135886041
 46
6.292658374511495
 71
     5
 72
     5
  1
工艺\P{\Fromans|c134;Process}
 73
     1
 44
1.0
1001
AcDbBlockRepETag
1070
     1
1071
      137
1005
1B9B4
1001
ACAD
1000
ACAD_MTEXT_DEFINED_HEIGHT_BEGIN
1070
    46
1040
6.292658374511495
1000
ACAD_MTEXT_DEFINED_HEIGHT_END
  0
MTEXT
  5
1B9B5
102
{ACAD_XDICTIONARY
360
1BAAD
102
}
330
10FE8
100
AcDbEntity
  8
图框
100
AcDbMText
 10
1028.977802139886
 20
511.8287965307664
 30
0.0
 40
1.958998408821398
 41
15.3523306529728
 46
5.246787545140668
 71
     5
 72
     5
  1
日期\P{\Fromans|c134;Date}
 73
     1
 44
1.0
1001
AcDbBlockRepETag
1070
     1
1071
      138
1005
1B9B5
1001
ACAD
1000
ACAD_MTEXT_DEFINED_HEIGHT_BEGIN
1070
    46
1040
5.246787545140668
1000
ACAD_MTEXT_DEFINED_HEIGHT_END
  0
MTEXT
  5
1B9B6
330
10FE8
100
AcDbEntity
  8
图框
100
AcDbMText
 10
1086.643735910939
 20
509.1493769780809
 30
0.0
 40
2.154898249703542
 41
13.34474941400573
 46
8.87215554796615
 71
     5
 72
     5
  1
产品料号\P{\Fromans|c134;Part No.}
 73
     1
 44
1.0
1001
AcDbBlockRepETag
1070
     1
1071
      139
1005
1B9B6
1001
ACAD
1000
ACAD_MTEXT_DEFINED_HEIGHT_BEGIN
1070
    46
1040
8.87215554796615
1000
ACAD_MTEXT_DEFINED_HEIGHT_END
  0
MTEXT
  5
1B9B7
330
10FE8
100
AcDbEntity
  8
图框
100
AcDbMText
 10
1086.643735910939
 20
500.2775205517163
 30
0.0
 40
1.958998408821398
 41
13.34474941400573
 46
8.871557304763321
 71
     5
 72
     5
  1
产品名称\P{\Fromans|c134;Part Name}
 73
     1
 44
1.0
1001
AcDbBlockRepETag
1070
     1
1071
      140
1005
1B9B7
1001
ACAD
1000
ACAD_MTEXT_DEFINED_HEIGHT_BEGIN
1070
    46
1040
8.871557304763321
1000
ACAD_MTEXT_DEFINED_HEIGHT_END
  0
LINE
  5
1B9B8
330
10FE8
100
AcDbEntity
  8
图框
 62
     1
370
    18
100
AcDbLine
 10
833.4128518455365
 20
690.5347692601515
 30
0.0
 11
833.4128518455365
 21
480.5347692601515
 31
0.0
1001
AcDbBlockRepETag
1070
     1
1071
      141
1005
1B9B8
  0
LINE
  5
1B9B9
330
10FE8
100
AcDbEntity
  8
图框
 62
     1
370
    18
100
AcDbLine
 10
833.4128518455365
 20
480.5347692601515
 30
0.0
 11
1130.411601781236
 21
480.5347692601515
 31
0.0
1001
AcDbBlockRepETag
1070
     1
1071
      142
1005
1B9B9
  0
LINE
  5
1B9BA
330
10FE8
100
AcDbEntity
  8
图框
 62
     1
370
    18
100
AcDbLine
 10
833.4128518455365
 20
690.5347692601515
 30
0.0
 11
1130.411601781236
 21
690.5347692601515
 31
0.0
1001
AcDbBlockRepETag
1070
     1
1071
      143
1005
1B9BA
  0
LINE
  5
1B9BB
330
10FE8
100
AcDbEntity
  8
图框
 62
     1
370
    18
100
AcDbLine
 10
1130.411601781236
 20
480.5347692601515
 30
0.0
 11
1130.411601781236
 21
690.5347692601515
 31
0.0
1001
AcDbBlockRepETag
1070
     1
1071
      144
1005
1B9BB
  0
LINE
  5
1B9BC
330
10FE8
100
AcDbEntity
  8
图框
370
    18
100
AcDbLine
 10
836.9128518455394
 20
686.7901958362482
 30
0.0
 11
861.5351874539182
 21
686.7901958362482
 31
0.0
1001
AcDbBlockRepETag
1070
     1
1071
      145
1005
1B9BC
  0
LINE
  5
1B9BD
330
10FE8
100
AcDbEntity
  8
图框
370
    50
100
AcDbLine
 10
1126.928502610363
 20
484.3410054693078
 30
0.0
 11
1126.928502610363
 21
675.5347692601515
 31
0.0
1001
AcDbBlockRepETag
1070
     1
1071
      146
1005
1B9BD
  0
MTEXT
  5
1B9BE
330
10FE8
100
AcDbEntity
  8
图框
 62
     3
100
AcDbMText
 10
1052.897990117958
 20
495.8417418993364
 30
0.0
 40
2.985513575034151
 41
10.82934843439114
 46
7.886094601211307
 71
     5
 72
     5
  1
V1.0
  7
Romans字体
 73
     1
 44
1.0
1001
AcDbBlockRepETag
1070
     1
1071
      147
1005
1B9BE
1001
ACAD
1000
ACAD_MTEXT_DEFINED_HEIGHT_BEGIN
1070
    46
1040
7.886094601211307
1000
ACAD_MTEXT_DEFINED_HEIGHT_END
  0
LINE
  5
1B9BF
330
10FE8
100
AcDbEntity
  8
图框
 62
     6
100
AcDbLine
 10
1126.911601781236
 20
531.714049199969
 30
0.0
 11
1130.411601781236
 21
531.714049199969
 31
0.0
1001
AcDbBlockRepETag
1070
     1
1071
      148
1005
1B9BF
  0
ENDBLK
  5
1107F
330
10FE8
100
AcDbEntity
  8
0
100
AcDbBlockEnd
  0
BLOCK
  5
1B585
330
1B584
100
AcDbEntity
  8
0
100
AcDbBlockBegin
  2
*D2
 70
     1
 10
0.0
 20
0.0
 30
0.0
  3
*D2
  1

  0
LINE
  5
1BA55
330
1B584
100
AcDbEntity
  8
DIM
 62
     6
370
    -2
100
AcDbLine
 10
563.2005186129232
 20
271.3672607310902
 30
0.0
 11
563.2005186129232
 21
266.7728868877636
 31
0.0
  0
LINE
  5
1BA56
330
1B584
100
AcDbEntity
  8
DIM
 62
     6
370
    -2
100
AcDbLine
 10
539.7005186129232
 20
271.6672607310903
 30
0.0
 11
539.7005186129232
 21
266.7728868877636
 31
0.0
  0
LINE
  5
1BA57
330
1B584
100
AcDbEntity
  8
DIM
 62
     1
370
    -2
100
AcDbLine
 10
561.7005186129232
 20
267.2728868877636
 30
0.0
 11
541.2005186129232
 21
267.2728868877636
 31
0.0
  0
SOLID
  5
1BA58
330
1B584
100
AcDbEntity
  8
DIM
 62
     1
100
AcDbTrace
 10
561.7005186129232
 20
267.5228868877636
 30
0.0
 11
561.7005186129232
 21
267.0228868877636
 31
0.0
 12
563.2005186129232
 22
267.2728868877636
 32
0.0
 13
563.2005186129232
 23
267.2728868877636
 33
0.0
  0
SOLID
  5
1BA59
330
1B584
100
AcDbEntity
  8
DIM
 62
     1
100
AcDbTrace
 10
541.2005186129232
 20
267.5228868877636
 30
0.0
 11
541.2005186129232
 21
267.0228868877636
 31
0.0
 12
539.7005186129232
 22
267.2728868877636
 32
0.0
 13
539.7005186129232
 23
267.2728868877636
 33
0.0
  0
MTEXT
  5
1BA5A
330
1B584
100
AcDbEntity
  8
DIM
 62
     4
100
AcDbMText
 10
551.4505186129232
 20
268.8228868877636
 30
0.0
 40
2.5
 41
0.0
 46
0.0
 71
     5
 72
     1
  1
\A1;23.5
  7
Romans字体
 73
     1
 44
1.0
  0
POINT
  5
1BA5B
330
1B584
100
AcDbEntity
  8
Defpoints
 62
     0
100
AcDbPoint
 10
563.2005186129232
 20
271.5672607310902
 30
0.0
  0
POINT
  5
1BA5C
330
1B584
100
AcDbEntity
  8
Defpoints
 62
     0
100
AcDbPoint
 10
539.7005186129232
 20
271.8672607310903
 30
0.0
  0
POINT
  5
1BA5D
330
1B584
100
AcDbEntity
  8
Defpoints
 62
     0
100
AcDbPoint
 10
539.7005186129232
 20
267.2728868877636
 30
0.0
  0
ENDBLK
  5
1B586
330
1B584
100
AcDbEntity
  8
0
100
AcDbBlockEnd
  0
BLOCK
  5
1B591
330
1B590
100
AcDbEntity
  8
0
100
AcDbBlockBegin
  2
*D3
 70
     1
 10
0.0
 20
0.0
 30
0.0
  3
*D3
  1

  0
LINE
  5
1BA5E
330
1B590
100
AcDbEntity
  8
DIM
 62
     6
370
    -2
100
AcDbLine
 10
534.6505186129236
 20
272.3048419583903
 30
0.0
 11
534.6505186129236
 21
262.5213256389021
 31
0.0
  0
LINE
  5
1BA5F
330
1B590
100
AcDbEntity
  8
DIM
 62
     6
370
    -2
100
AcDbLine
 10
563.2005186129232
 20
269.8363640619196
 30
0.0
 11
563.2005186129232
 21
262.5213256389021
 31
0.0
  0
LINE
  5
1BA60
330
1B590
100
AcDbEntity
  8
DIM
 62
     1
370
    -2
100
AcDbLine
 10
536.1505186129236
 20
263.0213256389021
 30
0.0
 11
561.7005186129232
 21
263.0213256389021
 31
0.0
  0
SOLID
  5
1BA61
330
1B590
100
AcDbEntity
  8
DIM
 62
     1
100
AcDbTrace
 10
536.1505186129236
 20
263.2713256389021
 30
0.0
 11
536.1505186129236
 21
262.7713256389021
 31
0.0
 12
534.6505186129236
 22
263.0213256389021
 32
0.0
 13
534.6505186129236
 23
263.0213256389021
 33
0.0
  0
SOLID
  5
1BA62
330
1B590
100
AcDbEntity
  8
DIM
 62
     1
100
AcDbTrace
 10
561.7005186129232
 20
263.2713256389021
 30
0.0
 11
561.7005186129232
 21
262.7713256389021
 31
0.0
 12
563.2005186129232
 22
263.0213256389021
 32
0.0
 13
563.2005186129232
 23
263.0213256389021
 33
0.0
  0
MTEXT
  5
1BA63
330
1B590
100
AcDbEntity
  8
DIM
 62
     4
100
AcDbMText
 10
548.9255186129234
 20
264.5713256389021
 30
0.0
 40
2.5
 41
0.0
 46
0.0
 71
     5
 72
     1
  1
\A1;28.55
  7
Romans字体
 73
     1
 44
1.0
  0
POINT
  5
1BA64
330
1B590
100
AcDbEntity
  8
Defpoints
 62
     0
100
AcDbPoint
 10
534.6505186129236
 20
272.5048419583903
 30
0.0
  0
POINT
  5
1BA65
330
1B590
100
AcDbEntity
  8
Defpoints
 62
     0
100
AcDbPoint
 10
563.2005186129232
 20
270.0363640619197
 30
0.0
  0
POINT
  5
1BA66
330
1B590
100
AcDbEntity
  8
Defpoints
 62
     0
100
AcDbPoint
 10
563.2005186129232
 20
263.0213256389021
 30
0.0
  0
ENDBLK
  5
1B592
330
1B590
100
AcDbEntity
  8
0
100
AcDbBlockEnd
  0
BLOCK
  5
1B59D
330
1B59C
100
AcDbEntity
  8
0
100
AcDbBlockBegin
  2
*D4
 70
     1
 10
0.0
 20
0.0
 30
0.0
  3
*D4
  1

  0
LINE
  5
1BA4B
330
1B59C
100
AcDbEntity
  8
DIM
 62
     6
370
    -2
100
AcDbLine
 10
534.4505186129236
 20
274.0297607310903
 30
0.0
 11
532.4036167512113
 21
274.0297607310903
 31
0.0
  0
LINE
  5
1BA4C
330
1B59C
100
AcDbEntity
  8
DIM
 62
     6
370
    -2
100
AcDbLine
 10
534.4505186129236
 20
275.0297607310904
 30
0.0
 11
532.4036167512113
 21
275.0297607310904
 31
0.0
  0
LINE
  5
1BA4D
330
1B59C
100
AcDbEntity
  8
DIM
 62
     1
370
    -2
100
AcDbLine
 10
532.9036167512112
 20
276.5297607310904
 30
0.0
 11
532.9036167512112
 21
278.0297607310904
 31
0.0
  0
LINE
  5
1BA4E
330
1B59C
100
AcDbEntity
  8
DIM
 62
     1
370
    -2
100
AcDbLine
 10
532.9036167512112
 20
272.5297607310903
 30
0.0
 11
532.9036167512112
 21
268.9487762514105
 31
0.0
  0
SOLID
  5
1BA4F
330
1B59C
100
AcDbEntity
  8
DIM
 62
     1
100
AcDbTrace
 10
532.6536167512113
 20
276.5297607310904
 30
0.0
 11
533.1536167512113
 21
276.5297607310904
 31
0.0
 12
532.9036167512112
 22
275.0297607310904
 32
0.0
 13
532.9036167512112
 23
275.0297607310904
 33
0.0
  0
SOLID
  5
1BA50
330
1B59C
100
AcDbEntity
  8
DIM
 62
     1
100
AcDbTrace
 10
532.6536167512113
 20
272.5297607310903
 30
0.0
 11
533.1536167512113
 21
272.5297607310903
 31
0.0
 12
532.9036167512112
 22
274.0297607310903
 32
0.0
 13
532.9036167512112
 23
274.0297607310903
 33
0.0
  0
MTEXT
  5
1BA51
330
1B59C
100
AcDbEntity
  8
DIM
 62
     4
100
AcDbMText
 10
531.3536167512112
 20
269.4719905371248
 30
0.0
 40
2.5
 41
0.0
 46
0.0
 71
     5
 72
     1
  1
\A1;1
  7
Romans字体
 11
0.0000000000000001
 21
1.0
 31
0.0
 73
     1
 44
1.0
  0
POINT
  5
1BA52
330
1B59C
100
AcDbEntity
  8
Defpoints
 62
     0
100
AcDbPoint
 10
534.6505186129236
 20
274.0297607310903
 30
0.0
  0
POINT
  5
1BA53
330
1B59C
100
AcDbEntity
  8
Defpoints
 62
     0
100
AcDbPoint
 10
534.6505186129236
 20
275.0297607310904
 30
0.0
  0
POINT
  5
1BA54
330
1B59C
100
AcDbEntity
  8
Defpoints
 62
     0
100
AcDbPoint
 10
532.9036167512112
 20
275.0297607310904
 30
0.0
  0
ENDBLK
  5
1B59E
330
1B59C
100
AcDbEntity
  8
0
100
AcDbBlockEnd
  0
BLOCK
  5
1B5AA
330
1B5A9
100
AcDbEntity
  8
0
100
AcDbBlockBegin
  2
*D5
 70
     1
 10
0.0
 20
0.0
 30
0.0
  3
*D5
  1

  0
LINE
  5
1BA67
330
1B5A9
100
AcDbEntity
  8
DIM
 62
     6
370
    -2
100
AcDbLine
 10
536.4505186129235
 20
276.7297607310906
 30
0.0
 11
528.1347711429942
 21
276.7297607310906
 31
0.0
  0
LINE
  5
1BA68
330
1B5A9
100
AcDbEntity
  8
DIM
 62
     6
370
    -2
100
AcDbLine
 10
536.4505186129235
 20
272.3297607310905
 30
0.0
 11
528.1347711429942
 21
272.3297607310905
 31
0.0
  0
LINE
  5
1BA69
330
1B5A9
100
AcDbEntity
  8
DIM
 62
     1
370
    -2
100
AcDbLine
 10
528.6347711429942
 20
275.2297607310906
 30
0.0
 11
528.6347711429942
 21
273.8297607310905
 31
0.0
  0
LINE
  5
1BA6A
330
1B5A9
100
AcDbEntity
  8
DIM
 62
     1
370
    -2
100
AcDbLine
 10
528.6347711429942
 20
272.3297607310905
 30
0.0
 11
528.6347711429942
 21
261.9797607310905
 31
0.0
  0
SOLID
  5
1BA6B
330
1B5A9
100
AcDbEntity
  8
DIM
 62
     1
100
AcDbTrace
 10
528.3847711429943
 20
275.2297607310906
 30
0.0
 11
528.8847711429943
 21
275.2297607310906
 31
0.0
 12
528.6347711429942
 22
276.7297607310906
 32
0.0
 13
528.6347711429942
 23
276.7297607310906
 33
0.0
  0
SOLID
  5
1BA6C
330
1B5A9
100
AcDbEntity
  8
DIM
 62
     1
100
AcDbTrace
 10
528.3847711429943
 20
273.8297607310905
 30
0.0
 11
528.8847711429943
 21
273.8297607310905
 31
0.0
 12
528.6347711429942
 22
272.3297607310905
 32
0.0
 13
528.6347711429942
 23
272.3297607310905
 33
0.0
  0
MTEXT
  5
1BA6D
330
1B5A9
100
AcDbEntity
  8
DIM
 62
     4
100
AcDbMText
 10
527.0847711429942
 20
265.1369035882334
 30
0.0
 40
2.5
 41
0.0
 46
0.0
 71
     5
 72
     1
  1
\A1;%%C4.4
  7
Romans字体
 11
0.0000000000000001
 21
1.0
 31
0.0
 73
     1
 44
1.0
  0
POINT
  5
1BA6E
330
1B5A9
100
AcDbEntity
  8
Defpoints
 62
     0
100
AcDbPoint
 10
536.6505186129236
 20
276.7297607310906
 30
0.0
  0
POINT
  5
1BA6F
330
1B5A9
100
AcDbEntity
  8
Defpoints
 62
     0
100
AcDbPoint
 10
536.6505186129236
 20
272.3297607310905
 30
0.0
  0
POINT
  5
1BA70
330
1B5A9
100
AcDbEntity
  8
Defpoints
 62
     0
100
AcDbPoint
 10
528.6347711429942
 20
272.3297607310905
 30
0.0
  0
ENDBLK
  5
1B5AB
330
1B5A9
100
AcDbEntity
  8
0
100
AcDbBlockEnd
  0
BLOCK
  5
1B5B6
330
1B5B5
100
AcDbEntity
  8
0
100
AcDbBlockBegin
  2
*D6
 70
     1
 10
0.0
 20
0.0
 30
0.0
  3
*D6
  1

  0
LINE
  5
1BA38
330
1B5B5
100
AcDbEntity
  8
DIM
 62
     6
370
    -2
100
AcDbLine
 10
535.5123303621683
 20
277.0297607310904
 30
0.0
 11
525.6304293700672
 21
277.0297607310904
 31
0.0
  0
LINE
  5
1BA39
330
1B5B5
100
AcDbEntity
  8
DIM
 62
     6
370
    -2
100
AcDbLine
 10
535.6005186129234
 20
272.0297607310903
 30
0.0
 11
525.6304293700672
 21
272.0297607310903
 31
0.0
  0
LINE
  5
1BA3A
330
1B5B5
100
AcDbEntity
  8
DIM
 62
     1
370
    -2
100
AcDbLine
 10
526.1304293700673
 20
275.5297607310904
 30
0.0
 11
526.1304293700673
 21
273.5297607310903
 31
0.0
  0
SOLID
  5
1BA3B
330
1B5B5
100
AcDbEntity
  8
DIM
 62
     1
100
AcDbTrace
 10
525.8804293700673
 20
275.5297607310904
 30
0.0
 11
526.3804293700673
 21
275.5297607310904
 31
0.0
 12
526.1304293700673
 22
277.0297607310904
 32
0.0
 13
526.1304293700673
 23
277.0297607310904
 33
0.0
  0
SOLID
  5
1BA3C
330
1B5B5
100
AcDbEntity
  8
DIM
 62
     1
100
AcDbTrace
 10
525.8804293700673
 20
273.5297607310903
 30
0.0
 11
526.3804293700673
 21
273.5297607310903
 31
0.0
 12
526.1304293700673
 22
272.0297607310903
 32
0.0
 13
526.1304293700673
 23
272.0297607310903
 33
0.0
  0
MTEXT
  5
1BA3D
330
1B5B5
100
AcDbEntity
  8
DIM
 62
     4
100
AcDbMText
 10
524.5804293700672
 20
274.5297607310904
 30
0.0
 40
2.5
 41
0.0
 46
0.0
 71
     5
 72
     1
  1
\A1;%%C5
  7
Romans字体
 11
0.0000000000000001
 21
1.0
 31
0.0
 73
     1
 44
1.0
  0
POINT
  5
1BA3E
330
1B5B5
100
AcDbEntity
  8
Defpoints
 62
     0
100
AcDbPoint
 10
535.7123303621683
 20
277.0297607310904
 30
0.0
  0
POINT
  5
1BA3F
330
1B5B5
100
AcDbEntity
  8
Defpoints
 62
     0
100
AcDbPoint
 10
535.8005186129235
 20
272.0297607310903
 30
0.0
  0
POINT
  5
1BA40
330
1B5B5
100
AcDbEntity
  8
Defpoints
 62
     0
100
AcDbPoint
 10
526.1304293700673
 20
272.0297607310903
 30
0.0
  0
ENDBLK
  5
1B5B7
330
1B5B5
100
AcDbEntity
  8
0
100
AcDbBlockEnd
  0
BLOCK
  5
1B5C2
330
1B5C1
100
AcDbEntity
  8
0
100
AcDbBlockBegin
  2
*D7
 70
     1
 10
0.0
 20
0.0
 30
0.0
  3
*D7
  1

  0
LINE
  5
1BA2E
330
1B5C1
100
AcDbEntity
  8
DIM
 62
     6
370
    -2
100
AcDbLine
 10
509.1253626169337
 20
277.4922607310904
 30
0.0
 11
514.9820202857016
 21
277.4922607310904
 31
0.0
  0
LINE
  5
1BA2F
330
1B5C1
100
AcDbEntity
  8
DIM
 62
     6
370
    -2
100
AcDbLine
 10
509.1253626169337
 20
271.5672607310902
 30
0.0
 11
514.9820202857016
 21
271.5672607310902
 31
0.0
  0
LINE
  5
1BA30
330
1B5C1
100
AcDbEntity
  8
DIM
 62
     1
370
    -2
100
AcDbLine
 10
514.4820202857016
 20
275.9922607310904
 30
0.0
 11
514.4820202857016
 21
273.0672607310902
 31
0.0
  0
LINE
  5
1BA31
330
1B5C1
100
AcDbEntity
  8
DIM
 62
     1
370
    -2
100
AcDbLine
 10
514.4820202857016
 20
271.5672607310902
 30
0.0
 11
514.4820202857016
 21
263.7529750168045
 31
0.0
  0
SOLID
  5
1BA32
330
1B5C1
100
AcDbEntity
  8
DIM
 62
     1
100
AcDbTrace
 10
514.2320202857016
 20
275.9922607310904
 30
0.0
 11
514.7320202857016
 21
275.9922607310904
 31
0.0
 12
514.4820202857016
 22
277.4922607310904
 32
0.0
 13
514.4820202857016
 23
277.4922607310904
 33
0.0
  0
SOLID
  5
1BA33
330
1B5C1
100
AcDbEntity
  8
DIM
 62
     1
100
AcDbTrace
 10
514.2320202857016
 20
273.0672607310902
 30
0.0
 11
514.7320202857016
 21
273.0672607310902
 31
0.0
 12
514.4820202857016
 22
271.5672607310902
 32
0.0
 13
514.4820202857016
 23
271.5672607310902
 33
0.0
  0
MTEXT
  5
1BA34
330
1B5C1
100
AcDbEntity
  8
DIM
 62
     4
100
AcDbMText
 10
512.9320202857015
 20
266.9101178739474
 30
0.0
 40
2.5
 41
0.0
 46
0.0
 71
     5
 72
     1
  1
\A1;5.93
  7
Romans字体
 11
0.0000000000000001
 21
1.0
 31
0.0
 73
     1
 44
1.0
  0
POINT
  5
1BA35
330
1B5C1
100
AcDbEntity
  8
Defpoints
 62
     0
100
AcDbPoint
 10
508.9253626169337
 20
277.4922607310904
 30
0.0
  0
POINT
  5
1BA36
330
1B5C1
100
AcDbEntity
  8
Defpoints
 62
     0
100
AcDbPoint
 10
508.9253626169337
 20
271.5672607310902
 30
0.0
  0
POINT
  5
1BA37
330
1B5C1
100
AcDbEntity
  8
Defpoints
 62
     0
100
AcDbPoint
 10
514.4820202857016
 20
271.5672607310902
 30
0.0
  0
ENDBLK
  5
1B5C3
330
1B5C1
100
AcDbEntity
  8
0
100
AcDbBlockEnd
  0
ENDSEC
  0
SECTION
  2
ENTITIES
  0
HATCH
  5
28AE
330
1F
100
AcDbEntity
  8
图层 1
 62
     7
100
AcDbHatch
 10
0.0
 20
0.0
 30
0.0
210
0.0
220
0.0
230
1.0
  2
SOLID
 70
     1
 71
     0
 91
        1
 92
        1
 93
        2
 72
     4
 94
        3
 73
     0
 74
     0
 95
       17
 96
       13
 40
0.0
 40
0.0
 40
0.0
 40
0.0
 40
0.3527780104152769
 40
0.3527780104152769
 40
0.3527780104152769
 40
0.7055560208305538
 40
0.7055560208305538
 40
0.7055560208305538
 40
1.058334031245828
 40
1.058334031245828
 40
1.058334031245828
 40
1.411112041661104
 40
1.411112041661104
 40
1.411112041661104
 40
1.411112041661104
 10
11.07013262565829
 20
29.50312817963231
 10
11.07013262565829
 20
29.50312817963231
 10
10.9431807732774
 20
29.50312817963231
 10
10.9431807732774
 20
29.50312817963231
 10
10.9431807732774
 20
29.50312817963231
 10
10.85843136843155
 20
29.22786486877117
 10
10.85843136843155
 20
29.22786486877117
 10
10.85843136843155
 20
29.22786486877117
 10
10.90080607085448
 20
29.2068497724476
 10
10.90080607085448
 20
29.2068497724476
 10
10.94455881238059
 20
29.31571486159919
 10
11.00346998404173
 20
29.40907701083995
 10
11.07013262565829
 20
29.50312817963231
 72
     1
 10
11.07013262565829
 20
29.50312817963231
 11
11.07013262565829
 21
29.50312817963231
 97
        0
 75
     0
 76
     1
 98
        0
450
        0
451
        0
460
0.0
461
0.0
452
        0
462
0.0
453
        0
470

  0
HATCH
  5
2C65
330
1F
100
AcDbEntity
  8
图层 1
 62
     7
100
AcDbHatch
 10
0.0
 20
0.0
 30
0.0
210
0.0
220
0.0
230
1.0
  2
SOLID
 70
     1
 71
     0
 91
        1
 92
        1
 93
        2
 72
     4
 94
        3
 73
     0
 74
     0
 95
       47
 96
       43
 40
0.0
 40
0.0
 40
0.0
 40
0.0
 40
0.3527780104152769
 40
0.3527780104152769
 40
0.3527780104152769
 40
0.7055560208305538
 40
0.7055560208305538
 40
0.7055560208305538
 40
1.058334031245828
 40
1.058334031245828
 40
1.058334031245828
 40
1.411112041661104
 40
1.411112041661104
 40
1.411112041661104
 40
1.763890052076384
 40
1.763890052076384
 40
1.763890052076384
 40
2.116668062491659
 40
2.116668062491659
 40
2.116668062491659
 40
2.469446072906936
 40
2.469446072906936
 40
2.469446072906936
 40
2.822224083322215
 40
2.822224083322215
 40
2.822224083322215
 40
3.175002093737492
 40
3.175002093737492
 40
3.175002093737492
 40
3.527780104152768
 40
3.527780104152768
 40
3.527780104152768
 40
3.880558114568044
 40
3.880558114568044
 40
3.880558114568044
 40
4.233336124983321
 40
4.233336124983321
 40
4.233336124983321
 40
4.586114135398599
 40
4.586114135398599
 40
4.586114135398599
 40
4.938892145813873
 40
4.938892145813873
 40
4.938892145813873
 40
4.938892145813873
 10
162.8986914070121
 20
257.4895347631509
 10
162.8986914070121
 20
257.4895347631509
 10
162.9200510131114
 20
257.4471600607279
 10
162.9200510131114
 20
257.4471600607279
 10
162.9200510131114
 20
257.4471600607279
 10
162.9200510131114
 20
257.404785358305
 10
162.9200510131114
 20
257.404785358305
 10
162.9200510131114
 20
257.404785358305
 10
162.8986914070121
 20
257.36258291077
 10
162.8986914070121
 20
257.36258291077
 10
162.8986914070121
 20
257.36258291077
 10
162.8986914070121
 20
257.320208208347
 10
162.8986914070121
 20
257.320208208347
 10
162.8986914070121
 20
257.320208208347
 10
162.8563167045891
 20
257.2990208571356
 10
162.8563167045891
 20
257.2990208571356
 10
162.8563167045891
 20
257.2990208571356
 10
162.8139420021662
 20
257.2563016449369
 10
162.8139420021662
 20
257.2563016449369
 10
162.8139420021662
 20
257.2563016449369
 10
162.7295371070961
 20
257.2563016449369
 10
162.7295371070961
 20
257.2563016449369
 10
162.7295371070961
 20
257.2563016449369
 10
162.6658027985738
 20
257.2778335059241
 10
162.6658027985738
 20
257.2778335059241
 10
162.6658027985738
 20
257.2778335059241
 10
162.6237726059267
 20
257.2990208571356
 10
162.6237726059267
 20
257.2990208571356
 10
162.6237726059267
 20
257.2990208571356
 10
162.5813979035038
 20
257.3413955595585
 10
162.5813979035038
 20
257.3413955595585
 10
162.5813979035038
 20
257.3413955595585
 10
162.5813979035038
 20
257.4895347631509
 10
162.5813979035038
 20
257.4895347631509
 10
162.5813979035038
 20
257.4895347631509
 10
162.6447877022503
 20
257.5525800521216
 10
162.6447877022503
 20
257.5525800521216
 10
162.6447877022503
 20
257.5525800521216
 10
162.7081775009967
 20
257.5525800521216
 10
162.7081775009967
 20
257.5525800521216
 10
162.8749202324821
 20
257.5424170137356
 10
162.7918933765152
 20
257.5939212252171
 10
162.8986914070121
 20
257.4895347631509
 72
     1
 10
162.8986914070121
 20
257.4895347631509
 11
162.8986914070121
 21
257.4895347631509
 97
        0
 75
     0
 76
     1
 98
        0
450
        0
451
        0
460
0.0
461
0.0
452
        0
462
0.0
453
        0
470

  0
HATCH
  5
2EE7
330
1F
100
AcDbEntity
  8
图层 1
 62
     7
100
AcDbHatch
 10
0.0
 20
0.0
 30
0.0
210
0.0
220
0.0
230
1.0
  2
SOLID
 70
     1
 71
     0
 91
        1
 92
        1
 93
        2
 72
     4
 94
        3
 73
     0
 74
     0
 95
       56
 96
       52
 40
0.0
 40
0.0
 40
0.0
 40
0.0
 40
0.3527780104152769
 40
0.3527780104152769
 40
0.3527780104152769
 40
0.7055560208305538
 40
0.7055560208305538
 40
0.7055560208305538
 40
1.058334031245828
 40
1.058334031245828
 40
1.058334031245828
 40
1.411112041661104
 40
1.411112041661104
 40
1.411112041661104
 40
1.763890052076384
 40
1.763890052076384
 40
1.763890052076384
 40
2.116668062491659
 40
2.116668062491659
 40
2.116668062491659
 40
2.469446072906936
 40
2.469446072906936
 40
2.469446072906936
 40
2.822224083322215
 40
2.822224083322215
 40
2.822224083322215
 40
3.175002093737492
 40
3.175002093737492
 40
3.175002093737492
 40
3.527780104152768
 40
3.527780104152768
 40
3.527780104152768
 40
3.880558114568044
 40
3.880558114568044
 40
3.880558114568044
 40
4.233336124983321
 40
4.233336124983321
 40
4.233336124983321
 40
4.586114135398599
 40
4.586114135398599
 40
4.586114135398599
 40
4.938892145813873
 40
4.938892145813873
 40
4.938892145813873
 40
5.291670156229153
 40
5.291670156229153
 40
5.291670156229153
 40
5.64444816664443
 40
5.64444816664443
 40
5.64444816664443
 40
5.997226177059705
 40
5.997226177059705
 40
5.997226177059705
 40
5.997226177059705
 10
185.4837187788815
 20
241.4451977396596
 10
185.4837187788815
 20
241.4451977396596
 10
185.4837187788815
 20
241.4028230372367
 10
185.4837187788815
 20
241.4028230372367
 10
185.4837187788815
 20
241.4028230372367
 10
185.5047338752051
 20
241.3604483348137
 10
185.5047338752051
 20
241.3604483348137
 10
185.4520238795082
 20
241.2782827532863
 10
185.4671823096433
 20
241.1897437409066
 10
185.335579575289
 20
241.2119646214456
 10
185.335579575289
 20
241.2119646214456
 10
185.2932048728662
 20
241.2119646214456
 10
185.2932048728662
 20
241.2119646214456
 10
185.2932048728662
 20
241.2119646214456
 10
185.2294705643439
 20
241.2334964824328
 10
185.2294705643439
 20
241.2334964824328
 10
185.2294705643439
 20
241.2334964824328
 10
185.1660807655974
 20
241.2543393238685
 10
185.1660807655974
 20
241.2543393238685
 10
185.1660807655974
 20
241.2543393238685
 10
185.1450656692739
 20
241.2758711848558
 10
185.1450656692739
 20
241.2758711848558
 10
185.1450656692739
 20
241.2758711848558
 10
185.1450656692739
 20
241.2967140262914
 10
185.1450656692739
 20
241.2967140262914
 10
185.1450656692739
 20
241.2967140262914
 10
185.1237060631745
 20
241.3604483348137
 10
185.1237060631745
 20
241.3604483348137
 10
185.1237060631745
 20
241.3604483348137
 10
185.1237060631745
 20
241.4028230372367
 10
185.1237060631745
 20
241.4028230372367
 10
185.1237060631745
 20
241.4028230372367
 10
185.1660807655974
 20
241.4875724420825
 10
185.1660807655974
 20
241.4875724420825
 10
185.1660807655974
 20
241.4875724420825
 10
185.2084554680203
 20
241.5085875384061
 10
185.2084554680203
 20
241.5085875384061
 10
185.2084554680203
 20
241.5085875384061
 10
185.2718452667668
 20
241.5297748896175
 10
185.2718452667668
 20
241.5297748896175
 10
185.2718452667668
 20
241.5297748896175
 10
185.3565946716127
 20
241.5297748896175
 10
185.3565946716127
 20
241.5297748896175
 10
185.3565946716127
 20
241.5297748896175
 10
185.4199844703592
 20
241.5085875384061
 10
185.4199844703592
 20
241.5085875384061
 10
185.4199844703592
 20
241.5085875384061
 10
185.4623591727821
 20
241.4875724420825
 10
185.4623591727821
 20
241.4875724420825
 10
185.4623591727821
 20
241.4875724420825
 10
185.4837187788815
 20
241.4451977396596
 10
185.4837187788815
 20
241.4451977396596
 72
     1
 10
185.4837187788815
 20
241.4451977396596
 11
185.4837187788815
 21
241.4451977396596
 97
        0
 75
     0
 76
     1
 98
        0
450
        0
451
        0
460
0.0
461
0.0
452
        0
462
0.0
453
        0
470

  0
HATCH
  5
2F93
330
1F
100
AcDbEntity
  8
图层 1
 62
     7
100
AcDbHatch
 10
0.0
 20
0.0
 30
0.0
210
0.0
220
0.0
230
1.0
  2
SOLID
 70
     1
 71
     0
 91
        1
 92
        1
 93
        2
 72
     4
 94
        3
 73
     0
 74
     0
 95
       38
 96
       34
 40
0.0
 40
0.0
 40
0.0
 40
0.0
 40
0.3527780104152769
 40
0.3527780104152769
 40
0.3527780104152769
 40
0.7055560208305538
 40
0.7055560208305538
 40
0.7055560208305538
 40
1.058334031245828
 40
1.058334031245828
 40
1.058334031245828
 40
1.411112041661104
 40
1.411112041661104
 40
1.411112041661104
 40
1.763890052076384
 40
1.763890052076384
 40
1.763890052076384
 40
2.116668062491659
 40
2.116668062491659
 40
2.116668062491659
 40
2.469446072906936
 40
2.469446072906936
 40
2.469446072906936
 40
2.822224083322215
 40
2.822224083322215
 40
2.822224083322215
 40
3.175002093737492
 40
3.175002093737492
 40
3.175002093737492
 40
3.527780104152768
 40
3.527780104152768
 40
3.527780104152768
 40
3.880558114568044
 40
3.880558114568044
 40
3.880558114568044
 40
3.880558114568044
 10
185.907121293335
 20
220.1937677098971
 10
185.9005756075949
 20
220.0449394867532
 10
185.9329595265197
 20
220.1136691870245
 10
185.864746590912
 20
219.9817219428946
 10
185.864746590912
 20
219.9817219428946
 10
185.822371888489
 20
219.9605345916831
 10
185.822371888489
 20
219.9605345916831
 10
185.822371888489
 20
219.9605345916831
 10
185.6528730787974
 20
219.9605345916831
 10
185.6528730787974
 20
219.9605345916831
 10
185.6528730787974
 20
219.9605345916831
 10
185.5894832800509
 20
220.002909294106
 10
185.5894832800509
 20
220.002909294106
 10
185.5894832800509
 20
220.002909294106
 10
185.5681236739515
 20
220.0240966453175
 10
185.5681236739515
 20
220.0240966453175
 10
185.5681236739515
 20
220.0240966453175
 10
185.5681236739515
 20
220.045283996529
 10
185.5681236739515
 20
220.045283996529
 10
185.5681236739515
 20
220.045283996529
 10
185.547108577628
 20
220.0876586989519
 10
185.547108577628
 20
220.0876586989519
 10
185.547108577628
 20
220.0876586989519
 10
185.547108577628
 20
220.1513930074742
 10
185.547108577628
 20
220.1513930074742
 10
185.547108577628
 20
220.1513930074742
 10
185.5894832800509
 20
220.23614241232
 10
185.5894832800509
 20
220.23614241232
 10
185.5894832800509
 20
220.23614241232
 10
185.6318579824738
 20
220.2573297635315
 10
185.6318579824738
 20
220.2573297635315
 10
185.7055830744942
 20
220.2566407439799
 10
185.8416644359337
 20
220.3310548555519
 10
185.907121293335
 20
220.1937677098971
 72
     1
 10
185.907121293335
 20
220.1937677098971
 11
185.907121293335
 21
220.1937677098971
 97
        0
 75
     0
 76
     1
 98
        0
450
        0
451
        0
460
0.0
461
0.0
452
        0
462
0.0
453
        0
470

  0
HATCH
  5
2FDE
330
1F
100
AcDbEntity
  8
图层 1
 62
     7
100
AcDbHatch
 10
0.0
 20
0.0
 30
0.0
210
0.0
220
0.0
230
1.0
  2
SOLID
 70
     1
 71
     0
 91
        1
 92
        1
 93
        2
 72
     4
 94
        3
 73
     0
 74
     0
 95
       50
 96
       46
 40
0.0
 40
0.0
 40
0.0
 40
0.0
 40
0.3527780104152769
 40
0.3527780104152769
 40
0.3527780104152769
 40
0.7055560208305538
 40
0.7055560208305538
 40
0.7055560208305538
 40
1.058334031245828
 40
1.058334031245828
 40
1.058334031245828
 40
1.411112041661104
 40
1.411112041661104
 40
1.411112041661104
 40
1.763890052076384
 40
1.763890052076384
 40
1.763890052076384
 40
2.116668062491659
 40
2.116668062491659
 40
2.116668062491659
 40
2.469446072906936
 40
2.469446072906936
 40
2.469446072906936
 40
2.822224083322215
 40
2.822224083322215
 40
2.822224083322215
 40
3.175002093737492
 40
3.175002093737492
 40
3.175002093737492
 40
3.527780104152768
 40
3.527780104152768
 40
3.527780104152768
 40
3.880558114568044
 40
3.880558114568044
 40
3.880558114568044
 40
4.233336124983321
 40
4.233336124983321
 40
4.233336124983321
 40
4.586114135398599
 40
4.586114135398599
 40
4.586114135398599
 40
4.938892145813873
 40
4.938892145813873
 40
4.938892145813873
 40
5.291670156229153
 40
5.291670156229153
 40
5.291670156229153
 40
5.291670156229153
 10
180.9117295442905
 20
208.9327766684477
 10
180.9117295442905
 20
208.9327766684477
 10
180.9117295442905
 20
208.7637946234197
 10
180.9117295442905
 20
208.7637946234197
 10
181.2273004989198
 20
208.6749111012643
 10
181.3833634273555
 20
208.6776671794706
 10
181.6948002646751
 20
208.5097186637701
 10
181.9542161258496
 20
208.4294478860095
 10
182.1388733656765
 20
208.2134402565853
 10
182.3297317814676
 20
208.02292635057
 10
182.3297317814676
 20
208.02292635057
 10
182.435496282637
 20
208.065301052993
 10
182.435496282637
 20
208.065301052993
 10
182.288390608372
 20
208.2733849575739
 10
182.3752070718726
 20
208.2134402565853
 10
182.1605774815516
 20
208.3824223016133
 10
182.1605774815516
 20
208.3824223016133
 10
182.1182027791287
 20
208.4247970040363
 10
182.1182027791287
 20
208.4247970040363
 10
182.1182027791287
 20
208.4247970040363
 10
182.0968431730294
 20
208.467516216235
 10
182.0968431730294
 20
208.467516216235
 10
182.0968431730294
 20
208.467516216235
 10
182.0544684706064
 20
208.4883590576707
 10
182.0544684706064
 20
208.4883590576707
 10
182.0544684706064
 20
208.4883590576707
 10
181.9910786718599
 20
208.5305615052057
 10
181.9910786718599
 20
208.5305615052057
 10
181.9910786718599
 20
208.5305615052057
 10
181.948703969437
 20
208.552093366193
 10
181.948703969437
 20
208.552093366193
 10
181.948703969437
 20
208.552093366193
 10
181.9063292670141
 20
208.5729362076286
 10
181.9063292670141
 20
208.5729362076286
 10
181.9063292670141
 20
208.5729362076286
 10
181.8639545645911
 20
208.6156554198274
 10
181.8639545645911
 20
208.6156554198274
 10
181.8639545645911
 20
208.6156554198274
 10
181.821924371944
 20
208.6368427710388
 10
181.821924371944
 20
208.6368427710388
 10
181.6637943848536
 20
208.6742220817127
 10
181.5452830219797
 20
208.8092699138248
 10
181.3771622513911
 20
208.8061693258427
 10
181.2803550043924
 20
208.8573290275484
 10
181.0126709085988
 20
208.8971199066528
 10
180.9117295442905
 20
208.9327766684477
 72
     1
 10
180.9117295442905
 20
208.9327766684477
 11
180.9117295442905
 21
208.9327766684477
 97
        0
 75
     0
 76
     1
 98
        0
450
        0
451
        0
460
0.0
461
0.0
452
        0
462
0.0
453
        0
470

  0
HATCH
  5
35C8
330
1F
100
AcDbEntity
  8
图层 1
 62
     7
100
AcDbHatch
 10
0.0
 20
0.0
 30
0.0
210
0.0
220
0.0
230
1.0
  2
SOLID
 70
     1
 71
     0
 91
        1
 92
        1
 93
        2
 72
     4
 94
        3
 73
     0
 74
     0
 95
       38
 96
       34
 40
0.0
 40
0.0
 40
0.0
 40
0.0
 40
0.3527780104152769
 40
0.3527780104152769
 40
0.3527780104152769
 40
0.7055560208305538
 40
0.7055560208305538
 40
0.7055560208305538
 40
1.058334031245828
 40
1.058334031245828
 40
1.058334031245828
 40
1.411112041661104
 40
1.411112041661104
 40
1.411112041661104
 40
1.763890052076384
 40
1.763890052076384
 40
1.763890052076384
 40
2.116668062491659
 40
2.116668062491659
 40
2.116668062491659
 40
2.469446072906936
 40
2.469446072906936
 40
2.469446072906936
 40
2.822224083322215
 40
2.822224083322215
 40
2.822224083322215
 40
3.175002093737492
 40
3.175002093737492
 40
3.175002093737492
 40
3.527780104152768
 40
3.527780104152768
 40
3.527780104152768
 40
3.880558114568044
 40
3.880558114568044
 40
3.880558114568044
 40
3.880558114568044
 10
189.145513185819
 20
166.8326485368285
 10
189.207869455238
 20
166.740492171803
 10
189.1317327947871
 20
166.6833035490209
 10
189.103138483396
 20
166.6209472796017
 10
189.103138483396
 20
166.6209472796017
 10
189.0607637809731
 20
166.5997599283903
 10
189.0607637809731
 20
166.5997599283903
 10
189.0607637809731
 20
166.5997599283903
 10
188.9973739822266
 20
166.5785725771788
 10
188.9973739822266
 20
166.5785725771788
 10
188.9973739822266
 20
166.5785725771788
 10
188.9549992798037
 20
166.5997599283903
 10
188.9549992798037
 20
166.5997599283903
 10
188.9549992798037
 20
166.5997599283903
 10
188.8916094810572
 20
166.5997599283903
 10
188.8916094810572
 20
166.5997599283903
 10
188.8916094810572
 20
166.5997599283903
 10
188.8492347786343
 20
166.6209472796017
 10
188.8492347786343
 20
166.6209472796017
 10
188.8492347786343
 20
166.6209472796017
 10
188.8278751725349
 20
166.6633219820247
 10
188.8278751725349
 20
166.6633219820247
 10
188.8278751725349
 20
166.6633219820247
 10
188.8068600762114
 20
166.6845093332361
 10
188.8068600762114
 20
166.6845093332361
 10
188.8068600762114
 20
166.6845093332361
 10
188.8068600762114
 20
166.8326485368285
 10
188.8068600762114
 20
166.8326485368285
 10
188.8068600762114
 20
166.8326485368285
 10
188.8702498749578
 20
166.896038335575
 10
188.8702498749578
 20
166.896038335575
 10
189.0228677056355
 20
166.8819134347673
 10
189.0686875058164
 20
166.9411691162043
 10
189.145513185819
 20
166.8326485368285
 72
     1
 10
189.145513185819
 20
166.8326485368285
 11
189.145513185819
 21
166.8326485368285
 97
        0
 75
     0
 76
     1
 98
        0
450
        0
451
        0
460
0.0
461
0.0
452
        0
462
0.0
453
        0
470

  0
HATCH
  5
35D8
330
1F
100
AcDbEntity
  8
图层 1
 62
     7
100
AcDbHatch
 10
0.0
 20
0.0
 30
0.0
210
0.0
220
0.0
230
1.0
  2
SOLID
 70
     1
 71
     0
 91
        1
 92
        1
 93
        2
 72
     4
 94
        3
 73
     0
 74
     0
 95
       68
 96
       64
 40
0.0
 40
0.0
 40
0.0
 40
0.0
 40
0.3527780104152769
 40
0.3527780104152769
 40
0.3527780104152769
 40
0.7055560208305538
 40
0.7055560208305538
 40
0.7055560208305538
 40
1.058334031245828
 40
1.058334031245828
 40
1.058334031245828
 40
1.411112041661104
 40
1.411112041661104
 40
1.411112041661104
 40
1.763890052076384
 40
1.763890052076384
 40
1.763890052076384
 40
2.116668062491659
 40
2.116668062491659
 40
2.116668062491659
 40
2.469446072906936
 40
2.469446072906936
 40
2.469446072906936
 40
2.822224083322215
 40
2.822224083322215
 40
2.822224083322215
 40
3.175002093737492
 40
3.175002093737492
 40
3.175002093737492
 40
3.527780104152768
 40
3.527780104152768
 40
3.527780104152768
 40
3.880558114568044
 40
3.880558114568044
 40
3.880558114568044
 40
4.233336124983321
 40
4.233336124983321
 40
4.233336124983321
 40
4.586114135398599
 40
4.586114135398599
 40
4.586114135398599
 40
4.938892145813873
 40
4.938892145813873
 40
4.938892145813873
 40
5.291670156229153
 40
5.291670156229153
 40
5.291670156229153
 40
5.64444816664443
 40
5.64444816664443
 40
5.64444816664443
 40
5.997226177059705
 40
5.997226177059705
 40
5.997226177059705
 40
6.350004187474984
 40
6.350004187474984
 40
6.350004187474984
 40
6.702782197890257
 40
6.702782197890257
 40
6.702782197890257
 40
7.055560208305537
 40
7.055560208305537
 40
7.055560208305537
 40
7.408338218720808
 40
7.408338218720808
 40
7.408338218720808
 40
7.408338218720808
 10
174.7732543591544
 20
135.4846705078077
 10
174.7732543591544
 20
135.4846705078077
 10
174.7732543591544
 20
135.3789060066383
 10
174.7732543591544
 20
135.3789060066383
 10
174.7732543591544
 20
135.3789060066383
 10
174.8156290615773
 20
135.3789060066383
 10
174.8156290615773
 20
135.3789060066383
 10
174.8156290615773
 20
135.3789060066383
 10
174.8580037640002
 20
135.3578909103147
 10
174.8580037640002
 20
135.3578909103147
 10
174.8580037640002
 20
135.3578909103147
 10
174.9213935627468
 20
135.3578909103147
 10
174.9213935627468
 20
135.3578909103147
 10
174.9213935627468
 20
135.3578909103147
 10
174.9637682651697
 20
135.3365313042154
 10
174.9637682651697
 20
135.3365313042154
 10
174.9637682651697
 20
135.3365313042154
 10
174.9847833614933
 20
135.3365313042154
 10
174.9847833614933
 20
135.3365313042154
 10
174.9847833614933
 20
135.3365313042154
 10
175.0271580639162
 20
135.3155162078918
 10
175.0271580639162
 20
135.3155162078918
 10
175.0271580639162
 20
135.3155162078918
 10
175.0485176700155
 20
135.2941566017924
 10
175.0485176700155
 20
135.2941566017924
 10
175.0485176700155
 20
135.2941566017924
 10
175.0695327663391
 20
135.2941566017924
 10
175.0695327663391
 20
135.2941566017924
 10
175.0695327663391
 20
135.2941566017924
 10
175.0908923724385
 20
135.2731415054689
 10
175.0908923724385
 20
135.2731415054689
 10
175.0908923724385
 20
135.2731415054689
 10
175.1332670748614
 20
135.2731415054689
 10
175.1332670748614
 20
135.2731415054689
 10
175.1332670748614
 20
135.2731415054689
 10
175.154282171185
 20
135.2517818993695
 10
175.154282171185
 20
135.2517818993695
 10
175.154282171185
 20
135.2517818993695
 10
175.154282171185
 20
135.3578909103147
 10
175.154282171185
 20
135.3578909103147
 10
175.154282171185
 20
135.3578909103147
 10
175.1332670748614
 20
135.3789060066383
 10
175.1332670748614
 20
135.3789060066383
 10
175.1332670748614
 20
135.3789060066383
 10
175.0908923724385
 20
135.3789060066383
 10
175.0908923724385
 20
135.3789060066383
 10
175.0908923724385
 20
135.3789060066383
 10
175.0908923724385
 20
135.3999211029619
 10
175.0908923724385
 20
135.3999211029619
 10
175.0908923724385
 20
135.3999211029619
 10
175.0695327663391
 20
135.3999211029619
 10
175.0695327663391
 20
135.3999211029619
 10
175.0695327663391
 20
135.3999211029619
 10
175.0271580639162
 20
135.4212807090612
 10
175.0271580639162
 20
135.4212807090612
 10
175.0271580639162
 20
135.4212807090612
 10
175.0061429675926
 20
135.4212807090612
 10
175.0061429675926
 20
135.4212807090612
 10
175.0061429675926
 20
135.4212807090612
 10
174.9637682651697
 20
135.4422958053848
 10
174.9637682651697
 20
135.4422958053848
 10
174.8996894468716
 20
135.4498750204523
 10
174.8394002361073
 20
135.4860485469109
 10
174.7732543591544
 20
135.4846705078077
 72
     1
 10
174.7732543591544
 20
135.4846705078077
 11
174.7732543591544
 21
135.4846705078077
 97
        0
 75
     0
 76
     1
 98
        0
450
        0
451
        0
460
0.0
461
0.0
452
        0
462
0.0
453
        0
470

  0
HATCH
  5
3807
330
1F
100
AcDbEntity
  8
图层 1
 62
     7
100
AcDbHatch
 10
0.0
 20
0.0
 30
0.0
210
0.0
220
0.0
230
1.0
  2
SOLID
 70
     1
 71
     0
 91
        1
 92
        1
 93
        2
 72
     4
 94
        3
 73
     0
 74
     0
 95
       29
 96
       25
 40
0.0
 40
0.0
 40
0.0
 40
0.0
 40
0.3527780104152769
 40
0.3527780104152769
 40
0.3527780104152769
 40
0.7055560208305538
 40
0.7055560208305538
 40
0.7055560208305538
 40
1.058334031245828
 40
1.058334031245828
 40
1.058334031245828
 40
1.411112041661104
 40
1.411112041661104
 40
1.411112041661104
 40
1.763890052076384
 40
1.763890052076384
 40
1.763890052076384
 40
2.116668062491659
 40
2.116668062491659
 40
2.116668062491659
 40
2.469446072906936
 40
2.469446072906936
 40
2.469446072906936
 40
2.822224083322215
 40
2.822224083322215
 40
2.822224083322215
 40
2.822224083322215
 10
175.4929352807925
 20
164.0174869039101
 10
175.4929352807925
 20
164.0174869039101
 10
175.5139503771161
 20
163.9751122014871
 10
175.5139503771161
 20
163.9751122014871
 10
175.5139503771161
 20
163.9751122014871
 10
175.5139503771161
 20
163.9327374990642
 10
175.5139503771161
 20
163.9327374990642
 10
175.5139503771161
 20
163.9327374990642
 10
175.4929352807925
 20
163.8903627966413
 10
175.4929352807925
 20
163.8903627966413
 10
175.4929352807925
 20
163.8903627966413
 10
175.471920184469
 20
163.8691754454298
 10
175.471920184469
 20
163.8691754454298
 10
175.471920184469
 20
163.8691754454298
 10
175.4505605783696
 20
163.8269729978948
 10
175.4505605783696
 20
163.8269729978948
 10
175.3571984291289
 20
163.7715069239916
 10
175.272449024283
 20
163.8195660377152
 10
175.1966568736079
 20
163.8691754454298
 10
175.208370205985
 20
163.9930267098286
 10
175.1563492298397
 20
164.0216210212197
 10
175.2600466723544
 20
164.0596893514451
 10
175.3330827448232
 20
164.1094710140476
 10
175.4357466580104
 20
164.0753645462439
 10
175.4929352807925
 20
164.0174869039101
 72
     1
 10
175.4929352807925
 20
164.0174869039101
 11
175.4929352807925
 21
164.0174869039101
 97
        0
 75
     0
 76
     1
 98
        0
450
        0
451
        0
460
0.0
461
0.0
452
        0
462
0.0
453
        0
470

  0
HATCH
  5
3895
330
1F
100
AcDbEntity
  8
图层 1
 62
     7
100
AcDbHatch
 10
0.0
 20
0.0
 30
0.0
210
0.0
220
0.0
230
1.0
  2
SOLID
 70
     1
 71
     0
 91
        1
 92
        1
 93
        2
 72
     4
 94
        3
 73
     0
 74
     0
 95
       11
 96
        7
 40
0.0
 40
0.0
 40
0.0
 40
0.0
 40
0.3527780104152769
 40
0.3527780104152769
 40
0.3527780104152769
 40
0.7055560208305538
 40
0.7055560208305538
 40
0.7055560208305538
 40
0.7055560208305538
 10
174.9213935627468
 20
174.5369206529582
 10
174.9213935627468
 20
174.5369206529582
 10
174.9213935627468
 20
174.3043765542958
 10
174.9213935627468
 20
174.3043765542958
 10
174.9213935627468
 20
174.3043765542958
 10
174.9213935627468
 20
174.5369206529582
 10
174.9213935627468
 20
174.5369206529582
 72
     1
 10
174.9213935627468
 20
174.5369206529582
 11
174.9213935627468
 21
174.5369206529582
 97
        0
 75
     0
 76
     1
 98
        0
450
        0
451
        0
460
0.0
461
0.0
452
        0
462
0.0
453
        0
470

  0
HATCH
  5
3943
330
1F
100
AcDbEntity
  8
图层 1
 62
     7
100
AcDbHatch
 10
0.0
 20
0.0
 30
0.0
210
0.0
220
0.0
230
1.0
  2
SOLID
 70
     1
 71
     0
 91
        1
 92
        1
 93
        2
 72
     4
 94
        3
 73
     0
 74
     0
 95
      131
 96
      127
 40
0.0
 40
0.0
 40
0.0
 40
0.0
 40
0.3527780104152769
 40
0.3527780104152769
 40
0.3527780104152769
 40
0.7055560208305538
 40
0.7055560208305538
 40
0.7055560208305538
 40
1.058334031245828
 40
1.058334031245828
 40
1.058334031245828
 40
1.411112041661104
 40
1.411112041661104
 40
1.411112041661104
 40
1.763890052076384
 40
1.763890052076384
 40
1.763890052076384
 40
2.116668062491659
 40
2.116668062491659
 40
2.116668062491659
 40
2.469446072906936
 40
2.469446072906936
 40
2.469446072906936
 40
2.822224083322215
 40
2.822224083322215
 40
2.822224083322215
 40
3.175002093737492
 40
3.175002093737492
 40
3.175002093737492
 40
3.527780104152768
 40
3.527780104152768
 40
3.527780104152768
 40
3.880558114568044
 40
3.880558114568044
 40
3.880558114568044
 40
4.233336124983321
 40
4.233336124983321
 40
4.233336124983321
 40
4.586114135398599
 40
4.586114135398599
 40
4.586114135398599
 40
4.938892145813873
 40
4.938892145813873
 40
4.938892145813873
 40
5.291670156229153
 40
5.291670156229153
 40
5.291670156229153
 40
5.64444816664443
 40
5.64444816664443
 40
5.64444816664443
 40
5.997226177059705
 40
5.997226177059705
 40
5.997226177059705
 40
6.350004187474984
 40
6.350004187474984
 40
6.350004187474984
 40
6.702782197890257
 40
6.702782197890257
 40
6.702782197890257
 40
7.055560208305537
 40
7.055560208305537
 40
7.055560208305537
 40
7.408338218720808
 40
7.408338218720808
 40
7.408338218720808
 40
7.76111622913609
 40
7.76111622913609
 40
7.76111622913609
 40
8.113894239551369
 40
8.113894239551369
 40
8.113894239551369
 40
8.466672249966642
 40
8.466672249966642
 40
8.466672249966642
 40
8.819450260381922
 40
8.819450260381922
 40
8.819450260381922
 40
9.172228270797198
 40
9.172228270797198
 40
9.172228270797198
 40
9.525006281212476
 40
9.525006281212476
 40
9.525006281212476
 40
9.877784291627751
 40
9.877784291627751
 40
9.877784291627751
 40
10.23056230204303
 40
10.23056230204303
 40
10.23056230204303
 40
10.58334031245831
 40
10.58334031245831
 40
10.58334031245831
 40
10.93611832287358
 40
10.93611832287358
 40
10.93611832287358
 40
11.28889633328886
 40
11.28889633328886
 40
11.28889633328886
 40
11.64167434370414
 40
11.64167434370414
 40
11.64167434370414
 40
11.99445235411941
 40
11.99445235411941
 40
11.99445235411941
 40
12.34723036453469
 40
12.34723036453469
 40
12.34723036453469
 40
12.70000837494997
 40
12.70000837494997
 40
12.70000837494997
 40
13.05278638536524
 40
13.05278638536524
 40
13.05278638536524
 40
13.40556439578052
 40
13.40556439578052
 40
13.40556439578052
 40
13.7583424061958
 40
13.7583424061958
 40
13.7583424061958
 40
14.11112041661107
 40
14.11112041661107
 40
14.11112041661107
 40
14.46389842702635
 40
14.46389842702635
 40
14.46389842702635
 40
14.81667643744163
 40
14.81667643744163
 40
14.81667643744163
 40
14.81667643744163
 10
173.3972823146245
 20
126.8274843518258
 10
173.3972823146245
 20
126.8274843518258
 10
173.3972823146245
 20
126.7217198506564
 10
173.3972823146245
 20
126.7217198506564
 10
173.3972823146245
 20
126.7217198506564
 10
173.4186419207238
 20
126.7217198506564
 10
173.4186419207238
 20
126.7217198506564
 10
173.4186419207238
 20
126.7217198506564
 10
173.4820317194703
 20
126.7007047543328
 10
173.4820317194703
 20
126.7007047543328
 10
173.4820317194703
 20
126.7007047543328
 10
173.5244064218933
 20
126.6793451482334
 10
173.5244064218933
 20
126.6793451482334
 10
173.5244064218933
 20
126.6793451482334
 10
173.5877962206398
 20
126.6793451482334
 10
173.5877962206398
 20
126.6793451482334
 10
173.5877962206398
 20
126.6793451482334
 10
173.6301709230627
 20
126.6583300519099
 10
173.6301709230627
 20
126.6583300519099
 10
173.7955356154449
 20
126.5911506456296
 10
173.759706598762
 20
126.6380039751379
 10
173.9478089363468
 20
126.5525655507404
 10
173.9478089363468
 20
126.5525655507404
 10
173.9688240326703
 20
126.4464565397952
 10
173.9688240326703
 20
126.4464565397952
 10
173.9688240326703
 20
126.4464565397952
 10
174.0325583411926
 20
126.5101908483175
 10
174.0325583411926
 20
126.5101908483175
 10
174.0325583411926
 20
126.5101908483175
 10
174.0749330436156
 20
126.5101908483175
 10
174.0749330436156
 20
126.5101908483175
 10
174.0749330436156
 20
126.5101908483175
 10
174.1593379386856
 20
126.4678161458946
 10
174.1593379386856
 20
126.4678161458946
 10
174.1593379386856
 20
126.4678161458946
 10
174.180697544785
 20
126.4464565397952
 10
174.180697544785
 20
126.4464565397952
 10
174.2464989119621
 20
126.3982251711837
 10
174.3298702777047
 20
126.3716979184474
 10
174.3922265471239
 20
126.3196769423022
 10
174.608234176548
 20
126.2059887162895
 10
174.7749769080334
 20
126.0278771622029
 10
174.9637682651697
 20
125.8749148217494
 10
174.9637682651697
 20
125.8749148217494
 10
175.0061429675926
 20
125.9172895241723
 10
175.0061429675926
 20
125.9172895241723
 10
174.961356696739
 20
125.9631093243532
 10
174.782211613325
 20
126.1246844092016
 10
174.7308796567315
 20
126.1501781326105
 10
174.7308796567315
 20
126.1501781326105
 10
174.6885049543085
 20
126.1925528350335
 10
174.6885049543085
 20
126.1925528350335
 10
174.6885049543085
 20
126.1925528350335
 10
174.667489857985
 20
126.2349275374564
 10
174.667489857985
 20
126.2349275374564
 10
174.667489857985
 20
126.2349275374564
 10
174.625115155562
 20
126.2559426337799
 10
174.625115155562
 20
126.2559426337799
 10
174.625115155562
 20
126.2559426337799
 10
174.5827404531391
 20
126.2983173362029
 10
174.5827404531391
 20
126.2983173362029
 10
174.5827404531391
 20
126.2983173362029
 10
174.5403657507162
 20
126.3196769423022
 10
174.5403657507162
 20
126.3196769423022
 10
174.5403657507162
 20
126.3196769423022
 10
174.4979910482932
 20
126.3620516447252
 10
174.4979910482932
 20
126.3620516447252
 10
174.4735308542117
 20
126.3875453681341
 10
174.3247026310678
 20
126.4695386947736
 10
174.2864620459544
 20
126.4888312422181
 10
174.2864620459544
 20
126.4888312422181
 10
174.2654469496308
 20
126.5101908483175
 10
174.2654469496308
 20
126.5101908483175
 10
174.2654469496308
 20
126.5101908483175
 10
174.2230722472079
 20
126.5312059446411
 10
174.2230722472079
 20
126.5312059446411
 10
174.2230722472079
 20
126.5312059446411
 10
174.2017126411085
 20
126.5525655507404
 10
174.2017126411085
 20
126.5525655507404
 10
174.2017126411085
 20
126.5525655507404
 10
174.1383228423621
 20
126.573580647064
 10
174.1383228423621
 20
126.573580647064
 10
174.1383228423621
 20
126.573580647064
 10
174.1169632362627
 20
126.5945957433876
 10
174.1169632362627
 20
126.5945957433876
 10
174.1169632362627
 20
126.5945957433876
 10
174.0959481399391
 20
126.7007047543328
 10
174.0959481399391
 20
126.7007047543328
 10
174.0959481399391
 20
126.7007047543328
 10
174.0325583411926
 20
126.6369704458105
 10
174.0325583411926
 20
126.6369704458105
 10
174.0325583411926
 20
126.6369704458105
 10
173.9901836387697
 20
126.6369704458105
 10
173.9901836387697
 20
126.6369704458105
 10
173.9901836387697
 20
126.6369704458105
 10
173.9054342339239
 20
126.6793451482334
 10
173.9054342339239
 20
126.6793451482334
 10
173.9054342339239
 20
126.6793451482334
 10
173.8420444351773
 20
126.7007047543328
 10
173.8420444351773
 20
126.7007047543328
 10
173.8420444351773
 20
126.7007047543328
 10
173.7996697327544
 20
126.7217198506564
 10
173.7996697327544
 20
126.7217198506564
 10
173.7996697327544
 20
126.7217198506564
 10
173.7572950303315
 20
126.7217198506564
 10
173.7572950303315
 20
126.7217198506564
 10
173.7572950303315
 20
126.7217198506564
 10
173.6725456254856
 20
126.7640945530793
 10
173.6725456254856
 20
126.7640945530793
 10
173.6725456254856
 20
126.7640945530793
 10
173.6515305291621
 20
126.7640945530793
 10
173.6515305291621
 20
126.7640945530793
 10
173.6515305291621
 20
126.7640945530793
 10
173.5667811243162
 20
126.7851096494029
 10
173.5667811243162
 20
126.7851096494029
 10
173.5667811243162
 20
126.7851096494029
 10
173.5033913255697
 20
126.8064692555022
 10
173.5033913255697
 20
126.8064692555022
 10
173.5033913255697
 20
126.8064692555022
 10
173.4396570170474
 20
126.8064692555022
 10
173.4396570170474
 20
126.8064692555022
 10
173.4396570170474
 20
126.8064692555022
 10
173.4186419207238
 20
126.8274843518258
 10
173.4186419207238
 20
126.8274843518258
 10
173.4186419207238
 20
126.8274843518258
 10
173.3972823146245
 20
126.8274843518258
 10
173.3972823146245
 20
126.8274843518258
 72
     1
 10
173.3972823146245
 20
126.8274843518258
 11
173.3972823146245
 21
126.8274843518258
 97
        0
 75
     0
 76
     1
 98
        0
450
        0
451
        0
460
0.0
461
0.0
452
        0
462
0.0
453
        0
470

  0
HATCH
  5
4842
330
1F
100
AcDbEntity
  8
图层 1
 62
     7
100
AcDbHatch
 10
0.0
 20
0.0
 30
0.0
210
0.0
220
0.0
230
1.0
  2
SOLID
 70
     1
 71
     0
 91
        1
 92
        1
 93
        2
 72
     4
 94
        3
 73
     0
 74
     0
 95
       47
 96
       43
 40
0.0
 40
0.0
 40
0.0
 40
0.0
 40
0.3527780104152769
 40
0.3527780104152769
 40
0.3527780104152769
 40
0.7055560208305538
 40
0.7055560208305538
 40
0.7055560208305538
 40
1.058334031245828
 40
1.058334031245828
 40
1.058334031245828
 40
1.411112041661104
 40
1.411112041661104
 40
1.411112041661104
 40
1.763890052076384
 40
1.763890052076384
 40
1.763890052076384
 40
2.116668062491659
 40
2.116668062491659
 40
2.116668062491659
 40
2.469446072906936
 40
2.469446072906936
 40
2.469446072906936
 40
2.822224083322215
 40
2.822224083322215
 40
2.822224083322215
 40
3.175002093737492
 40
3.175002093737492
 40
3.175002093737492
 40
3.527780104152768
 40
3.527780104152768
 40
3.527780104152768
 40
3.880558114568044
 40
3.880558114568044
 40
3.880558114568044
 40
4.233336124983321
 40
4.233336124983321
 40
4.233336124983321
 40
4.586114135398599
 40
4.586114135398599
 40
4.586114135398599
 40
4.938892145813873
 40
4.938892145813873
 40
4.938892145813873
 40
4.938892145813873
 10
180.1920486226523
 20
255.6479577566324
 10
180.1920486226523
 20
255.6479577566324
 10
180.2130637189759
 20
255.6055830542095
 10
180.2130637189759
 20
255.6055830542095
 10
180.2130637189759
 20
255.6055830542095
 10
180.2130637189759
 20
255.5210059042515
 10
180.2130637189759
 20
255.5210059042515
 10
180.2130637189759
 20
255.5210059042515
 10
180.1920486226523
 20
255.4786312018286
 10
180.1920486226523
 20
255.4786312018286
 10
180.1920486226523
 20
255.4786312018286
 10
180.1496739202294
 20
255.4359119896299
 10
180.1496739202294
 20
255.4359119896299
 10
180.1496739202294
 20
255.4359119896299
 10
180.1283143141301
 20
255.4147246384184
 10
180.1283143141301
 20
255.4147246384184
 10
180.1283143141301
 20
255.4147246384184
 10
180.0225498129606
 20
255.4147246384184
 10
180.0225498129606
 20
255.4147246384184
 10
180.0225498129606
 20
255.4147246384184
 10
179.9591600142141
 20
255.4359119896299
 10
179.9591600142141
 20
255.4359119896299
 10
179.9591600142141
 20
255.4359119896299
 10
179.9167853117912
 20
255.4570993408414
 10
179.9167853117912
 20
255.4570993408414
 10
179.9167853117912
 20
255.4570993408414
 10
179.8957702154676
 20
255.4786312018286
 10
179.8957702154676
 20
255.4786312018286
 10
179.8957702154676
 20
255.4786312018286
 10
179.8744106093683
 20
255.4994740432643
 10
179.8744106093683
 20
255.4994740432643
 10
179.8744106093683
 20
255.4994740432643
 10
179.8744106093683
 20
255.6479577566324
 10
179.8744106093683
 20
255.6479577566324
 10
179.9608825630931
 20
255.7323626517025
 10
180.045631967939
 20
255.7085914771726
 10
180.1496739202294
 20
255.7115198102668
 10
180.1496739202294
 20
255.7115198102668
 10
180.170689016553
 20
255.6688005980681
 10
180.170689016553
 20
255.6688005980681
 10
180.170689016553
 20
255.6688005980681
 10
180.1920486226523
 20
255.6479577566324
 10
180.1920486226523
 20
255.6479577566324
 72
     1
 10
180.1920486226523
 20
255.6479577566324
 11
180.1920486226523
 21
255.6479577566324
 97
        0
 75
     0
 76
     1
 98
        0
450
        0
451
        0
460
0.0
461
0.0
452
        0
462
0.0
453
        0
470

  0
MTEXT
  5
65A0
330
1F
100
AcDbEntity
  8
图框
 62
     3
100
AcDbMText
 10
599.071704550352
 20
228.6676486843801
 30
0.0
 40
1.492756787517073
 41
16.80619599621068
 46
4.343372752842933
 71
     5
 72
     5
  1
CODE-Q7F
  7
Romans字体
 73
     1
 44
1.0
1001
ACAD
1000
ACAD_MTEXT_DEFINED_HEIGHT_BEGIN
1070
    46
1040
4.343372752842933
1000
ACAD_MTEXT_DEFINED_HEIGHT_END
  0
MTEXT
  5
65A1
330
1F
100
AcDbEntity
  8
图框
 62
     3
100
AcDbMText
 10
599.071704550352
 20
224.277923420967
 30
0.0
 40
1.492756787517073
 41
16.80619599621068
 46
4.43607777398305
 71
     5
 72
     5
  1
1980020050008
  7
Romans字体
 73
     1
 44
1.0
1001
ACAD
1000
ACAD_MTEXT_DEFINED_HEIGHT_BEGIN
1070
    46
1040
4.43607777398305
1000
ACAD_MTEXT_DEFINED_HEIGHT_END
  0
MTEXT
  5
65A3
330
1F
100
AcDbEntity
  8
图框
 62
     3
100
AcDbMText
 10
565.0448720850595
 20
217.6241058815945
 30
0.0
 40
1.492756787517073
 41
5.414674217195233
 46
3.943047300605248
 71
     5
 72
     5
  1
2:1
  7
Romans字体
 73
     1
 44
1.0
1001
ACAD
1000
ACAD_MTEXT_DEFINED_HEIGHT_BEGIN
1070
    46
1040
3.943047300605248
1000
ACAD_MTEXT_DEFINED_HEIGHT_END
  0
MTEXT
  5
65A4
330
1F
100
AcDbEntity
  8
图框
 62
     3
100
AcDbMText
 10
570.4595463022549
 20
217.6241058815946
 30
0.0
 40
1.492756787517073
 41
5.41467421719563
 46
3.943047300605226
 71
     5
 72
     5
  1
V1.0 
  7
Romans字体
 73
     1
 44
1.0
1001
ACAD
1000
ACAD_MTEXT_DEFINED_HEIGHT_BEGIN
1070
    46
1040
3.943047300605226
1000
ACAD_MTEXT_DEFINED_HEIGHT_END
  0
MTEXT
  5
65B2
330
1F
100
AcDbEntity
  8
图框
 62
     3
100
AcDbMText
 10
575.8742205194505
 20
217.6241058815946
 30
0.0
 40
1.492756787517073
 41
16.80619599621068
 46
3.943047300605201
 71
     5
 72
     5
  1
0.62g 
  7
Romans字体
 73
     1
 44
1.0
1001
ACAD
1000
ACAD_MTEXT_DEFINED_HEIGHT_BEGIN
1070
    46
1040
3.943047300605201
1000
ACAD_MTEXT_DEFINED_HEIGHT_END
  0
INSERT
  5
11089
330
1F
100
AcDbEntity
  8
DIM
100
AcDbBlockReference
  2
A4图框-NEW
 10
44.01055124327593
 20
-30.29676506807346
 30
0.0
 41
0.5
 42
0.5
 43
0.5
  0
MTEXT
  5
1AFA6
102
{ACAD_XDICTIONARY
360
1BA95
102
}
330
1F
100
AcDbEntity
  8
打标文字
 62
     3
100
AcDbMText
 10
582.1233209608505
 20
255.6984346737272
 30
0.0
 40
1.5
 41
40.58854755587267
 46
49.02347725636656
 71
     1
 72
     5
  1
\A1;技术参数:\P- 材料：聚碳酸酯\P- 颜色：{\Fromans|c134;RAL 3003}（红色）\P{\Fromans|c134;\PTechnical specification:\P- Material: polycarbonate\P- Colour: RAL 3003(red)}
 73
     1
 44
1.0
1001
ACAD
1000
ACAD_MTEXT_DEFINED_HEIGHT_BEGIN
1070
    46
1040
49.02347725636656
1000
ACAD_MTEXT_DEFINED_HEIGHT_END
  0
LINE
  5
1B3D1
330
1F
100
AcDbEntity
  8
0
100
AcDbLine
 10
472.9720085027974
 20
235.643105678779
 30
0.0
 11
471.7880138464768
 21
234.444603248299
 31
0.0
  0
LINE
  5
1B3D2
330
1F
100
AcDbEntity
  8
0
100
AcDbLine
 10
482.1674961850368
 20
220.2313492597389
 30
0.0
 11
482.493502061677
 21
220.2313492597389
 31
0.0
  0
LINE
  5
1B3D3
330
1F
100
AcDbEntity
  8
0
100
AcDbLine
 10
472.0983784773574
 20
234.3662547822189
 30
0.0
 11
471.9434560303973
 21
233.8649255600588
 31
0.0
  0
LINE
  5
1B3D4
330
1F
100
AcDbEntity
  8
0
100
AcDbLine
 10
480.0164034218371
 20
220.7608364501386
 30
0.0
 11
478.3891686479972
 21
220.7608364501386
 31
0.0
  0
LINE
  5
1B3D5
330
1F
100
AcDbEntity
  8
0
100
AcDbLine
 10
479.7142740108768
 20
221.0701259664586
 30
0.0
 11
478.0870392370371
 21
221.0701259664586
 31
0.0
  0
LINE
  5
1B3D6
330
1F
100
AcDbEntity
  8
0
100
AcDbLine
 10
479.941906745277
 20
218.7785499435788
 30
0.0
 11
479.4612294952768
 21
219.0085551713385
 31
0.0
  0
LINE
  5
1B3D7
330
1F
100
AcDbEntity
  8
0
100
AcDbLine
 10
474.2581398403175
 20
235.2749139974187
 30
0.0
 11
474.1516306579971
 21
234.9302501571785
 31
0.0
  0
LINE
  5
1B3D8
330
1F
100
AcDbEntity
  8
0
100
AcDbLine
 10
473.6481327052771
 20
233.3009301851787
 30
0.0
 11
473.5416235230371
 21
232.956266344939
 31
0.0
  0
LINE
  5
1B3D9
330
1F
100
AcDbEntity
  8
0
100
AcDbLine
 10
474.9951919192771
 20
232.5880746634987
 30
0.0
 11
476.1791865756771
 21
233.7865770940591
 31
0.0
  0
LINE
  5
1B3DA
330
1F
100
AcDbEntity
  8
0
100
AcDbLine
 10
478.0823665693572
 20
220.8582488755785
 30
0.0
 11
477.6575145148771
 21
221.206504847499
 31
0.0
  0
LINE
  5
1B3DB
330
1F
100
AcDbEntity
  8
0
100
AcDbLine
 10
474.998553341917
 20
232.956266344939
 30
0.0
 11
475.7150696591974
 21
235.2749139974187
 31
0.0
  0
LINE
  5
1B3DC
330
1F
100
AcDbEntity
  8
0
100
AcDbLine
 10
478.3891686479972
 20
220.7608364501386
 30
0.0
 11
478.0870392370371
 21
221.0701259664586
 31
0.0
  0
LINE
  5
1B3DD
330
1F
100
AcDbEntity
  8
0
100
AcDbLine
 10
471.5846683850371
 20
233.7865770940591
 30
0.0
 11
472.0279325152771
 21
232.5880746634987
 31
0.0
  0
LINE
  5
1B3DE
330
1F
100
AcDbEntity
  8
0
100
AcDbLine
 10
481.9561285799972
 20
221.9313295400591
 30
0.0
 11
481.9108523759971
 21
221.9566210516589
 31
0.0
  0
LINE
  5
1B3DF
330
1F
100
AcDbEntity
  8
0
100
AcDbLine
 10
480.0164034218371
 20
220.7608364501386
 30
0.0
 11
479.7142740108768
 21
221.0701259664586
 31
0.0
  0
LINE
  5
1B3E0
330
1F
100
AcDbEntity
  8
0
100
AcDbLine
 10
477.536277233037
 20
221.358071066699
 30
0.0
 11
472.0455267603967
 21
232.5470441239788
 31
0.0
  0
LINE
  5
1B3E1
330
1F
100
AcDbEntity
  8
0
100
AcDbLine
 10
472.0279325152771
 20
232.5880746634987
 30
0.0
 11
472.045731385357
 21
232.5467400313389
 31
0.0
  0
LINE
  5
1B3E2
330
1F
100
AcDbEntity
  8
0
100
AcDbLine
 10
471.9434560303973
 20
233.8649255600588
 30
0.0
 11
472.1055904185572
 21
233.539672659019
 31
0.0
  0
LINE
  5
1B3E3
330
1F
100
AcDbEntity
  8
0
100
AcDbLine
 10
472.5962856376772
 20
232.2591053953386
 30
0.0
 11
478.0870392370371
 21
221.0701259664586
 31
0.0
  0
LINE
  5
1B3E4
330
1F
100
AcDbEntity
  8
0
100
AcDbLine
 10
478.911259644717
 20
219.5342210526189
 30
0.0
 11
478.8380495967167
 21
219.6834074450187
 31
0.0
  0
LINE
  5
1B3E5
330
1F
100
AcDbEntity
  8
0
100
AcDbLine
 10
478.8826817482371
 20
220.137239277419
 30
0.0
 11
478.5766647032771
 21
220.7608364501386
 31
0.0
  0
LINE
  5
1B3E6
330
1F
100
AcDbEntity
  8
0
100
AcDbLine
 10
472.0983784773574
 20
234.3662547822189
 30
0.0
 11
472.5243504075971
 21
233.5117253536589
 31
0.0
  0
LINE
  5
1B3E7
330
1F
100
AcDbEntity
  8
0
100
AcDbLine
 10
478.8380495967167
 20
219.6834074450187
 30
0.0
 11
478.7824952876775
 21
219.8203735275786
 31
0.0
  0
LINE
  5
1B3E8
330
1F
100
AcDbEntity
  8
0
100
AcDbLine
 10
474.0501865759171
 20
232.6030661384586
 30
0.0
 11
473.6413844687168
 21
233.4204304817388
 31
0.0
  0
LINE
  5
1B3E9
330
1F
100
AcDbEntity
  8
0
100
AcDbLine
 10
473.5416235230371
 20
232.956266344939
 30
0.0
 11
473.7037579111974
 21
232.6310134438188
 31
0.0
  0
LINE
  5
1B3EA
330
1F
100
AcDbEntity
  8
0
100
AcDbLine
 10
473.6481327052771
 20
233.3009301851787
 30
0.0
 11
473.9960089575173
 21
232.6030661384586
 31
0.0
  0
LINE
  5
1B3EB
330
1F
100
AcDbEntity
  8
0
100
AcDbLine
 10
474.223520411517
 20
232.2591053953386
 30
0.0
 11
479.7142740108768
 21
221.0701259664586
 31
0.0
  0
LINE
  5
1B3EC
330
1F
100
AcDbEntity
  8
0
100
AcDbLine
 10
472.6228297678368
 20
234.7194549886187
 30
0.0
 11
473.2091660364771
 21
233.5117253536589
 31
0.0
  0
LINE
  5
1B3ED
330
1F
100
AcDbEntity
  8
0
100
AcDbLine
 10
474.9952196138372
 20
232.5881026974187
 30
0.0
 11
480.4859733222373
 21
221.3991233789386
 31
0.0
  0
LINE
  5
1B3EE
330
1F
100
AcDbEntity
  8
0
100
AcDbLine
 10
473.8386302799169
 20
234.7194549886187
 30
0.0
 11
474.8112638003171
 21
232.7160341030187
 31
0.0
  0
LINE
  5
1B3EF
330
1F
100
AcDbEntity
  8
0
100
AcDbLine
 10
474.1516306579971
 20
234.9302501571785
 30
0.0
 11
475.0510131018371
 21
233.1260261901391
 31
0.0
  0
LINE
  5
1B3F0
330
1F
100
AcDbEntity
  8
0
100
AcDbLine
 10
474.2581398403175
 20
235.2749139974187
 30
0.0
 11
475.1575222841573
 21
233.4706900303788
 31
0.0
  0
LINE
  5
1B3F1
330
1F
100
AcDbEntity
  8
0
100
AcDbLine
 10
482.0978400345569
 20
219.6711871351788
 30
0.0
 11
482.0246299865567
 21
219.8203735275786
 31
0.0
  0
LINE
  5
1B3F2
330
1F
100
AcDbEntity
  8
0
100
AcDbLine
 10
481.9445088090373
 20
220.5992636812591
 30
0.0
 11
481.357521125277
 21
221.7954188173387
 31
0.0
  0
LINE
  5
1B3F3
330
1F
100
AcDbEntity
  8
0
100
AcDbLine
 10
481.3858768236772
 20
221.8241220543789
 30
0.0
 11
482.3562670923172
 21
219.8466343857389
 31
0.0
  0
LINE
  5
1B3F4
330
1F
100
AcDbEntity
  8
0
100
AcDbLine
 10
482.1381618677571
 20
221.2259252089391
 30
0.0
 11
481.6923640302369
 21
222.1343656885385
 31
0.0
  0
LINE
  5
1B3F5
330
1F
100
AcDbEntity
  8
0
100
AcDbLine
 10
482.5499201511168
 20
220.4732959134187
 30
0.0
 11
482.212528935437
 21
221.1608269240589
 31
0.0
  0
LINE
  5
1B3F6
330
1F
100
AcDbEntity
  8
0
100
AcDbLine
 10
482.0426971683972
 20
221.6879496127788
 30
0.0
 11
481.7784059545568
 21
222.226518481659
 31
0.0
  0
LINE
  5
1B3F7
330
1F
100
AcDbEntity
  8
0
100
AcDbLine
 10
474.7825911307171
 20
235.628114203819
 30
0.0
 11
475.419078041837
 21
234.3170847725389
 31
0.0
  0
LINE
  5
1B3F8
330
1F
100
AcDbEntity
  8
0
100
AcDbLine
 10
476.3825320370371
 20
234.444603248299
 30
0.0
 11
475.939267906797
 21
235.643105678779
 31
0.0
  0
LINE
  5
1B3F9
330
1F
100
AcDbEntity
  8
0
100
AcDbLine
 10
476.1792021597567
 20
233.7865928690987
 30
0.0
 11
481.6699531875973
 21
222.597610837099
 31
0.0
  0
LINE
  5
1B3FA
330
1F
100
AcDbEntity
  8
0
100
AcDbLine
 10
482.5577405676772
 20
221.1594258057387
 30
0.0
 11
482.4845305196771
 21
221.3086121981389
 31
0.0
  0
LINE
  5
1B3FB
330
1F
100
AcDbEntity
  8
0
100
AcDbLine
 10
482.5021862585571
 20
221.2963918882985
 30
0.0
 11
482.428976210557
 21
221.4455782806988
 31
0.0
  0
LINE
  5
1B3FC
330
1F
100
AcDbEntity
  8
0
100
AcDbLine
 10
476.3825378714371
 20
234.4445874731789
 30
0.0
 11
481.8732905080771
 21
223.2556106474988
 31
0.0
  0
LINE
  5
1B3FD
330
1F
100
AcDbEntity
  8
0
100
AcDbLine
 10
475.9392782751173
 20
235.6430776449386
 30
0.0
 11
481.430031915277
 21
224.4540981056587
 31
0.0
  0
LINE
  5
1B3FE
330
1F
100
AcDbEntity
  8
0
100
AcDbLine
 10
481.4124241343173
 20
224.4951631611787
 30
0.0
 11
475.941315448077
 21
235.6441104660591
 31
0.0
  0
LINE
  5
1B3FF
330
1F
100
AcDbEntity
  8
0
100
AcDbLine
 10
475.4089126067168
 20
235.628114203819
 30
0.0
 11
475.6626848423173
 21
235.105396667899
 31
0.0
  0
LINE
  5
1B400
330
1F
100
AcDbEntity
  8
0
100
AcDbLine
 10
475.939267906797
 20
235.643105678779
 30
0.0
 11
475.9214690367167
 21
235.6844403110188
 31
0.0
  0
LINE
  5
1B401
330
1F
100
AcDbEntity
  8
0
100
AcDbLine
 10
480.5676162567973
 20
220.995835440139
 30
0.0
 11
480.4859733222373
 21
221.3991233789386
 31
0.0
  0
LINE
  5
1B402
330
1F
100
AcDbEntity
  8
0
100
AcDbLine
 10
481.4124185814375
 20
224.4951744766188
 30
0.0
 11
481.430036163197
 21
224.4540999166986
 31
0.0
  0
LINE
  5
1B403
330
1F
100
AcDbEntity
  8
0
100
AcDbLine
 10
482.4845305196771
 20
221.3086121981389
 30
0.0
 11
482.428976210557
 21
221.4455782806988
 31
0.0
  0
LINE
  5
1B404
330
1F
100
AcDbEntity
  8
0
100
AcDbLine
 10
482.5577405676772
 20
221.1594258057387
 30
0.0
 11
482.5021862585571
 21
221.2963918882985
 31
0.0
  0
LINE
  5
1B405
330
1F
100
AcDbEntity
  8
0
100
AcDbLine
 10
481.430031915277
 20
224.4540981056587
 30
0.0
 11
481.8732905080771
 21
223.2556106474988
 31
0.0
  0
LINE
  5
1B406
330
1F
100
AcDbEntity
  8
0
100
AcDbLine
 10
481.7515962194367
 20
222.1943224176587
 30
0.0
 11
481.6699531875173
 21
222.597610837099
 31
0.0
  0
LINE
  5
1B407
330
1F
100
AcDbEntity
  8
0
100
AcDbLine
 10
481.9169032785569
 20
222.5589134331788
 30
0.0
 11
481.901382979517
 21
223.1080645557388
 31
0.0
  0
LINE
  5
1B408
330
1F
100
AcDbEntity
  8
0
100
AcDbLine
 10
472.5962856376772
 20
232.2591053953386
 30
0.0
 11
474.223520411517
 21
232.2591053953386
 31
0.0
  0
LINE
  5
1B409
330
1F
100
AcDbEntity
  8
0
100
AcDbLine
 10
473.8477805755173
 20
232.6030661384586
 30
0.0
 11
474.4741020514368
 21
232.6030661384586
 31
0.0
  0
LINE
  5
1B40A
330
1F
100
AcDbEntity
  8
0
100
AcDbLine
 10
472.2496130829571
 20
233.5117253536589
 30
0.0
 11
473.4654135950371
 21
233.5117253536589
 31
0.0
  0
LINE
  5
1B40B
330
1F
100
AcDbEntity
  8
0
100
AcDbLine
 10
481.6699531875973
 20
222.597610837099
 30
0.0
 11
480.4859733222373
 21
221.3991233789386
 31
0.0
  0
LINE
  5
1B40C
330
1F
100
AcDbEntity
  8
0
100
AcDbLine
 10
481.7515954074372
 20
222.1943230287786
 30
0.0
 11
480.5676178860768
 21
220.9958342138186
 31
0.0
  0
LINE
  5
1B40D
330
1F
100
AcDbEntity
  8
0
100
AcDbLine
 10
473.8386302799169
 20
234.7194549886187
 30
0.0
 11
472.6228297678368
 21
234.7194549886187
 31
0.0
  0
LINE
  5
1B40E
330
1F
100
AcDbEntity
  8
0
100
AcDbLine
 10
475.4089126067168
 20
235.628114203819
 30
0.0
 11
474.7825911307171
 21
235.628114203819
 31
0.0
  0
LINE
  5
1B40F
330
1F
100
AcDbEntity
  8
0
100
AcDbLine
 10
475.3709147844771
 20
235.9720749469386
 30
0.0
 11
473.7436800106372
 21
235.9720749469386
 31
0.0
  0
SPLINE
  5
1B410
330
1F
100
AcDbEntity
  8
0
100
AcDbSpline
210
0.0
220
0.0
230
1.0
 70
     8
 71
     3
 72
    12
 73
     8
 74
     6
 42
0.0000000001
 43
0.0000000001
 44
0.0000000001
 12
-0.7027862715588174
 22
-0.711401051804435
 32
0.0
 13
0.3468799006781555
 23
-0.9379095556105145
 33
0.0
 40
0.0
 40
0.0
 40
0.0
 40
0.0
 40
0.1635367233307536
 40
0.3176816842979775
 40
0.4616583731416314
 40
0.596445441957121
 40
0.724985569154817
 40
0.724985569154817
 40
0.724985569154817
 40
0.724985569154817
 10
471.7880138464768
 20
234.444603248299
 30
0.0
 10
471.7497033917926
 20
234.405823182637
 30
0.0
 10
471.6811782679439
 20
234.3242773295332
 30
0.0
 10
471.6047757521526
 20
234.1896249438051
 30
0.0
 10
471.5607112801225
 20
234.0509205318884
 30
0.0
 10
471.5514926315204
 20
233.9140379382788
 30
0.0
 10
471.569805722852
 20
233.8267634319185
 30
0.0
 10
471.5846683850371
 20
233.7865770940591
 30
0.0
 11
471.7880138464768
 21
234.444603248299
 31
0.0
 11
471.6833792212772
 21
234.318921686059
 31
0.0
 11
471.608170617517
 21
234.184369335979
 31
0.0
 11
471.5656618785573
 21
234.0468110063787
 31
0.0
 11
471.5577108403971
 21
233.9122586562987
 31
0.0
 11
471.5846683850371
 21
233.7865770940591
 31
0.0
  0
SPLINE
  5
1B411
330
1F
100
AcDbEntity
  8
0
100
AcDbSpline
210
0.0
220
0.0
230
1.0
 70
     8
 71
     3
 72
    12
 73
     8
 74
     6
 42
0.0000000001
 43
0.0000000001
 44
0.0000000001
 12
-1.0
 22
0.0
 32
0.0
 13
-0.7027862715748641
 23
-0.7114010517885827
 33
0.0
 40
0.0
 40
0.0
 40
0.0
 40
0.0
 40
0.1659270111999579
 40
0.3382181738964956
 40
0.5135976822213888
 40
0.6884327400904442
 40
0.8591093605242022
 40
0.8591093605242022
 40
0.8591093605242022
 40
0.8591093605242022
 10
473.7436800106372
 20
235.9720749469386
 30
0.0
 10
473.6883710069038
 20
235.9720749469386
 30
0.0
 10
473.5754549910979
 20
235.9618121715322
 30
0.0
 10
473.4090191858852
 20
235.9190400649152
 30
0.0
 10
473.2482162359911
 20
235.8503804743904
 30
0.0
 10
473.0999699505914
 20
235.7588037327281
 30
0.0
 10
473.0119915647039
 20
235.6835788545431
 30
0.0
 10
472.9720085027974
 20
235.643105678779
 30
0.0
 11
473.7436800106372
 21
235.9720749469386
 31
0.0
 11
473.5783771846371
 21
235.9576961861387
 31
0.0
 11
473.4114121390367
 21
235.9151883246188
 31
0.0
 11
473.2500820475173
 21
235.8464091598187
 31
0.0
 11
473.1014378091971
 21
235.7543646712586
 31
0.0
 11
472.9720085027974
 21
235.643105678779
 31
0.0
  0
SPLINE
  5
1B412
330
1F
100
AcDbEntity
  8
0
100
AcDbSpline
210
0.0
220
0.0
230
1.0
 70
     8
 71
     3
 72
    10
 73
     6
 74
     4
 42
0.0000000001
 43
0.0000000001
 44
0.0000000001
 12
0.2952473716301223
 22
0.9554208442071507
 32
0.0
 13
-0.4345327770503011
 23
0.9006560196151212
 33
0.0
 40
0.0
 40
0.0
 40
0.0
 40
0.0
 40
0.0924956794393219
 40
0.1790201549061967
 40
0.2011371258388552
 40
0.2011371258388552
 40
0.2011371258388552
 40
0.2011371258388552
 10
475.7150696591974
 20
235.2749139974187
 30
0.0
 10
475.7241726946112
 20
235.3043714307971
 30
0.0
 10
475.7342523635842
 20
235.3642488130741
 30
0.0
 10
475.7227630290546
 20
235.431872705043
 30
0.0
 10
475.7085467680235
 20
235.4652253151898
 30
0.0
 10
475.7053432517571
 20
235.4718652428585
 30
0.0
 11
475.7150696591974
 21
235.2749139974187
 31
0.0
 11
475.7291678658374
 21
235.3663289375788
 31
0.0
 11
475.7140030099973
 21
235.4515141006189
 31
0.0
 11
475.7053432517571
 21
235.4718652428585
 31
0.0
  0
SPLINE
  5
1B413
330
1F
100
AcDbEntity
  8
0
100
AcDbSpline
210
0.0
220
0.0
230
1.0
 70
     8
 71
     3
 72
    13
 73
     9
 74
     7
 42
0.0000000001
 43
0.0000000001
 44
0.0000000001
 12
1.0
 22
0.0
 32
0.0
 13
0.2952473714861899
 23
0.9554208442516291
 33
0.0
 40
0.0
 40
0.0
 40
0.0
 40
0.0
 40
0.1118570512023478
 40
0.228394451806839
 40
0.3460100374856569
 40
0.4609088368162823
 40
0.5697902007340731
 40
0.6705597082787474
 40
0.6705597082787474
 40
0.6705597082787474
 40
0.6705597082787474
 10
474.4741020514368
 20
232.6030661384586
 30
0.0
 10
474.5113877351709
 20
232.6030661384586
 30
0.0
 10
474.5876870303837
 20
232.6117589067301
 30
0.0
 10
474.6981385666272
 20
232.6471631123474
 30
0.0
 10
474.8010315368019
 20
232.7029380769229
 30
0.0
 10
474.8896317928913
 20
232.7755300675449
 30
0.0
 10
474.9581597795929
 20
232.8602556530325
 30
0.0
 10
474.9886360311742
 20
232.9241739156146
 30
0.0
 10
474.998553341917
 20
232.956266344939
 30
0.0
 11
474.4741020514368
 21
232.6030661384586
 31
0.0
 11
474.5853097784773
 21
232.6151011436589
 31
0.0
 11
474.696377078397
 21
232.6503859934985
 31
0.0
 11
474.7997348983971
 21
232.706516083819
 31
0.0
 11
474.888339573757
 21
232.7796662416588
 31
0.0
 11
474.956152842317
 21
232.8648514047789
 31
0.0
 11
474.998553341917
 21
232.956266344939
 31
0.0
  0
SPLINE
  5
1B414
330
1F
100
AcDbEntity
  8
0
100
AcDbSpline
210
0.0
220
0.0
230
1.0
 70
     8
 71
     3
 72
    11
 73
     7
 74
     5
 42
0.0000000001
 43
0.0000000001
 44
0.0000000001
 12
0.4480268296084875
 22
-0.8940201116031827
 32
0.0
 13
1.0
 23
0.0
 33
0.0
 40
0.0
 40
0.0
 40
0.0
 40
0.0
 40
0.059671091045238
 40
0.1483599658633868
 40
0.244340688956258
 40
0.3488057881788047
 40
0.3488057881788047
 40
0.3488057881788047
 40
0.3488057881788047
 10
471.9547526621571
 20
233.6647813132588
 30
0.0
 10
471.9636640787371
 20
233.6469989281003
 30
0.0
 10
471.9914812661853
 20
233.6053988060585
 30
0.0
 10
472.056400519534
 20
233.5535813830067
 30
0.0
 10
472.1476176741469
 20
233.5188570132294
 30
0.0
 10
472.2147913832162
 20
233.5117253536589
 30
0.0
 10
472.2496130829571
 20
233.5117253536589
 30
0.0
 11
471.9547526621571
 21
233.6647813132588
 31
0.0
 11
471.9879171379973
 21
233.6151752990188
 31
0.0
 11
472.0565839383972
 21
233.5590452086988
 31
0.0
 11
472.1458435517574
 21
233.5237603588587
 31
0.0
 11
472.2496130829571
 21
233.5117253536589
 31
0.0
  0
SPLINE
  5
1B415
330
1F
100
AcDbEntity
  8
0
100
AcDbSpline
210
0.0
220
0.0
230
1.0
 70
     8
 71
     3
 72
    11
 73
     7
 74
     5
 42
0.0000000001
 43
0.0000000001
 44
0.0000000001
 12
-0.4466461417826464
 22
0.894710692922956
 32
0.0
 13
-1.0
 23
0.0
 33
0.0
 40
0.0
 40
0.0
 40
0.0
 40
0.0
 40
0.0049038205030465
 40
0.0666194975450001
 40
0.1335347348405183
 40
0.2076608851332748
 40
0.2076608851332748
 40
0.2076608851332748
 40
0.2076608851332748
 10
473.641353461517
 20
233.4204851942989
 30
0.0
 10
473.6406233706811
 20
233.4219476945123
 30
0.0
 10
473.6303530986629
 20
233.4416339506733
 30
0.0
 10
473.5997848083502
 20
233.4761350030208
 30
0.0
 10
473.5375258192355
 20
233.5057561224851
 30
0.0
 10
473.4901223118014
 20
233.5117253536589
 30
0.0
 10
473.4654135950371
 20
233.5117253536589
 30
0.0
 11
473.641353461517
 21
233.4204851942989
 31
0.0
 11
473.6390844103168
 21
233.4248324764587
 31
0.0
 11
473.5986611431973
 21
233.4714670587784
 31
0.0
 11
473.5388182586367
 21
233.5014083037388
 31
0.0
 11
473.4654135950371
 21
233.5117253536589
 31
0.0
  0
SPLINE
  5
1B416
330
1F
100
AcDbEntity
  8
0
100
AcDbSpline
210
0.0
220
0.0
230
1.0
 70
     8
 71
     3
 72
    11
 73
     7
 74
     5
 42
0.0000000001
 43
0.0000000001
 44
0.0000000001
 12
0.4480268296084875
 22
-0.8940201116031827
 32
0.0
 13
1.0
 23
0.0
 33
0.0
 40
0.0
 40
0.0
 40
0.0
 40
0.0
 40
0.0596710910451748
 40
0.1483599658015304
 40
0.2443406888940972
 40
0.3488057881172708
 40
0.3488057881172708
 40
0.3488057881172708
 40
0.3488057881172708
 10
473.5529201547972
 20
232.756122098059
 30
0.0
 10
473.5618315713773
 20
232.7383397129004
 30
0.0
 10
473.589648758821
 20
232.696739590885
 30
0.0
 10
473.654568012098
 20
232.6449221677801
 30
0.0
 10
473.7457851667119
 20
232.6101977980361
 30
0.0
 10
473.8129588757763
 20
232.6030661384586
 30
0.0
 10
473.8477805755173
 20
232.6030661384586
 30
0.0
 11
473.5529201547972
 21
232.756122098059
 31
0.0
 11
473.5860846306372
 21
232.706516083819
 31
0.0
 11
473.654751430957
 21
232.6503859934985
 31
0.0
 11
473.744011044317
 21
232.6151011436589
 31
0.0
 11
473.8477805755173
 21
232.6030661384586
 31
0.0
  0
SPLINE
  5
1B417
330
1F
100
AcDbEntity
  8
0
100
AcDbSpline
210
0.0
220
0.0
230
1.0
 70
     8
 71
     3
 72
    11
 73
     7
 74
     5
 42
0.0000000001
 43
0.0000000001
 44
0.0000000001
 12
-1.0
 22
-0.0000000173427585
 32
0.0
 13
-0.7732661165852633
 23
0.6340816295565945
 33
0.0
 40
0.0
 40
0.0
 40
0.0
 40
0.0
 40
0.1118867152476679
 40
0.2170111649130409
 40
0.3152793464490563
 40
0.3275480813972722
 40
0.3275480813972722
 40
0.3275480813972722
 40
0.3275480813972722
 10
478.3891686479972
 20
220.7608364501386
 30
0.0
 10
478.3518730762479
 20
220.7608364494918
 30
0.0
 10
478.2793010257905
 20
220.7670785341626
 30
0.0
 10
478.177747454547
 20
220.7968274353112
 30
0.0
 10
478.1144799441768
 20
220.8327720887852
 30
0.0
 10
478.0855887237802
 20
220.8556423202158
 30
0.0
 10
478.0824263914372
 20
220.8582354466987
 30
0.0
 11
478.3891686479972
 21
220.7608364501386
 31
0.0
 11
478.277749711597
 21
220.771056903179
 31
0.0
 11
478.1771006519968
 21
220.8014035128588
 31
0.0
 11
478.0920456901568
 21
220.8506202678188
 31
0.0
 11
478.0824263914372
 21
220.8582354466987
 31
0.0
  0
SPLINE
  5
1B418
330
1F
100
AcDbEntity
  8
0
100
AcDbSpline
210
0.0
220
0.0
230
1.0
 70
     8
 71
     3
 72
    12
 73
     8
 74
     6
 42
0.0000000001
 43
0.0000000001
 44
0.0000000001
 12
-0.702787943834875
 22
-0.7113993997750832
 32
0.0
 13
-0.9999999999999996
 23
0.0000000302439591
 33
0.0
 40
0.0
 40
0.0
 40
0.0
 40
0.0
 40
0.1215929674902386
 40
0.2466174436581608
 40
0.3721428516972486
 40
0.4953891634828649
 40
0.613676269939079
 40
0.613676269939079
 40
0.613676269939079
 40
0.613676269939079
 10
480.5676178860768
 20
220.9958342138186
 30
0.0
 10
480.5391331955411
 20
220.9670004924555
 30
0.0
 10
480.4763442822501
 20
220.9133022098616
 30
0.0
 10
480.3704619961865
 20
220.8478263591478
 30
0.0
 10
480.2554256096938
 20
220.7986981455307
 30
0.0
 10
480.1364682283754
 20
220.7681593326567
 30
0.0
 10
480.0558324573225
 20
220.7608364489461
 30
0.0
 10
480.0164034218371
 20
220.7608364501386
 30
0.0
 11
480.5676178860768
 21
220.9958342138186
 31
0.0
 11
480.4754242203975
 21
220.9165551008589
 31
0.0
 11
480.3691551981573
 21
220.8506914951788
 31
0.0
 11
480.2536898472768
 21
220.8014534934989
 31
0.0
 11
480.1342468221571
 21
220.7710722966988
 31
0.0
 11
480.0164034218371
 21
220.7608364501386
 31
0.0
  0
SPLINE
  5
1B419
330
1F
100
AcDbEntity
  8
0
100
AcDbSpline
210
0.0
220
0.0
230
1.0
 70
     8
 71
     3
 72
    11
 73
     7
 74
     5
 42
0.0000000001
 43
0.0000000001
 44
0.0000000001
 12
0.0286243583030237
 22
-0.999590239103874
 32
0.0
 13
-0.702787975389234
 23
-0.711399368602687
 33
0.0
 40
0.0
 40
0.0
 40
0.0
 40
0.0
 40
0.0806418923092808
 40
0.1836873359377649
 40
0.2939683076258599
 40
0.4105461000166412
 40
0.4105461000166412
 40
0.4105461000166412
 40
0.4105461000166412
 10
481.9168717529571
 20
222.5589962618189
 30
0.0
 10
481.9176411937637
 20
222.5321266456805
 30
0.0
 10
481.9123912095344
 20
222.4705869709809
 30
0.0
 10
481.8824680636797
 20
222.3764066269136
 30
0.0
 10
481.8278394030953
 20
222.2801960915277
 30
0.0
 10
481.7789052310003
 20
222.2219674847452
 30
0.0
 10
481.7515954074372
 20
222.1943230287786
 30
0.0
 11
481.9168717529571
 21
222.5589962618189
 31
0.0
 11
481.9104396861574
 21
222.4786112923787
 31
0.0
 11
481.8800289591971
 21
222.3801554589388
 31
0.0
 11
481.8261954915173
 21
222.2839065603787
 31
0.0
 11
481.7515954074372
 21
222.1943230287786
 31
0.0
  0
SPLINE
  5
1B41A
330
1F
100
AcDbEntity
  8
0
100
AcDbSpline
210
0.0
220
0.0
230
1.0
 70
     8
 71
     3
 72
     9
 73
     5
 74
     3
 42
0.0000000001
 43
0.0000000001
 44
0.0000000001
 12
-0.7731824282599593
 22
0.634183674206482
 32
0.0
 13
-0.4410920144865858
 23
0.8974618848486914
 33
0.0
 40
0.0
 40
0.0
 40
0.0
 40
0.0
 40
0.1127811825186493
 40
0.1951800134895643
 40
0.1951800134895643
 40
0.1951800134895643
 40
0.1951800134895643
 10
477.6575372831969
 20
221.2065355954985
 30
0.0
 10
477.6284704736762
 20
221.2303769237355
 30
0.0
 10
477.5826018405785
 20
221.2776062940117
 30
0.0
 10
477.5484180644851
 20
221.3334300341411
 30
0.0
 10
477.536302909037
 20
221.3580799708586
 30
0.0
 11
477.6575372831969
 21
221.2065355954985
 31
0.0
 11
477.579363230557
 21
221.287827739179
 31
0.0
 11
477.536302909037
 21
221.3580799708586
 31
0.0
  0
SPLINE
  5
1B41B
330
1F
100
AcDbEntity
  8
0
100
AcDbSpline
210
0.0
220
0.0
230
1.0
 70
     8
 71
     3
 72
     9
 73
     5
 74
     3
 42
0.0000000001
 43
0.0000000001
 44
0.0000000001
 12
0.346883767095878
 22
-0.9379081256313824
 32
0.0
 13
0.0284524752127752
 23
-0.9995951463739039
 33
0.0
 40
0.0
 40
0.0
 40
0.0
 40
0.0
 40
0.1285171686369851
 40
0.1504301215514243
 40
0.1504301215514243
 40
0.1504301215514243
 40
0.1504301215514243
 10
481.8732883911174
 20
223.255609744939
 30
0.0
 10
481.8881485643151
 20
223.215430646023
 30
0.0
 10
481.8986049122856
 20
223.1654254279167
 30
0.0
 10
481.9011358955208
 20
223.1153650320377
 30
0.0
 10
481.9013437214374
 20
223.108063671579
 30
0.0
 11
481.8732883911174
 21
223.255609744939
 31
0.0
 11
481.900230354557
 21
223.1299483218988
 31
0.0
 11
481.9013437214374
 21
223.108063671579
 31
0.0
  0
SPLINE
  5
1B41C
330
1F
100
AcDbEntity
  8
0
100
AcDbSpline
210
0.0
220
0.0
230
1.0
 70
     8
 71
     3
 72
    11
 73
     7
 74
     5
 42
0.0000000001
 43
0.0000000001
 44
0.0000000001
 12
-0.9020208878472198
 22
0.4316923880349446
 32
0.0
 13
-0.4405417220984197
 23
0.8977321377173476
 33
0.0
 40
0.0
 40
0.0
 40
0.0
 40
0.0
 40
0.0528850135376283
 40
0.3525881632433782
 40
0.6390445235117558
 40
0.77369997941824
 40
0.77369997941824
 40
0.77369997941824
 40
0.77369997941824
 10
479.4612268130371
 20
219.0085495668589
 30
0.0
 10
479.4453256840821
 20
219.0161595861207
 30
0.0
 10
479.3402907503578
 20
219.0688699189882
 30
0.0
 10
479.1618457349868
 20
219.1892813158771
 30
0.0
 10
479.0010098588059
 20
219.371788312704
 30
0.0
 10
478.9310850374221
 20
219.4939515359101
 30
0.0
 10
478.9113112552771
 20
219.5342463793388
 30
0.0
 11
479.4612268130371
 21
219.0085495668589
 31
0.0
 11
479.4139651309571
 21
219.0322805184589
 31
0.0
 11
479.1667444107173
 21
219.2017027526187
 31
0.0
 11
478.9782614442366
 21
219.4174141748588
 31
0.0
 11
478.9113112552771
 21
219.5342463793388
 31
0.0
  0
SPLINE
  5
1B41D
330
1F
100
AcDbEntity
  8
0
100
AcDbSpline
210
0.0
220
0.0
230
1.0
 70
     8
 71
     3
 72
    10
 73
     6
 74
     4
 42
0.0000000001
 43
0.0000000001
 44
0.0000000001
 12
-0.4405417220582059
 22
0.8977321377370815
 32
0.0
 13
-0.8729285400867967
 23
0.4878480951094654
 33
0.0
 40
0.0
 40
0.0
 40
0.0
 40
0.0
 40
0.1346554559064597
 40
0.4211118161745166
 40
0.6870565382721923
 40
0.6870565382721923
 40
0.6870565382721923
 40
0.6870565382721923
 10
482.4289245999969
 20
221.4455529539789
 30
0.0
 10
482.4091508178536
 20
221.4858477974086
 30
0.0
 10
482.3392295663915
 20
221.6080082991069
 30
0.0
 10
482.1858956230061
 20
221.7819911508981
 30
0.0
 10
482.033508995812
 20
221.8880770039787
 30
0.0
 10
481.9561254164772
 20
221.9313238793386
 30
0.0
 11
482.4289245999969
 21
221.4455529539789
 31
0.0
 11
482.3619744110373
 21
221.5623851584589
 31
0.0
 11
482.1734914445571
 21
221.778096580699
 31
0.0
 11
481.9561254164772
 21
221.9313238793386
 31
0.0
  0
SPLINE
  5
1B41E
330
1F
100
AcDbEntity
  8
0
100
AcDbSpline
210
0.0
220
0.0
230
1.0
 70
     8
 71
     3
 72
    12
 73
     8
 74
     6
 42
0.0000000001
 43
0.0000000001
 44
0.0000000001
 12
-0.4417675303289128
 22
0.8971295609593374
 32
0.0
 13
-1.0
 23
0.0
 33
0.0
 40
0.0
 40
0.0
 40
0.0
 40
0.0
 40
0.0820203269760148
 40
0.2119873707938707
 40
0.3492793492695836
 40
0.4962538192971856
 40
0.6533294022007626
 40
0.6533294022007626
 40
0.6533294022007626
 40
0.6533294022007626
 10
475.9214881515171
 20
235.6844497234986
 30
0.0
 10
475.9094101790887
 20
235.7089773434752
 30
0.0
 10
475.8722506174869
 20
235.7696063461218
 30
0.0
 10
475.7884246300445
 20
235.8526751539854
 30
0.0
 10
475.6671377625577
 20
235.9215419170251
 30
0.0
 10
475.524942992209
 20
235.9633405195519
 30
0.0
 10
475.4232733121116
 20
235.9720749469386
 30
0.0
 10
475.3709147844771
 20
235.9720749469386
 30
0.0
 11
475.9214881515171
 21
235.6844497234986
 31
0.0
 11
475.8786018586373
 21
235.7543646712586
 31
0.0
 11
475.7868454168773
 21
235.8464091598187
 31
0.0
 11
475.6680240642373
 21
235.9151883246188
 31
0.0
 11
475.5273308641569
 21
235.9576961861387
 31
0.0
 11
475.3709147844771
 21
235.9720749469386
 31
0.0
  0
SPLINE
  5
1B41F
330
1F
100
AcDbEntity
  8
0
100
AcDbSpline
210
0.0
220
0.0
230
1.0
 70
     8
 71
     3
 72
     9
 73
     5
 74
     3
 42
0.0000000001
 43
0.0000000001
 44
0.0000000001
 12
0.8116069285416484
 22
-0.5842038972338269
 32
0.0
 13
0.7251470201452685
 23
-0.6885940743097036
 33
0.0
 40
0.0
 40
0.0
 40
0.0
 40
0.0
 40
0.0204383372802525
 40
0.1026554976672003
 40
0.1026554976672003
 40
0.1026554976672003
 40
0.1026554976672003
 10
481.8765550897571
 20
220.742421397579
 30
0.0
 10
481.882084388472
 20
220.7384413454816
 30
0.0
 10
481.9095932226059
 20
220.7180910961381
 30
0.0
 10
481.9357580541103
 20
220.6958904079019
 30
0.0
 10
481.9556312303967
 20
220.6770189914189
 30
0.0
 11
481.8765550897571
 21
220.742421397579
 31
0.0
 11
481.8929849312771
 21
220.7302646735791
 31
0.0
 11
481.9556312303967
 21
220.6770189914189
 31
0.0
  0
SPLINE
  5
1B420
330
1F
100
AcDbEntity
  8
0
100
AcDbSpline
210
0.0
220
0.0
230
1.0
 70
     8
 71
     3
 72
     9
 73
     5
 74
     3
 42
0.0000000001
 43
0.0000000001
 44
0.0000000001
 12
-0.2251133326778048
 22
-0.9743325856455237
 32
0.0
 13
-0.2293063609611764
 23
-0.9733542997402039
 33
0.0
 40
0.0
 40
0.0
 40
0.0
 40
0.0
 40
0.1252867744714141
 40
0.2484376283073357
 40
0.2484376283073357
 40
0.2484376283073357
 40
0.2484376283073357
 10
482.5499201511168
 20
220.4732959134187
 30
0.0
 10
482.5405189100028
 20
220.4326055844461
 30
0.0
 10
482.5218031315779
 20
220.3519356002367
 30
0.0
 10
482.5029151530578
 20
220.2713057307715
 30
0.0
 10
482.493502061677
 20
220.2313492597389
 30
0.0
 11
482.5499201511168
 21
220.4732959134187
 31
0.0
 11
482.5215984308774
 21
220.3512522490189
 31
0.0
 11
482.493502061677
 21
220.2313492597389
 31
0.0
  0
SPLINE
  5
1B421
330
1F
100
AcDbEntity
  8
0
100
AcDbSpline
210
0.0
220
0.0
230
1.0
 70
     8
 71
     3
 72
    10
 73
     6
 74
     4
 42
0.0000000001
 43
0.0000000001
 44
0.0000000001
 12
0.0925277383545993
 22
0.9957101072274916
 32
0.0
 13
-0.0447686030290738
 23
0.9989973834714611
 33
0.0
 40
0.0
 40
0.0
 40
0.0
 40
0.0
 40
0.2033781077183118
 40
0.4326873661840733
 40
0.686635032614634
 40
0.686635032614634
 40
0.686635032614634
 40
0.686635032614634
 10
482.5499201511168
 20
220.4732959134187
 30
0.0
 10
482.5561928565628
 20
220.5407977925667
 30
0.0
 10
482.5645813611235
 20
220.6848806747055
 30
0.0
 10
482.5664454136949
 20
220.913812853352
 30
0.0
 10
482.5615301951
 20
221.0748614543044
 30
0.0
 10
482.5577405676772
 20
221.1594258057387
 30
0.0
 11
482.5499201511168
 21
220.4732959134187
 31
0.0
 11
482.5624848567171
 21
220.6762855261388
 31
0.0
 11
482.5649764353571
 21
220.9055812479785
 31
0.0
 11
482.5577405676772
 21
221.1594258057387
 31
0.0
  0
SPLINE
  5
1B422
330
1F
100
AcDbEntity
  8
0
100
AcDbSpline
210
0.0
220
0.0
230
1.0
 70
     8
 71
     3
 72
     9
 73
     5
 74
     3
 42
0.0000000001
 43
0.0000000001
 44
0.0000000001
 12
0.2293063609611764
 22
0.9733542997402039
 32
0.0
 13
0.2251133326778048
 23
0.9743325856455237
 33
0.0
 40
0.0
 40
0.0
 40
0.0
 40
0.0
 40
0.1231135269851636
 40
0.2484376283715678
 40
0.2484376283715678
 40
0.2484376283715678
 40
0.2484376283715678
 10
482.2998490029569
 20
219.6046877319789
 30
0.0
 10
482.3092592412429
 20
219.6446320922613
 30
0.0
 10
482.328147250251
 20
219.7252619545453
 30
0.0
 10
482.3468630502745
 20
219.8059319338231
 30
0.0
 10
482.3562670923172
 20
219.8466343857389
 30
0.0
 11
482.2998490029569
 21
219.6046877319789
 31
0.0
 11
482.3279368970371
 21
219.7245543692591
 31
0.0
 11
482.3562670923172
 21
219.8466343857389
 31
0.0
  0
SPLINE
  5
1B423
330
1F
100
AcDbEntity
  8
0
100
AcDbSpline
210
0.0
220
0.0
230
1.0
 70
     8
 71
     3
 72
    16
 73
    12
 74
    10
 42
0.0000000001
 43
0.0000000001
 44
0.0000000001
 12
-0.5199053036005994
 22
-0.8542239023159963
 32
0.0
 13
-0.901990186359777
 23
0.4317565329102211
 33
0.0
 40
0.0
 40
0.0
 40
0.0
 40
0.0
 40
0.3007438469974664
 40
0.6161469816899058
 40
0.9412454006836536
 40
1.2699768102549
 40
1.595887809395717
 40
1.912827606294076
 40
2.21565010613445
 40
2.5009386489581
 40
2.700931692542772
 40
2.700931692542772
 40
2.700931692542772
 40
2.700931692542772
 10
482.2998490029569
 20
219.6046877319789
 30
0.0
 10
482.2477295625971
 20
219.5190535377857
 30
0.0
 10
482.1240575701547
 20
219.3535109993505
 30
0.0
 10
481.8966295681489
 20
219.1356129282957
 30
0.0
 10
481.6311152200072
 20
218.9494144613806
 30
0.0
 10
481.3382089387295
 20
218.8024007167384
 30
0.0
 10
481.0295802950226
 20
218.7004016783443
 30
0.0
 10
480.7175039273437
 20
218.6475641811362
 30
0.0
 10
480.4143619582411
 20
218.646156564498
 30
0.0
 10
480.1540949674182
 20
218.6926940211774
 30
0.0
 10
480.0018916295484
 20
218.7498317013172
 30
0.0
 10
479.9417610419972
 20
218.7786144690186
 30
0.0
 11
482.2998490029569
 21
219.6046877319789
 31
0.0
 11
482.1209951571171
 21
219.3629065016587
 31
0.0
 11
481.8939527040773
 21
219.1439753209386
 31
0.0
 11
481.6280660247167
 21
218.9569104771788
 31
0.0
 11
481.3342800654369
 21
218.8094175967787
 31
0.0
 11
481.0246901703171
 21
218.7075742062191
 31
0.0
 11
480.7120444405572
 21
218.6555791822186
 31
0.0
 11
480.4092219407167
 21
218.6555791822186
 31
0.0
 11
480.1287115663175
 21
218.7075742062191
 31
0.0
 11
479.9417610419972
 21
218.7786144690186
 31
0.0
  0
SPLINE
  5
1B424
330
1F
100
AcDbEntity
  8
0
100
AcDbSpline
210
0.0
220
0.0
230
1.0
 70
     8
 71
     3
 72
    10
 73
     6
 74
     4
 42
0.0000000001
 43
0.0000000001
 44
0.0000000001
 12
-0.0263485007344198
 22
-0.9996528179868489
 32
0.0
 13
0.0650706170163946
 23
-0.9978806616029322
 33
0.0
 40
0.0
 40
0.0
 40
0.0
 40
0.0
 40
0.045382821455323
 40
0.2839896499174069
 40
0.5479332663336223
 40
0.5479332663336223
 40
0.5479332663336223
 40
0.5479332663336223
 10
478.7684265030373
 20
220.3679731647787
 30
0.0
 10
478.7680279132692
 20
220.35285080966
 30
0.0
 10
478.766077879526
 20
220.2582058391916
 30
0.0
 10
478.7682459748741
 20
220.075500043231
 30
0.0
 10
478.7767702963516
 20
219.9081682711037
 30
0.0
 10
478.7824952876775
 20
219.8203735275786
 30
0.0
 11
478.7684265030373
 21
220.3679731647787
 31
0.0
 11
478.7674831605571
 21
220.3226001486985
 31
0.0
 11
478.7696190680774
 21
220.0840028802988
 31
0.0
 11
478.7824952876775
 21
219.8203735275786
 31
0.0
  0
SPLINE
  5
1B425
330
1F
100
AcDbEntity
  8
0
100
AcDbSpline
210
0.0
220
0.0
230
1.0
 70
     8
 71
     3
 72
     9
 73
     5
 74
     3
 42
0.0000000001
 43
0.0000000001
 44
0.0000000001
 12
0.7525667672665635
 22
-0.6585159533420235
 32
0.0
 13
0.7523180308986809
 23
-0.6588001065457805
 33
0.0
 40
0.0
 40
0.0
 40
0.0
 40
0.0
 40
0.0493208740907484
 40
0.0988344451451694
 40
0.0988344451451694
 40
0.0988344451451694
 40
0.0988344451451694
 10
481.9445088090373
 20
220.5992636812591
 30
0.0
 10
481.9568812259617
 20
220.5884374871186
 30
0.0
 10
481.9816722737509
 20
220.5667403720275
 30
0.0
 10
482.006459225958
 20
220.5450385782609
 30
0.0
 10
482.0188758767175
 20
220.5341653962989
 30
0.0
 11
481.9445088090373
 21
220.5992636812591
 31
0.0
 11
481.9816229188772
 21
220.5667815096588
 31
0.0
 11
482.0188758767175
 21
220.5341653962989
 31
0.0
  0
SPLINE
  5
1B426
330
1F
100
AcDbEntity
  8
0
100
AcDbSpline
210
0.0
220
0.0
230
1.0
 70
     8
 71
     3
 72
    12
 73
     8
 74
     6
 42
0.0000000001
 43
0.0000000001
 44
0.0000000001
 12
0.4417675302805304
 22
-0.8971295609831619
 32
0.0
 13
1.0
 23
0.0
 33
0.0
 40
0.0
 40
0.0
 40
0.0
 40
0.0
 40
0.082020326976247
 40
0.2119873707373405
 40
0.3492793491435085
 40
0.4962538192707564
 40
0.6533294021745988
 40
0.6533294021745988
 40
0.6533294021745988
 40
0.6533294021745988
 10
472.045712270637
 20
232.5467306187786
 30
0.0
 10
472.057790243064
 20
232.5222029988013
 30
0.0
 10
472.0949498046472
 20
232.461573996161
 30
0.0
 10
472.1787757921293
 20
232.3785051883997
 30
0.0
 10
472.3000626595609
 20
232.3096384253092
 30
0.0
 10
472.4422574299099
 20
232.2678398227157
 30
0.0
 10
472.5439271100425
 20
232.2591053953386
 30
0.0
 10
472.5962856376772
 20
232.2591053953386
 30
0.0
 11
472.045712270637
 21
232.5467306187786
 31
0.0
 11
472.0885985635171
 21
232.4768156710186
 31
0.0
 11
472.1803550052769
 21
232.3847711825385
 31
0.0
 11
472.2991763578368
 21
232.3159920177388
 31
0.0
 11
472.4398695579973
 21
232.2734841561389
 31
0.0
 11
472.5962856376772
 21
232.2591053953386
 31
0.0
  0
SPLINE
  5
1B427
330
1F
100
AcDbEntity
  8
0
100
AcDbSpline
210
0.0
220
0.0
230
1.0
 70
     8
 71
     3
 72
    12
 73
     8
 74
     6
 42
0.0000000001
 43
0.0000000001
 44
0.0000000001
 12
1.0
 22
0.0
 32
0.0
 13
0.2952473714324959
 23
0.9554208442682218
 33
0.0
 40
0.0
 40
0.0
 40
0.0
 40
0.0
 40
0.0804454018518733
 40
0.1643196119344758
 40
0.2478045806996412
 40
0.3271828889023257
 40
0.3998731815643473
 40
0.3998731815643473
 40
0.3998731815643473
 40
0.3998731815643473
 10
473.8386302799169
 20
234.7194549886187
 30
0.0
 10
473.8654454138674
 20
234.7194549886187
 30
0.0
 10
473.9203758811485
 20
234.7269818602082
 30
0.0
 10
473.9980657325022
 20
234.7568772211804
 30
0.0
 10
474.0670363615201
 20
234.8030154981657
 30
0.0
 10
474.1208851491989
 20
234.8611777663838
 30
0.0
 10
474.1444767853848
 20
234.9071002169167
 30
0.0
 10
474.1516306579971
 20
234.9302501571785
 30
0.0
 11
473.8386302799169
 21
234.7194549886187
 31
0.0
 11
473.9184113626373
 21
234.7297720385388
 31
0.0
 11
473.9967593362374
 21
234.7597132834987
 31
0.0
 11
474.0660049551173
 21
234.806347865899
 31
0.0
 11
474.1193699757571
 21
234.8651108677389
 31
0.0
 11
474.1516306579971
 21
234.9302501571785
 31
0.0
  0
SPLINE
  5
1B428
330
1F
100
AcDbEntity
  8
0
100
AcDbSpline
210
0.0
220
0.0
230
1.0
 70
     8
 71
     3
 72
    13
 73
     9
 74
     7
 42
0.0000000001
 43
0.0000000001
 44
0.0000000001
 12
-1.0
 22
0.0
 32
0.0
 13
-0.2952473714861899
 23
-0.9554208442516291
 33
0.0
 40
0.0
 40
0.0
 40
0.0
 40
0.0
 40
0.1118570511133133
 40
0.2283944517946295
 40
0.3460100374028799
 40
0.460908836846469
 40
0.5697902007014434
 40
0.6705597082456353
 40
0.6705597082456353
 40
0.6705597082456353
 40
0.6705597082456353
 10
472.6228297678368
 20
234.7194549886187
 30
0.0
 10
472.5855440841323
 20
234.7194549886187
 30
0.0
 10
472.5092447889172
 20
234.7107622204382
 30
0.0
 10
472.3987932526851
 20
234.6753580148381
 30
0.0
 10
472.295900282501
 20
234.6195830501967
 30
0.0
 10
472.2073000264397
 20
234.5469910595617
 30
0.0
 10
472.1387720396564
 20
234.4622654741186
 30
0.0
 10
472.1082957881002
 20
234.3983472115431
 30
0.0
 10
472.0983784773574
 20
234.3662547822189
 30
0.0
 11
472.6228297678368
 21
234.7194549886187
 31
0.0
 11
472.5116220408771
 21
234.707419983499
 31
0.0
 11
472.4005547408771
 21
234.6721351336585
 31
0.0
 11
472.2971969209567
 21
234.6160050433389
 31
0.0
 11
472.2085922455169
 21
234.5428548854186
 31
0.0
 11
472.140778976957
 21
234.4576697223786
 31
0.0
 11
472.0983784773574
 21
234.3662547822189
 31
0.0
  0
SPLINE
  5
1B429
330
1F
100
AcDbEntity
  8
0
100
AcDbSpline
210
0.0
220
0.0
230
1.0
 70
     8
 71
     3
 72
    11
 73
     7
 74
     5
 42
0.0000000001
 43
0.0000000001
 44
0.0000000001
 12
-0.9999999999999989
 22
-0.0000000458788997
 32
0.0
 13
-0.7731824282190534
 23
0.6341836742563534
 33
0.0
 40
0.0
 40
0.0
 40
0.0
 40
0.0
 40
0.1571209335412627
 40
0.3040282026095738
 40
0.4413428165341126
 40
0.458646336498979
 40
0.458646336498979
 40
0.458646336498979
 40
0.458646336498979
 10
478.0870392370371
 20
221.0701259664586
 30
0.0
 10
478.0346655925234
 20
221.0701259640557
 30
0.0
 10
477.9329940132766
 20
221.0789250043869
 30
0.0
 10
477.7908508144859
 20
221.1206088719895
 30
0.0
 10
477.7024092970064
 20
221.1708865356527
 30
0.0
 10
477.6619968757246
 20
221.2028777255422
 30
0.0
 10
477.6575372831969
 20
221.2065355954985
 30
0.0
 11
478.0870392370371
 21
221.0701259664586
 31
0.0
 11
477.930580832797
 21
221.0845396925385
 31
0.0
 11
477.7899448438374
 21
221.1270045522986
 31
0.0
 11
477.6711039499172
 21
221.1957951412589
 31
0.0
 11
477.6575372831969
 21
221.2065355954985
 31
0.0
  0
SPLINE
  5
1B42A
330
1F
100
AcDbEntity
  8
0
100
AcDbSpline
210
0.0
220
0.0
230
1.0
 70
     8
 71
     3
 72
    11
 73
     7
 74
     5
 42
0.0000000001
 43
0.0000000001
 44
0.0000000001
 12
0.0284524750084654
 22
-0.9995951463797194
 32
0.0
 13
-0.702788013828403
 23
-0.7113993306288169
 33
0.0
 40
0.0
 40
0.0
 40
0.0
 40
0.0
 40
0.1130244549413259
 40
0.2570223389354971
 40
0.4111092000988967
 40
0.5746740930737344
 40
0.5746740930737344
 40
0.5746740930737344
 40
0.5746740930737344
 10
481.9013437214374
 20
223.108063671579
 30
0.0
 10
481.9024156632639
 20
223.0704041060518
 30
0.0
 10
481.895041036564
 20
222.9842966149017
 30
0.0
 10
481.8531871132953
 20
222.8525939365272
 30
0.0
 10
481.7767610956693
 20
222.7179567876757
 30
0.0
 10
481.7082687771526
 20
222.636398391451
 30
0.0
 10
481.6699516283973
 20
222.5976117396588
 30
0.0
 11
481.9013437214374
 21
223.108063671579
 31
0.0
 11
481.8922957924772
 21
222.9954019549388
 31
0.0
 11
481.849780184077
 21
222.8578235640587
 31
0.0
 11
481.7745876477573
 21
222.7233287936585
 31
0.0
 11
481.6699516283973
 21
222.5976117396588
 31
0.0
  0
SPLINE
  5
1B42B
330
1F
100
AcDbEntity
  8
0
100
AcDbSpline
210
0.0
220
0.0
230
1.0
 70
     8
 71
     3
 72
    12
 73
     8
 74
     6
 42
0.0000000001
 43
0.0000000001
 44
0.0000000001
 12
-0.7027879229422714
 22
-0.7113994204147823
 32
0.0
 13
-0.9999999999999969
 23
0.0000000798005284
 33
0.0
 40
0.0
 40
0.0
 40
0.0
 40
0.0
 40
0.1707435243055927
 40
0.3455313791067376
 40
0.520937428796517
 40
0.6931808829218752
 40
0.859142180989869
 40
0.859142180989869
 40
0.859142180989869
 40
0.859142180989869
 10
480.4859764508773
 20
221.3991215678987
 30
0.0
 10
480.4459776219431
 20
221.3586326198218
 30
0.0
 10
480.3579551433973
 20
221.2834511807319
 30
0.0
 10
480.209740626701
 20
221.1918025173652
 30
0.0
 10
480.0489475446632
 20
221.1231603152933
 30
0.0
 10
479.8825025873192
 20
221.0804249541298
 30
0.0
 10
479.7695944435662
 20
221.070125962044
 30
0.0
 10
479.7142740108768
 20
221.0701259664586
 30
0.0
 11
480.4859764508773
 21
221.3991215678987
 31
0.0
 11
480.3564736683173
 21
221.2878454230988
 31
0.0
 11
480.2078873315171
 21
221.1957970950191
 31
0.0
 11
480.0465321970372
 21
221.1270089939787
 31
0.0
 11
479.8796090637573
 21
221.0845298806987
 31
0.0
 11
479.7142740108768
 21
221.0701259664586
 31
0.0
  0
SPLINE
  5
1B42C
330
1F
100
AcDbEntity
  8
0
100
AcDbSpline
210
0.0
220
0.0
230
1.0
 70
     8
 71
     3
 72
    10
 73
     6
 74
     4
 42
0.0000000001
 43
0.0000000001
 44
0.0000000001
 12
-0.2952473713745911
 22
-0.9554208442861158
 32
0.0
 13
0.448026829649267
 23
-0.8940201115827466
 33
0.0
 40
0.0
 40
0.0
 40
0.0
 40
0.0
 40
0.0924956794394928
 40
0.1790201549063733
 40
0.2046907458816731
 40
0.2046907458816731
 40
0.2046907458816731
 40
0.2046907458816731
 10
471.9434560303973
 20
233.8649255600588
 30
0.0
 10
471.9343529949913
 20
233.8354681266778
 30
0.0
 10
471.9242743630227
 20
233.7755875846271
 30
0.0
 10
471.9359632830132
 20
233.7067793096536
 30
0.0
 10
471.9509189576605
 20
233.6724313214615
 30
0.0
 10
471.9547526621571
 20
233.6647813132588
 30
0.0
 11
471.9434560303973
 21
233.8649255600588
 31
0.0
 11
471.9293578237567
 21
233.7735106198986
 31
0.0
 11
471.9445226795973
 21
233.6883254568586
 31
0.0
 11
471.9547526621571
 21
233.6647813132588
 31
0.0
  0
SPLINE
  5
1B42D
330
1F
100
AcDbEntity
  8
0
100
AcDbSpline
210
0.0
220
0.0
230
1.0
 70
     8
 71
     3
 72
     9
 73
     5
 74
     3
 42
0.0000000001
 43
0.0000000001
 44
0.0000000001
 12
0.295247371746419
 22
0.9554208441712123
 32
0.0
 13
-0.4466461415622213
 23
0.894710693032994
 33
0.0
 40
0.0
 40
0.0
 40
0.0
 40
0.0
 40
0.0656285160456667
 40
0.122015133258567
 40
0.122015133258567
 40
0.122015133258567
 40
0.122015133258567
 10
473.6481327052771
 20
233.3009301851787
 30
0.0
 10
473.6545915875685
 20
233.3218311359127
 30
0.0
 10
473.6605069665298
 20
233.3631929222643
 30
0.0
 10
473.6497484165217
 20
233.4036686245108
 30
0.0
 10
473.641353461517
 20
233.4204851942989
 30
0.0
 11
473.6481327052771
 21
233.3009301851787
 31
0.0
 11
473.6561311488769
 21
233.3660694745388
 31
0.0
 11
473.641353461517
 21
233.4204851942989
 31
0.0
  0
SPLINE
  5
1B42E
330
1F
100
AcDbEntity
  8
0
100
AcDbSpline
210
0.0
220
0.0
230
1.0
 70
     8
 71
     3
 72
    10
 73
     6
 74
     4
 42
0.0000000001
 43
0.0000000001
 44
0.0000000001
 12
-0.2952473713745911
 22
-0.9554208442861158
 32
0.0
 13
0.448026829649267
 23
-0.8940201115827466
 33
0.0
 40
0.0
 40
0.0
 40
0.0
 40
0.0
 40
0.0924956794393025
 40
0.179020154984908
 40
0.2046907459603958
 40
0.2046907459603958
 40
0.2046907459603958
 40
0.2046907459603958
 10
473.5416235230371
 20
232.956266344939
 30
0.0
 10
473.5325204876311
 20
232.9268089115581
 30
0.0
 10
473.5224418556686
 20
232.8669283694825
 30
0.0
 10
473.5341307756413
 20
232.7981200944776
 30
0.0
 10
473.5490864503005
 20
232.7637721062618
 30
0.0
 10
473.5529201547972
 20
232.756122098059
 30
0.0
 11
473.5416235230371
 21
232.956266344939
 31
0.0
 11
473.5275253163971
 21
232.8648514047789
 31
0.0
 11
473.542690172237
 21
232.7796662416588
 31
0.0
 11
473.5529201547972
 21
232.756122098059
 31
0.0
  0
SPLINE
  5
1B42F
330
1F
100
AcDbEntity
  8
0
100
AcDbSpline
210
0.0
220
0.0
230
1.0
 70
     8
 71
     3
 72
    12
 73
     8
 74
     6
 42
0.0000000001
 43
0.0000000001
 44
0.0000000001
 12
0.7027862715588174
 22
0.711401051804435
 32
0.0
 13
-0.3468799006781555
 23
0.9379095556105145
 33
0.0
 40
0.0
 40
0.0
 40
0.0
 40
0.0
 40
0.1635367232795084
 40
0.3176816842857821
 40
0.4616583731294361
 40
0.5964454419449257
 40
0.7249855691598237
 40
0.7249855691598237
 40
0.7249855691598237
 40
0.7249855691598237
 10
476.1791865756771
 20
233.7865770940591
 30
0.0
 10
476.2174970303493
 20
233.825357159709
 30
0.0
 10
476.2860221540998
 20
233.9069030128808
 30
0.0
 10
476.362424670026
 20
234.0415553985252
 30
0.0
 10
476.4064891420148
 20
234.1802598104707
 30
0.0
 10
476.4157077906727
 20
234.3171424040916
 30
0.0
 10
476.3973946992243
 20
234.4044169104342
 30
0.0
 10
476.3825320370371
 20
234.444603248299
 30
0.0
 11
476.1791865756771
 21
233.7865770940591
 31
0.0
 11
476.2838212007972
 21
233.9122586562987
 31
0.0
 11
476.3590298046373
 21
234.0468110063787
 31
0.0
 11
476.401538543597
 21
234.184369335979
 31
0.0
 11
476.4094895817573
 21
234.318921686059
 31
0.0
 11
476.3825320370371
 21
234.444603248299
 31
0.0
  0
SPLINE
  5
1B430
330
1F
100
AcDbEntity
  8
0
100
AcDbSpline
210
0.0
220
0.0
230
1.0
 70
     8
 71
     3
 72
    10
 73
     6
 74
     4
 42
0.0000000001
 43
0.0000000001
 44
0.0000000001
 12
0.6544725019360597
 22
0.7560858047930505
 32
0.0
 13
0.9870144615140375
 23
0.1606314189757235
 33
0.0
 40
0.0
 40
0.0
 40
0.0
 40
0.0
 40
0.1057190612891196
 40
0.208983623738301
 40
0.3155485281961233
 40
0.3155485281961233
 40
0.3155485281961233
 40
0.3155485281961233
 10
482.212528935437
 20
221.1608269240589
 30
0.0
 10
482.2355923416184
 20
221.1874711512378
 30
0.0
 10
482.2874292414576
 20
221.2352480392271
 30
0.0
 10
482.381158661306
 20
221.2851906975137
 30
0.0
 10
482.4494701524138
 20
221.3029063075336
 30
0.0
 10
482.4845305196771
 20
221.3086121981389
 30
0.0
 11
482.212528935437
 21
221.1608269240589
 31
0.0
 11
482.290658257197
 21
221.2320472090989
 31
0.0
 11
482.3816277673571
 21
221.280915584139
 31
0.0
 11
482.4845305196771
 21
221.3086121981389
 31
0.0
  0
SPLINE
  5
1B431
330
1F
100
AcDbEntity
  8
0
100
AcDbSpline
210
0.0
220
0.0
230
1.0
 70
     8
 71
     3
 72
     9
 73
     5
 74
     3
 42
0.0000000001
 43
0.0000000001
 44
0.0000000001
 12
-0.7523180308986809
 22
0.6588001065457805
 32
0.0
 13
-0.7525667672665635
 23
0.6585159533420235
 33
0.0
 40
0.0
 40
0.0
 40
0.0
 40
0.0
 40
0.0495114765201977
 40
0.0988344450922602
 40
0.0988344450922602
 40
0.0988344450922602
 40
0.0988344450922602
 10
482.212528935437
 20
221.1608269240589
 30
0.0
 10
482.2001128099294
 20
221.1716996460612
 30
0.0
 10
482.1753258578166
 20
221.1934014399085
 30
0.0
 10
482.1505348100938
 20
221.2150985550488
 30
0.0
 10
482.1381618677571
 20
221.2259252089391
 30
0.0
 11
482.212528935437
 21
221.1608269240589
 31
0.0
 11
482.1752775535973
 21
221.193441657819
 31
0.0
 11
482.1381618677571
 21
221.2259252089391
 31
0.0
  0
SPLINE
  5
1B432
330
1F
100
AcDbEntity
  8
0
100
AcDbSpline
210
0.0
220
0.0
230
1.0
 70
     8
 71
     3
 72
     9
 73
     5
 74
     3
 42
0.0000000001
 43
0.0000000001
 44
0.0000000001
 12
0.0345869340376651
 22
0.9994016930113108
 32
0.0
 13
-0.4403722594542467
 23
0.8978152778289985
 33
0.0
 40
0.0
 40
0.0
 40
0.0
 40
0.0
 40
0.2509415213571437
 40
0.4753989155114298
 40
0.4753989155114298
 40
0.4753989155114298
 40
0.4753989155114298
 10
482.1381618677571
 20
221.2259252089391
 30
0.0
 10
482.1410549670392
 20
221.3095223360361
 30
0.0
 10
482.1280307346084
 20
221.4693564398016
 30
0.0
 10
482.0756440696154
 20
221.6207751821878
 30
0.0
 10
482.0426957996772
 20
221.6879489414189
 30
0.0
 11
482.1381618677571
 21
221.2259252089391
 31
0.0
 11
482.1163375891968
 21
221.4759159047787
 31
0.0
 11
482.0426957996772
 21
221.6879489414189
 31
0.0
  0
SPLINE
  5
1B433
330
1F
100
AcDbEntity
  8
0
100
AcDbSpline
210
0.0
220
0.0
230
1.0
 70
     8
 71
     3
 72
    10
 73
     6
 74
     4
 42
0.0000000001
 43
0.0000000001
 44
0.0000000001
 12
0.9589649298984728
 22
0.2835247136050352
 32
0.0
 13
0.6146484383079091
 23
0.7888011772846494
 33
0.0
 40
0.0
 40
0.0
 40
0.0
 40
0.0
 40
0.1056411020195659
 40
0.2098878403143616
 40
0.3171168573777243
 40
0.3171168573777243
 40
0.3171168573777243
 40
0.3171168573777243
 10
482.0978400345569
 20
219.6711871351788
 30
0.0
 10
482.1316087385544
 20
219.6811710895771
 30
0.0
 10
482.1971410203412
 20
219.7072223907307
 30
0.0
 10
482.2854416644666
 20
219.766778396077
 30
0.0
 10
482.3342977096907
 20
219.8184402607727
 30
0.0
 10
482.3562670923172
 20
219.8466343857389
 30
0.0
 11
482.0978400345569
 21
219.6711871351788
 31
0.0
 11
482.1957804056771
 21
219.7107816567789
 31
0.0
 11
482.2821742172772
 21
219.7691211096587
 31
0.0
 11
482.3562670923172
 21
219.8466343857389
 31
0.0
  0
SPLINE
  5
1B434
330
1F
100
AcDbEntity
  8
0
100
AcDbSpline
210
0.0
220
0.0
230
1.0
 70
     8
 71
     3
 72
    15
 73
    11
 74
     9
 42
0.0000000001
 43
0.0000000001
 44
0.0000000001
 12
-0.6863259081474107
 22
-0.7272941274378835
 32
0.0
 13
-0.9020208878334422
 23
0.4316923880637332
 33
0.0
 40
0.0
 40
0.0
 40
0.0
 40
0.0
 40
0.3774452090037257
 40
0.7648576521794757
 40
1.155446605969871
 40
1.542105920033765
 40
1.918120586096927
 40
2.277886255937256
 40
2.617658251177844
 40
2.883688398491328
 40
2.883688398491328
 40
2.883688398491328
 40
2.883688398491328
 10
482.0978400345569
 20
219.6711871351788
 30
0.0
 10
482.0114898926084
 20
219.5796825738661
 30
0.0
 10
481.8214708638321
 20
219.4079755406814
 30
0.0
 10
481.5002552098951
 20
219.1932532527971
 30
0.0
 10
481.1493070667202
 20
219.0242658687319
 30
0.0
 10
480.7817175039835
 20
218.9073727769092
 30
0.0
 10
480.4110367925748
 20
218.8469448790164
 30
0.0
 10
480.0508939153132
 20
218.8454040836364
 30
0.0
 10
479.7318688512232
 20
218.9001965307649
 30
0.0
 10
479.5412150629271
 20
218.970268503662
 30
0.0
 10
479.4612268130371
 20
219.0085495668589
 30
0.0
 11
482.0978400345569
 21
219.6711871351788
 31
0.0
 11
481.8184403738372
 21
219.4174141748588
 31
0.0
 11
481.4966376649571
 21
219.2017027526187
 31
0.0
 11
481.1447060843972
 21
219.0322805184589
 31
0.0
 11
480.7760689818373
 21
218.9156095633391
 31
0.0
 11
480.4047868878373
 21
218.8561399427788
 31
0.0
 11
480.045021217997
 21
218.8561399427788
 31
0.0
 11
479.7104941294373
 21
218.9156095633391
 31
0.0
 11
479.4612268130371
 21
219.0085495668589
 31
0.0
  0
SPLINE
  5
1B435
330
1F
100
AcDbEntity
  8
0
100
AcDbSpline
210
0.0
220
0.0
230
1.0
 70
     8
 71
     3
 72
    12
 73
     8
 74
     6
 42
0.0000000001
 43
0.0000000001
 44
0.0000000001
 12
1.0
 22
0.0
 32
0.0
 13
0.7027862715748641
 23
0.7114010517885827
 33
0.0
 40
0.0
 40
0.0
 40
0.0
 40
0.0
 40
0.1659270111996551
 40
0.3382181739163179
 40
0.5135976822411897
 40
0.6884327400681391
 40
0.8591093604415618
 40
0.8591093604415618
 40
0.8591093604415618
 40
0.8591093604415618
 10
474.223520411517
 20
232.2591053953386
 30
0.0
 10
474.2788294152502
 20
232.2591053953386
 30
0.0
 10
474.3917454310682
 20
232.2693681707201
 30
0.0
 10
474.5581812362603
 20
232.312140277462
 30
0.0
 10
474.7189841861346
 20
232.3807998679797
 30
0.0
 10
474.867230471587
 20
232.4723766095076
 30
0.0
 10
474.9552088573846
 20
232.5476014877489
 30
0.0
 10
474.9951919192771
 20
232.5880746634987
 30
0.0
 11
474.223520411517
 21
232.2591053953386
 31
0.0
 11
474.3888232375168
 21
232.2734841561389
 31
0.0
 11
474.5557882831175
 21
232.3159920177388
 31
0.0
 11
474.7171183746371
 21
232.3847711825385
 31
0.0
 11
474.8657626129573
 21
232.4768156710186
 31
0.0
 11
474.9951919192771
 21
232.5880746634987
 31
0.0
  0
SPLINE
  5
1B436
330
1F
100
AcDbEntity
  8
0
100
AcDbSpline
210
0.0
220
0.0
230
1.0
 70
     8
 71
     3
 72
    10
 73
     6
 74
     4
 42
0.0000000001
 43
0.0000000001
 44
0.0000000001
 12
-0.0650706170545568
 22
0.9978806616004437
 32
0.0
 13
0.0761060295891864
 23
0.9970997303480579
 33
0.0
 40
0.0
 40
0.0
 40
0.0
 40
0.0
 40
0.2640000969515224
 40
0.5026191229634483
 40
0.7143181697044828
 40
0.7143181697044828
 40
0.7143181697044828
 40
0.7143181697044828
 10
482.0246299865567
 20
219.8203735275786
 30
0.0
 10
482.018903770153
 20
219.9081870580481
 30
0.0
 10
482.0103789363719
 20
220.0755497230199
 30
0.0
 10
482.0075545142045
 20
220.3137040013358
 30
0.0
 10
482.013505352079
 20
220.4638037088254
 30
0.0
 10
482.0188758767175
 20
220.5341653962989
 30
0.0
 11
482.0246299865567
 21
219.8203735275786
 31
0.0
 11
482.0117520515972
 21
220.0840593443788
 31
0.0
 11
482.0096189210373
 21
220.3226688356588
 31
0.0
 11
482.0188758767175
 21
220.5341653962989
 31
0.0
  0
SPLINE
  5
1B437
330
1F
100
AcDbEntity
  8
0
100
AcDbSpline
210
0.0
220
0.0
230
1.0
 70
     8
 71
     3
 72
    17
 73
    13
 74
    11
 42
0.0000000001
 43
0.0000000001
 44
0.0000000001
 12
-0.6863259081616167
 22
-0.7272941274244778
 32
0.0
 13
-0.5744862502383722
 23
0.8185142321835671
 33
0.0
 40
0.0
 40
0.0
 40
0.0
 40
0.0
 40
0.3774452090034352
 40
0.7648576522239072
 40
1.15544660601395
 40
1.54210592005403
 40
1.918120586129757
 40
2.277886255970085
 40
2.617658251224758
 40
2.936314113699553
 40
3.236017263405345
 40
3.494388179300202
 40
3.494388179300202
 40
3.494388179300202
 40
3.494388179300202
 10
482.0246299865567
 20
219.8203735275786
 30
0.0
 10
481.9382798446065
 20
219.7288689662677
 30
0.0
 10
481.748260817075
 20
219.5571619337582
 30
0.0
 10
481.4270451573431
 20
219.3424396426991
 30
0.0
 10
481.0760970357979
 20
219.1734522700257
 30
0.0
 10
480.708507393762
 20
219.0565591365554
 30
0.0
 10
480.3378269655715
 20
218.996131387858
 30
0.0
 10
479.9776830997997
 20
218.9945900711574
 30
0.0
 10
479.6412738088644
 20
219.0523706228661
 30
0.0
 10
479.3410318332428
 20
219.16809391859
 30
0.0
 10
479.0965291518037
 20
219.333162780657
 30
0.0
 10
478.9704768108515
 20
219.4727168369912
 30
0.0
 10
478.9209999646372
 20
219.5432102609386
 30
0.0
 11
482.0246299865567
 21
219.8203735275786
 31
0.0
 11
481.745230325837
 21
219.566600567259
 31
0.0
 11
481.423427616957
 21
219.3508891449385
 31
0.0
 11
481.0714960363974
 21
219.1814669107791
 31
0.0
 11
480.7028589338371
 21
219.0647959557389
 31
0.0
 11
480.3315768398373
 21
219.0053263350985
 31
0.0
 11
479.971811169997
 21
219.0053263350985
 31
0.0
 11
479.6372840814373
 21
219.0647959557389
 31
0.0
 11
479.3407550829573
 21
219.1814669107791
 31
0.0
 11
479.0935343627173
 21
219.3508891449385
 31
0.0
 11
478.9209999646372
 21
219.5432102609386
 31
0.0
  0
SPLINE
  5
1B438
330
1F
100
AcDbEntity
  8
0
100
AcDbSpline
210
0.0
220
0.0
230
1.0
 70
     8
 71
     3
 72
     9
 73
     5
 74
     3
 42
0.0000000001
 43
0.0000000001
 44
0.0000000001
 12
-0.5744862502661707
 22
0.8185142321640562
 32
0.0
 13
-0.4405417219760296
 23
0.8977321377774078
 33
0.0
 40
0.0
 40
0.0
 40
0.0
 40
0.0
 40
0.0283101265235913
 40
0.1629655824301286
 40
0.1629655824301286
 40
0.1629655824301286
 40
0.1629655824301286
 10
478.9209999646372
 20
219.5432102609386
 30
0.0
 10
478.9155787051602
 20
219.5509343414299
 30
0.0
 10
478.8849743451201
 20
219.5958126554305
 30
0.0
 10
478.8578749894167
 20
219.6431379283076
 30
0.0
 10
478.8381012072772
 20
219.683432771739
 30
0.0
 11
478.9209999646372
 21
219.5432102609386
 31
0.0
 11
478.9050513962369
 21
219.566600567259
 31
0.0
 11
478.8381012072772
 21
219.683432771739
 31
0.0
  0
SPLINE
  5
1B439
330
1F
100
AcDbEntity
  8
0
100
AcDbSpline
210
0.0
220
0.0
230
1.0
 70
     8
 71
     3
 72
    16
 73
    12
 74
    10
 42
0.0000000001
 43
0.0000000001
 44
0.0000000001
 12
-0.5039391882750774
 22
-0.8637391356889279
 32
0.0
 13
-0.983738064363192
 23
0.1796090775071252
 33
0.0
 40
0.0
 40
0.0
 40
0.0
 40
0.0
 40
0.3059210560863089
 40
0.6266124843945719
 40
0.9578036055579957
 40
1.294148802321778
 40
1.62980531033126
 40
1.958995713302618
 40
2.276572568312937
 40
2.578601634831697
 40
2.592127026459142
 40
2.592127026459142
 40
2.592127026459142
 40
2.592127026459142
 10
481.9445088090373
 20
220.5992636812591
 30
0.0
 10
481.8931202728105
 20
220.5111850184014
 30
0.0
 10
481.7713015347003
 20
220.3400812202152
 30
0.0
 10
481.5466546067357
 20
220.1116232510036
 30
0.0
 10
481.2831108476228
 20
219.9121212059795
 30
0.0
 10
480.9901475500469
 20
219.748718287214
 30
0.0
 10
480.6781967587305
 20
219.6271786255733
 30
0.0
 10
480.3583151871693
 20
219.5518751810141
 30
0.0
 10
480.0419715244622
 20
219.5255519628744
 30
0.0
 10
479.8303507736639
 20
219.5422873680633
 30
0.0
 10
479.7267997645636
 20
219.560742886381
 30
0.0
 10
479.7223646170372
 20
219.5615526474187
 30
0.0
 11
481.9445088090373
 21
220.5992636812591
 31
0.0
 11
481.7681785946373
 21
220.349272985339
 31
0.0
 11
481.544046836157
 21
220.119908761819
 31
0.0
 11
481.2803202999173
 21
219.9195693677386
 31
0.0
 11
480.9866555469574
 21
219.7555903926989
 31
0.0
 11
480.673805350557
 21
219.6339760597386
 31
0.0
 11
480.3532249743972
 21
219.5591793764586
 31
0.0
 11
480.0366527291169
 21
219.5339390841389
 31
0.0
 11
479.7356801644771
 21
219.5591793764586
 31
0.0
 11
479.7223646170372
 21
219.5615526474187
 31
0.0
  0
SPLINE
  5
1B43A
330
1F
100
AcDbEntity
  8
0
100
AcDbSpline
210
0.0
220
0.0
230
1.0
 70
     8
 71
     3
 72
    12
 73
     8
 74
     6
 42
0.0000000001
 43
0.0000000001
 44
0.0000000001
 12
-0.9837380643624033
 22
0.1796090775114438
 32
0.0
 13
-0.4403722595181505
 23
0.8978152777976541
 33
0.0
 40
0.0
 40
0.0
 40
0.0
 40
0.0
 40
0.2708975021397348
 40
0.5378901733306398
 40
0.7906259020688481
 40
1.034982118785214
 40
1.054388834324382
 40
1.054388834324382
 40
1.054388834324382
 40
1.054388834324382
 10
479.7223646170372
 20
219.5615526474187
 30
0.0
 10
479.6335338889053
 20
219.5777711975718
 30
0.0
 10
479.4593627152994
 20
219.6250103814391
 30
0.0
 10
479.2220685818479
 20
219.7444145411126
 30
0.0
 10
479.025336393922
 20
219.9100741503081
 30
0.0
 10
478.9250853505487
 20
220.0529188237438
 30
0.0
 10
478.8855318434277
 20
220.1314320668779
 30
0.0
 10
478.8826831170371
 20
220.1372399487789
 30
0.0
 11
479.7223646170372
 21
219.5615526474187
 31
0.0
 11
479.4613276349571
 21
219.6339760597386
 31
0.0
 11
479.2236407811173
 21
219.7555903926989
 31
0.0
 11
479.0313226999971
 21
219.9195693677386
 31
0.0
 11
478.8914152740775
 21
220.119908761819
 31
0.0
 11
478.8826831170371
 21
220.1372399487789
 31
0.0
  0
SPLINE
  5
1B43B
330
1F
100
AcDbEntity
  8
0
100
AcDbSpline
210
0.0
220
0.0
230
1.0
 70
     8
 71
     3
 72
    13
 73
     9
 74
     7
 42
0.0000000001
 43
0.0000000001
 44
0.0000000001
 12
-1.0
 22
0.0
 32
0.0
 13
-0.2952473714861899
 23
-0.9554208442516291
 33
0.0
 40
0.0
 40
0.0
 40
0.0
 40
0.0
 40
0.111857051122366
 40
0.2283944517272374
 40
0.3460100374057212
 40
0.4609088367364941
 40
0.569790200591606
 40
0.6705597081362105
 40
0.6705597081362105
 40
0.6705597081362105
 40
0.6705597081362105
 10
474.7825911307171
 20
235.628114203819
 30
0.0
 10
474.7453054470097
 20
235.628114203819
 30
0.0
 10
474.6690061518248
 20
235.619421435537
 30
0.0
 10
474.5585546156083
 20
235.5840172299292
 30
0.0
 10
474.4556616454278
 20
235.5282422653585
 30
0.0
 10
474.3670613893735
 20
235.4556502747345
 30
0.0
 10
474.2985334026171
 20
235.3709246893183
 30
0.0
 10
474.2680571510603
 20
235.3070064267431
 30
0.0
 10
474.2581398403175
 20
235.2749139974187
 30
0.0
 11
474.7825911307171
 21
235.628114203819
 31
0.0
 11
474.6713834037571
 21
235.6160791986188
 31
0.0
 11
474.5603161038371
 21
235.5807943487787
 31
0.0
 11
474.4569582838368
 21
235.5246642584591
 31
0.0
 11
474.3683536084772
 21
235.4515141006189
 31
0.0
 11
474.3005403399172
 21
235.3663289375788
 31
0.0
 11
474.2581398403175
 21
235.2749139974187
 31
0.0
  0
SPLINE
  5
1B43C
330
1F
100
AcDbEntity
  8
0
100
AcDbSpline
210
0.0
220
0.0
230
1.0
 70
     8
 71
     3
 72
    11
 73
     7
 74
     5
 42
0.0000000001
 43
0.0000000001
 44
0.0000000001
 12
-0.4345327771437609
 22
0.9006560195700302
 32
0.0
 13
-1.0
 23
0.0
 33
0.0
 40
0.0
 40
0.0
 40
0.0
 40
0.0
 40
0.0631999639524033
 40
0.1518888387703263
 40
0.2478695617885021
 40
0.3523346610119416
 40
0.3523346610119416
 40
0.3523346610119416
 40
0.3523346610119416
 10
475.7053432517571
 20
235.4718652428585
 30
0.0
 10
475.6961890998065
 20
235.490839052182
 30
0.0
 10
475.6679749408507
 20
235.533703481543
 30
0.0
 10
475.6021275280192
 20
235.5862544748098
 30
0.0
 10
475.5109072531771
 20
235.6209837403707
 30
0.0
 10
475.4437343064579
 20
235.628114203819
 30
0.0
 10
475.4089126067168
 20
235.628114203819
 30
0.0
 11
475.7053432517571
 21
235.4718652428585
 31
0.0
 11
475.6706085515973
 21
235.5246642584591
 31
0.0
 11
475.6019417511971
 21
235.5807943487787
 31
0.0
 11
475.5126821379175
 21
235.6160791986188
 31
0.0
 11
475.4089126067168
 21
235.628114203819
 31
0.0
  0
LINE
  5
1B50C
102
{ACAD_REACTORS
330
1B577
102
}
330
1F
100
AcDbEntity
  8
0
100
AcDbLine
 10
534.6505186129236
 20
272.5048419583903
 30
0.0
 11
534.6505186129236
 21
274.0297607310903
 31
0.0
  0
LINE
  5
1B50D
330
1F
100
AcDbEntity
  8
0
100
AcDbLine
 10
534.6505186129236
 20
276.5546795037902
 30
0.0
 11
534.6505186129236
 21
275.0297607310904
 31
0.0
  0
LINE
  5
1B50E
330
1F
100
AcDbEntity
  8
0
100
AcDbLine
 10
535.6505186129236
 20
272.0297607310903
 30
0.0
 11
535.6505186129236
 21
273.3423265223904
 31
0.0
  0
LINE
  5
1B50F
330
1F
100
AcDbEntity
  8
0
100
AcDbLine
 10
535.6505186129236
 20
277.0297607310904
 30
0.0
 11
535.6505186129236
 21
275.7171949397902
 31
0.0
  0
LINE
  5
1B510
330
1F
100
AcDbEntity
  8
0
100
AcDbLine
 10
535.9505186129232
 20
272.0297607310903
 30
0.0
 11
535.9505186129232
 21
273.3423265223904
 31
0.0
  0
LINE
  5
1B511
330
1F
100
AcDbEntity
  8
0
100
AcDbLine
 10
535.9505186129232
 20
277.0297607310904
 30
0.0
 11
535.9505186129232
 21
275.7171949397902
 31
0.0
  0
LINE
  5
1B512
330
1F
100
AcDbEntity
  8
0
100
AcDbLine
 10
536.6505186129236
 20
272.3297607310905
 30
0.0
 11
536.6505186129236
 21
274.0297607310903
 31
0.0
  0
LINE
  5
1B513
330
1F
100
AcDbEntity
  8
0
100
AcDbLine
 10
536.6505186129236
 20
276.7297607310906
 30
0.0
 11
536.6505186129236
 21
275.0297607310904
 31
0.0
  0
LINE
  5
1B514
330
1F
100
AcDbEntity
  8
0
100
AcDbLine
 10
539.7005186129232
 20
271.8672607310903
 30
0.0
 11
539.7005186129232
 21
277.1922607310902
 31
0.0
  0
LINE
  5
1B515
330
1F
100
AcDbEntity
  8
0
100
AcDbLine
 10
540.7005186129232
 20
271.5672607310902
 30
0.0
 11
540.7005186129232
 21
277.4922607310904
 31
0.0
  0
LINE
  5
1B516
330
1F
100
AcDbEntity
  8
0
100
AcDbLine
 10
534.6505186129236
 20
276.5547607310903
 30
0.0
 11
535.6505186129236
 21
277.0297607310904
 31
0.0
  0
LINE
  5
1B517
330
1F
100
AcDbEntity
  8
0
100
AcDbLine
 10
539.7005099349237
 20
277.1922896559903
 30
0.0
 11
540.7005064638234
 21
277.4923012258904
 31
0.0
  0
LINE
  5
1B518
330
1F
100
AcDbEntity
  8
0
100
AcDbLine
 10
563.2005186129232
 20
277.4922607310904
 30
0.0
 11
540.7005186129232
 21
277.4922607310904
 31
0.0
  0
LINE
  5
1B519
330
1F
100
AcDbEntity
  8
0
100
AcDbLine
 10
535.9505186129232
 20
272.0297607310903
 30
0.0
 11
536.6505186129236
 21
272.3297607310905
 31
0.0
  0
LINE
  5
1B51A
330
1F
100
AcDbEntity
  8
0
100
AcDbLine
 10
539.7005194083235
 20
276.8172598988903
 30
0.0
 11
540.7005186129232
 21
276.9672605549903
 31
0.0
  0
LINE
  5
1B51B
102
{ACAD_REACTORS
330
1B580
102
}
330
1F
100
AcDbEntity
  8
0
100
AcDbLine
 10
535.6505186129236
 20
277.0297607310904
 30
0.0
 11
535.9505186129232
 21
277.0297607310904
 31
0.0
  0
LINE
  5
1B51C
330
1F
100
AcDbEntity
  8
0
100
AcDbLine
 10
563.2005186129232
 20
276.9672607310903
 30
0.0
 11
540.7005186129232
 21
276.9672605549903
 31
0.0
  0
LINE
  5
1B51D
330
1F
100
AcDbEntity
  8
0
100
AcDbLine
 10
536.6505186129236
 20
276.7297607310906
 30
0.0
 11
539.7005186129232
 21
276.7297607310906
 31
0.0
  0
LINE
  5
1B51E
330
1F
100
AcDbEntity
  8
0
100
AcDbLine
 10
535.6505186129236
 20
275.7171949397902
 30
0.0
 11
535.9505186129232
 21
275.7171949397902
 31
0.0
  0
LINE
  5
1B51F
330
1F
100
AcDbEntity
  8
0
100
AcDbLine
 10
539.7005182165236
 20
274.9047640502903
 30
0.0
 11
540.7005186129232
 21
275.0547648850905
 31
0.0
  0
LINE
  5
1B520
330
1F
100
AcDbEntity
  8
0
100
AcDbLine
 10
563.2005186129232
 20
275.0547607310904
 30
0.0
 11
540.7005186129232
 21
275.0547648850905
 31
0.0
  0
LINE
  5
1B521
102
{ACAD_REACTORS
330
1B57A
102
}
330
1F
100
AcDbEntity
  8
0
100
AcDbLine
 10
534.6505186129236
 20
275.0297607310904
 30
0.0
 11
539.7005186129232
 21
275.0297607310904
 31
0.0
  0
LINE
  5
1B522
102
{ACAD_REACTORS
330
1B57A
102
}
330
1F
100
AcDbEntity
  8
0
100
AcDbLine
 10
534.6505186129236
 20
274.0297607310903
 30
0.0
 11
539.7005186129232
 21
274.0297607310903
 31
0.0
  0
LINE
  5
1B523
330
1F
100
AcDbEntity
  8
0
100
AcDbLine
 10
563.2005186129232
 20
274.0047607310902
 30
0.0
 11
540.7005186129232
 21
274.0047565770904
 31
0.0
  0
LINE
  5
1B524
330
1F
100
AcDbEntity
  8
0
100
AcDbLine
 10
535.6505186129236
 20
273.3423265223904
 30
0.0
 11
535.9505186129232
 21
273.3423265223904
 31
0.0
  0
LINE
  5
1B525
330
1F
100
AcDbEntity
  8
0
100
AcDbLine
 10
539.7005182165236
 20
274.1547574118903
 30
0.0
 11
540.7005186129232
 21
274.0047565770904
 31
0.0
  0
LINE
  5
1B526
330
1F
100
AcDbEntity
  8
0
100
AcDbLine
 10
536.6505186129236
 20
272.3297607310905
 30
0.0
 11
539.7005186129232
 21
272.3297607310905
 31
0.0
  0
LINE
  5
1B527
330
1F
100
AcDbEntity
  8
0
100
AcDbLine
 10
563.2005186129232
 20
272.0922607310903
 30
0.0
 11
540.7005186129232
 21
272.0922609072903
 31
0.0
  0
LINE
  5
1B528
102
{ACAD_REACTORS
330
1B580
102
}
330
1F
100
AcDbEntity
  8
0
100
AcDbLine
 10
535.6505186129236
 20
272.0297607310903
 30
0.0
 11
535.9505186129232
 21
272.0297607310903
 31
0.0
  0
LINE
  5
1B529
330
1F
100
AcDbEntity
  8
0
100
AcDbLine
 10
563.2005186129232
 20
271.5672607310902
 30
0.0
 11
540.7005186129232
 21
271.5672607310902
 31
0.0
  0
LINE
  5
1B52A
102
{ACAD_REACTORS
330
1B57D
102
}
330
1F
100
AcDbEntity
  8
0
100
AcDbLine
 10
535.9505186129232
 20
277.0297607310904
 30
0.0
 11
536.6505186129236
 21
276.7297607310906
 31
0.0
  0
LINE
  5
1B52B
330
1F
100
AcDbEntity
  8
0
100
AcDbLine
 10
539.7005194083235
 20
272.2422615632904
 30
0.0
 11
540.7005186129232
 21
272.0922609072903
 31
0.0
  0
LINE
  5
1B52C
102
{ACAD_REACTORS
330
1B574
102
}
330
1F
100
AcDbEntity
  8
0
100
AcDbLine
 10
539.7005186129232
 20
271.8672607310903
 30
0.0
 11
540.7005186129232
 21
271.5672607310902
 31
0.0
  0
LINE
  5
1B52D
330
1F
100
AcDbEntity
  8
0
100
AcDbLine
 10
534.6505186129236
 20
272.5047607310902
 30
0.0
 11
535.6505186129236
 21
272.0297607310903
 31
0.0
  0
LINE
  5
1B52E
102
{ACAD_REACTORS
330
1B574
102
}
330
1F
100
AcDbEntity
  8
0
100
AcDbLine
 10
563.2005186129232
 20
277.4922607310904
 30
0.0
 11
563.2005186129232
 21
271.5672607310902
 31
0.0
  0
LINE
  5
1B52F
102
{ACAD_REACTORS
330
1B583
102
}
330
1F
100
AcDbEntity
  8
0
100
AcDbLine
 10
509.2237813707876
 20
277.4922607310904
 30
0.0
 11
507.0154113707872
 21
277.4922607310904
 31
0.0
  0
LINE
  5
1B530
330
1F
100
AcDbEntity
  8
0
100
AcDbLine
 10
511.2372768369874
 20
275.0547859042903
 30
0.0
 11
510.1330755426876
 21
276.9673054662902
 31
0.0
  0
LINE
  5
1B531
330
1F
100
AcDbEntity
  8
0
100
AcDbLine
 10
506.1061171988873
 20
276.9673054662902
 30
0.0
 11
505.0019159046875
 21
275.0547859042903
 31
0.0
  0
LINE
  5
1B532
330
1F
100
AcDbEntity
  8
0
100
AcDbLine
 10
505.4559793981876
 20
274.9297607310904
 30
0.0
 11
505.4559793981876
 21
274.1297607310902
 31
0.0
  0
LINE
  5
1B533
330
1F
100
AcDbEntity
  8
0
100
AcDbLine
 10
505.5696013707875
 20
274.9297607310904
 30
0.0
 11
505.5696013707875
 21
274.1297607310902
 31
0.0
  0
LINE
  5
1B534
330
1F
100
AcDbEntity
  8
0
100
AcDbLine
 10
509.4196013707875
 20
276.9433827037905
 30
0.0
 11
508.5696013707877
 21
276.9433827037905
 31
0.0
  0
LINE
  5
1B535
330
1F
100
AcDbEntity
  8
0
100
AcDbLine
 10
509.4196013707875
 20
276.8297607310905
 30
0.0
 11
508.5696013707877
 21
276.8297607310905
 31
0.0
  0
LINE
  5
1B536
330
1F
100
AcDbEntity
  8
0
100
AcDbLine
 10
506.0196013707872
 20
273.5661387584904
 30
0.0
 11
506.0196013707872
 21
273.6797607310904
 31
0.0
  0
LINE
  5
1B537
330
1F
100
AcDbEntity
  8
0
100
AcDbLine
 10
506.0196013707872
 20
275.4933827037902
 30
0.0
 11
506.0196013707872
 21
275.3797607310902
 31
0.0
  0
LINE
  5
1B538
330
1F
100
AcDbEntity
  8
0
100
AcDbLine
 10
509.9832233434873
 20
276.3797607310902
 30
0.0
 11
509.8696013707872
 21
276.3797607310902
 31
0.0
  0
LINE
  5
1B539
330
1F
100
AcDbEntity
  8
0
100
AcDbLine
 10
508.0059793981873
 20
276.3797607310902
 30
0.0
 11
508.1196013707873
 21
276.3797607310902
 31
0.0
  0
LINE
  5
1B53A
330
1F
100
AcDbEntity
  8
0
100
AcDbLine
 10
508.0059793981873
 20
275.8297607310904
 30
0.0
 11
508.1196013707873
 21
275.8297607310904
 31
0.0
  0
LINE
  5
1B53B
330
1F
100
AcDbEntity
  8
0
100
AcDbLine
 10
507.6696013707873
 20
275.4933827037902
 30
0.0
 11
506.0196013707872
 21
275.4933827037902
 31
0.0
  0
LINE
  5
1B53C
330
1F
100
AcDbEntity
  8
0
100
AcDbLine
 10
507.6696013707873
 20
275.3797607310902
 30
0.0
 11
506.0196013707872
 21
275.3797607310902
 31
0.0
  0
LINE
  5
1B53D
330
1F
100
AcDbEntity
  8
0
100
AcDbLine
 10
505.4559793981876
 20
274.9297607310904
 30
0.0
 11
505.5696013707875
 21
274.9297607310904
 31
0.0
  0
LINE
  5
1B53E
330
1F
100
AcDbEntity
  8
0
100
AcDbLine
 10
507.6696013707873
 20
273.5661387584904
 30
0.0
 11
507.6696013707873
 21
273.6797607310904
 31
0.0
  0
LINE
  5
1B53F
330
1F
100
AcDbEntity
  8
0
100
AcDbLine
 10
507.6696013707873
 20
275.4933827037902
 30
0.0
 11
507.6696013707873
 21
275.3797607310902
 31
0.0
  0
LINE
  5
1B540
330
1F
100
AcDbEntity
  8
0
100
AcDbLine
 10
508.0059793981873
 20
276.3797607310902
 30
0.0
 11
508.0059793981873
 21
275.8297607310904
 31
0.0
  0
LINE
  5
1B541
330
1F
100
AcDbEntity
  8
0
100
AcDbLine
 10
508.0059793981873
 20
273.2297607310905
 30
0.0
 11
508.0059793981873
 21
272.6797607310904
 31
0.0
  0
LINE
  5
1B542
330
1F
100
AcDbEntity
  8
0
100
AcDbLine
 10
508.1196013707873
 20
276.3797607310902
 30
0.0
 11
508.1196013707873
 21
275.8297607310904
 31
0.0
  0
LINE
  5
1B543
330
1F
100
AcDbEntity
  8
0
100
AcDbLine
 10
508.1196013707873
 20
273.2297607310905
 30
0.0
 11
508.1196013707873
 21
272.6797607310904
 31
0.0
  0
LINE
  5
1B544
330
1F
100
AcDbEntity
  8
0
100
AcDbLine
 10
505.4559793981876
 20
274.1297607310902
 30
0.0
 11
505.5696013707875
 21
274.1297607310902
 31
0.0
  0
LINE
  5
1B545
330
1F
100
AcDbEntity
  8
0
100
AcDbLine
 10
508.5696013707877
 20
272.1161387584901
 30
0.0
 11
508.5696013707877
 21
272.2297607310906
 31
0.0
  0
LINE
  5
1B546
330
1F
100
AcDbEntity
  8
0
100
AcDbLine
 10
508.5696013707877
 20
276.9433827037905
 30
0.0
 11
508.5696013707877
 21
276.8297607310905
 31
0.0
  0
LINE
  5
1B547
330
1F
100
AcDbEntity
  8
0
100
AcDbLine
 10
506.0196013707872
 20
273.6797607310904
 30
0.0
 11
507.6696013707873
 21
273.6797607310904
 31
0.0
  0
LINE
  5
1B548
330
1F
100
AcDbEntity
  8
0
100
AcDbLine
 10
506.0196013707872
 20
273.5661387584904
 30
0.0
 11
507.6696013707873
 21
273.5661387584904
 31
0.0
  0
LINE
  5
1B549
330
1F
100
AcDbEntity
  8
0
100
AcDbLine
 10
508.0059793981873
 20
273.2297607310905
 30
0.0
 11
508.1196013707873
 21
273.2297607310905
 31
0.0
  0
LINE
  5
1B54A
330
1F
100
AcDbEntity
  8
0
100
AcDbLine
 10
509.4196013707875
 20
272.1161387584901
 30
0.0
 11
509.4196013707875
 21
272.2297607310906
 31
0.0
  0
LINE
  5
1B54B
330
1F
100
AcDbEntity
  8
0
100
AcDbLine
 10
509.4196013707875
 20
276.9433827037905
 30
0.0
 11
509.4196013707875
 21
276.8297607310905
 31
0.0
  0
LINE
  5
1B54C
330
1F
100
AcDbEntity
  8
0
100
AcDbLine
 10
509.9832233434873
 20
272.6797607310904
 30
0.0
 11
509.8696013707872
 21
272.6797607310904
 31
0.0
  0
LINE
  5
1B54D
330
1F
100
AcDbEntity
  8
0
100
AcDbLine
 10
508.0059793981873
 20
272.6797607310904
 30
0.0
 11
508.1196013707873
 21
272.6797607310904
 31
0.0
  0
LINE
  5
1B54E
330
1F
100
AcDbEntity
  8
0
100
AcDbLine
 10
509.8696013707872
 20
272.6797607310904
 30
0.0
 11
509.8696013707872
 21
276.3797607310902
 31
0.0
  0
LINE
  5
1B54F
330
1F
100
AcDbEntity
  8
0
100
AcDbLine
 10
509.9832233434873
 20
272.6797607310904
 30
0.0
 11
509.9832233434873
 21
276.3797607310902
 31
0.0
  0
LINE
  5
1B550
330
1F
100
AcDbEntity
  8
0
100
AcDbLine
 10
508.5696013707877
 20
272.2297607310906
 30
0.0
 11
509.4196013707875
 21
272.2297607310906
 31
0.0
  0
LINE
  5
1B551
330
1F
100
AcDbEntity
  8
0
100
AcDbLine
 10
508.5696013707877
 20
272.1161387584901
 30
0.0
 11
509.4196013707875
 21
272.1161387584901
 31
0.0
  0
LINE
  5
1B552
102
{ACAD_REACTORS
330
1B583
102
}
330
1F
100
AcDbEntity
  8
0
100
AcDbLine
 10
507.0154113707872
 20
271.5672607310902
 30
0.0
 11
509.2237813707876
 21
271.5672607310902
 31
0.0
  0
LINE
  5
1B553
330
1F
100
AcDbEntity
  8
0
100
AcDbLine
 10
505.0019159046875
 20
274.0047355578903
 30
0.0
 11
506.1061171988873
 21
272.0922159958903
 31
0.0
  0
LINE
  5
1B554
330
1F
100
AcDbEntity
  8
0
100
AcDbLine
 10
510.1330755426876
 20
272.0922159958903
 30
0.0
 11
511.2372768369874
 21
274.0047355578903
 31
0.0
  0
ARC
  5
1B555
330
1F
100
AcDbEntity
  8
0
100
AcDbCircle
 10
510.3279613707872
 20
274.5297607310903
 30
0.0
 40
1.05
100
AcDbArc
 50
329.998504607617
 51
30.00149539238301
  0
ARC
  5
1B556
330
1F
100
AcDbEntity
  8
0
100
AcDbCircle
 10
509.2237813707876
 20
272.6172607310904
 30
0.0
 40
1.05
100
AcDbArc
 50
270.0
 51
329.9969991644156
  0
ARC
  5
1B557
330
1F
100
AcDbEntity
  8
0
100
AcDbCircle
 10
507.0154113707872
 20
272.6172607310904
 30
0.0
 40
1.05
100
AcDbArc
 50
210.0030008355843
 51
270.0
  0
ARC
  5
1B558
330
1F
100
AcDbEntity
  8
0
100
AcDbCircle
 10
505.9112313707875
 20
274.5297607310903
 30
0.0
 40
1.05
100
AcDbArc
 50
149.998504607617
 51
210.001495392383
  0
ARC
  5
1B559
330
1F
100
AcDbEntity
  8
0
100
AcDbCircle
 10
507.0154113707872
 20
276.4422607310902
 30
0.0
 40
1.05
100
AcDbArc
 50
90.0
 51
149.9969991644156
  0
ARC
  5
1B55A
330
1F
100
AcDbEntity
  8
0
100
AcDbCircle
 10
509.2237813707876
 20
276.4422607310902
 30
0.0
 40
1.05
100
AcDbArc
 50
30.00300083571281
 51
90.0
  0
ARC
  5
1B55B
330
1F
100
AcDbEntity
  8
0
100
AcDbCircle
 10
509.4196013707875
 20
276.3797607310902
 30
0.0
 40
0.5636219726000001
100
AcDbArc
 50
0.0
 51
90.0
  0
ARC
  5
1B55C
330
1F
100
AcDbEntity
  8
0
100
AcDbCircle
 10
508.5696013707877
 20
276.3797607310902
 30
0.0
 40
0.5636219726000001
100
AcDbArc
 50
90.0
 51
180.0
  0
ARC
  5
1B55D
330
1F
100
AcDbEntity
  8
0
100
AcDbCircle
 10
506.0196013707872
 20
274.9297607310904
 30
0.0
 40
0.5636219726000001
100
AcDbArc
 50
90.0
 51
180.0
  0
ARC
  5
1B55E
330
1F
100
AcDbEntity
  8
0
100
AcDbCircle
 10
506.0196013707872
 20
274.1297607310902
 30
0.0
 40
0.5636219726000001
100
AcDbArc
 50
180.0
 51
270.0
  0
ARC
  5
1B55F
330
1F
100
AcDbEntity
  8
0
100
AcDbCircle
 10
508.5696013707877
 20
272.6797607310904
 30
0.0
 40
0.5636219726000001
100
AcDbArc
 50
180.0
 51
270.0
  0
ARC
  5
1B560
330
1F
100
AcDbEntity
  8
0
100
AcDbCircle
 10
509.4196013707875
 20
272.6797607310904
 30
0.0
 40
0.5636219726000001
100
AcDbArc
 50
270.0
 51
0.0
  0
ARC
  5
1B561
330
1F
100
AcDbEntity
  8
0
100
AcDbCircle
 10
508.5696013707877
 20
276.3797607310902
 30
0.0
 40
0.45
100
AcDbArc
 50
90.0
 51
180.0
  0
ARC
  5
1B562
330
1F
100
AcDbEntity
  8
0
100
AcDbCircle
 10
507.6696013707873
 20
275.8297607310904
 30
0.0
 40
0.45
100
AcDbArc
 50
270.0
 51
0.0
  0
ARC
  5
1B563
330
1F
100
AcDbEntity
  8
0
100
AcDbCircle
 10
506.0196013707872
 20
274.9297607310904
 30
0.0
 40
0.45
100
AcDbArc
 50
90.0
 51
180.0
  0
ARC
  5
1B564
330
1F
100
AcDbEntity
  8
0
100
AcDbCircle
 10
506.0196013707872
 20
274.1297607310902
 30
0.0
 40
0.45
100
AcDbArc
 50
180.0
 51
270.0
  0
ARC
  5
1B565
330
1F
100
AcDbEntity
  8
0
100
AcDbCircle
 10
507.6696013707873
 20
273.2297607310905
 30
0.0
 40
0.45
100
AcDbArc
 50
0.0
 51
90.0
  0
ARC
  5
1B566
330
1F
100
AcDbEntity
  8
0
100
AcDbCircle
 10
508.5696013707877
 20
272.6797607310904
 30
0.0
 40
0.45
100
AcDbArc
 50
180.0
 51
270.0
  0
ARC
  5
1B567
330
1F
100
AcDbEntity
  8
0
100
AcDbCircle
 10
509.4196013707875
 20
272.6797607310904
 30
0.0
 40
0.45
100
AcDbArc
 50
270.0
 51
0.0
  0
ARC
  5
1B568
330
1F
100
AcDbEntity
  8
0
100
AcDbCircle
 10
509.4196013707875
 20
276.3797607310902
 30
0.0
 40
0.45
100
AcDbArc
 50
0.0
 51
90.0
  0
ARC
  5
1B569
330
1F
100
AcDbEntity
  8
0
100
AcDbCircle
 10
507.6696013707873
 20
275.8297607310904
 30
0.0
 40
0.3363780274
100
AcDbArc
 50
270.0
 51
0.0
  0
ARC
  5
1B56A
330
1F
100
AcDbEntity
  8
0
100
AcDbCircle
 10
507.6696013707873
 20
273.2297607310905
 30
0.0
 40
0.3363780274
100
AcDbArc
 50
0.0
 51
90.0
  0
SPLINE
  5
1B56B
330
1F
100
AcDbEntity
  8
0
100
AcDbSpline
210
0.0
220
0.0
230
1.0
 70
     8
 71
     3
 72
    10
 73
     6
 74
     4
 42
0.0000000001
 43
0.0000000001
 44
0.0000000001
 12
-0.4593349894126268
 22
-0.8882631183952771
 32
0.0
 13
-0.7424423747122754
 23
-0.6699099344177525
 33
0.0
 40
0.0
 40
0.0
 40
0.0
 40
0.0
 40
0.2661210232091578
 40
0.5644464019798667
 40
0.8965649499716612
 40
0.8965649499716612
 40
0.8965649499716612
 40
0.8965649499716612
 10
536.5196119990232
 20
274.0297607310903
 30
0.0
 10
536.4788657665638
 20
273.9509655677749
 30
0.0
 10
536.3771260870025
 20
273.7916267577826
 30
0.0
 10
536.183873446865
 20
273.5629313294433
 30
0.0
 10
536.0327115740756
 20
273.4164896939585
 30
0.0
 10
535.9505186129232
 20
273.3423265223904
 30
0.0
 11
536.5196119990232
 21
274.0297607310903
 31
0.0
 11
536.3785016466233
 21
273.8041321259901
 31
0.0
 11
536.1877380418233
 21
273.5747693593902
 31
0.0
 11
535.9505186129232
 21
273.3423265223904
 31
0.0
  0
SPLINE
  5
1B56C
330
1F
100
AcDbEntity
  8
0
100
AcDbSpline
210
0.0
220
0.0
230
1.0
 70
     8
 71
     3
 72
    10
 73
     6
 74
     4
 42
0.0000000001
 43
0.0000000001
 44
0.0000000001
 12
0.4228140829673255
 22
-0.906216448341399
 32
0.0
 13
0.7070871923349986
 23
-0.7071263694954454
 33
0.0
 40
0.0
 40
0.0
 40
0.0
 40
0.0
 40
0.256922390589138
 40
0.5436536048198009
 40
0.8618082478640518
 40
0.8618082478640518
 40
0.8618082478640518
 40
0.8618082478640518
 10
535.1370508961232
 20
274.0297607310903
 30
0.0
 10
535.1732610311135
 20
273.952151632324
 30
0.0
 10
535.2638456862425
 20
273.7943048181588
 30
0.0
 10
535.4379955514477
 20
273.565174942048
 30
0.0
 10
535.5755309218308
 20
273.4173183682818
 30
0.0
 10
535.6505186129236
 20
273.3423265223904
 30
0.0
 11
535.1370508961232
 21
274.0297607310903
 31
0.0
 11
535.2631834922235
 21
273.8059311463902
 31
0.0
 11
535.4350842670235
 21
273.5764427744901
 31
0.0
 11
535.6505186129236
 21
273.3423265223904
 31
0.0
  0
SPLINE
  5
1B56D
330
1F
100
AcDbEntity
  8
0
100
AcDbSpline
210
0.0
220
0.0
230
1.0
 70
     8
 71
     3
 72
    10
 73
     6
 74
     4
 42
0.0000000001
 43
0.0000000001
 44
0.0000000001
 12
-0.7070871923950994
 22
-0.7071263694353477
 32
0.0
 13
-0.4228140829431489
 23
-0.9062164483526792
 33
0.0
 40
0.0
 40
0.0
 40
0.0
 40
0.0
 40
0.3182523511815512
 40
0.6049971613083317
 40
0.8618083394207586
 40
0.8618083394207586
 40
0.8618083394207586
 40
0.8618083394207586
 10
535.6505186129236
 20
275.7171949397902
 30
0.0
 10
535.5755078924336
 20
275.6421800632385
 30
0.0
 10
535.4379486409512
 20
275.494294681425
 30
0.0
 10
535.2638077700215
 20
275.2651574432698
 30
0.0
 10
535.1732453570442
 20
275.1073362356659
 30
0.0
 10
535.1370508961232
 20
275.0297607310904
 30
0.0
 11
535.6505186129236
 21
275.7171949397902
 31
0.0
 11
535.4350214833235
 21
275.4830036799902
 31
0.0
 11
535.2631222212236
 21
275.2534971880904
 31
0.0
 11
535.1370508961232
 21
275.0297607310904
 31
0.0
  0
SPLINE
  5
1B56E
330
1F
100
AcDbEntity
  8
0
100
AcDbSpline
210
0.0
220
0.0
230
1.0
 70
     8
 71
     3
 72
    10
 73
     6
 74
     4
 42
0.0000000001
 43
0.0000000001
 44
0.0000000001
 12
0.742442374698164
 22
-0.6699099344333918
 32
0.0
 13
0.4593349893389732
 23
-0.8882631184333646
 33
0.0
 40
0.0
 40
0.0
 40
0.0
 40
0.0
 40
0.3321892647132247
 40
0.6305297133843766
 40
0.8965650343661915
 40
0.8965650343661915
 40
0.8965650343661915
 40
0.8965650343661915
 10
535.9505186129232
 20
275.7171949397902
 30
0.0
 10
536.0327290751042
 20
275.6430159769424
 30
0.0
 10
536.1839105642665
 20
275.4965532439954
 30
0.0
 10
536.3771567756568
 20
275.2678518709051
 30
0.0
 10
536.4788788885809
 20
275.1085305190333
 30
0.0
 10
536.5196119990232
 20
275.0297607310904
 30
0.0
 11
535.9505186129232
 21
275.7171949397902
 31
0.0
 11
536.1877862284234
 21
275.4847002382902
 31
0.0
 11
536.3785523480235
 21
275.2553199624903
 31
0.0
 11
536.5196119990232
 21
275.0297607310904
 31
0.0
  0
LINE
  5
1B56F
330
1F
100
AcDbEntity
  8
Cen
100
AcDbLine
 10
563.7647797037807
 20
274.5297607310903
 30
0.0
 11
533.7698441413825
 21
274.5297607310903
 31
0.0
  0
LINE
  5
1B570
330
1F
100
AcDbEntity
  8
Cen
100
AcDbLine
 10
511.9408529176031
 20
274.5297607310903
 30
0.0
 11
504.5173071058211
 21
274.5297607310903
 31
0.0
  0
LINE
  5
1B571
330
1F
100
AcDbEntity
  8
Cen
100
AcDbLine
 10
508.1196013707876
 20
271.0977288310068
 30
0.0
 11
508.1196013707876
 21
278.2501286799737
 31
0.0
  0
DIMENSION
  5
1B572
102
{ACAD_XDICTIONARY
360
1B573
102
}
102
{ACAD_REACTORS
330
1B574
102
}
330
1F
100
AcDbEntity
  8
DIM
100
AcDbDimension
  2
*D2
 10
539.7005186129232
 20
267.2728868877636
 30
0.0
 11
551.4505186129232
 21
268.8228868877636
 31
0.0
 70
    32
 71
     5
 42
23.5
 73
     0
 74
     0
 75
     0
  3
01
100
AcDbAlignedDimension
 13
563.2005186129232
 23
271.5672607310902
 33
0.0
 14
539.7005186129232
 24
271.8672607310903
 34
0.0
100
AcDbRotatedDimension
  0
DIMENSION
  5
1B575
102
{ACAD_XDICTIONARY
360
1B576
102
}
102
{ACAD_REACTORS
330
1B577
102
}
330
1F
100
AcDbEntity
  8
DIM
100
AcDbDimension
  2
*D3
 10
563.2005186129232
 20
263.0213256389021
 30
0.0
 11
548.9255186129234
 21
264.5713256389021
 31
0.0
 70
    32
 71
     5
 42
28.54999999999961
 73
     0
 74
     0
 75
     0
  3
01
100
AcDbAlignedDimension
 13
534.6505186129236
 23
272.5048419583903
 33
0.0
 14
563.2005186129232
 24
270.0363640619197
 34
0.0
100
AcDbRotatedDimension
  0
DIMENSION
  5
1B578
102
{ACAD_XDICTIONARY
360
1B579
102
}
102
{ACAD_REACTORS
330
1B57A
102
}
330
1F
100
AcDbEntity
  8
DIM
100
AcDbDimension
  2
*D4
 10
532.9036167512112
 20
275.0297607310904
 30
0.0
 11
532.9036167512112
 21
269.4719905371248
 31
0.0
 70
   160
 71
     5
 42
1.000000000000056
 73
     0
 74
     0
 75
     0
  3
01
100
AcDbAlignedDimension
 13
534.6505186129236
 23
274.0297607310903
 33
0.0
 14
534.6505186129236
 24
275.0297607310904
 34
0.0
 50
90.0
100
AcDbRotatedDimension
  0
DIMENSION
  5
1B57B
102
{ACAD_XDICTIONARY
360
1B57C
102
}
102
{ACAD_REACTORS
330
1B57D
102
}
330
1F
100
AcDbEntity
  8
DIM
100
AcDbDimension
  2
*D5
 10
528.6347711429942
 20
272.3297607310905
 30
0.0
 11
528.6347711429941
 21
265.1369035882334
 31
0.0
 70
   160
  1
%%C<>
 71
     5
 42
4.40000000000009
 73
     0
 74
     0
 75
     0
  3
01
100
AcDbAlignedDimension
 13
536.6505186129236
 23
276.7297607310906
 33
0.0
 14
536.6505186129236
 24
272.3297607310905
 34
0.0
 50
90.0
100
AcDbRotatedDimension
  0
DIMENSION
  5
1B57E
102
{ACAD_XDICTIONARY
360
1B57F
102
}
102
{ACAD_REACTORS
330
1B580
102
}
330
1F
100
AcDbEntity
  8
DIM
100
AcDbDimension
  2
*D6
 10
526.1304293700673
 20
272.0297607310903
 30
0.0
 11
524.5804293700672
 21
274.5297607310904
 31
0.0
 70
    32
  1
%%C<>
 71
     5
 42
5.000000000000056
 73
     0
 74
     0
 75
     0
  3
01
100
AcDbAlignedDimension
 13
535.7123303621683
 23
277.0297607310904
 33
0.0
 14
535.8005186129235
 24
272.0297607310903
 34
0.0
 50
90.0
100
AcDbRotatedDimension
  0
DIMENSION
  5
1B581
102
{ACAD_XDICTIONARY
360
1B582
102
}
102
{ACAD_REACTORS
330
1B583
102
}
330
1F
100
AcDbEntity
  8
DIM
100
AcDbDimension
  2
*D7
 10
514.4820202857016
 20
271.5672607310902
 30
0.0
 11
512.9320202857015
 21
266.9101178739474
 31
0.0
 70
    32
 71
     5
 42
5.925000000000181
 73
     0
 74
     0
 75
     0
  3
01
100
AcDbAlignedDimension
 13
508.9253626169337
 23
277.4922607310904
 33
0.0
 14
508.9253626169337
 24
271.5672607310902
 34
0.0
 50
90.0
100
AcDbRotatedDimension
  0
ENDSEC
  0
SECTION
  2
OBJECTS
  0
DICTIONARY
  5
C
330
0
100
AcDbDictionary
281
     1
  3
ACAD_COLOR
350
4FFE
  3
ACAD_GROUP
350
D
  3
ACAD_LAYOUT
350
1A
  3
ACAD_MATERIAL
350
4FE5
  3
ACAD_MLEADERSTYLE
350
5022
  3
ACAD_MLINESTYLE
350
17
  3
ACAD_PLOTSETTINGS
350
19
  3
ACAD_PLOTSTYLENAME
350
E
  3
ACAD_RENDER_PLOT_SETTINGS
350
6537
  3
ACAD_SCALELIST
350
5000
  3
ACAD_TABLESTYLE
350
4FE3
  3
ACAD_VISUALSTYLE
350
2A
  3
ACDB_RECOMPOSE_DATA
350
50EC
  3
AcDbVariableDictionary
350
5108
  3
ASE_INDEX_DICTIONARY
350
11ACE
  3
lxx_dict
350
1B924
  0
DICTIONARY
  5
50EE
330
8
100
AcDbDictionary
280
     1
281
     1
  0
DICTIONARY
  5
50B8
330
2
100
AcDbDictionary
280
     1
281
     1
  3
ACAD_LAYERFILTERS
360
1A674
  3
ACAD_LAYERSTATES
360
50B9
  3
ACLYDICTIONARY
360
1A673
  0
DICTIONARY
  5
50D0
330
10
100
AcDbDictionary
280
     1
281
     1
  3
ADSK_XREC_LAYER_RECONCILED
360
50D1
  0
DICTIONARY
  5
50D2
330
3B
100
AcDbDictionary
280
     1
281
     1
  3
ADSK_XREC_LAYER_RECONCILED
360
50D3
  0
DICTIONARY
  5
50AF
330
50AE
100
AcDbDictionary
280
     1
281
     1
  3
ADSK_XREC_LAYER_RECONCILED
360
50D4
  0
DICTIONARY
  5
1B48D
330
1B48C
100
AcDbDictionary
280
     1
281
     1
  0
DICTIONARY
  5
67C0
330
1F
100
AcDbDictionary
280
     1
281
     1
  3
ACAD_SORTENTS
360
67C1
  0
DICTIONARY
  5
1B9C0
330
10FE8
100
AcDbDictionary
280
     1
281
     1
  0
DICTIONARY
  5
1BA97
330
1B92B
100
AcDbDictionary
280
     1
281
     1
  3
ACAD_MTEXT_2008_RT
360
1BA98
  0
DICTIONARY
  5
1BA99
330
1B96F
100
AcDbDictionary
280
     1
281
     1
  3
ACAD_MTEXT_2008_RT
360
1BA9A
  0
DICTIONARY
  5
1BA9B
330
1B970
100
AcDbDictionary
280
     1
281
     1
  3
ACAD_MTEXT_2008_RT
360
1BA9C
  0
DICTIONARY
  5
1BA9D
330
1B995
100
AcDbDictionary
280
     1
281
     1
  3
ACAD_MTEXT_2008_RT
360
1BA9E
  0
DICTIONARY
  5
1BA9F
330
1B998
100
AcDbDictionary
280
     1
281
     1
  3
ACAD_MTEXT_2008_RT
360
1BAA0
  0
DICTIONARY
  5
1BAA1
330
1B999
100
AcDbDictionary
280
     1
281
     1
  3
ACAD_MTEXT_2008_RT
360
1BAA2
  0
DICTIONARY
  5
1BAA3
330
1B9A3
100
AcDbDictionary
280
     1
281
     1
  3
ACAD_MTEXT_2008_RT
360
1BAA4
  0
DICTIONARY
  5
1BAA5
330
1B9A4
100
AcDbDictionary
280
     1
281
     1
  3
ACAD_MTEXT_2008_RT
360
1BAA6
  0
DICTIONARY
  5
1BAA7
330
1B9A5
100
AcDbDictionary
280
     1
281
     1
  3
ACAD_MTEXT_2008_RT
360
1BAA8
  0
DICTIONARY
  5
1BAA9
330
1B9B3
100
AcDbDictionary
280
     1
281
     1
  3
ACAD_MTEXT_2008_RT
360
1BAAA
  0
DICTIONARY
  5
1BAAB
330
1B9B4
100
AcDbDictionary
280
     1
281
     1
  3
ACAD_MTEXT_2008_RT
360
1BAAC
  0
DICTIONARY
  5
1BAAD
330
1B9B5
100
AcDbDictionary
280
     1
281
     1
  3
ACAD_MTEXT_2008_RT
360
1BAAE
  0
DICTIONARY
  5
1BA95
330
1AFA6
100
AcDbDictionary
280
     1
281
     1
  3
ACAD_MTEXT_2008_RT
360
1BA96
  0
DICTIONARY
  5
1B573
330
1B572
100
AcDbDictionary
280
     1
281
     1
  3
ACAD_DIMASSOC
360
1B574
  0
DICTIONARY
  5
1B576
330
1B575
100
AcDbDictionary
280
     1
281
     1
  3
ACAD_DIMASSOC
360
1B577
  0
DICTIONARY
  5
1B579
330
1B578
100
AcDbDictionary
280
     1
281
     1
  3
ACAD_DIMASSOC
360
1B57A
  0
DICTIONARY
  5
1B57C
330
1B57B
100
AcDbDictionary
280
     1
281
     1
  3
ACAD_DIMASSOC
360
1B57D
  0
DICTIONARY
  5
1B57F
330
1B57E
100
AcDbDictionary
280
     1
281
     1
  3
ACAD_DIMASSOC
360
1B580
  0
DICTIONARY
  5
1B582
330
1B581
100
AcDbDictionary
280
     1
281
     1
  3
ACAD_DIMASSOC
360
1B583
  0
DICTIONARY
  5
4FFE
102
{ACAD_REACTORS
330
C
102
}
330
C
100
AcDbDictionary
281
     1
  0
DICTIONARY
  5
D
102
{ACAD_REACTORS
330
C
102
}
330
C
100
AcDbDictionary
281
     1
  0
DICTIONARY
  5
1A
102
{ACAD_REACTORS
330
C
102
}
330
C
100
AcDbDictionary
281
     1
  3
Layout1
350
1E
  3
Layout2
350
26
  3
Model
350
22
  0
DICTIONARY
  5
4FE5
102
{ACAD_REACTORS
330
C
102
}
330
C
100
AcDbDictionary
281
     1
  3
ByBlock
350
4FEE
  3
ByLayer
350
4FE6
  3
Global
350
4FF6
  0
DICTIONARY
  5
5022
102
{ACAD_REACTORS
330
C
102
}
330
C
100
AcDbDictionary
281
     1
  3
Standard
350
5023
  0
DICTIONARY
  5
17
102
{ACAD_REACTORS
330
C
102
}
330
C
100
AcDbDictionary
281
     1
  3
Standard
350
18
  0
DICTIONARY
  5
19
102
{ACAD_REACTORS
330
C
102
}
330
C
100
AcDbDictionary
281
     1
  0
ACDBDICTIONARYWDFLT
  5
E
102
{ACAD_REACTORS
330
C
102
}
330
C
100
AcDbDictionary
281
     1
  3
Normal
350
F
100
AcDbDictionaryWithDefault
340
F
  0
DICTIONARY
  5
6537
102
{ACAD_REACTORS
330
C
102
}
330
C
100
AcDbDictionary
281
     1
  3
{1DC63513-1B1A-422F-9880-65CFD2B8D533}
350
6538
  0
DICTIONARY
  5
5000
102
{ACAD_REACTORS
330
C
102
}
330
C
100
AcDbDictionary
281
     1
  3
A0
350
5001
  3
A1
350
5002
  3
A2
350
5003
  3
A3
350
5004
  3
A4
350
5005
  3
A5
350
5006
  3
A6
350
5007
  3
A7
350
5008
  3
A8
350
5009
  3
A9
350
500A
  3
B0
350
500B
  3
B1
350
500C
  3
B2
350
500D
  3
B3
350
500E
  3
B4
350
500F
  3
B5
350
5010
  3
B6
350
5011
  3
B7
350
5012
  3
B8
350
5013
  3
B9
350
5014
  3
C0
350
5015
  3
C1
350
5016
  3
C2
350
5017
  3
C3
350
5018
  3
C4
350
5019
  3
C5
350
501A
  3
C6
350
501B
  3
C7
350
501C
  3
C8
350
501D
  3
C9
350
501E
  3
D0
350
501F
  3
D1
350
5020
  3
D2
350
5021
  0
DICTIONARY
  5
4FE3
102
{ACAD_REACTORS
330
C
102
}
330
C
100
AcDbDictionary
281
     1
  3
Standard
350
4FFF
  0
DICTIONARY
  5
2A
102
{ACAD_REACTORS
330
C
102
}
330
C
100
AcDbDictionary
281
     1
  3
2dWireframe
350
2F
  3
3D Hidden
350
31
  3
3dWireframe
350
30
  3
Basic
350
32
  3
Brighten
350
36
  3
ColorChange
350
3A
  3
Conceptual
350
34
  3
Dim
350
35
  3
Facepattern
350
39
  3
Flat
350
2B
  3
FlatWithEdges
350
2C
  3
Gouraud
350
2D
  3
GouraudWithEdges
350
2E
  3
Linepattern
350
38
  3
Realistic
350
33
  3
Thicken
350
37
  0
XRECORD
  5
50EC
102
{ACAD_REACTORS
330
C
102
}
330
C
100
AcDbXrecord
280
     1
 90
        1
330
4FFF
330
1AFA6
330
1B92B
330
1B96F
330
1B970
330
1B995
330
1B998
330
1B999
330
1B9A3
330
1B9A4
330
1B9A5
330
1B9B3
330
1B9B4
330
1B9B5
  0
DICTIONARY
  5
5108
102
{ACAD_REACTORS
330
C
102
}
330
C
100
AcDbDictionary
281
     1
  3
CANNOSCALE
350
510B
  3
CMLEADERSTYLE
350
510A
  3
CTABLESTYLE
350
5109
  3
DIMASSOC
350
510E
  3
INDEXCTL
350
510D
  3
LIGHTINGUNITS
350
1B9EA
  3
MSLTSCALE
350
1B9E9
  3
SORTENTS
350
510C
  0
DICTIONARY
  5
11ACE
102
{ACAD_REACTORS
330
C
102
}
330
C
100
AcDbDictionary
281
     1
  3
ASEBlockHierarchyIndexRecord
350
11ACF
1001
DCO15
1040
1901610418.781
  0
DICTIONARY
  5
1B924
102
{ACAD_REACTORS
330
C
102
}
330
C
100
AcDbDictionary
281
     1
  3
lxx_dimth
350
1B925
  0
DICTIONARY
  5
1A674
102
{ACAD_REACTORS
330
50B8
102
}
330
50B8
100
AcDbDictionary
281
     1
  0
DICTIONARY
  5
50B9
102
{ACAD_REACTORS
330
50B8
102
}
330
50B8
100
AcDbDictionary
281
     1
  0
DICTIONARY
  5
1A673
102
{ACAD_REACTORS
330
50B8
102
}
330
50B8
100
AcDbDictionary
281
     1
1001
ACAD
1000
<All
  0
XRECORD
  5
50D1
102
{ACAD_REACTORS
330
50D0
102
}
330
50D0
100
AcDbXrecord
280
     1
290
     1
  0
XRECORD
  5
50D3
102
{ACAD_REACTORS
330
50D2
102
}
330
50D2
100
AcDbXrecord
280
     1
290
     1
  0
XRECORD
  5
50D4
102
{ACAD_REACTORS
330
50AF
102
}
330
50AF
100
AcDbXrecord
280
     1
290
     1
  0
SORTENTSTABLE
  5
67C1
102
{ACAD_REACTORS
330
67C0
102
}
330
67C0
100
AcDbSortentsTable
330
1F
331
2C65
  5
2EE7
331
65A4
  5
65A5
331
3943
  5
4842
331
65A0
  5
65A1
331
3895
  5
3943
331
4842
  5
4E94
331
35D8
  5
3807
331
3807
  5
3895
331
65A3
  5
65A4
331
35C8
  5
35D8
331
2F93
  5
2FDE
331
2FDE
  5
35C8
331
65A1
  5
65A2
331
28AE
  5
2A38
331
2EE7
  5
2F93
331
11089
  5
11089
331
65B2
  5
65B3
  0
XRECORD
  5
1BA98
102
{ACAD_REACTORS
330
1BA97
102
}
330
1BA97
100
AcDbXrecord
280
     1
 40
1527.0
  1
\pxqc;BQ LUO
  0
XRECORD
  5
1BA9A
102
{ACAD_REACTORS
330
1BA99
102
}
330
1BA99
100
AcDbXrecord
280
     1
 40
1262561.0
  1
\pxqc;档案员{\H0.7x;\P\Fromans|c134;Filing Clerk\fFangSong_GB2312|b0|i0|c134|p49; }
  0
XRECORD
  5
1BA9C
102
{ACAD_REACTORS
330
1BA9B
102
}
330
1BA9B
100
AcDbXrecord
280
     1
 40
650528.0
  1
\pxqc;日期{\Fromans|c134;/Date}
  0
XRECORD
  5
1BA9E
102
{ACAD_REACTORS
330
1BA9D
102
}
330
1BA9D
100
AcDbXrecord
280
     1
 40
2318748.0
  1
\pxsm0.7;{\f仿宋_GB2312|b0|i0|c134|p49;标准化}\PStand.
  0
XRECORD
  5
1BAA0
102
{ACAD_REACTORS
330
1BA9F
102
}
330
1BA9F
100
AcDbXrecord
280
     1
 40
118135.0
  1
\pxsm0.7;签名\P{\Fromans|c134;Signature} 
  0
XRECORD
  5
1BAA2
102
{ACAD_REACTORS
330
1BAA1
102
}
330
1BAA1
100
AcDbXrecord
280
     1
 40
108939.0
  1
\pxsm0.7,qc;处数\P{\Fromans|c134;Number }
  0
XRECORD
  5
1BAA4
102
{ACAD_REACTORS
330
1BAA3
102
}
330
1BAA3
100
AcDbXrecord
280
     1
 40
125762.0
  1
\pxsm0.7;标记\P{\Fromans|c134;Mark}
  0
XRECORD
  5
1BAA6
102
{ACAD_REACTORS
330
1BAA5
102
}
330
1BAA5
100
AcDbXrecord
280
     1
 40
111973.0
  1
\pxsm0.7;审核\P{\Fromans|c134;Checked}
  0
XRECORD
  5
1BAA8
102
{ACAD_REACTORS
330
1BAA7
102
}
330
1BAA7
100
AcDbXrecord
280
     1
 40
137968.0
  1
\pxsm0.7;绘图\P{\Fromans|c134;Drawn\Ftxt|c134; }
  0
XRECORD
  5
1BAAA
102
{ACAD_REACTORS
330
1BAA9
102
}
330
1BAA9
100
AcDbXrecord
280
     1
 40
106320.0
  1
\pxsm0.7;批准\P{\Fromans|c134;Approved}
  0
XRECORD
  5
1BAAC
102
{ACAD_REACTORS
330
1BAAB
102
}
330
1BAAB
100
AcDbXrecord
280
     1
 40
127283.0
  1
\pxsm0.7;工艺\P{\Fromans|c134;Process}
  0
XRECORD
  5
1BAAE
102
{ACAD_REACTORS
330
1BAAD
102
}
330
1BAAD
100
AcDbXrecord
280
     1
 40
106220.0
  1
\pxsm0.7;日期\P{\Fromans|c134;Date}
  0
XRECORD
  5
1BA96
102
{ACAD_REACTORS
330
1BA95
102
}
330
1BA95
100
AcDbXrecord
280
     1
 40
20086400.0
  1
\A1;\pxql;技术参数:\P- 材料：聚碳酸酯\P- 颜色：{\Fromans|c134;RAL 3003}（红色）\P{\Fromans|c134;\PTechnical specification:\P- Material: polycarbonate\P- Colour: RAL 3003(red)}
  0
DIMASSOC
  5
1B574
102
{ACAD_REACTORS
330
1B573
102
}
330
1B573
100
AcDbDimAssoc
330
1B572
 90
        3
 70
     0
 71
     0
  1
AcDbOsnapPointRef
 72
     1
331
1B52E
 73
     2
 91
        0
 40
1.0
 10
0.0
 20
0.0
 30
2.000000000000000E+50
 75
     0
  1
AcDbOsnapPointRef
 72
    13
331
1B52C
 73
     2
 91
        0
 40
0.0
 10
0.0
 20
0.0
 30
2.000000000000000E+50
 75
     0
  0
DIMASSOC
  5
1B577
102
{ACAD_REACTORS
330
1B576
102
}
330
1B576
100
AcDbDimAssoc
330
1B575
 90
        1
 70
     0
 71
     0
  1
AcDbOsnapPointRef
 72
    13
331
1B50C
 73
     2
 91
        0
 40
0.0
 10
0.0
 20
0.0
 30
2.000000000000000E+50
 75
     0
  0
DIMASSOC
  5
1B57A
102
{ACAD_REACTORS
330
1B579
102
}
330
1B579
100
AcDbDimAssoc
330
1B578
 90
        3
 70
     0
 71
     0
  1
AcDbOsnapPointRef
 72
    13
331
1B522
 73
     2
 91
        0
 40
0.0
 10
0.0
 20
0.0
 30
2.000000000000000E+50
 75
     0
  1
AcDbOsnapPointRef
 72
    13
331
1B521
 73
     2
 91
        0
 40
0.0
 10
0.0
 20
0.0
 30
2.000000000000000E+50
 75
     0
  0
DIMASSOC
  5
1B57D
102
{ACAD_REACTORS
330
1B57C
102
}
330
1B57C
100
AcDbDimAssoc
330
1B57B
 90
        1
 70
     0
 71
     0
  1
AcDbOsnapPointRef
 72
     1
331
1B52A
 73
     2
 91
        0
 40
1.0
 10
0.0
 20
0.0
 30
2.000000000000000E+50
 75
     0
  0
DIMASSOC
  5
1B580
102
{ACAD_REACTORS
330
1B57F
102
}
330
1B57F
100
AcDbDimAssoc
330
1B57E
 90
        3
 70
     0
 71
     0
  1
AcDbOsnapPointRef
 72
    10
331
1B51B
 73
     2
 91
        0
 40
0.20603916415003
 10
0.0
 20
0.0
 30
0.0
 75
     0
  1
AcDbOsnapPointRef
 72
     2
331
1B528
 73
     2
 91
        0
 40
0.5000000000007581
 10
0.0
 20
0.0
 30
0.0
 75
     0
  0
DIMASSOC
  5
1B583
102
{ACAD_REACTORS
330
1B582
102
}
330
1B582
100
AcDbDimAssoc
330
1B581
 90
        3
 70
     0
 71
     0
  1
AcDbOsnapPointRef
 72
    10
331
1B52F
 73
     2
 91
        0
 40
0.1351307769321265
 10
0.0
 20
0.0
 30
0.0
 75
     0
  1
AcDbOsnapPointRef
 72
     8
331
1B552
 73
     2
 91
        0
 40
0.8648692230678735
 10
0.0
 20
0.0
 30
0.0
 75
     1
  1
AcDbOsnapPointRef
 72
    10
331
1B52F
 73
     2
 91
        0
 40
0.1351307769321265
 10
0.0
 20
0.0
 30
0.0
 75
     0
  0
LAYOUT
  5
1E
102
{ACAD_REACTORS
330
1A
102
}
330
1A
100
AcDbPlotSettings
  1

  2
none_device
  4

  6

 40
0.0
 41
0.0
 42
0.0
 43
0.0
 44
0.0
 45
0.0
 46
0.0
 47
0.0
 48
0.0
 49
0.0
140
0.0
141
0.0
142
1.0
143
1.0
 70
   688
 72
     0
 73
     0
 74
     5
  7

 75
    16
147
1.0
 76
     0
 77
     2
 78
   300
148
0.0
149
0.0
100
AcDbLayout
  1
Layout1
 70
     1
 71
     1
 10
0.0
 20
0.0
 11
12.0
 21
9.0
 12
0.0
 22
0.0
 32
0.0
 14
1.000000000000000E+20
 24
1.000000000000000E+20
 34
1.000000000000000E+20
 15
-1.000000000000000E+20
 25
-1.000000000000000E+20
 35
-1.000000000000000E+20
146
0.0
 13
0.0
 23
0.0
 33
0.0
 16
1.0
 26
0.0
 36
0.0
 17
0.0
 27
1.0
 37
0.0
 76
     0
330
1B
  0
LAYOUT
  5
26
102
{ACAD_REACTORS
330
1A
102
}
330
1A
100
AcDbPlotSettings
  1

  2
none_device
  4

  6

 40
0.0
 41
0.0
 42
0.0
 43
0.0
 44
0.0
 45
0.0
 46
0.0
 47
0.0
 48
0.0
 49
0.0
140
0.0
141
0.0
142
1.0
143
1.0
 70
   688
 72
     0
 73
     0
 74
     5
  7

 75
    16
147
1.0
 76
     0
 77
     2
 78
   300
148
0.0
149
0.0
100
AcDbLayout
  1
Layout2
 70
     1
 71
     2
 10
0.0
 20
0.0
 11
0.0
 21
0.0
 12
0.0
 22
0.0
 32
0.0
 14
0.0
 24
0.0
 34
0.0
 15
0.0
 25
0.0
 35
0.0
146
0.0
 13
0.0
 23
0.0
 33
0.0
 16
1.0
 26
0.0
 36
0.0
 17
0.0
 27
1.0
 37
0.0
 76
     0
330
23
  0
LAYOUT
  5
22
102
{ACAD_REACTORS
330
1A
102
}
330
1A
100
AcDbPlotSettings
  1

  2
Adobe PDF Converter.pc3
  4
A4
  6

 40
3.174999952316281
 41
3.174999952316281
 42
3.17498779296875
 43
3.175003051757812
 44
297.0318298339844
 45
209.9733276367186
 46
0.0000000000000076
 47
1.630241740247063
 48
246.9897427644609
 49
39.36804549891383
140
544.952097801264
141
244.7492402188181
142
1.0
143
1.025046328645055
 70
  3764
 72
     1
 73
     0
 74
     4
  7
monochrome.ctb
 75
     0
147
0.9755656618192436
 76
     1
 77
     2
 78
   300
148
-246.9897427644609
149
-39.36804549891383
100
AcDbLayout
  1
Model
 70
     1
 71
     0
 10
0.0
 20
0.0
 11
12.0
 21
9.0
 12
0.0
 22
0.0
 32
0.0
 14
1.000000000000000E+20
 24
1.000000000000000E+20
 34
1.000000000000000E+20
 15
-1.000000000000000E+20
 25
-1.000000000000000E+20
 35
-1.000000000000000E+20
146
0.0
 13
0.0
 23
0.0
 33
0.0
 16
1.0
 26
0.0
 36
0.0
 17
0.0
 27
1.0
 37
0.0
 76
     0
330
1F
331
29
1001
ACAD_PSEXT
1000
Adobe PDF Converter.pc3
1000
Adobe PDF Converter
1000
桌面\*.pdf
1000

1070
     0
  0
MATERIAL
  5
4FEE
102
{ACAD_XDICTIONARY
360
4FEF
102
}
102
{ACAD_REACTORS
330
4FE5
102
}
330
4FE5
100
AcDbMaterial
  1
ByBlock
 72
     0
 43
0.0208333333333333
 43
0.0
 43
0.0
 43
0.0
 43
0.0
 43
0.0208333333333333
 43
0.0
 43
0.0
 43
0.0
 43
0.0
 43
1.0
 43
0.0
 43
0.0
 43
0.0
 43
0.0
 43
1.0
 77
     0
 47
0.0208333333333333
 47
0.0
 47
0.0
 47
0.0
 47
0.0
 47
0.0208333333333333
 47
0.0
 47
0.0
 47
0.0
 47
0.0
 47
1.0
 47
0.0
 47
0.0
 47
0.0
 47
0.0
 47
1.0
171
     0
 49
0.0208333333333333
 49
0.0
 49
0.0
 49
0.0
 49
0.0
 49
0.0208333333333333
 49
0.0
 49
0.0
 49
0.0
 49
0.0
 49
1.0
 49
0.0
 49
0.0
 49
0.0
 49
0.0
 49
1.0
175
     0
142
0.0208333333333333
142
0.0
142
0.0
142
0.0
142
0.0
142
0.0208333333333333
142
0.0
142
0.0
142
0.0
142
0.0
142
1.0
142
0.0
142
0.0
142
0.0
142
0.0
142
1.0
179
     0
144
0.0208333333333333
144
0.0
144
0.0
144
0.0
144
0.0
144
0.0208333333333333
144
0.0
144
0.0
144
0.0
144
0.0
144
1.0
144
0.0
144
0.0
144
0.0
144
0.0
144
1.0
147
0.0208333333333333
147
0.0
147
0.0
147
0.0
147
0.0
147
0.0208333333333333
147
0.0
147
0.0
147
0.0
147
0.0
147
1.0
147
0.0
147
0.0
147
0.0
147
0.0
147
1.0
  0
MATERIAL
  5
4FE6
102
{ACAD_XDICTIONARY
360
4FE7
102
}
102
{ACAD_REACTORS
330
4FE5
102
}
330
4FE5
100
AcDbMaterial
  1
ByLayer
 72
     0
 43
0.0208333333333333
 43
0.0
 43
0.0
 43
0.0
 43
0.0
 43
0.0208333333333333
 43
0.0
 43
0.0
 43
0.0
 43
0.0
 43
1.0
 43
0.0
 43
0.0
 43
0.0
 43
0.0
 43
1.0
 77
     0
 47
0.0208333333333333
 47
0.0
 47
0.0
 47
0.0
 47
0.0
 47
0.0208333333333333
 47
0.0
 47
0.0
 47
0.0
 47
0.0
 47
1.0
 47
0.0
 47
0.0
 47
0.0
 47
0.0
 47
1.0
171
     0
 49
0.0208333333333333
 49
0.0
 49
0.0
 49
0.0
 49
0.0
 49
0.0208333333333333
 49
0.0
 49
0.0
 49
0.0
 49
0.0
 49
1.0
 49
0.0
 49
0.0
 49
0.0
 49
0.0
 49
1.0
175
     0
142
0.0208333333333333
142
0.0
142
0.0
142
0.0
142
0.0
142
0.0208333333333333
142
0.0
142
0.0
142
0.0
142
0.0
142
1.0
142
0.0
142
0.0
142
0.0
142
0.0
142
1.0
179
     0
144
0.0208333333333333
144
0.0
144
0.0
144
0.0
144
0.0
144
0.0208333333333333
144
0.0
144
0.0
144
0.0
144
0.0
144
1.0
144
0.0
144
0.0
144
0.0
144
0.0
144
1.0
147
0.0208333333333333
147
0.0
147
0.0
147
0.0
147
0.0
147
0.0208333333333333
147
0.0
147
0.0
147
0.0
147
0.0
147
1.0
147
0.0
147
0.0
147
0.0
147
0.0
147
1.0
  0
MATERIAL
  5
4FF6
102
{ACAD_XDICTIONARY
360
4FF7
102
}
102
{ACAD_REACTORS
330
4FE5
102
}
330
4FE5
100
AcDbMaterial
  1
Global
 72
     0
 43
0.0208333333333333
 43
0.0
 43
0.0
 43
0.0
 43
0.0
 43
0.0208333333333333
 43
0.0
 43
0.0
 43
0.0
 43
0.0
 43
1.0
 43
0.0
 43
0.0
 43
0.0
 43
0.0
 43
1.0
 77
     0
 47
0.0208333333333333
 47
0.0
 47
0.0
 47
0.0
 47
0.0
 47
0.0208333333333333
 47
0.0
 47
0.0
 47
0.0
 47
0.0
 47
1.0
 47
0.0
 47
0.0
 47
0.0
 47
0.0
 47
1.0
171
     0
 49
0.0208333333333333
 49
0.0
 49
0.0
 49
0.0
 49
0.0
 49
0.0208333333333333
 49
0.0
 49
0.0
 49
0.0
 49
0.0
 49
1.0
 49
0.0
 49
0.0
 49
0.0
 49
0.0
 49
1.0
175
     0
142
0.0208333333333333
142
0.0
142
0.0
142
0.0
142
0.0
142
0.0208333333333333
142
0.0
142
0.0
142
0.0
142
0.0
142
1.0
142
0.0
142
0.0
142
0.0
142
0.0
142
1.0
179
     0
144
0.0208333333333333
144
0.0
144
0.0
144
0.0
144
0.0
144
0.0208333333333333
144
0.0
144
0.0
144
0.0
144
0.0
144
1.0
144
0.0
144
0.0
144
0.0
144
0.0
144
1.0
147
0.0208333333333333
147
0.0
147
0.0
147
0.0
147
0.0
147
0.0208333333333333
147
0.0
147
0.0
147
0.0
147
0.0
147
1.0
147
0.0
147
0.0
147
0.0
147
0.0
147
1.0
  0
MLEADERSTYLE
  5
5023
102
{ACAD_REACTORS
330
5022
102
}
330
5022
100
AcDbMLeaderStyle
170
     2
171
     1
172
     0
 90
        2
 40
0.0
 41
0.0
173
     1
 91
-1056964608
340
14
 92
       -2
290
     1
 42
0.09
291
     1
 43
0.36
  3
Standard
 44
0.18
300

342
11
174
     1
178
     6
175
     1
176
     0
 93
-1056964608
 45
0.18
292
     0
297
     0
 46
0.18
 94
-1056964608
 47
1.0
 49
1.0
140
1.0
293
     1
141
0.0
294
     1
177
     0
142
1.0
295
     0
296
     0
143
0.125
1001
ACAD_MLEADERVER
1070
     2
  0
MLINESTYLE
  5
18
102
{ACAD_REACTORS
330
17
102
}
330
17
100
AcDbMlineStyle
  2
STANDARD
 70
     0
  3

 62
   256
 51
90.0
 52
90.0
 71
     2
 49
0.5
 62
   256
  6
BYLAYER
 49
-0.5
 62
   256
  6
BYLAYER
  0
ACDBPLACEHOLDER
  5
F
102
{ACAD_REACTORS
330
E
102
}
330
E
  0
MENTALRAYRENDERSETTINGS
  5
6538
102
{ACAD_REACTORS
330
6537
102
}
330
6537
100
AcDbRenderSettings
 90
        2
  1
中
290
     1
290
     1
290
     1
290
     1
  1

  1
渲染质量好于“低级”。包括纹理过滤并且强制双面处于激活状态。处理中等级反锯齿和 5 反射/折射的光线跟踪深度。
 90
        0
100
AcDbMentalRayRenderSettings
 90
        2
 90
        0
 90
        1
 70
     2
 40
3.0
 40
3.0
 40
0.0500000007450581
 40
0.0500000007450581
 40
0.0500000007450581
 40
0.0500000007450581
 70
     0
290
     0
290
     1
 90
        5
 90
        5
 90
        5
290
     0
 90
      500
290
     0
 40
1.0
 90
    10000
 90
        5
 90
        5
 90
        5
290
     0
 90
      200
290
     0
290
     0
290
     0
 40
0.1
 40
1.0
 40
1500.0
 70
     0
 70
     0
 40
10.0
 70
     0
 70
     0
290
     0
  1

 90
       32
 70
     0
 90
     1048
290
     0
 40
1.0
  0
SCALE
  5
5001
102
{ACAD_REACTORS
330
5000
102
}
330
5000
100
AcDbScale
 70
     0
300
1:1
140
1.0
141
1.0
290
     1
  0
SCALE
  5
5002
102
{ACAD_REACTORS
330
5000
102
}
330
5000
100
AcDbScale
 70
     0
300
1:2
140
1.0
141
2.0
290
     0
  0
SCALE
  5
5003
102
{ACAD_REACTORS
330
5000
102
}
330
5000
100
AcDbScale
 70
     0
300
1:4
140
1.0
141
4.0
290
     0
  0
SCALE
  5
5004
102
{ACAD_REACTORS
330
5000
102
}
330
5000
100
AcDbScale
 70
     0
300
1:5
140
1.0
141
5.0
290
     0
  0
SCALE
  5
5005
102
{ACAD_REACTORS
330
5000
102
}
330
5000
100
AcDbScale
 70
     0
300
1:8
140
1.0
141
8.0
290
     0
  0
SCALE
  5
5006
102
{ACAD_REACTORS
330
5000
102
}
330
5000
100
AcDbScale
 70
     0
300
1:10
140
1.0
141
10.0
290
     0
  0
SCALE
  5
5007
102
{ACAD_REACTORS
330
5000
102
}
330
5000
100
AcDbScale
 70
     0
300
1:16
140
1.0
141
16.0
290
     0
  0
SCALE
  5
5008
102
{ACAD_REACTORS
330
5000
102
}
330
5000
100
AcDbScale
 70
     0
300
1:20
140
1.0
141
20.0
290
     0
  0
SCALE
  5
5009
102
{ACAD_REACTORS
330
5000
102
}
330
5000
100
AcDbScale
 70
     0
300
1:30
140
1.0
141
30.0
290
     0
  0
SCALE
  5
500A
102
{ACAD_REACTORS
330
5000
102
}
330
5000
100
AcDbScale
 70
     0
300
1:40
140
1.0
141
40.0
290
     0
  0
SCALE
  5
500B
102
{ACAD_REACTORS
330
5000
102
}
330
5000
100
AcDbScale
 70
     0
300
1:50
140
1.0
141
50.0
290
     0
  0
SCALE
  5
500C
102
{ACAD_REACTORS
330
5000
102
}
330
5000
100
AcDbScale
 70
     0
300
1:100
140
1.0
141
100.0
290
     0
  0
SCALE
  5
500D
102
{ACAD_REACTORS
330
5000
102
}
330
5000
100
AcDbScale
 70
     0
300
2:1
140
2.0
141
1.0
290
     0
  0
SCALE
  5
500E
102
{ACAD_REACTORS
330
5000
102
}
330
5000
100
AcDbScale
 70
     0
300
4:1
140
4.0
141
1.0
290
     0
  0
SCALE
  5
500F
102
{ACAD_REACTORS
330
5000
102
}
330
5000
100
AcDbScale
 70
     0
300
8:1
140
8.0
141
1.0
290
     0
  0
SCALE
  5
5010
102
{ACAD_REACTORS
330
5000
102
}
330
5000
100
AcDbScale
 70
     0
300
10:1
140
10.0
141
1.0
290
     0
  0
SCALE
  5
5011
102
{ACAD_REACTORS
330
5000
102
}
330
5000
100
AcDbScale
 70
     0
300
100:1
140
100.0
141
1.0
290
     0
  0
SCALE
  5
5012
102
{ACAD_REACTORS
330
5000
102
}
330
5000
100
AcDbScale
 70
     0
300
1/128" = 1'-0"
140
0.0078125
141
12.0
290
     0
  0
SCALE
  5
5013
102
{ACAD_REACTORS
330
5000
102
}
330
5000
100
AcDbScale
 70
     0
300
1/64" = 1'-0"
140
0.015625
141
12.0
290
     0
  0
SCALE
  5
5014
102
{ACAD_REACTORS
330
5000
102
}
330
5000
100
AcDbScale
 70
     0
300
1/32" = 1'-0"
140
0.03125
141
12.0
290
     0
  0
SCALE
  5
5015
102
{ACAD_REACTORS
330
5000
102
}
330
5000
100
AcDbScale
 70
     0
300
1/16" = 1'-0"
140
0.0625
141
12.0
290
     0
  0
SCALE
  5
5016
102
{ACAD_REACTORS
330
5000
102
}
330
5000
100
AcDbScale
 70
     0
300
3/32" = 1'-0"
140
0.09375
141
12.0
290
     0
  0
SCALE
  5
5017
102
{ACAD_REACTORS
330
5000
102
}
330
5000
100
AcDbScale
 70
     0
300
1/8" = 1'-0"
140
0.125
141
12.0
290
     0
  0
SCALE
  5
5018
102
{ACAD_REACTORS
330
5000
102
}
330
5000
100
AcDbScale
 70
     0
300
3/16" = 1'-0"
140
0.1875
141
12.0
290
     0
  0
SCALE
  5
5019
102
{ACAD_REACTORS
330
5000
102
}
330
5000
100
AcDbScale
 70
     0
300
1/4" = 1'-0"
140
0.25
141
12.0
290
     0
  0
SCALE
  5
501A
102
{ACAD_REACTORS
330
5000
102
}
330
5000
100
AcDbScale
 70
     0
300
3/8" = 1'-0"
140
0.375
141
12.0
290
     0
  0
SCALE
  5
501B
102
{ACAD_REACTORS
330
5000
102
}
330
5000
100
AcDbScale
 70
     0
300
1/2" = 1'-0"
140
0.5
141
12.0
290
     0
  0
SCALE
  5
501C
102
{ACAD_REACTORS
330
5000
102
}
330
5000
100
AcDbScale
 70
     0
300
3/4" = 1'-0"
140
0.75
141
12.0
290
     0
  0
SCALE
  5
501D
102
{ACAD_REACTORS
330
5000
102
}
330
5000
100
AcDbScale
 70
     0
300
1" = 1'-0"
140
1.0
141
12.0
290
     0
  0
SCALE
  5
501E
102
{ACAD_REACTORS
330
5000
102
}
330
5000
100
AcDbScale
 70
     0
300
1-1/2" = 1'-0"
140
1.5
141
12.0
290
     0
  0
SCALE
  5
501F
102
{ACAD_REACTORS
330
5000
102
}
330
5000
100
AcDbScale
 70
     0
300
3" = 1'-0"
140
3.0
141
12.0
290
     0
  0
SCALE
  5
5020
102
{ACAD_REACTORS
330
5000
102
}
330
5000
100
AcDbScale
 70
     0
300
6" = 1'-0"
140
6.0
141
12.0
290
     0
  0
SCALE
  5
5021
102
{ACAD_REACTORS
330
5000
102
}
330
5000
100
AcDbScale
 70
     0
300
1'-0" = 1'-0"
140
12.0
141
12.0
290
     0
  0
TABLESTYLE
  5
4FFF
102
{ACAD_XDICTIONARY
360
50D6
102
}
102
{ACAD_REACTORS
330
4FE3
102
}
330
4FE3
100
AcDbTableStyle
  3
Standard
 70
     0
 71
     0
 40
0.06
 41
0.06
280
     0
281
     0
  7
Standard
140
0.18
170
     2
 62
     0
 63
     7
283
     0
 90
      512
 91
        0
  1

274
    -2
284
     1
 64
     0
275
    -2
285
     1
 65
     0
276
    -2
286
     1
 66
     0
277
    -2
287
     1
 67
     0
278
    -2
288
     1
 68
     0
279
    -2
289
     1
 69
     0
  7
Standard
140
0.25
170
     5
 62
     0
 63
     7
283
     0
 90
      512
 91
        0
  1

274
    -2
284
     1
 64
     0
275
    -2
285
     1
 65
     0
276
    -2
286
     1
 66
     0
277
    -2
287
     1
 67
     0
278
    -2
288
     1
 68
     0
279
    -2
289
     1
 69
     0
  7
Standard
140
0.18
170
     5
 62
     0
 63
     7
283
     0
 90
      512
 91
        0
  1

274
    -2
284
     1
 64
     0
275
    -2
285
     1
 65
     0
276
    -2
286
     1
 66
     0
277
    -2
287
     1
 67
     0
278
    -2
288
     1
 68
     0
279
    -2
289
     1
 69
     0
  0
VISUALSTYLE
  5
2F
102
{ACAD_REACTORS
330
2A
102
}
330
2A
100
AcDbVisualStyle
  2
2dWireframe
 70
     4
 71
     0
 72
     2
 73
     0
 90
        0
 40
-0.6
 41
-30.0
 62
     5
 63
     7
 74
     1
 91
        4
 64
     7
 65
   257
 75
     1
175
     1
 42
1.0
 92
        0
 66
   257
 43
1.0
 76
     1
 77
     6
 78
     2
 67
     7
 79
     5
170
     0
171
     0
290
     0
174
     0
 93
        1
 44
0.0
173
     0
291
     0
 45
0.0
1001
ACAD
1000
AcDbSavedByObjectVersion
1070
     0
1000
AcDbSavedByObjectVersion
1070
     0
1000
AcDbSavedByObjectVersion
1070
     0
1000
AcDbSavedByObjectVersion
1070
     0
1000
AcDbSavedByObjectVersion
1070
     0
1000
AcDbSavedByObjectVersion
1070
     0
1000
AcDbSavedByObjectVersion
1070
     0
1000
AcDbSavedByObjectVersion
1070
     0
1000
AcDbSavedByObjectVersion
1070
     0
1000
AcDbSavedByObjectVersion
1070
     0
1000
AcDbSavedByObjectVersion
1070
     0
1000
AcDbSavedByObjectVersion
1070
     0
1000
AcDbSavedByObjectVersion
1070
     0
1000
AcDbSavedByObjectVersion
1070
     0
1000
AcDbSavedByObjectVersion
1070
     0
1000
AcDbSavedByObjectVersion
1070
     0
1000
AcDbSavedByObjectVersion
1070
     0
1000
AcDbSavedByObjectVersion
1070
     0
1000
AcDbSavedByObjectVersion
1070
     0
1000
AcDbSavedByObjectVersion
1070
     0
1000
AcDbSavedByObjectVersion
1070
     0
1000
AcDbSavedByObjectVersion
1070
     0
1000
AcDbSavedByObjectVersion
1070
     0
1000
AcDbSavedByObjectVersion
1070
     0
1000
AcDbSavedByObjectVersion
1070
     0
1000
AcDbSavedByObjectVersion
1070
     0
1000
AcDbSavedByObjectVersion
1070
     0
1000
AcDbSavedByObjectVersion
1070
     0
1000
AcDbSavedByObjectVersion
1070
     0
1000
AcDbSavedByObjectVersion
1070
     0
1000
AcDbSavedByObjectVersion
1070
     0
1000
AcDbSavedByObjectVersion
1070
     0
1000
AcDbSavedByObjectVersion
1070
     0
1000
AcDbSavedByObjectVersion
1070
     0
1000
AcDbSavedByObjectVersion
1070
     0
1000
AcDbSavedByObjectVersion
1070
     0
1000
AcDbSavedByObjectVersion
1070
     0
1000
AcDbSavedByObjectVersion
1070
     0
1000
AcDbSavedByObjectVersion
1070
     0
1000
AcDbSavedByObjectVersion
1070
     0
1000
AcDbSavedByObjectVersion
1070
     0
1000
AcDbSavedByObjectVersion
1070
     0
1000
AcDbSavedByObjectVersion
1070
     0
  0
VISUALSTYLE
  5
31
102
{ACAD_REACTORS
330
2A
102
}
330
2A
100
AcDbVisualStyle
  2
3D Hidden
 70
     6
 71
     1
 72
     2
 73
     2
 90
        0
 40
-0.6
 41
-30.0
 62
     5
 63
     7
 74
     2
 91
        2
 64
     7
 65
   257
 75
     2
175
     1
 42
40.0
 92
        0
 66
   257
 43
1.0
 76
     1
 77
     6
 78
     2
 67
     7
 79
     3
170
     0
171
     0
290
     0
174
     0
 93
        1
 44
0.0
173
     0
291
     0
 45
0.0
1001
ACAD
1000
AcDbSavedByObjectVersion
1070
     0
1000
AcDbSavedByObjectVersion
1070
     0
1000
AcDbSavedByObjectVersion
1070
     0
1000
AcDbSavedByObjectVersion
1070
     0
1000
AcDbSavedByObjectVersion
1070
     0
1000
AcDbSavedByObjectVersion
1070
     0
1000
AcDbSavedByObjectVersion
1070
     0
1000
AcDbSavedByObjectVersion
1070
     0
1000
AcDbSavedByObjectVersion
1070
     0
1000
AcDbSavedByObjectVersion
1070
     0
1000
AcDbSavedByObjectVersion
1070
     0
1000
AcDbSavedByObjectVersion
1070
     0
1000
AcDbSavedByObjectVersion
1070
     0
1000
AcDbSavedByObjectVersion
1070
     0
1000
AcDbSavedByObjectVersion
1070
     0
1000
AcDbSavedByObjectVersion
1070
     0
1000
AcDbSavedByObjectVersion
1070
     0
1000
AcDbSavedByObjectVersion
1070
     0
1000
AcDbSavedByObjectVersion
1070
     0
1000
AcDbSavedByObjectVersion
1070
     0
1000
AcDbSavedByObjectVersion
1070
     0
1000
AcDbSavedByObjectVersion
1070
     0
1000
AcDbSavedByObjectVersion
1070
     0
1000
AcDbSavedByObjectVersion
1070
     0
1000
AcDbSavedByObjectVersion
1070
     0
1000
AcDbSavedByObjectVersion
1070
     0
1000
AcDbSavedByObjectVersion
1070
     0
1000
AcDbSavedByObjectVersion
1070
     0
1000
AcDbSavedByObjectVersion
1070
     0
1000
AcDbSavedByObjectVersion
1070
     0
1000
AcDbSavedByObjectVersion
1070
     0
1000
AcDbSavedByObjectVersion
1070
     0
1000
AcDbSavedByObjectVersion
1070
     0
1000
AcDbSavedByObjectVersion
1070
     0
1000
AcDbSavedByObjectVersion
1070
     0
1000
AcDbSavedByObjectVersion
1070
     0
1000
AcDbSavedByObjectVersion
1070
     0
1000
AcDbSavedByObjectVersion
1070
     0
1000
AcDbSavedByObjectVersion
1070
     0
1000
AcDbSavedByObjectVersion
1070
     0
1000
AcDbSavedByObjectVersion
1070
     0
1000
AcDbSavedByObjectVersion
1070
     0
1000
AcDbSavedByObjectVersion
1070
     0
  0
VISUALSTYLE
  5
30
102
{ACAD_REACTORS
330
2A
102
}
330
2A
100
AcDbVisualStyle
  2
3dWireframe
 70
     5
 71
     0
 72
     2
 73
     0
 90
        0
 40
-0.6
 41
-30.0
 62
     5
 63
     7
 74
     1
 91
        4
 64
     7
 65
   257
 75
     1
175
     1
 42
1.0
 92
        0
 66
   257
 43
1.0
 76
     1
 77
     6
 78
     2
 67
     7
 79
     5
170
     0
171
     0
290
     0
174
     0
 93
        1
 44
0.0
173
     0
291
     0
 45
0.0
1001
ACAD
1000
AcDbSavedByObjectVersion
1070
     0
1000
AcDbSavedByObjectVersion
1070
     0
1000
AcDbSavedByObjectVersion
1070
     0
1000
AcDbSavedByObjectVersion
1070
     0
1000
AcDbSavedByObjectVersion
1070
     0
1000
AcDbSavedByObjectVersion
1070
     0
1000
AcDbSavedByObjectVersion
1070
     0
1000
AcDbSavedByObjectVersion
1070
     0
1000
AcDbSavedByObjectVersion
1070
     0
1000
AcDbSavedByObjectVersion
1070
     0
1000
AcDbSavedByObjectVersion
1070
     0
1000
AcDbSavedByObjectVersion
1070
     0
1000
AcDbSavedByObjectVersion
1070
     0
1000
AcDbSavedByObjectVersion
1070
     0
1000
AcDbSavedByObjectVersion
1070
     0
1000
AcDbSavedByObjectVersion
1070
     0
1000
AcDbSavedByObjectVersion
1070
     0
1000
AcDbSavedByObjectVersion
1070
     0
1000
AcDbSavedByObjectVersion
1070
     0
1000
AcDbSavedByObjectVersion
1070
     0
1000
AcDbSavedByObjectVersion
1070
     0
1000
AcDbSavedByObjectVersion
1070
     0
1000
AcDbSavedByObjectVersion
1070
     0
1000
AcDbSavedByObjectVersion
1070
     0
1000
AcDbSavedByObjectVersion
1070
     0
1000
AcDbSavedByObjectVersion
1070
     0
1000
AcDbSavedByObjectVersion
1070
     0
1000
AcDbSavedByObjectVersion
1070
     0
1000
AcDbSavedByObjectVersion
1070
     0
1000
AcDbSavedByObjectVersion
1070
     0
1000
AcDbSavedByObjectVersion
1070
     0
1000
AcDbSavedByObjectVersion
1070
     0
1000
AcDbSavedByObjectVersion
1070
     0
1000
AcDbSavedByObjectVersion
1070
     0
1000
AcDbSavedByObjectVersion
1070
     0
1000
AcDbSavedByObjectVersion
1070
     0
1000
AcDbSavedByObjectVersion
1070
     0
1000
AcDbSavedByObjectVersion
1070
     0
1000
AcDbSavedByObjectVersion
1070
     0
1000
AcDbSavedByObjectVersion
1070
     0
1000
AcDbSavedByObjectVersion
1070
     0
1000
AcDbSavedByObjectVersion
1070
     0
1000
AcDbSavedByObjectVersion
1070
     0
  0
VISUALSTYLE
  5
32
102
{ACAD_REACTORS
330
2A
102
}
330
2A
100
AcDbVisualStyle
  2
Basic
 70
     7
 71
     1
 72
     0
 73
     1
 90
        0
 40
-0.6
 41
-30.0
 62
     5
 63
     7
 74
     0
 91
        4
 64
     7
 65
   257
 75
     1
175
     1
 42
1.0
 92
        8
 66
     7
 43
1.0
 76
     1
 77
     6
 78
     2
 67
     7
 79
     5
170
     0
171
     0
290
     0
174
     0
 93
        1
 44
0.0
173
     0
291
     1
 45
0.0
1001
ACAD
1000
AcDbSavedByObjectVersion
1070
     0
1000
AcDbSavedByObjectVersion
1070
     0
1000
AcDbSavedByObjectVersion
1070
     0
1000
AcDbSavedByObjectVersion
1070
     0
1000
AcDbSavedByObjectVersion
1070
     0
1000
AcDbSavedByObjectVersion
1070
     0
1000
AcDbSavedByObjectVersion
1070
     0
1000
AcDbSavedByObjectVersion
1070
     0
1000
AcDbSavedByObjectVersion
1070
     0
1000
AcDbSavedByObjectVersion
1070
     0
1000
AcDbSavedByObjectVersion
1070
     0
1000
AcDbSavedByObjectVersion
1070
     0
1000
AcDbSavedByObjectVersion
1070
     0
1000
AcDbSavedByObjectVersion
1070
     0
1000
AcDbSavedByObjectVersion
1070
     0
1000
AcDbSavedByObjectVersion
1070
     0
1000
AcDbSavedByObjectVersion
1070
     0
1000
AcDbSavedByObjectVersion
1070
     0
1000
AcDbSavedByObjectVersion
1070
     0
1000
AcDbSavedByObjectVersion
1070
     0
1000
AcDbSavedByObjectVersion
1070
     0
1000
AcDbSavedByObjectVersion
1070
     0
1000
AcDbSavedByObjectVersion
1070
     0
1000
AcDbSavedByObjectVersion
1070
     0
1000
AcDbSavedByObjectVersion
1070
     0
1000
AcDbSavedByObjectVersion
1070
     0
1000
AcDbSavedByObjectVersion
1070
     0
1000
AcDbSavedByObjectVersion
1070
     0
1000
AcDbSavedByObjectVersion
1070
     0
1000
AcDbSavedByObjectVersion
1070
     0
1000
AcDbSavedByObjectVersion
1070
     0
1000
AcDbSavedByObjectVersion
1070
     0
1000
AcDbSavedByObjectVersion
1070
     0
1000
AcDbSavedByObjectVersion
1070
     0
1000
AcDbSavedByObjectVersion
1070
     0
1000
AcDbSavedByObjectVersion
1070
     0
1000
AcDbSavedByObjectVersion
1070
     0
1000
AcDbSavedByObjectVersion
1070
     0
1000
AcDbSavedByObjectVersion
1070
     0
1000
AcDbSavedByObjectVersion
1070
     0
1000
AcDbSavedByObjectVersion
1070
     0
1000
AcDbSavedByObjectVersion
1070
     0
1000
AcDbSavedByObjectVersion
1070
     0
  0
VISUALSTYLE
  5
36
102
{ACAD_REACTORS
330
2A
102
}
330
2A
100
AcDbVisualStyle
  2
Brighten
 70
    12
 71
     2
 72
     2
 73
     0
 90
        0
 40
-0.6
 41
-30.0
 62
     5
 63
     7
 74
     1
 91
        4
 64
     7
 65
   257
 75
     1
175
     1
 42
1.0
 92
        8
 66
     7
 43
1.0
 76
     1
 77
     6
 78
     2
 67
     7
 79
     5
170
     0
171
     0
290
     0
174
     0
 93
        1
 44
50.0
173
     0
291
     1
 45
0.0
1001
ACAD
1000
AcDbSavedByObjectVersion
1070
     0
1000
AcDbSavedByObjectVersion
1070
     0
1000
AcDbSavedByObjectVersion
1070
     0
1000
AcDbSavedByObjectVersion
1070
     0
1000
AcDbSavedByObjectVersion
1070
     0
1000
AcDbSavedByObjectVersion
1070
     0
1000
AcDbSavedByObjectVersion
1070
     0
1000
AcDbSavedByObjectVersion
1070
     0
1000
AcDbSavedByObjectVersion
1070
     0
1000
AcDbSavedByObjectVersion
1070
     0
1000
AcDbSavedByObjectVersion
1070
     0
1000
AcDbSavedByObjectVersion
1070
     0
1000
AcDbSavedByObjectVersion
1070
     0
1000
AcDbSavedByObjectVersion
1070
     0
1000
AcDbSavedByObjectVersion
1070
     0
1000
AcDbSavedByObjectVersion
1070
     0
1000
AcDbSavedByObjectVersion
1070
     0
1000
AcDbSavedByObjectVersion
1070
     0
1000
AcDbSavedByObjectVersion
1070
     0
1000
AcDbSavedByObjectVersion
1070
     0
1000
AcDbSavedByObjectVersion
1070
     0
1000
AcDbSavedByObjectVersion
1070
     0
1000
AcDbSavedByObjectVersion
1070
     0
1000
AcDbSavedByObjectVersion
1070
     0
1000
AcDbSavedByObjectVersion
1070
     0
1000
AcDbSavedByObjectVersion
1070
     0
1000
AcDbSavedByObjectVersion
1070
     0
1000
AcDbSavedByObjectVersion
1070
     0
1000
AcDbSavedByObjectVersion
1070
     0
1000
AcDbSavedByObjectVersion
1070
     0
1000
AcDbSavedByObjectVersion
1070
     0
1000
AcDbSavedByObjectVersion
1070
     0
1000
AcDbSavedByObjectVersion
1070
     0
1000
AcDbSavedByObjectVersion
1070
     0
1000
AcDbSavedByObjectVersion
1070
     0
1000
AcDbSavedByObjectVersion
1070
     0
1000
AcDbSavedByObjectVersion
1070
     0
1000
AcDbSavedByObjectVersion
1070
     0
1000
AcDbSavedByObjectVersion
1070
     0
1000
AcDbSavedByObjectVersion
1070
     0
1000
AcDbSavedByObjectVersion
1070
     0
1000
AcDbSavedByObjectVersion
1070
     0
1000
AcDbSavedByObjectVersion
1070
     0
  0
VISUALSTYLE
  5
3A
102
{ACAD_REACTORS
330
2A
102
}
330
2A
100
AcDbVisualStyle
  2
ColorChange
 70
    16
 71
     2
 72
     2
 73
     3
 90
        0
 40
-0.6
 41
-30.0
 62
     5
 63
     8
 74
     1
 91
        4
 64
     7
 65
   257
 75
     1
175
     1
 42
1.0
 92
        8
 66
     8
 43
1.0
 76
     1
 77
     6
 78
     2
 67
     7
 79
     5
170
     0
171
     0
290
     0
174
     0
 93
        1
 44
0.0
173
     0
291
     1
 45
0.0
1001
ACAD
1000
AcDbSavedByObjectVersion
1070
     0
1000
AcDbSavedByObjectVersion
1070
     0
1000
AcDbSavedByObjectVersion
1070
     0
1000
AcDbSavedByObjectVersion
1070
     0
1000
AcDbSavedByObjectVersion
1070
     0
1000
AcDbSavedByObjectVersion
1070
     0
1000
AcDbSavedByObjectVersion
1070
     0
1000
AcDbSavedByObjectVersion
1070
     0
1000
AcDbSavedByObjectVersion
1070
     0
1000
AcDbSavedByObjectVersion
1070
     0
1000
AcDbSavedByObjectVersion
1070
     0
1000
AcDbSavedByObjectVersion
1070
     0
1000
AcDbSavedByObjectVersion
1070
     0
1000
AcDbSavedByObjectVersion
1070
     0
1000
AcDbSavedByObjectVersion
1070
     0
1000
AcDbSavedByObjectVersion
1070
     0
1000
AcDbSavedByObjectVersion
1070
     0
1000
AcDbSavedByObjectVersion
1070
     0
1000
AcDbSavedByObjectVersion
1070
     0
1000
AcDbSavedByObjectVersion
1070
     0
1000
AcDbSavedByObjectVersion
1070
     0
1000
AcDbSavedByObjectVersion
1070
     0
1000
AcDbSavedByObjectVersion
1070
     0
1000
AcDbSavedByObjectVersion
1070
     0
1000
AcDbSavedByObjectVersion
1070
     0
1000
AcDbSavedByObjectVersion
1070
     0
1000
AcDbSavedByObjectVersion
1070
     0
1000
AcDbSavedByObjectVersion
1070
     0
1000
AcDbSavedByObjectVersion
1070
     0
1000
AcDbSavedByObjectVersion
1070
     0
1000
AcDbSavedByObjectVersion
1070
     0
1000
AcDbSavedByObjectVersion
1070
     0
1000
AcDbSavedByObjectVersion
1070
     0
1000
AcDbSavedByObjectVersion
1070
     0
1000
AcDbSavedByObjectVersion
1070
     0
1000
AcDbSavedByObjectVersion
1070
     0
1000
AcDbSavedByObjectVersion
1070
     0
1000
AcDbSavedByObjectVersion
1070
     0
1000
AcDbSavedByObjectVersion
1070
     0
1000
AcDbSavedByObjectVersion
1070
     0
1000
AcDbSavedByObjectVersion
1070
     0
1000
AcDbSavedByObjectVersion
1070
     0
1000
AcDbSavedByObjectVersion
1070
     0
  0
VISUALSTYLE
  5
34
102
{ACAD_REACTORS
330
2A
102
}
330
2A
100
AcDbVisualStyle
  2
Conceptual
 70
     9
 71
     3
 72
     2
 73
     0
 90
        0
 40
-0.6
 41
-30.0
 62
     5
 63
     7
 74
     2
 91
        2
 64
     7
 65
   257
 75
     1
175
     1
 42
40.0
 92
        8
 66
     7
 43
1.0
 76
     1
 77
     6
 78
     2
 67
     7
 79
     3
170
     0
171
     0
290
     0
174
     0
 93
        1
 44
0.0
173
     0
291
     0
 45
0.0
1001
ACAD
1000
AcDbSavedByObjectVersion
1070
     0
1000
AcDbSavedByObjectVersion
1070
     0
1000
AcDbSavedByObjectVersion
1070
     0
1000
AcDbSavedByObjectVersion
1070
     0
1000
AcDbSavedByObjectVersion
1070
     0
1000
AcDbSavedByObjectVersion
1070
     0
1000
AcDbSavedByObjectVersion
1070
     0
1000
AcDbSavedByObjectVersion
1070
     0
1000
AcDbSavedByObjectVersion
1070
     0
1000
AcDbSavedByObjectVersion
1070
     0
1000
AcDbSavedByObjectVersion
1070
     0
1000
AcDbSavedByObjectVersion
1070
     0
1000
AcDbSavedByObjectVersion
1070
     0
1000
AcDbSavedByObjectVersion
1070
     0
1000
AcDbSavedByObjectVersion
1070
     0
1000
AcDbSavedByObjectVersion
1070
     0
1000
AcDbSavedByObjectVersion
1070
     0
1000
AcDbSavedByObjectVersion
1070
     0
1000
AcDbSavedByObjectVersion
1070
     0
1000
AcDbSavedByObjectVersion
1070
     0
1000
AcDbSavedByObjectVersion
1070
     0
1000
AcDbSavedByObjectVersion
1070
     0
1000
AcDbSavedByObjectVersion
1070
     0
1000
AcDbSavedByObjectVersion
1070
     0
1000
AcDbSavedByObjectVersion
1070
     0
1000
AcDbSavedByObjectVersion
1070
     0
1000
AcDbSavedByObjectVersion
1070
     0
1000
AcDbSavedByObjectVersion
1070
     0
1000
AcDbSavedByObjectVersion
1070
     0
1000
AcDbSavedByObjectVersion
1070
     0
1000
AcDbSavedByObjectVersion
1070
     0
1000
AcDbSavedByObjectVersion
1070
     0
1000
AcDbSavedByObjectVersion
1070
     0
1000
AcDbSavedByObjectVersion
1070
     0
1000
AcDbSavedByObjectVersion
1070
     0
1000
AcDbSavedByObjectVersion
1070
     0
1000
AcDbSavedByObjectVersion
1070
     0
1000
AcDbSavedByObjectVersion
1070
     0
1000
AcDbSavedByObjectVersion
1070
     0
1000
AcDbSavedByObjectVersion
1070
     0
1000
AcDbSavedByObjectVersion
1070
     0
1000
AcDbSavedByObjectVersion
1070
     0
1000
AcDbSavedByObjectVersion
1070
     0
  0
VISUALSTYLE
  5
35
102
{ACAD_REACTORS
330
2A
102
}
330
2A
100
AcDbVisualStyle
  2
Dim
 70
    11
 71
     2
 72
     2
 73
     0
 90
        0
 40
-0.6
 41
-30.0
 62
     5
 63
     7
 74
     1
 91
        4
 64
     7
 65
   257
 75
     1
175
     1
 42
1.0
 92
        8
 66
     7
 43
1.0
 76
     1
 77
     6
 78
     2
 67
     7
 79
     5
170
     0
171
     0
290
     0
174
     0
 93
        1
 44
-50.0
173
     0
291
     1
 45
0.0
1001
ACAD
1000
AcDbSavedByObjectVersion
1070
     0
1000
AcDbSavedByObjectVersion
1070
     0
1000
AcDbSavedByObjectVersion
1070
     0
1000
AcDbSavedByObjectVersion
1070
     0
1000
AcDbSavedByObjectVersion
1070
     0
1000
AcDbSavedByObjectVersion
1070
     0
1000
AcDbSavedByObjectVersion
1070
     0
1000
AcDbSavedByObjectVersion
1070
     0
1000
AcDbSavedByObjectVersion
1070
     0
1000
AcDbSavedByObjectVersion
1070
     0
1000
AcDbSavedByObjectVersion
1070
     0
1000
AcDbSavedByObjectVersion
1070
     0
1000
AcDbSavedByObjectVersion
1070
     0
1000
AcDbSavedByObjectVersion
1070
     0
1000
AcDbSavedByObjectVersion
1070
     0
1000
AcDbSavedByObjectVersion
1070
     0
1000
AcDbSavedByObjectVersion
1070
     0
1000
AcDbSavedByObjectVersion
1070
     0
1000
AcDbSavedByObjectVersion
1070
     0
1000
AcDbSavedByObjectVersion
1070
     0
1000
AcDbSavedByObjectVersion
1070
     0
1000
AcDbSavedByObjectVersion
1070
     0
1000
AcDbSavedByObjectVersion
1070
     0
1000
AcDbSavedByObjectVersion
1070
     0
1000
AcDbSavedByObjectVersion
1070
     0
1000
AcDbSavedByObjectVersion
1070
     0
1000
AcDbSavedByObjectVersion
1070
     0
1000
AcDbSavedByObjectVersion
1070
     0
1000
AcDbSavedByObjectVersion
1070
     0
1000
AcDbSavedByObjectVersion
1070
     0
1000
AcDbSavedByObjectVersion
1070
     0
1000
AcDbSavedByObjectVersion
1070
     0
1000
AcDbSavedByObjectVersion
1070
     0
1000
AcDbSavedByObjectVersion
1070
     0
1000
AcDbSavedByObjectVersion
1070
     0
1000
AcDbSavedByObjectVersion
1070
     0
1000
AcDbSavedByObjectVersion
1070
     0
1000
AcDbSavedByObjectVersion
1070
     0
1000
AcDbSavedByObjectVersion
1070
     0
1000
AcDbSavedByObjectVersion
1070
     0
1000
AcDbSavedByObjectVersion
1070
     0
1000
AcDbSavedByObjectVersion
1070
     0
1000
AcDbSavedByObjectVersion
1070
     0
  0
VISUALSTYLE
  5
39
102
{ACAD_REACTORS
330
2A
102
}
330
2A
100
AcDbVisualStyle
  2
Facepattern
 70
    15
 71
     2
 72
     2
 73
     0
 90
        0
 40
-0.6
 41
-30.0
 62
     5
 63
     7
 74
     1
 91
        4
 64
     7
 65
   257
 75
     1
175
     1
 42
1.0
 92
        8
 66
     7
 43
1.0
 76
     1
 77
     6
 78
     2
 67
     7
 79
     5
170
     0
171
     0
290
     0
174
     0
 93
        1
 44
0.0
173
     0
291
     1
 45
0.0
1001
ACAD
1000
AcDbSavedByObjectVersion
1070
     0
1000
AcDbSavedByObjectVersion
1070
     0
1000
AcDbSavedByObjectVersion
1070
     0
1000
AcDbSavedByObjectVersion
1070
     0
1000
AcDbSavedByObjectVersion
1070
     0
1000
AcDbSavedByObjectVersion
1070
     0
1000
AcDbSavedByObjectVersion
1070
     0
1000
AcDbSavedByObjectVersion
1070
     0
1000
AcDbSavedByObjectVersion
1070
     0
1000
AcDbSavedByObjectVersion
1070
     0
1000
AcDbSavedByObjectVersion
1070
     0
1000
AcDbSavedByObjectVersion
1070
     0
1000
AcDbSavedByObjectVersion
1070
     0
1000
AcDbSavedByObjectVersion
1070
     0
1000
AcDbSavedByObjectVersion
1070
     0
1000
AcDbSavedByObjectVersion
1070
     0
1000
AcDbSavedByObjectVersion
1070
     0
1000
AcDbSavedByObjectVersion
1070
     0
1000
AcDbSavedByObjectVersion
1070
     0
1000
AcDbSavedByObjectVersion
1070
     0
1000
AcDbSavedByObjectVersion
1070
     0
1000
AcDbSavedByObjectVersion
1070
     0
1000
AcDbSavedByObjectVersion
1070
     0
1000
AcDbSavedByObjectVersion
1070
     0
1000
AcDbSavedByObjectVersion
1070
     0
1000
AcDbSavedByObjectVersion
1070
     0
1000
AcDbSavedByObjectVersion
1070
     0
1000
AcDbSavedByObjectVersion
1070
     0
1000
AcDbSavedByObjectVersion
1070
     0
1000
AcDbSavedByObjectVersion
1070
     0
1000
AcDbSavedByObjectVersion
1070
     0
1000
AcDbSavedByObjectVersion
1070
     0
1000
AcDbSavedByObjectVersion
1070
     0
1000
AcDbSavedByObjectVersion
1070
     0
1000
AcDbSavedByObjectVersion
1070
     0
1000
AcDbSavedByObjectVersion
1070
     0
1000
AcDbSavedByObjectVersion
1070
     0
1000
AcDbSavedByObjectVersion
1070
     0
1000
AcDbSavedByObjectVersion
1070
     0
1000
AcDbSavedByObjectVersion
1070
     0
1000
AcDbSavedByObjectVersion
1070
     0
1000
AcDbSavedByObjectVersion
1070
     0
1000
AcDbSavedByObjectVersion
1070
     0
  0
VISUALSTYLE
  5
2B
102
{ACAD_REACTORS
330
2A
102
}
330
2A
100
AcDbVisualStyle
  2
Flat
 70
     0
 71
     2
 72
     1
 73
     1
 90
        2
 40
-0.6
 41
30.0
 62
     5
 63
     7
 74
     0
 91
        4
 64
     7
 65
   257
 75
     1
175
     1
 42
1.0
 92
        8
 66
     7
 43
1.0
 76
     1
 77
     6
 78
     2
 67
     7
 79
     5
170
     0
171
     0
290
     0
174
     0
 93
       13
 44
0.0
173
     0
291
     1
 45
0.0
1001
ACAD
1000
AcDbSavedByObjectVersion
1070
     0
1000
AcDbSavedByObjectVersion
1070
     0
1000
AcDbSavedByObjectVersion
1070
     0
1000
AcDbSavedByObjectVersion
1070
     0
1000
AcDbSavedByObjectVersion
1070
     0
1000
AcDbSavedByObjectVersion
1070
     0
1000
AcDbSavedByObjectVersion
1070
     0
1000
AcDbSavedByObjectVersion
1070
     0
1000
AcDbSavedByObjectVersion
1070
     0
1000
AcDbSavedByObjectVersion
1070
     0
1000
AcDbSavedByObjectVersion
1070
     0
1000
AcDbSavedByObjectVersion
1070
     0
1000
AcDbSavedByObjectVersion
1070
     0
1000
AcDbSavedByObjectVersion
1070
     0
1000
AcDbSavedByObjectVersion
1070
     0
1000
AcDbSavedByObjectVersion
1070
     0
1000
AcDbSavedByObjectVersion
1070
     0
1000
AcDbSavedByObjectVersion
1070
     0
1000
AcDbSavedByObjectVersion
1070
     0
1000
AcDbSavedByObjectVersion
1070
     0
1000
AcDbSavedByObjectVersion
1070
     0
1000
AcDbSavedByObjectVersion
1070
     0
1000
AcDbSavedByObjectVersion
1070
     0
1000
AcDbSavedByObjectVersion
1070
     0
1000
AcDbSavedByObjectVersion
1070
     0
1000
AcDbSavedByObjectVersion
1070
     0
1000
AcDbSavedByObjectVersion
1070
     0
1000
AcDbSavedByObjectVersion
1070
     0
1000
AcDbSavedByObjectVersion
1070
     0
1000
AcDbSavedByObjectVersion
1070
     0
1000
AcDbSavedByObjectVersion
1070
     0
1000
AcDbSavedByObjectVersion
1070
     0
1000
AcDbSavedByObjectVersion
1070
     0
1000
AcDbSavedByObjectVersion
1070
     0
1000
AcDbSavedByObjectVersion
1070
     0
1000
AcDbSavedByObjectVersion
1070
     0
1000
AcDbSavedByObjectVersion
1070
     0
1000
AcDbSavedByObjectVersion
1070
     0
1000
AcDbSavedByObjectVersion
1070
     0
1000
AcDbSavedByObjectVersion
1070
     0
1000
AcDbSavedByObjectVersion
1070
     0
1000
AcDbSavedByObjectVersion
1070
     0
1000
AcDbSavedByObjectVersion
1070
     0
  0
VISUALSTYLE
  5
2C
102
{ACAD_REACTORS
330
2A
102
}
330
2A
100
AcDbVisualStyle
  2
FlatWithEdges
 70
     1
 71
     2
 72
     1
 73
     1
 90
        2
 40
-0.6
 41
30.0
 62
     5
 63
     7
 74
     1
 91
        4
 64
     7
 65
   257
 75
     1
175
     1
 42
1.0
 92
        0
 66
   257
 43
1.0
 76
     1
 77
     6
 78
     2
 67
     7
 79
     5
170
     0
171
     0
290
     0
174
     0
 93
       13
 44
0.0
173
     0
291
     1
 45
0.0
1001
ACAD
1000
AcDbSavedByObjectVersion
1070
     0
1000
AcDbSavedByObjectVersion
1070
     0
1000
AcDbSavedByObjectVersion
1070
     0
1000
AcDbSavedByObjectVersion
1070
     0
1000
AcDbSavedByObjectVersion
1070
     0
1000
AcDbSavedByObjectVersion
1070
     0
1000
AcDbSavedByObjectVersion
1070
     0
1000
AcDbSavedByObjectVersion
1070
     0
1000
AcDbSavedByObjectVersion
1070
     0
1000
AcDbSavedByObjectVersion
1070
     0
1000
AcDbSavedByObjectVersion
1070
     0
1000
AcDbSavedByObjectVersion
1070
     0
1000
AcDbSavedByObjectVersion
1070
     0
1000
AcDbSavedByObjectVersion
1070
     0
1000
AcDbSavedByObjectVersion
1070
     0
1000
AcDbSavedByObjectVersion
1070
     0
1000
AcDbSavedByObjectVersion
1070
     0
1000
AcDbSavedByObjectVersion
1070
     0
1000
AcDbSavedByObjectVersion
1070
     0
1000
AcDbSavedByObjectVersion
1070
     0
1000
AcDbSavedByObjectVersion
1070
     0
1000
AcDbSavedByObjectVersion
1070
     0
1000
AcDbSavedByObjectVersion
1070
     0
1000
AcDbSavedByObjectVersion
1070
     0
1000
AcDbSavedByObjectVersion
1070
     0
1000
AcDbSavedByObjectVersion
1070
     0
1000
AcDbSavedByObjectVersion
1070
     0
1000
AcDbSavedByObjectVersion
1070
     0
1000
AcDbSavedByObjectVersion
1070
     0
1000
AcDbSavedByObjectVersion
1070
     0
1000
AcDbSavedByObjectVersion
1070
     0
1000
AcDbSavedByObjectVersion
1070
     0
1000
AcDbSavedByObjectVersion
1070
     0
1000
AcDbSavedByObjectVersion
1070
     0
1000
AcDbSavedByObjectVersion
1070
     0
1000
AcDbSavedByObjectVersion
1070
     0
1000
AcDbSavedByObjectVersion
1070
     0
1000
AcDbSavedByObjectVersion
1070
     0
1000
AcDbSavedByObjectVersion
1070
     0
1000
AcDbSavedByObjectVersion
1070
     0
1000
AcDbSavedByObjectVersion
1070
     0
1000
AcDbSavedByObjectVersion
1070
     0
1000
AcDbSavedByObjectVersion
1070
     0
  0
VISUALSTYLE
  5
2D
102
{ACAD_REACTORS
330
2A
102
}
330
2A
100
AcDbVisualStyle
  2
Gouraud
 70
     2
 71
     2
 72
     2
 73
     1
 90
        2
 40
-0.6
 41
30.0
 62
     5
 63
     7
 74
     0
 91
        4
 64
     7
 65
   257
 75
     1
175
     1
 42
1.0
 92
        0
 66
     7
 43
1.0
 76
     1
 77
     6
 78
     2
 67
     7
 79
     5
170
     0
171
     0
290
     0
174
     0
 93
       13
 44
0.0
173
     0
291
     1
 45
0.0
1001
ACAD
1000
AcDbSavedByObjectVersion
1070
     0
1000
AcDbSavedByObjectVersion
1070
     0
1000
AcDbSavedByObjectVersion
1070
     0
1000
AcDbSavedByObjectVersion
1070
     0
1000
AcDbSavedByObjectVersion
1070
     0
1000
AcDbSavedByObjectVersion
1070
     0
1000
AcDbSavedByObjectVersion
1070
     0
1000
AcDbSavedByObjectVersion
1070
     0
1000
AcDbSavedByObjectVersion
1070
     0
1000
AcDbSavedByObjectVersion
1070
     0
1000
AcDbSavedByObjectVersion
1070
     0
1000
AcDbSavedByObjectVersion
1070
     0
1000
AcDbSavedByObjectVersion
1070
     0
1000
AcDbSavedByObjectVersion
1070
     0
1000
AcDbSavedByObjectVersion
1070
     0
1000
AcDbSavedByObjectVersion
1070
     0
1000
AcDbSavedByObjectVersion
1070
     0
1000
AcDbSavedByObjectVersion
1070
     0
1000
AcDbSavedByObjectVersion
1070
     0
1000
AcDbSavedByObjectVersion
1070
     0
1000
AcDbSavedByObjectVersion
1070
     0
1000
AcDbSavedByObjectVersion
1070
     0
1000
AcDbSavedByObjectVersion
1070
     0
1000
AcDbSavedByObjectVersion
1070
     0
1000
AcDbSavedByObjectVersion
1070
     0
1000
AcDbSavedByObjectVersion
1070
     0
1000
AcDbSavedByObjectVersion
1070
     0
1000
AcDbSavedByObjectVersion
1070
     0
1000
AcDbSavedByObjectVersion
1070
     0
1000
AcDbSavedByObjectVersion
1070
     0
1000
AcDbSavedByObjectVersion
1070
     0
1000
AcDbSavedByObjectVersion
1070
     0
1000
AcDbSavedByObjectVersion
1070
     0
1000
AcDbSavedByObjectVersion
1070
     0
1000
AcDbSavedByObjectVersion
1070
     0
1000
AcDbSavedByObjectVersion
1070
     0
1000
AcDbSavedByObjectVersion
1070
     0
1000
AcDbSavedByObjectVersion
1070
     0
1000
AcDbSavedByObjectVersion
1070
     0
1000
AcDbSavedByObjectVersion
1070
     0
1000
AcDbSavedByObjectVersion
1070
     0
1000
AcDbSavedByObjectVersion
1070
     0
1000
AcDbSavedByObjectVersion
1070
     0
  0
VISUALSTYLE
  5
2E
102
{ACAD_REACTORS
330
2A
102
}
330
2A
100
AcDbVisualStyle
  2
GouraudWithEdges
 70
     3
 71
     2
 72
     2
 73
     1
 90
        2
 40
-0.6
 41
30.0
 62
     5
 63
     7
 74
     1
 91
        4
 64
     7
 65
   257
 75
     1
175
     1
 42
1.0
 92
        0
 66
   257
 43
1.0
 76
     1
 77
     6
 78
     2
 67
     7
 79
     5
170
     0
171
     0
290
     0
174
     0
 93
       13
 44
0.0
173
     0
291
     1
 45
0.0
1001
ACAD
1000
AcDbSavedByObjectVersion
1070
     0
1000
AcDbSavedByObjectVersion
1070
     0
1000
AcDbSavedByObjectVersion
1070
     0
1000
AcDbSavedByObjectVersion
1070
     0
1000
AcDbSavedByObjectVersion
1070
     0
1000
AcDbSavedByObjectVersion
1070
     0
1000
AcDbSavedByObjectVersion
1070
     0
1000
AcDbSavedByObjectVersion
1070
     0
1000
AcDbSavedByObjectVersion
1070
     0
1000
AcDbSavedByObjectVersion
1070
     0
1000
AcDbSavedByObjectVersion
1070
     0
1000
AcDbSavedByObjectVersion
1070
     0
1000
AcDbSavedByObjectVersion
1070
     0
1000
AcDbSavedByObjectVersion
1070
     0
1000
AcDbSavedByObjectVersion
1070
     0
1000
AcDbSavedByObjectVersion
1070
     0
1000
AcDbSavedByObjectVersion
1070
     0
1000
AcDbSavedByObjectVersion
1070
     0
1000
AcDbSavedByObjectVersion
1070
     0
1000
AcDbSavedByObjectVersion
1070
     0
1000
AcDbSavedByObjectVersion
1070
     0
1000
AcDbSavedByObjectVersion
1070
     0
1000
AcDbSavedByObjectVersion
1070
     0
1000
AcDbSavedByObjectVersion
1070
     0
1000
AcDbSavedByObjectVersion
1070
     0
1000
AcDbSavedByObjectVersion
1070
     0
1000
AcDbSavedByObjectVersion
1070
     0
1000
AcDbSavedByObjectVersion
1070
     0
1000
AcDbSavedByObjectVersion
1070
     0
1000
AcDbSavedByObjectVersion
1070
     0
1000
AcDbSavedByObjectVersion
1070
     0
1000
AcDbSavedByObjectVersion
1070
     0
1000
AcDbSavedByObjectVersion
1070
     0
1000
AcDbSavedByObjectVersion
1070
     0
1000
AcDbSavedByObjectVersion
1070
     0
1000
AcDbSavedByObjectVersion
1070
     0
1000
AcDbSavedByObjectVersion
1070
     0
1000
AcDbSavedByObjectVersion
1070
     0
1000
AcDbSavedByObjectVersion
1070
     0
1000
AcDbSavedByObjectVersion
1070
     0
1000
AcDbSavedByObjectVersion
1070
     0
1000
AcDbSavedByObjectVersion
1070
     0
1000
AcDbSavedByObjectVersion
1070
     0
  0
VISUALSTYLE
  5
38
102
{ACAD_REACTORS
330
2A
102
}
330
2A
100
AcDbVisualStyle
  2
Linepattern
 70
    14
 71
     2
 72
     2
 73
     0
 90
        0
 40
-0.6
 41
-30.0
 62
     5
 63
     7
 74
     1
 91
        4
 64
     7
 65
   257
 75
     7
175
     7
 42
1.0
 92
        8
 66
     7
 43
1.0
 76
     1
 77
     6
 78
     2
 67
     7
 79
     5
170
     0
171
     0
290
     0
174
     0
 93
        1
 44
0.0
173
     0
291
     1
 45
0.0
1001
ACAD
1000
AcDbSavedByObjectVersion
1070
     0
1000
AcDbSavedByObjectVersion
1070
     0
1000
AcDbSavedByObjectVersion
1070
     0
1000
AcDbSavedByObjectVersion
1070
     0
1000
AcDbSavedByObjectVersion
1070
     0
1000
AcDbSavedByObjectVersion
1070
     0
1000
AcDbSavedByObjectVersion
1070
     0
1000
AcDbSavedByObjectVersion
1070
     0
1000
AcDbSavedByObjectVersion
1070
     0
1000
AcDbSavedByObjectVersion
1070
     0
1000
AcDbSavedByObjectVersion
1070
     0
1000
AcDbSavedByObjectVersion
1070
     0
1000
AcDbSavedByObjectVersion
1070
     0
1000
AcDbSavedByObjectVersion
1070
     0
1000
AcDbSavedByObjectVersion
1070
     0
1000
AcDbSavedByObjectVersion
1070
     0
1000
AcDbSavedByObjectVersion
1070
     0
1000
AcDbSavedByObjectVersion
1070
     0
1000
AcDbSavedByObjectVersion
1070
     0
1000
AcDbSavedByObjectVersion
1070
     0
1000
AcDbSavedByObjectVersion
1070
     0
1000
AcDbSavedByObjectVersion
1070
     0
1000
AcDbSavedByObjectVersion
1070
     0
1000
AcDbSavedByObjectVersion
1070
     0
1000
AcDbSavedByObjectVersion
1070
     0
1000
AcDbSavedByObjectVersion
1070
     0
1000
AcDbSavedByObjectVersion
1070
     0
1000
AcDbSavedByObjectVersion
1070
     0
1000
AcDbSavedByObjectVersion
1070
     0
1000
AcDbSavedByObjectVersion
1070
     0
1000
AcDbSavedByObjectVersion
1070
     0
1000
AcDbSavedByObjectVersion
1070
     0
1000
AcDbSavedByObjectVersion
1070
     0
1000
AcDbSavedByObjectVersion
1070
     0
1000
AcDbSavedByObjectVersion
1070
     0
1000
AcDbSavedByObjectVersion
1070
     0
1000
AcDbSavedByObjectVersion
1070
     0
1000
AcDbSavedByObjectVersion
1070
     0
1000
AcDbSavedByObjectVersion
1070
     0
1000
AcDbSavedByObjectVersion
1070
     0
1000
AcDbSavedByObjectVersion
1070
     0
1000
AcDbSavedByObjectVersion
1070
     0
1000
AcDbSavedByObjectVersion
1070
     0
  0
VISUALSTYLE
  5
33
102
{ACAD_REACTORS
330
2A
102
}
330
2A
100
AcDbVisualStyle
  2
Realistic
 70
     8
 71
     2
 72
     2
 73
     0
 90
        0
 40
-0.6
 41
-30.0
 62
     5
 63
     7
 74
     1
 91
        0
 64
     7
 65
   257
 75
     1
175
     1
 42
1.0
 92
        8
 66
     8
 43
1.0
 76
     1
 77
     6
 78
     2
 67
     7
 79
     5
170
     0
171
     0
290
     0
174
     0
 93
       13
 44
0.0
173
     0
291
     0
 45
0.0
1001
ACAD
1000
AcDbSavedByObjectVersion
1070
     0
1000
AcDbSavedByObjectVersion
1070
     0
1000
AcDbSavedByObjectVersion
1070
     0
1000
AcDbSavedByObjectVersion
1070
     0
1000
AcDbSavedByObjectVersion
1070
     0
1000
AcDbSavedByObjectVersion
1070
     0
1000
AcDbSavedByObjectVersion
1070
     0
1000
AcDbSavedByObjectVersion
1070
     0
1000
AcDbSavedByObjectVersion
1070
     0
1000
AcDbSavedByObjectVersion
1070
     0
1000
AcDbSavedByObjectVersion
1070
     0
1000
AcDbSavedByObjectVersion
1070
     0
1000
AcDbSavedByObjectVersion
1070
     0
1000
AcDbSavedByObjectVersion
1070
     0
1000
AcDbSavedByObjectVersion
1070
     0
1000
AcDbSavedByObjectVersion
1070
     0
1000
AcDbSavedByObjectVersion
1070
     0
1000
AcDbSavedByObjectVersion
1070
     0
1000
AcDbSavedByObjectVersion
1070
     0
1000
AcDbSavedByObjectVersion
1070
     0
1000
AcDbSavedByObjectVersion
1070
     0
1000
AcDbSavedByObjectVersion
1070
     0
1000
AcDbSavedByObjectVersion
1070
     0
1000
AcDbSavedByObjectVersion
1070
     0
1000
AcDbSavedByObjectVersion
1070
     0
1000
AcDbSavedByObjectVersion
1070
     0
1000
AcDbSavedByObjectVersion
1070
     0
1000
AcDbSavedByObjectVersion
1070
     0
1000
AcDbSavedByObjectVersion
1070
     0
1000
AcDbSavedByObjectVersion
1070
     0
1000
AcDbSavedByObjectVersion
1070
     0
1000
AcDbSavedByObjectVersion
1070
     0
1000
AcDbSavedByObjectVersion
1070
     0
1000
AcDbSavedByObjectVersion
1070
     0
1000
AcDbSavedByObjectVersion
1070
     0
1000
AcDbSavedByObjectVersion
1070
     0
1000
AcDbSavedByObjectVersion
1070
     0
1000
AcDbSavedByObjectVersion
1070
     0
1000
AcDbSavedByObjectVersion
1070
     0
1000
AcDbSavedByObjectVersion
1070
     0
1000
AcDbSavedByObjectVersion
1070
     0
1000
AcDbSavedByObjectVersion
1070
     0
1000
AcDbSavedByObjectVersion
1070
     0
  0
VISUALSTYLE
  5
37
102
{ACAD_REACTORS
330
2A
102
}
330
2A
100
AcDbVisualStyle
  2
Thicken
 70
    13
 71
     2
 72
     2
 73
     0
 90
        0
 40
-0.6
 41
-30.0
 62
     5
 63
     7
 74
     1
 91
        4
 64
     7
 65
   257
 75
     1
175
     1
 42
1.0
 92
       12
 66
     7
 43
1.0
 76
     1
 77
     6
 78
     2
 67
     7
 79
     5
170
     0
171
     0
290
     0
174
     0
 93
        1
 44
0.0
173
     0
291
     1
 45
0.0
1001
ACAD
1000
AcDbSavedByObjectVersion
1070
     0
1000
AcDbSavedByObjectVersion
1070
     0
1000
AcDbSavedByObjectVersion
1070
     0
1000
AcDbSavedByObjectVersion
1070
     0
1000
AcDbSavedByObjectVersion
1070
     0
1000
AcDbSavedByObjectVersion
1070
     0
1000
AcDbSavedByObjectVersion
1070
     0
1000
AcDbSavedByObjectVersion
1070
     0
1000
AcDbSavedByObjectVersion
1070
     0
1000
AcDbSavedByObjectVersion
1070
     0
1000
AcDbSavedByObjectVersion
1070
     0
1000
AcDbSavedByObjectVersion
1070
     0
1000
AcDbSavedByObjectVersion
1070
     0
1000
AcDbSavedByObjectVersion
1070
     0
1000
AcDbSavedByObjectVersion
1070
     0
1000
AcDbSavedByObjectVersion
1070
     0
1000
AcDbSavedByObjectVersion
1070
     0
1000
AcDbSavedByObjectVersion
1070
     0
1000
AcDbSavedByObjectVersion
1070
     0
1000
AcDbSavedByObjectVersion
1070
     0
1000
AcDbSavedByObjectVersion
1070
     0
1000
AcDbSavedByObjectVersion
1070
     0
1000
AcDbSavedByObjectVersion
1070
     0
1000
AcDbSavedByObjectVersion
1070
     0
1000
AcDbSavedByObjectVersion
1070
     0
1000
AcDbSavedByObjectVersion
1070
     0
1000
AcDbSavedByObjectVersion
1070
     0
1000
AcDbSavedByObjectVersion
1070
     0
1000
AcDbSavedByObjectVersion
1070
     0
1000
AcDbSavedByObjectVersion
1070
     0
1000
AcDbSavedByObjectVersion
1070
     0
1000
AcDbSavedByObjectVersion
1070
     0
1000
AcDbSavedByObjectVersion
1070
     0
1000
AcDbSavedByObjectVersion
1070
     0
1000
AcDbSavedByObjectVersion
1070
     0
1000
AcDbSavedByObjectVersion
1070
     0
1000
AcDbSavedByObjectVersion
1070
     0
1000
AcDbSavedByObjectVersion
1070
     0
1000
AcDbSavedByObjectVersion
1070
     0
1000
AcDbSavedByObjectVersion
1070
     0
1000
AcDbSavedByObjectVersion
1070
     0
1000
AcDbSavedByObjectVersion
1070
     0
1000
AcDbSavedByObjectVersion
1070
     0
  0
DICTIONARYVAR
  5
510B
102
{ACAD_REACTORS
330
5108
102
}
330
5108
100
DictionaryVariables
280
     0
  1
1:1
  0
DICTIONARYVAR
  5
510A
102
{ACAD_REACTORS
330
5108
102
}
330
5108
100
DictionaryVariables
280
     0
  1
STANDARD
  0
DICTIONARYVAR
  5
5109
102
{ACAD_REACTORS
330
5108
102
}
330
5108
100
DictionaryVariables
280
     0
  1
STANDARD
  0
DICTIONARYVAR
  5
510E
102
{ACAD_REACTORS
330
5108
102
}
330
5108
100
DictionaryVariables
280
     0
  1
1
  0
DICTIONARYVAR
  5
510D
102
{ACAD_REACTORS
330
5108
102
}
330
5108
100
DictionaryVariables
280
     0
  1
0
  0
DICTIONARYVAR
  5
1B9EA
102
{ACAD_REACTORS
330
5108
102
}
330
5108
100
DictionaryVariables
280
     0
  1
0
  0
DICTIONARYVAR
  5
1B9E9
102
{ACAD_REACTORS
330
5108
102
}
330
5108
100
DictionaryVariables
280
     0
  1
0
  0
DICTIONARYVAR
  5
510C
102
{ACAD_REACTORS
330
5108
102
}
330
5108
100
DictionaryVariables
280
     0
  1
127
  0
XRECORD
  5
11ACF
102
{ACAD_REACTORS
330
11ACE
102
}
330
11ACE
100
AcDbXrecord
280
     1
330
11089
  0
VLO-VL
  5
1B925
102
{ACAD_REACTORS
330
1B924
102
}
330
1B924
100
vlo_VL
 90
   -64512
 91
       12
 92
        1
 40
2.5
300
(&VLO-R . 0)
  0
DICTIONARY
  5
4FEF
330
4FEE
100
AcDbDictionary
280
     1
281
     1
  3
ACAD_XREC_ROUNDTRIP
360
7C2C
  3
BUMPTILE
360
4FF1
  3
DIFFUSETILE
360
4FF0
  3
OPACITYTILE
360
4FF4
  3
REFLECTIONTILE
360
4FF3
  3
REFRACTIONTILE
360
4FF5
  3
SPECULARTILE
360
4FF2
  0
DICTIONARY
  5
4FE7
330
4FE6
100
AcDbDictionary
280
     1
281
     1
  3
ACAD_XREC_ROUNDTRIP
360
7C2B
  3
BUMPTILE
360
4FE9
  3
DIFFUSETILE
360
4FE8
  3
OPACITYTILE
360
4FEC
  3
REFLECTIONTILE
360
4FEB
  3
REFRACTIONTILE
360
4FED
  3
SPECULARTILE
360
4FEA
  0
DICTIONARY
  5
4FF7
330
4FF6
100
AcDbDictionary
280
     1
281
     1
  3
ACAD_XREC_ROUNDTRIP
360
7C2D
  3
BUMPTILE
360
4FF9
  3
DIFFUSETILE
360
4FF8
  3
OPACITYTILE
360
4FFC
  3
REFLECTIONTILE
360
4FFB
  3
REFRACTIONTILE
360
4FFD
  3
SPECULARTILE
360
4FFA
  0
DICTIONARY
  5
50D6
330
4FFF
100
AcDbDictionary
280
     1
281
     1
  3
ACAD_ROUNDTRIP_2008_TABLESTYLE_CELLSTYLEMAP
360
1BA94
  0
XRECORD
  5
7C2C
102
{ACAD_REACTORS
330
4FEF
102
}
330
4FEF
100
AcDbXrecord
280
     1
102
MATERIAL
148
0.0
149
0.0
149
0.0
 93
        0
 94
      127
282
     0
 72
     0
 77
     0
171
     0
175
     0
179
     0
273
     0
  0
XRECORD
  5
4FF1
102
{ACAD_REACTORS
330
4FEF
102
}
330
4FEF
100
AcDbXrecord
280
     1
270
     1
271
     1
  0
XRECORD
  5
4FF0
102
{ACAD_REACTORS
330
4FEF
102
}
330
4FEF
100
AcDbXrecord
280
     1
270
     1
271
     1
  0
XRECORD
  5
4FF4
102
{ACAD_REACTORS
330
4FEF
102
}
330
4FEF
100
AcDbXrecord
280
     1
270
     1
271
     1
  0
XRECORD
  5
4FF3
102
{ACAD_REACTORS
330
4FEF
102
}
330
4FEF
100
AcDbXrecord
280
     1
270
     1
271
     1
  0
XRECORD
  5
4FF5
102
{ACAD_REACTORS
330
4FEF
102
}
330
4FEF
100
AcDbXrecord
280
     1
270
     1
271
     1
  0
XRECORD
  5
4FF2
102
{ACAD_REACTORS
330
4FEF
102
}
330
4FEF
100
AcDbXrecord
280
     1
270
     1
271
     1
  0
XRECORD
  5
7C2B
102
{ACAD_REACTORS
330
4FE7
102
}
330
4FE7
100
AcDbXrecord
280
     1
102
MATERIAL
148
0.0
149
0.0
149
0.0
 93
        0
 94
      127
282
     0
 72
     0
 77
     0
171
     0
175
     0
179
     0
273
     0
  0
XRECORD
  5
4FE9
102
{ACAD_REACTORS
330
4FE7
102
}
330
4FE7
100
AcDbXrecord
280
     1
270
     1
271
     1
  0
XRECORD
  5
4FE8
102
{ACAD_REACTORS
330
4FE7
102
}
330
4FE7
100
AcDbXrecord
280
     1
270
     1
271
     1
  0
XRECORD
  5
4FEC
102
{ACAD_REACTORS
330
4FE7
102
}
330
4FE7
100
AcDbXrecord
280
     1
270
     1
271
     1
  0
XRECORD
  5
4FEB
102
{ACAD_REACTORS
330
4FE7
102
}
330
4FE7
100
AcDbXrecord
280
     1
270
     1
271
     1
  0
XRECORD
  5
4FED
102
{ACAD_REACTORS
330
4FE7
102
}
330
4FE7
100
AcDbXrecord
280
     1
270
     1
271
     1
  0
XRECORD
  5
4FEA
102
{ACAD_REACTORS
330
4FE7
102
}
330
4FE7
100
AcDbXrecord
280
     1
270
     1
271
     1
  0
XRECORD
  5
7C2D
102
{ACAD_REACTORS
330
4FF7
102
}
330
4FF7
100
AcDbXrecord
280
     1
102
MATERIAL
148
0.0
149
0.0
149
0.0
 93
        0
 94
      127
282
     0
 72
     0
 77
     0
171
     0
175
     0
179
     0
273
     0
  0
XRECORD
  5
4FF9
102
{ACAD_REACTORS
330
4FF7
102
}
330
4FF7
100
AcDbXrecord
280
     1
270
     1
271
     1
  0
XRECORD
  5
4FF8
102
{ACAD_REACTORS
330
4FF7
102
}
330
4FF7
100
AcDbXrecord
280
     1
270
     1
271
     1
  0
XRECORD
  5
4FFC
102
{ACAD_REACTORS
330
4FF7
102
}
330
4FF7
100
AcDbXrecord
280
     1
270
     1
271
     1
  0
XRECORD
  5
4FFB
102
{ACAD_REACTORS
330
4FF7
102
}
330
4FF7
100
AcDbXrecord
280
     1
270
     1
271
     1
  0
XRECORD
  5
4FFD
102
{ACAD_REACTORS
330
4FF7
102
}
330
4FF7
100
AcDbXrecord
280
     1
270
     1
271
     1
  0
XRECORD
  5
4FFA
102
{ACAD_REACTORS
330
4FF7
102
}
330
4FF7
100
AcDbXrecord
280
     1
270
     1
271
     1
  0
CELLSTYLEMAP
  5
1BA94
102
{ACAD_REACTORS
330
50D6
102
}
330
50D6
100
AcDbCellStyleMap
 90
        3
300
CELLSTYLE
  1
TABLEFORMAT_BEGIN
 90
        5
170
     1
 91
        0
 92
    32768
 62
   257
 93
        1
300
CONTENTFORMAT
  1
CONTENTFORMAT_BEGIN
 90
        0
 91
        0
 92
      512
 93
        0
300

 40
0.0
140
1.0
 94
        5
 62
     0
340
11
144
0.25
309
CONTENTFORMAT_END
171
     1
301
MARGIN
  1
CELLMARGIN_BEGIN
 40
0.06
 40
0.06
 40
0.06
 40
0.06
 40
0.18
 40
0.18
309
CELLMARGIN_END
 94
        6
 95
        1
302
GRIDFORMAT
  1
GRIDFORMAT_BEGIN
 90
        0
 91
        1
 62
     0
 92
       -2
340
0
 93
        0
 40
0.045
309
GRIDFORMAT_END
 95
        2
302
GRIDFORMAT
  1
GRIDFORMAT_BEGIN
 90
        0
 91
        1
 62
     0
 92
       -2
340
0
 93
        0
 40
0.045
309
GRIDFORMAT_END
 95
        4
302
GRIDFORMAT
  1
GRIDFORMAT_BEGIN
 90
        0
 91
        1
 62
     0
 92
       -2
340
0
 93
        0
 40
0.045
309
GRIDFORMAT_END
 95
        8
302
GRIDFORMAT
  1
GRIDFORMAT_BEGIN
 90
        0
 91
        1
 62
     0
 92
       -2
340
0
 93
        0
 40
0.045
309
GRIDFORMAT_END
 95
       16
302
GRIDFORMAT
  1
GRIDFORMAT_BEGIN
 90
        0
 91
        1
 62
     0
 92
       -2
340
0
 93
        0
 40
0.045
309
GRIDFORMAT_END
 95
       32
302
GRIDFORMAT
  1
GRIDFORMAT_BEGIN
 90
        0
 91
        1
 62
     0
 92
       -2
340
0
 93
        0
 40
0.045
309
GRIDFORMAT_END
309
TABLEFORMAT_END
  1
CELLSTYLE_BEGIN
 90
        1
 91
        1
300
_TITLE
309
CELLSTYLE_END
300
CELLSTYLE
  1
TABLEFORMAT_BEGIN
 90
        5
170
     1
 91
        0
 92
        0
 62
   257
 93
        1
300
CONTENTFORMAT
  1
CONTENTFORMAT_BEGIN
 90
        0
 91
        0
 92
      512
 93
        0
300

 40
0.0
140
1.0
 94
        5
 62
     0
340
11
144
0.18
309
CONTENTFORMAT_END
171
     1
301
MARGIN
  1
CELLMARGIN_BEGIN
 40
0.06
 40
0.06
 40
0.06
 40
0.06
 40
0.18
 40
0.18
309
CELLMARGIN_END
 94
        6
 95
        1
302
GRIDFORMAT
  1
GRIDFORMAT_BEGIN
 90
        0
 91
        1
 62
     0
 92
       -2
340
0
 93
        0
 40
0.045
309
GRIDFORMAT_END
 95
        2
302
GRIDFORMAT
  1
GRIDFORMAT_BEGIN
 90
        0
 91
        1
 62
     0
 92
       -2
340
0
 93
        0
 40
0.045
309
GRIDFORMAT_END
 95
        4
302
GRIDFORMAT
  1
GRIDFORMAT_BEGIN
 90
        0
 91
        1
 62
     0
 92
       -2
340
0
 93
        0
 40
0.045
309
GRIDFORMAT_END
 95
        8
302
GRIDFORMAT
  1
GRIDFORMAT_BEGIN
 90
        0
 91
        1
 62
     0
 92
       -2
340
0
 93
        0
 40
0.045
309
GRIDFORMAT_END
 95
       16
302
GRIDFORMAT
  1
GRIDFORMAT_BEGIN
 90
        0
 91
        1
 62
     0
 92
       -2
340
0
 93
        0
 40
0.045
309
GRIDFORMAT_END
 95
       32
302
GRIDFORMAT
  1
GRIDFORMAT_BEGIN
 90
        0
 91
        1
 62
     0
 92
       -2
340
0
 93
        0
 40
0.045
309
GRIDFORMAT_END
309
TABLEFORMAT_END
  1
CELLSTYLE_BEGIN
 90
        2
 91
        1
300
_HEADER
309
CELLSTYLE_END
300
CELLSTYLE
  1
TABLEFORMAT_BEGIN
 90
        5
170
     1
 91
        0
 92
        0
 62
   257
 93
        1
300
CONTENTFORMAT
  1
CONTENTFORMAT_BEGIN
 90
        0
 91
        0
 92
      512
 93
        0
300

 40
0.0
140
1.0
 94
        2
 62
     0
340
11
144
0.18
309
CONTENTFORMAT_END
171
     1
301
MARGIN
  1
CELLMARGIN_BEGIN
 40
0.06
 40
0.06
 40
0.06
 40
0.06
 40
0.18
 40
0.18
309
CELLMARGIN_END
 94
        6
 95
        1
302
GRIDFORMAT
  1
GRIDFORMAT_BEGIN
 90
        0
 91
        1
 62
     0
 92
       -2
340
0
 93
        0
 40
0.045
309
GRIDFORMAT_END
 95
        2
302
GRIDFORMAT
  1
GRIDFORMAT_BEGIN
 90
        0
 91
        1
 62
     0
 92
       -2
340
0
 93
        0
 40
0.045
309
GRIDFORMAT_END
 95
        4
302
GRIDFORMAT
  1
GRIDFORMAT_BEGIN
 90
        0
 91
        1
 62
     0
 92
       -2
340
0
 93
        0
 40
0.045
309
GRIDFORMAT_END
 95
        8
302
GRIDFORMAT
  1
GRIDFORMAT_BEGIN
 90
        0
 91
        1
 62
     0
 92
       -2
340
0
 93
        0
 40
0.045
309
GRIDFORMAT_END
 95
       16
302
GRIDFORMAT
  1
GRIDFORMAT_BEGIN
 90
        0
 91
        1
 62
     0
 92
       -2
340
0
 93
        0
 40
0.045
309
GRIDFORMAT_END
 95
       32
302
GRIDFORMAT
  1
GRIDFORMAT_BEGIN
 90
        0
 91
        1
 62
     0
 92
       -2
340
0
 93
        0
 40
0.045
309
GRIDFORMAT_END
309
TABLEFORMAT_END
  1
CELLSTYLE_BEGIN
 90
        3
 91
        2
300
_DATA
309
CELLSTYLE_END
  0
ENDSEC
  0
EOF
