  0
SECTION
  2
HEADER
  9
$ACADVER
  1
AC1018
  9
$ACADMAINTVER
 70
   104
  9
$DWGCODEPAGE
  3
ANSI_936
  9
$LASTSAVEDBY
  1
tc.chen
  9
$INSBASE
 10
0.0
 20
0.0
 30
0.0
  9
$EXTMIN
 10
2226.529728916075
 20
637.3074825584276
 30
-0.0000000000000086
  9
$EXTMAX
 10
2375.308143524315
 20
742.3426532104408
 30
0.0000000000000067
  9
$LIMMIN
 10
0.0
 20
0.0
  9
$LIMMAX
 10
1189.0
 20
841.0
  9
$ORTHOMODE
 70
     0
  9
$REGENMODE
 70
     1
  9
$FILLMODE
 70
     1
  9
$QTEXTMODE
 70
     0
  9
$MIRRTEXT
 70
     1
  9
$LTSCALE
 40
65.395
  9
$ATTMODE
 70
     1
  9
$TEXTSIZE
 40
0.2
  9
$TRACEWID
 40
0.05
  9
$TEXTSTYLE
  7
STANDARD
  9
$CLAYER
  8
Dim
  9
$CELTYPE
  6
ByLayer
  9
$CECOLOR
 62
   256
  9
$CELTSCALE
 40
1.0
  9
$DISPSILH
 70
     0
  9
$DIMSCALE
 40
0.25
  9
$DIMASZ
 40
4.5
  9
$DIMEXO
 40
0.2
  9
$DIMDLI
 40
0.2
  9
$DIMRND
 40
0.0
  9
$DIMDLE
 40
0.0
  9
$DIMEXE
 40
1.199999999999999
  9
$DIMTP
 40
0.0
  9
$DIMTM
 40
0.0
  9
$DIMTXT
 40
5.0
  9
$DIMCEN
 40
0.0
  9
$DIMTSZ
 40
0.0
  9
$DIMTOL
 70
     0
  9
$DIMLIM
 70
     0
  9
$DIMTIH
 70
     0
  9
$DIMTOH
 70
     0
  9
$DIMSE1
 70
     0
  9
$DIMSE2
 70
     0
  9
$DIMTAD
 70
     1
  9
$DIMZIN
 70
     8
  9
$DIMBLK
  1

  9
$DIMASO
 70
     1
  9
$DIMSHO
 70
     1
  9
$DIMPOST
  1

  9
$DIMAPOST
  1

  9
$DIMALT
 70
     0
  9
$DIMALTD
 70
     2
  9
$DIMALTF
 40
25.4
  9
$DIMLFAC
 40
1.0
  9
$DIMTOFL
 70
     0
  9
$DIMTVP
 40
0.0
  9
$DIMTIX
 70
     0
  9
$DIMSOXD
 70
     0
  9
$DIMSAH
 70
     0
  9
$DIMBLK1
  1

  9
$DIMBLK2
  1

  9
$DIMSTYLE
  2
01
  9
$DIMCLRD
 70
     1
  9
$DIMCLRE
 70
     6
  9
$DIMCLRT
 70
     4
  9
$DIMTFAC
 40
1.0
  9
$DIMGAP
 40
0.5
  9
$DIMJUST
 70
     0
  9
$DIMSD1
 70
     0
  9
$DIMSD2
 70
     0
  9
$DIMTOLJ
 70
     1
  9
$DIMTZIN
 70
     0
  9
$DIMALTZ
 70
     0
  9
$DIMALTTZ
 70
     0
  9
$DIMUPT
 70
     0
  9
$DIMDEC
 70
     2
  9
$DIMTDEC
 70
     2
  9
$DIMALTU
 70
     2
  9
$DIMALTTD
 70
     2
  9
$DIMTXSTY
  7
Romans字体
  9
$DIMAUNIT
 70
     0
  9
$DIMADEC
 70
     2
  9
$DIMALTRND
 40
0.0
  9
$DIMAZIN
 70
     2
  9
$DIMDSEP
 70
    46
  9
$DIMATFIT
 70
     3
  9
$DIMFRAC
 70
     0
  9
$DIMLDRBLK
  1

  9
$DIMLUNIT
 70
     2
  9
$DIMLWD
 70
    -2
  9
$DIMLWE
 70
    -2
  9
$DIMTMOVE
 70
     0
  9
$LUNITS
 70
     2
  9
$LUPREC
 70
     4
  9
$SKETCHINC
 40
0.1
  9
$FILLETRAD
 40
0.0
  9
$AUNITS
 70
     0
  9
$AUPREC
 70
     0
  9
$MENU
  1
acad
  9
$ELEVATION
 40
0.0
  9
$PELEVATION
 40
0.0
  9
$THICKNESS
 40
0.0
  9
$LIMCHECK
 70
     0
  9
$CHAMFERA
 40
0.0
  9
$CHAMFERB
 40
0.0
  9
$CHAMFERC
 40
0.0
  9
$CHAMFERD
 40
0.0
  9
$SKPOLY
 70
     0
  9
$TDCREATE
 40
2454351.702036852
  9
$TDUCREATE
 40
2454351.368703519
  9
$TDUPDATE
 40
2457928.495856458
  9
$TDUUPDATE
 40
2457928.162523125
  9
$TDINDWG
 40
0.9600400694
  9
$TDUSRTIMER
 40
0.9600372106
  9
$USRTIMER
 70
     1
  9
$ANGBASE
 50
0.0
  9
$ANGDIR
 70
     0
  9
$PDMODE
 70
     3
  9
$PDSIZE
 40
8.0
  9
$PLINEWID
 40
0.0
  9
$SPLFRAME
 70
     0
  9
$SPLINETYPE
 70
     6
  9
$SPLINESEGS
 70
     8
  9
$HANDSEED
  5
4A405
  9
$SURFTAB1
 70
     6
  9
$SURFTAB2
 70
     6
  9
$SURFTYPE
 70
     6
  9
$SURFU
 70
     6
  9
$SURFV
 70
     6
  9
$UCSBASE
  2

  9
$UCSNAME
  2

  9
$UCSORG
 10
0.0
 20
0.0
 30
0.0
  9
$UCSXDIR
 10
1.0
 20
0.0
 30
0.0
  9
$UCSYDIR
 10
0.0
 20
1.0
 30
0.0
  9
$UCSORTHOREF
  2

  9
$UCSORTHOVIEW
 70
     0
  9
$UCSORGTOP
 10
0.0
 20
0.0
 30
0.0
  9
$UCSORGBOTTOM
 10
0.0
 20
0.0
 30
0.0
  9
$UCSORGLEFT
 10
0.0
 20
0.0
 30
0.0
  9
$UCSORGRIGHT
 10
0.0
 20
0.0
 30
0.0
  9
$UCSORGFRONT
 10
0.0
 20
0.0
 30
0.0
  9
$UCSORGBACK
 10
0.0
 20
0.0
 30
0.0
  9
$PUCSBASE
  2

  9
$PUCSNAME
  2

  9
$PUCSORG
 10
0.0
 20
0.0
 30
0.0
  9
$PUCSXDIR
 10
1.0
 20
0.0
 30
0.0
  9
$PUCSYDIR
 10
0.0
 20
1.0
 30
0.0
  9
$PUCSORTHOREF
  2

  9
$PUCSORTHOVIEW
 70
     0
  9
$PUCSORGTOP
 10
0.0
 20
0.0
 30
0.0
  9
$PUCSORGBOTTOM
 10
0.0
 20
0.0
 30
0.0
  9
$PUCSORGLEFT
 10
0.0
 20
0.0
 30
0.0
  9
$PUCSORGRIGHT
 10
0.0
 20
0.0
 30
0.0
  9
$PUCSORGFRONT
 10
0.0
 20
0.0
 30
0.0
  9
$PUCSORGBACK
 10
0.0
 20
0.0
 30
0.0
  9
$USERI1
 70
     0
  9
$USERI2
 70
     0
  9
$USERI3
 70
     0
  9
$USERI4
 70
     0
  9
$USERI5
 70
     0
  9
$USERR1
 40
0.0
  9
$USERR2
 40
0.0
  9
$USERR3
 40
0.0
  9
$USERR4
 40
0.0
  9
$USERR5
 40
2.5
  9
$WORLDVIEW
 70
     1
  9
$SHADEDGE
 70
     3
  9
$SHADEDIF
 70
    70
  9
$TILEMODE
 70
     1
  9
$MAXACTVP
 70
    16
  9
$PINSBASE
 10
0.0
 20
0.0
 30
0.0
  9
$PLIMCHECK
 70
     0
  9
$PEXTMIN
 10
1.000000000000000E+20
 20
1.000000000000000E+20
 30
1.000000000000000E+20
  9
$PEXTMAX
 10
-1.000000000000000E+20
 20
-1.000000000000000E+20
 30
-1.000000000000000E+20
  9
$PLIMMIN
 10
0.0
 20
0.0
  9
$PLIMMAX
 10
12.0
 20
9.0
  9
$UNITMODE
 70
     0
  9
$VISRETAIN
 70
     0
  9
$PLINEGEN
 70
     1
  9
$PSLTSCALE
 70
     0
  9
$TREEDEPTH
 70
  3020
  9
$CMLSTYLE
  2
Standard
  9
$CMLJUST
 70
     0
  9
$CMLSCALE
 40
1.0
  9
$PROXYGRAPHICS
 70
     0
  9
$MEASUREMENT
 70
     1
  9
$CELWEIGHT
370
    -1
  9
$ENDCAPS
280
     0
  9
$JOINSTYLE
280
     0
  9
$LWDISPLAY
290
     0
  9
$INSUNITS
 70
     4
  9
$HYPERLINKBASE
  1

  9
$STYLESHEET
  1
monochrome.ctb
  9
$XEDIT
290
     1
  9
$CEPSNTYPE
380
     0
  9
$PSTYLEMODE
290
     1
  9
$FINGERPRINTGUID
  2

  9
$VERSIONGUID
  2
{002A28FB-CCD9-443D-AAE9-428D60B7D94E}
  9
$EXTNAMES
290
     1
  9
$PSVPSCALE
 40
0.0
  9
$OLESTARTUP
290
     0
  9
$SORTENTS
280
   127
  9
$INDEXCTL
280
     0
  9
$HIDETEXT
280
     0
  9
$XCLIPFRAME
290
     0
  9
$HALOGAP
280
     0
  9
$OBSCOLOR
 70
   257
  9
$OBSLTYPE
280
     0
  9
$INTERSECTIONDISPLAY
280
     0
  9
$INTERSECTIONCOLOR
 70
   257
  9
$DIMASSOC
280
     2
  9
$PROJECTNAME
  1

  0
ENDSEC
  0
SECTION
  2
CLASSES
  0
CLASS
  1
ACDBDICTIONARYWDFLT
  2
AcDbDictionaryWithDefault
  3
ObjectDBX Classes
 90
        0
 91
        1
280
     0
281
     0
  0
CLASS
  1
IMAGE
  2
AcDbRasterImage
  3
ISM
 90
     2175
 91
        0
280
     0
281
     1
  0
CLASS
  1
DICTIONARYVAR
  2
AcDbDictionaryVar
  3
ObjectDBX Classes
 90
        0
 91
        9
280
     0
281
     0
  0
CLASS
  1
RASTERVARIABLES
  2
AcDbRasterVariables
  3
ISM
 90
        0
 91
        0
280
     0
281
     0
  0
CLASS
  1
IMAGEDEF
  2
AcDbRasterImageDef
  3
ISM
 90
        0
 91
        0
280
     0
281
     0
  0
CLASS
  1
IMAGEDEF_REACTOR
  2
AcDbRasterImageDefReactor
  3
ISM
 90
        1
 91
        0
280
     0
281
     0
  0
CLASS
  1
IDBUFFER
  2
AcDbIdBuffer
  3
ObjectDBX Classes
 90
        0
 91
        0
280
     0
281
     0
  0
CLASS
  1
SPATIAL_FILTER
  2
AcDbSpatialFilter
  3
ObjectDBX Classes
 90
        0
 91
        0
280
     0
281
     0
  0
CLASS
  1
SORTENTSTABLE
  2
AcDbSortentsTable
  3
ObjectDBX Classes
 90
        0
 91
        1
280
     0
281
     0
  0
CLASS
  1
LAYER_INDEX
  2
AcDbLayerIndex
  3
ObjectDBX Classes
 90
        0
 91
        0
280
     0
281
     0
  0
CLASS
  1
SPATIAL_INDEX
  2
AcDbSpatialIndex
  3
ObjectDBX Classes
 90
        0
 91
        0
280
     0
281
     0
  0
CLASS
  1
OBJECT_PTR
  2
CAseDLPNTableRecord
  3
ASE-LPNTableRecord
 90
        1
 91
        0
280
     0
281
     0
  0
CLASS
  1
PLOTSETTINGS
  2
AcDbPlotSettings
  3
ObjectDBX Classes
 90
        0
 91
        1
280
     0
281
     0
  0
CLASS
  1
WIPEOUT
  2
AcDbWipeout
  3
"WipeOut|Product Desc: Object Enabler for WipeOut entity                        |Company: Autodesk, Inc.                        |WEB Address: www.autodesk.com"
 90
     2175
 91
        0
280
     0
281
     1
  0
CLASS
  1
WIPEOUTVARIABLES
  2
AcDbWipeoutVariables
  3
"WipeOut|Product Desc:     WipeOut Dbx Application|Company:          Autodesk, Inc.|WEB Address:      www.autodesk.com"
 90
        0
 91
        0
280
     0
281
     0
  0
CLASS
  1
RTEXT
  2
RText
  3
RText|AutoCAD Express Tool|expresstools@autodesk.com
 90
        0
 91
        0
280
     0
281
     1
  0
CLASS
  1
ARCALIGNEDTEXT
  2
AcDbArcAlignedText
  3
ATEXT|AutoCAD Express Tool|expresstools@autodesk.com
 90
        0
 91
        0
280
     0
281
     1
  0
CLASS
  1
VLO-VL
  2
vlo_VL
  3
VL|AutoLISP based application
 90
      129
 91
        1
280
     0
281
     0
  0
CLASS
  1
DIMASSOC
  2
AcDbDimAssoc
  3
"AcDbDimAssoc|Product Desc:     AcDim ARX App For Dimension|Company:          Autodesk, Inc.|WEB Address:      www.autodesk.com"
 90
        0
 91
        9
280
     0
281
     0
  0
CLASS
  1
ACAD_EVALUATION_GRAPH
  2
AcDbEvalGraph
  3
ObjectDBX Classes
 90
     1153
 91
        0
280
     0
281
     0
  0
CLASS
  1
ACDB_DYNAMICBLOCKPURGEPREVENTER_VERSION
  2
AcDbDynamicBlockPurgePreventer
  3
ObjectDBX Classes
 90
     1153
 91
        0
280
     0
281
     0
  0
CLASS
  1
MATERIAL
  2
AcDbMaterial
  3
ObjectDBX Classes
 90
     1153
 91
        3
280
     0
281
     0
  0
CLASS
  1
VISUALSTYLE
  2
AcDbVisualStyle
  3
ObjectDBX Classes
 90
     4095
 91
       17
280
     0
281
     0
  0
CLASS
  1
TABLESTYLE
  2
AcDbTableStyle
  3
ObjectDBX Classes
 90
     4095
 91
        1
280
     0
281
     0
  0
CLASS
  1
SCALE
  2
AcDbScale
  3
ObjectDBX Classes
 90
     1153
 91
       33
280
     0
281
     0
  0
CLASS
  1
MLEADERSTYLE
  2
AcDbMLeaderStyle
  3
ACDB_MLEADERSTYLE_CLASS
 90
     4095
 91
        1
280
     0
281
     0
  0
CLASS
  1
CELLSTYLEMAP
  2
AcDbCellStyleMap
  3
ObjectDBX Classes
 90
     1152
 91
        3
280
     0
281
     0
  0
CLASS
  1
ACAECUSTOBJ
  2
AcAeEditorObj
  3
AcAeEditorObj
 90
     1024
 91
        0
280
     0
281
     0
  0
ENDSEC
  0
SECTION
  2
TABLES
  0
TABLE
  2
VPORT
  5
8
102
{ACAD_XDICTIONARY
360
12DD3
102
}
330
0
100
AcDbSymbolTable
 70
     1
  0
VPORT
  5
12D1D
330
8
100
AcDbSymbolTableRecord
100
AcDbViewportTableRecord
  2
*Active
 70
     0
 10
0.0
 20
0.0
 11
1.0
 21
1.0
 12
2300.918936220195
 22
689.8250678844342
 13
0.0
 23
0.0
 14
1.0
 24
1.0
 15
0.0
 25
0.0
 16
0.0
 26
0.0
 36
1.0
 17
0.0
 27
0.0
 37
0.0
 40
106.0208245500236
 41
2.036474164133738
 42
50.0
 43
0.0
 44
0.0
 50
0.0
 51
0.0
 71
     0
 72
   100
 73
     1
 74
     1
 75
     0
 76
     0
 77
     0
 78
     0
281
     0
 65
     0
110
0.0
120
0.0
130
0.0
111
1.0
121
0.0
131
0.0
112
0.0
122
1.0
132
0.0
 79
     0
146
0.0
  0
ENDTAB
  0
TABLE
  2
LTYPE
  5
5
330
0
100
AcDbSymbolTable
 70
     2
  0
LTYPE
  5
14
330
5
100
AcDbSymbolTableRecord
100
AcDbLinetypeTableRecord
  2
ByBlock
 70
     0
  3

 72
    65
 73
     0
 40
0.0
  0
LTYPE
  5
15
330
5
100
AcDbSymbolTableRecord
100
AcDbLinetypeTableRecord
  2
ByLayer
 70
     0
  3

 72
    65
 73
     0
 40
0.0
  0
LTYPE
  5
16
330
5
100
AcDbSymbolTableRecord
100
AcDbLinetypeTableRecord
  2
CONTINUOUS
 70
     0
  3
Solid line
 72
    65
 73
     0
 40
0.0
  0
LTYPE
  5
1D9F6
330
5
100
AcDbSymbolTableRecord
100
AcDbLinetypeTableRecord
  2
CENTER
 70
     0
  3
____ _ ____ _ ____ _ ____ _ ____ _ ____ _ ____
 72
    65
 73
     4
 40
0.6
 49
0.375
 74
     0
 49
-0.075
 74
     0
 49
0.075
 74
     0
 49
-0.075
 74
     0
  0
ENDTAB
  0
TABLE
  2
LAYER
  5
2
102
{ACAD_XDICTIONARY
360
7EA
102
}
330
0
100
AcDbSymbolTable
 70
    11
  0
LAYER
  5
10
102
{ACAD_XDICTIONARY
360
12D81
102
}
330
2
100
AcDbSymbolTableRecord
100
AcDbLayerTableRecord
  2
0
 70
     0
 62
     7
  6
CONTINUOUS
370
    30
390
F
  0
LAYER
  5
7C8
330
2
100
AcDbSymbolTableRecord
100
AcDbLayerTableRecord
  2
Defpoints
 70
     0
 62
     7
  6
CONTINUOUS
290
     0
370
    -3
390
F
  0
LAYER
  5
876E
102
{ACAD_XDICTIONARY
360
12D8B
102
}
330
2
100
AcDbSymbolTableRecord
100
AcDbLayerTableRecord
  2
ASHADE
 70
     0
 62
     7
  6
CONTINUOUS
370
    35
390
F
  0
LAYER
  5
F6EE
102
{ACAD_XDICTIONARY
360
12D8D
102
}
330
2
100
AcDbSymbolTableRecord
100
AcDbLayerTableRecord
  2
图框
 70
     0
 62
     7
  6
CONTINUOUS
370
    20
390
F
  0
LAYER
  5
1508C
330
2
100
AcDbSymbolTableRecord
100
AcDbLayerTableRecord
  2
打标文字
 70
     0
 62
     3
  6
CONTINUOUS
370
    20
390
F
  0
LAYER
  5
1E3BF
102
{ACAD_XDICTIONARY
360
1E3C0
102
}
330
2
100
AcDbSymbolTableRecord
100
AcDbLayerTableRecord
  2
Dim
 70
     0
 62
     3
  6
CONTINUOUS
370
    15
390
F
  0
LAYER
  5
47AE9
330
2
100
AcDbSymbolTableRecord
100
AcDbLayerTableRecord
  2
标注
 70
     0
 62
     6
  6
CONTINUOUS
370
     0
390
F
  0
LAYER
  5
47AEA
330
2
100
AcDbSymbolTableRecord
100
AcDbLayerTableRecord
  2
粗实线
 70
     0
 62
   255
  6
CONTINUOUS
370
    25
390
F
1001
AcAecLayerStandard
1000

1000

  0
LAYER
  5
47AEB
330
2
100
AcDbSymbolTableRecord
100
AcDbLayerTableRecord
  2
center
 70
     0
 62
     1
  6
CENTER
370
     0
390
F
  0
LAYER
  5
48BFC
330
2
100
AcDbSymbolTableRecord
100
AcDbLayerTableRecord
  2
M8-FBKR-M8_SOLIDLINE
 70
     0
 62
     7
  6
CONTINUOUS
370
    -3
390
F
  0
LAYER
  5
4980B
330
2
100
AcDbSymbolTableRecord
100
AcDbLayerTableRecord
  2
Layer1
 70
     0
 62
     2
  6
CONTINUOUS
370
    15
390
F
1001
AcAecLayerStandard
1000

1000

  0
ENDTAB
  0
TABLE
  2
STYLE
  5
3
330
0
100
AcDbSymbolTable
 70
     5
  0
STYLE
  5
11
330
3
100
AcDbSymbolTableRecord
100
AcDbTextStyleTableRecord
  2
STANDARD
 70
     0
 40
0.0
 41
0.75
 50
0.0
 71
     0
 42
0.2
  3
SIMFANG.TTF
  4

1001
ACAD
1000
FangSong_GB2312
1071
    34353
  0
STYLE
  5
474F8
330
3
100
AcDbSymbolTableRecord
100
AcDbTextStyleTableRecord
  2
Romans字体
 70
     0
 40
0.0
 41
0.75
 50
0.0
 71
     0
 42
0.2
  3
romans.shx
  4

  0
STYLE
  5
474F9
330
3
100
AcDbSymbolTableRecord
100
AcDbTextStyleTableRecord
  2
工程字
 70
     0
 40
0.0
 41
1.0
 50
0.0
 71
     0
 42
3.5
  3
gbenor.shx
  4
gbcbig.shx
  0
STYLE
  5
474FA
330
3
100
AcDbSymbolTableRecord
100
AcDbTextStyleTableRecord
  2
Chinese
 70
     0
 40
0.0
 41
1.0
 50
0.0
 71
     0
 42
2.5
  3
PMingLiU.ttf
  4

1001
ACAD
1000
PMingLiU
1071
    34834
  0
ENDTAB
  0
TABLE
  2
VIEW
  5
6
330
0
100
AcDbSymbolTable
 70
     0
  0
ENDTAB
  0
TABLE
  2
UCS
  5
7
330
0
100
AcDbSymbolTable
 70
     0
  0
ENDTAB
  0
TABLE
  2
APPID
  5
9
330
0
100
AcDbSymbolTable
 70
    46
  0
APPID
  5
206
330
9
100
AcDbSymbolTableRecord
100
AcDbRegAppTableRecord
  2
ACAD
 70
     0
  0
APPID
  5
7E2
330
9
100
AcDbSymbolTableRecord
100
AcDbRegAppTableRecord
  2
DCO15
 70
     0
  0
APPID
  5
7E3
330
9
100
AcDbSymbolTableRecord
100
AcDbRegAppTableRecord
  2
ACAD_PSEXT
 70
     0
  0
APPID
  5
7E4
330
9
100
AcDbSymbolTableRecord
100
AcDbRegAppTableRecord
  2
AcAecLayerStandard
 70
     0
  0
APPID
  5
7E5
330
9
100
AcDbSymbolTableRecord
100
AcDbRegAppTableRecord
  2
ACAD_DSTYLE_DIMEXT_LENGTH
 70
     0
  0
APPID
  5
7E6
330
9
100
AcDbSymbolTableRecord
100
AcDbRegAppTableRecord
  2
ACAD_DSTYLE_DIMEXT_ENABLED
 70
     0
  0
APPID
  5
7E7
330
9
100
AcDbSymbolTableRecord
100
AcDbRegAppTableRecord
  2
ACAD_DSTYLE_DIMJOGGED_JOGANGLE_SYMBOL
 70
     0
  0
APPID
  5
7E8
330
9
100
AcDbSymbolTableRecord
100
AcDbRegAppTableRecord
  2
ACAD_DSTYLE_DIMARC_LENGTH_SYMBOL
 70
     0
  0
APPID
  5
7E9
330
9
100
AcDbSymbolTableRecord
100
AcDbRegAppTableRecord
  2
ACAD_DSTYLE_DIMTEXT_FILL
 70
     0
  0
APPID
  5
1765
330
9
100
AcDbSymbolTableRecord
100
AcDbRegAppTableRecord
  2
GENIUS_GENTRA_14
 70
     0
  0
APPID
  5
1766
330
9
100
AcDbSymbolTableRecord
100
AcDbRegAppTableRecord
  2
GENIUS_GENODEF_13
 70
     0
  0
APPID
  5
1767
330
9
100
AcDbSymbolTableRecord
100
AcDbRegAppTableRecord
  2
GENIUS_GENOBJ-N-TIT_13
 70
     0
  0
APPID
  5
1768
330
9
100
AcDbSymbolTableRecord
100
AcDbRegAppTableRecord
  2
GENIUS_GENTITLE_13
 70
     0
  0
APPID
  5
1769
330
9
100
AcDbSymbolTableRecord
100
AcDbRegAppTableRecord
  2
GENIUS_GENOENT_13
 70
     0
  0
APPID
  5
176A
330
9
100
AcDbSymbolTableRecord
100
AcDbRegAppTableRecord
  2
GENIUS_GENOREF_13
 70
     0
  0
APPID
  5
176B
330
9
100
AcDbSymbolTableRecord
100
AcDbRegAppTableRecord
  2
GENIUS_GENOLIS_13
 70
     0
  0
APPID
  5
176C
330
9
100
AcDbSymbolTableRecord
100
AcDbRegAppTableRecord
  2
GENIUS_GENOBJ-N-SDF_13
 70
     0
  0
APPID
  5
176D
330
9
100
AcDbSymbolTableRecord
100
AcDbRegAppTableRecord
  2
GENIUS_GENSCREG_13
 70
     0
  0
APPID
  5
688B
330
9
100
AcDbSymbolTableRecord
100
AcDbRegAppTableRecord
  2
ACAD_DSTYLE_DIM_LINETYPE
 70
     0
  0
APPID
  5
688C
330
9
100
AcDbSymbolTableRecord
100
AcDbRegAppTableRecord
  2
ACAD_DSTYLE_DIM_EXT1_LINETYPE
 70
     0
  0
APPID
  5
688D
330
9
100
AcDbSymbolTableRecord
100
AcDbRegAppTableRecord
  2
ACAD_DSTYLE_DIM_EXT2_LINETYPE
 70
     0
  0
APPID
  5
688E
330
9
100
AcDbSymbolTableRecord
100
AcDbRegAppTableRecord
  2
ACAD_EXEMPT_FROM_CAD_STANDARDS
 70
     0
  0
APPID
  5
688F
330
9
100
AcDbSymbolTableRecord
100
AcDbRegAppTableRecord
  2
CAXA
 70
     0
  0
APPID
  5
6890
330
9
100
AcDbSymbolTableRecord
100
AcDbRegAppTableRecord
  2
AcDbBlockRepETag
 70
     0
  0
APPID
  5
6891
330
9
100
AcDbSymbolTableRecord
100
AcDbRegAppTableRecord
  2
ACAUTHENVIRON
 70
     0
  0
APPID
  5
6892
330
9
100
AcDbSymbolTableRecord
100
AcDbRegAppTableRecord
  2
AcDbDynamicBlockTrueName
 70
     0
  0
APPID
  5
6893
330
9
100
AcDbSymbolTableRecord
100
AcDbRegAppTableRecord
  2
AcDbDynamicBlockGUID
 70
     0
  0
APPID
  5
6894
330
9
100
AcDbSymbolTableRecord
100
AcDbRegAppTableRecord
  2
STD
 70
     0
  0
APPID
  5
6895
330
9
100
AcDbSymbolTableRecord
100
AcDbRegAppTableRecord
  2
AcDbBlockRepBTag
 70
     0
  0
APPID
  5
6896
330
9
100
AcDbSymbolTableRecord
100
AcDbRegAppTableRecord
  2
RAK
 70
     0
  0
APPID
  5
8770
330
9
100
AcDbSymbolTableRecord
100
AcDbRegAppTableRecord
  2
AVE_RENDER
 70
     0
  0
APPID
  5
8771
330
9
100
AcDbSymbolTableRecord
100
AcDbRegAppTableRecord
  2
AVE_ENTITY_MATERIAL
 70
     0
  0
APPID
  5
8772
330
9
100
AcDbSymbolTableRecord
100
AcDbRegAppTableRecord
  2
AVE_FINISH
 70
     0
  0
APPID
  5
8773
330
9
100
AcDbSymbolTableRecord
100
AcDbRegAppTableRecord
  2
AVE_MATERIAL
 70
     0
  0
APPID
  5
8774
330
9
100
AcDbSymbolTableRecord
100
AcDbRegAppTableRecord
  2
AVE_GLOBAL
 70
     0
  0
APPID
  5
F4F3
330
9
100
AcDbSymbolTableRecord
100
AcDbRegAppTableRecord
  2
yx_bom1
 70
     0
  0
APPID
  5
F4F4
330
9
100
AcDbSymbolTableRecord
100
AcDbRegAppTableRecord
  2
yx_bom2
 70
     0
  0
APPID
  5
F4F5
330
9
100
AcDbSymbolTableRecord
100
AcDbRegAppTableRecord
  2
yx_bom3
 70
     0
  0
APPID
  5
12D6F
330
9
100
AcDbSymbolTableRecord
100
AcDbRegAppTableRecord
  2
ACAD_MLEADERVER
 70
     0
  0
APPID
  5
12DFC
330
9
100
AcDbSymbolTableRecord
100
AcDbRegAppTableRecord
  2
AcadAnnoPO
 70
     0
  0
APPID
  5
12FCD
330
9
100
AcDbSymbolTableRecord
100
AcDbRegAppTableRecord
  2
ACAD_DSTYLE_DIMJAG
 70
     0
  0
APPID
  5
12FCE
330
9
100
AcDbSymbolTableRecord
100
AcDbRegAppTableRecord
  2
ACAD_DSTYLE_DIMTALN
 70
     0
  0
APPID
  5
1A9DF
330
9
100
AcDbSymbolTableRecord
100
AcDbRegAppTableRecord
  2
AcadAnnotative
 70
     0
  0
APPID
  5
1E3C3
330
9
100
AcDbSymbolTableRecord
100
AcDbRegAppTableRecord
  2
ACAD_NAV_VCDISPLAY
 70
     0
  0
APPID
  5
463BD
330
9
100
AcDbSymbolTableRecord
100
AcDbRegAppTableRecord
  2
ACAD_DSTYLE_DIMBREAK
 70
     0
  0
APPID
  5
463BF
330
9
100
AcDbSymbolTableRecord
100
AcDbRegAppTableRecord
  2
ACAD_DSTYLE_DIMRADIAL_EXTENSION
 70
     0
  0
ENDTAB
  0
TABLE
  2
DIMSTYLE
  5
A
330
0
100
AcDbSymbolTable
 70
     3
100
AcDbDimStyleTable
 71
     2
340
F6EF
340
207
  0
DIMSTYLE
105
207
330
A
100
AcDbSymbolTableRecord
100
AcDbDimStyleTableRecord
  2
STANDARD
 70
     0
 41
3.5
 47
0.01
 48
0.01
 71
     1
 73
     0
 74
     0
 77
     1
 78
     8
140
3.5
271
     2
272
     2
284
     8
340
11
  0
DIMSTYLE
105
F6EF
102
{ACAD_REACTORS
330
490F7
330
490FA
330
490FB
330
490FE
330
49106
330
49109
330
4910C
330
4910F
330
49110
330
49EE5
330
49EE6
330
49EED
330
49EF0
330
49F05
330
49F11
102
}
330
A
100
AcDbSymbolTableRecord
100
AcDbDimStyleTableRecord
  2
01
 70
     0
 40
0.25
 41
4.5
 42
0.2
 43
0.2
 44
1.199999999999999
 73
     0
 74
     0
 77
     1
 78
     8
 79
     2
140
5.0
141
0.0
147
0.5
176
     1
177
     6
178
     4
179
     2
271
     2
272
     2
340
474F8
1001
ACAD_DSTYLE_DIMJAG
1070
   388
1040
1.5
1001
ACAD_DSTYLE_DIMTALN
1070
   392
1070
     0
  0
ENDTAB
  0
TABLE
  2
BLOCK_RECORD
  5
1
330
0
100
AcDbSymbolTable
 70
    19
  0
BLOCK_RECORD
  5
1F
102
{ACAD_XDICTIONARY
360
478CD
102
}
330
1
100
AcDbSymbolTableRecord
100
AcDbBlockTableRecord
  2
*MODEL_SPACE
340
22
  0
BLOCK_RECORD
  5
1B
330
1
100
AcDbSymbolTableRecord
100
AcDbBlockTableRecord
  2
*PAPER_SPACE
340
1E
  0
BLOCK_RECORD
  5
84E5
330
1
100
AcDbSymbolTableRecord
100
AcDbBlockTableRecord
  2
AVE_RENDER
340
0
102
{BLKREFS
331
8AE2
331
8AE3
331
8AE4
331
8AE5
331
8AE6
331
8AE7
331
8AE8
331
8AE9
102
}
  0
BLOCK_RECORD
  5
84E8
330
1
100
AcDbSymbolTableRecord
100
AcDbBlockTableRecord
  2
AVE_GLOBAL
340
0
102
{BLKREFS
331
8AEA
102
}
  0
BLOCK_RECORD
  5
479B9
330
1
100
AcDbSymbolTableRecord
100
AcDbBlockTableRecord
  2
A4
340
0
310
2800000020000000200000000100080000000000000400000000000000000000000000000000000000000000000080000080000000808000800000008000800080800000C0C0C000C0DCC000F0CAA6000020400000206000002080000020A0000020C0000020E00000400000004020000040400000406000004080000040A0
310
000040C0000040E00000600000006020000060400000606000006080000060A0000060C0000060E00000800000008020000080400000806000008080000080A0000080C0000080E00000A0000000A0200000A0400000A0600000A0800000A0A00000A0C00000A0E00000C0000000C0200000C0400000C0600000C0800000C0
310
A00000C0C00000C0E00000E0000000E0200000E0400000E0600000E0800000E0A00000E0C00000E0E00040000000400020004000400040006000400080004000A0004000C0004000E00040200000402020004020400040206000402080004020A0004020C0004020E000404000004040200040404000404060004040800040
310
40A0004040C0004040E00040600000406020004060400040606000406080004060A0004060C0004060E00040800000408020004080400040806000408080004080A0004080C0004080E00040A0000040A0200040A0400040A0600040A0800040A0A00040A0C00040A0E00040C0000040C0200040C0400040C0600040C08000
310
40C0A00040C0C00040C0E00040E0000040E0200040E0400040E0600040E0800040E0A00040E0C00040E0E00080000000800020008000400080006000800080008000A0008000C0008000E00080200000802020008020400080206000802080008020A0008020C0008020E00080400000804020008040400080406000804080
310
008040A0008040C0008040E00080600000806020008060400080606000806080008060A0008060C0008060E00080800000808020008080400080806000808080008080A0008080C0008080E00080A0000080A0200080A0400080A0600080A0800080A0A00080A0C00080A0E00080C0000080C0200080C0400080C0600080C0
310
800080C0A00080C0C00080C0E00080E0000080E0200080E0400080E0600080E0800080E0A00080E0C00080E0E000C0000000C0002000C0004000C0006000C0008000C000A000C000C000C000E000C0200000C0202000C0204000C0206000C0208000C020A000C020C000C020E000C0400000C0402000C0404000C0406000C0
310
408000C040A000C040C000C040E000C0600000C0602000C0604000C0606000C0608000C060A000C060C000C060E000C0800000C0802000C0804000C0806000C0808000C080A000C080C000C080E000C0A00000C0A02000C0A04000C0A06000C0A08000C0A0A000C0A0C000C0A0E000C0C00000C0C02000C0C04000C0C06000
310
C0C08000C0C0A000F0FBFF00A4A0A000808080000000FF0000FF000000FFFF00FF000000FF00FF00FFFF0000FFFFFF0000000000000000000000000000000000000000000000000000000000000000000000000000000000000000000000000000000000000000000000000000000000000000000000000000000000000000
310
000000000000000000000000000000000000000000000000000000000000000000000000000000000000000000000000000000000000000000000000000000000000000000000000000000000000000000000000000000000000000000000000000000000000000000000000000000000000F9F9F9F9F9F9F9F9F9F9F9F9F9
310
F9F9F9F9F9F9F9F9F9F9F9F9F9F9FF00000000F9FF000000000000000000FFFFFFFFFFFFFFFFFFFFFFFFF9FAFAFAFF00000000F9FF000000000000000000FFFFFFFFFFFFFFFFFFFFFFFFFFFFFFFFFF00000000F9FD000000000000000000FFFFFFFFFFFFFFFFFFFFFFFFFFFFFFFFFF00000000F9FF000000000000000000FF
310
FFFFFFFFFFFFFFFFFFFFFFFFFFFFFFFF00000000F9FD000000000000000000FFFFFFFFFFFFFFFFFFFFFFFFFFFFFFFFFF00000000F9FF00000000000000000000000000000000000000000000000000FF00000000F9FD00000000000000000000000000000000000000000000000000FF00000000F9FF000000000000000000
310
00000000000000000000000000000000FF00000000F9FD00000000000000000000000000000000000000000000000000FF00000000F9FF00000000000000000000000000000000000000000000000000FF00000000F9FD00000000000000000000000000000000000000000000000000FF00000000F9FD0000000000000000
310
0000000000000000000000000000000000FF00000000F9FF00000000000000000000000000000000000000000000000000FF00000000F9FD00000000000000000000000000000000000000000000000000FF00000000F9FF00000000000000000000000000000000000000000000000000FF00000000F9FD00000000000000
310
000000000000000000000000000000000000FF00000000F9FF00000000000000000000000000000000000000000000000000FF00000000F9FFFFFFFFFFFFFFFFFFFFFFFFFFFFFFFFFFFFFFFFFFFFFFFFFFFFFF00000000F9FFFFFFF9F9F9F9F9F9F9F9F9F9F9F9F9F9F9F9F9F9F9F9F9F9F9F9000000000000000000000000
310
00000000000000000000000000000000000000000000000000000000000000000000000000000000000000000000000000000000000000000000000000000000000000000000000000000000000000000000000000000000000000000000000000000000000000000000000000000000000000000000000000000000000000
310
0000000000000000000000000000000000000000000000000000000000000000000000000000000000000000000000000000000000000000
102
{BLKREFS
331
47A40
102
}
1001
ACAD
1000
DesignCenter Data
1002
{
1070
     1
1070
     4
1002
}
  0
BLOCK_RECORD
  5
49195
330
1
100
AcDbSymbolTableRecord
100
AcDbBlockTableRecord
  2
*D3
340
0
  0
BLOCK_RECORD
  5
491A2
330
1
100
AcDbSymbolTableRecord
100
AcDbBlockTableRecord
  2
*D4
340
0
  0
BLOCK_RECORD
  5
491AE
330
1
100
AcDbSymbolTableRecord
100
AcDbBlockTableRecord
  2
*D5
340
0
  0
BLOCK_RECORD
  5
491BA
330
1
100
AcDbSymbolTableRecord
100
AcDbBlockTableRecord
  2
*D6
340
0
  0
BLOCK_RECORD
  5
491C6
330
1
100
AcDbSymbolTableRecord
100
AcDbBlockTableRecord
  2
*D7
340
0
  0
BLOCK_RECORD
  5
491D2
330
1
100
AcDbSymbolTableRecord
100
AcDbBlockTableRecord
  2
*D8
340
0
  0
BLOCK_RECORD
  5
491E9
330
1
100
AcDbSymbolTableRecord
100
AcDbBlockTableRecord
  2
*D9
340
0
  0
BLOCK_RECORD
  5
49207
330
1
100
AcDbSymbolTableRecord
100
AcDbBlockTableRecord
  2
*D10
340
0
  0
BLOCK_RECORD
  5
49214
330
1
100
AcDbSymbolTableRecord
100
AcDbBlockTableRecord
  2
*D11
340
0
  0
BLOCK_RECORD
  5
49F16
330
1
100
AcDbSymbolTableRecord
100
AcDbBlockTableRecord
  2
*D12
340
0
  0
BLOCK_RECORD
  5
49F2D
330
1
100
AcDbSymbolTableRecord
100
AcDbBlockTableRecord
  2
*D13
340
0
  0
BLOCK_RECORD
  5
49F3A
330
1
100
AcDbSymbolTableRecord
100
AcDbBlockTableRecord
  2
*D14
340
0
  0
BLOCK_RECORD
  5
49F46
330
1
100
AcDbSymbolTableRecord
100
AcDbBlockTableRecord
  2
*D15
340
0
  0
BLOCK_RECORD
  5
49F52
330
1
100
AcDbSymbolTableRecord
100
AcDbBlockTableRecord
  2
*D16
340
0
  0
BLOCK_RECORD
  5
49F5E
330
1
100
AcDbSymbolTableRecord
100
AcDbBlockTableRecord
  2
*D17
340
0
  0
ENDTAB
  0
ENDSEC
  0
SECTION
  2
BLOCKS
  0
BLOCK
  5
20
330
1F
100
AcDbEntity
  8
0
100
AcDbBlockBegin
  2
*MODEL_SPACE
 70
     0
 10
0.0
 20
0.0
 30
0.0
  3
*MODEL_SPACE
  1

  0
ENDBLK
  5
21
330
1F
100
AcDbEntity
  8
0
100
AcDbBlockEnd
  0
BLOCK
  5
1C
330
1B
100
AcDbEntity
 67
     1
  8
0
100
AcDbBlockBegin
  2
*PAPER_SPACE
 70
     0
 10
0.0
 20
0.0
 30
0.0
  3
*PAPER_SPACE
  1

  0
ENDBLK
  5
1D
330
1B
100
AcDbEntity
 67
     1
  8
0
100
AcDbBlockEnd
  0
BLOCK
  5
84E6
330
84E5
100
AcDbEntity
  8
ASHADE
370
     0
100
AcDbBlockBegin
  2
AVE_RENDER
 70
     0
 10
0.0
 20
0.0
 30
0.0
  3
AVE_RENDER
  1
AVE_RENDER
  0
ENDBLK
  5
84E7
330
84E5
100
AcDbEntity
  8
0
370
     0
100
AcDbBlockEnd
  0
BLOCK
  5
84E9
330
84E8
100
AcDbEntity
  8
ASHADE
370
     0
100
AcDbBlockBegin
  2
AVE_GLOBAL
 70
     0
 10
0.0
 20
0.0
 30
0.0
  3
AVE_GLOBAL
  1
AVE_GLOBAL
  0
ENDBLK
  5
84EA
330
84E8
100
AcDbEntity
  8
0
370
     0
100
AcDbBlockEnd
  0
BLOCK
  5
479BA
330
479B9
100
AcDbEntity
  8
0
100
AcDbBlockBegin
  2
A4
 70
     0
 10
0.0
 20
0.0
 30
0.0
  3
A4
  1

  0
LINE
  5
479BC
330
479B9
100
AcDbEntity
  8
图框
370
    -3
100
AcDbLine
 10
2413.59936316749
 20
519.3643597259731
 30
0.0
 11
2500.23415064262
 21
519.3643597259731
 31
0.0
1001
AcDbBlockRepETag
1070
     1
1071
       15
1005
479BC
  0
MTEXT
  5
479BD
330
479B9
100
AcDbEntity
  8
图框
 62
     1
370
    20
100
AcDbMText
 10
2556.818157112886
 20
502.8273005422668
 30
0.0
 40
5.398109226061976
 41
164.6166261128616
 71
     5
 72
     5
  1
{\fSimHei|b0|i0|c134|p2;厦门唯恩电气有限公司}
 73
     1
 44
1.0
1001
AcDbBlockRepETag
1070
     1
1071
       16
1005
479BD
  0
MTEXT
  5
479BE
330
479B9
100
AcDbEntity
  8
图框
 62
     3
370
    20
100
AcDbMText
 10
2557.162331154561
 20
494.3927167782184
 30
0.0
 40
3.304964832282834
 41
136.1711738738712
 71
     5
 72
     5
  1
{\fArial Narrow|b0|i0|c0|p34;XIAMEN WAIN ELECTRICAL CO.LTD}
  7
工程字
 73
     1
 44
1.0
1001
AcDbBlockRepETag
1070
     1
1071
       17
1005
479BE
  0
MTEXT
  5
479BF
330
479B9
100
AcDbEntity
  8
图框
 62
     1
370
    20
100
AcDbMText
 10
2511.71506203352
 20
501.9837419252617
 30
0.0
 40
4.011860088076668
 41
10.09448003866969
 71
     1
 72
     5
  1
{\fArial|b0|i0|c0|p34;A}
  7
Chinese
 73
     1
 44
1.0
1001
AcDbBlockRepETag
1070
     1
1071
       18
1005
479BF
  0
MTEXT
  5
479C0
330
479B9
100
AcDbEntity
  8
图框
 62
     1
370
    20
100
AcDbMText
 10
2516.718400106177
 20
501.9837419252617
 30
0.0
 40
4.011860088076668
 41
10.09448003866969
 71
     1
 72
     5
  1
{\fArial|b0|i0|c0|p34;I}
  7
Chinese
 73
     1
 44
1.0
1001
AcDbBlockRepETag
1070
     1
1071
       19
1005
479C0
  0
MTEXT
  5
479C1
330
479B9
100
AcDbEntity
  8
图框
 62
     1
370
    20
100
AcDbMText
 10
2518.576178680474
 20
501.959354591452
 30
0.0
 40
4.011860088076668
 41
10.09448003866969
 71
     1
 72
     5
  1
{\fArial|b0|i0|c0|p34;N}
  7
Chinese
 73
     1
 44
1.0
1001
AcDbBlockRepETag
1070
     1
1071
       20
1005
479C1
  0
MTEXT
  5
479C2
330
479B9
100
AcDbEntity
  8
图框
100
AcDbMText
 10
2478.575453773836
 20
495.728245184972
 30
0.0
 40
4.505696340289214
 41
43.31739373756652
 71
     5
 72
     5
  1
{\W0.5;\C1;All Dimensions in mm\POriginal Size DIN A 4}
  7
Romans字体
 73
     1
 44
1.0
1001
AcDbBlockRepETag
1070
     1
1071
       21
1005
479C2
1001
ACAD
1000
ACAD_MTEXT_DEFINED_HEIGHT_BEGIN
1070
    46
1040
15.72785067715859
1000
ACAD_MTEXT_DEFINED_HEIGHT_END
  0
MTEXT
  5
479C3
330
479B9
100
AcDbEntity
  8
图框
  6
ByBlock
 62
     6
370
    18
100
AcDbMText
 10
2595.100127080906
 20
537.3740884772853
 30
0.0
 40
5.303552325369808
 41
5.115827755854422
 71
     1
 72
     5
  1
A
  7
Romans字体
 11
0.0000000000000001
 21
1.0
 31
0.0
 73
     1
 44
1.0
1001
AcDbBlockRepETag
1070
     1
1071
       22
1005
479C3
  0
MTEXT
  5
479C4
330
479B9
100
AcDbEntity
  8
图框
 62
     6
100
AcDbMText
 10
2595.100127080906
 20
632.5440959726677
 30
0.0
 40
5.303552325369808
 41
5.115827755854422
 71
     1
 72
     5
  1
B
  7
Romans字体
 11
0.0000000000000001
 21
1.0
 31
0.0
 73
     1
 44
1.0
1001
AcDbBlockRepETag
1070
     1
1071
       23
1005
479C4
  0
MTEXT
  5
479C5
330
479B9
100
AcDbEntity
  8
图框
 62
     6
100
AcDbMText
 10
2595.100127080906
 20
734.9026558522901
 30
0.0
 40
5.303552325369808
 41
5.115827755854422
 71
     1
 72
     5
  1
C
  7
Romans字体
 11
0.0000000000000001
 21
1.0
 31
0.0
 73
     1
 44
1.0
1001
AcDbBlockRepETag
1070
     1
1071
       24
1005
479C5
  0
MTEXT
  5
479C6
330
479B9
100
AcDbEntity
  8
图框
 62
     6
100
AcDbMText
 10
2595.100127080906
 20
837.2612157319135
 30
0.0
 40
5.303552325369808
 41
5.115827755854422
 71
     1
 72
     5
  1
D
  7
Romans字体
 11
0.0000000000000001
 21
1.0
 31
0.0
 73
     1
 44
1.0
1001
AcDbBlockRepETag
1070
     1
1071
       25
1005
479C6
  0
LINE
  5
479C7
330
479B9
100
AcDbEntity
  8
图框
 62
     6
100
AcDbLine
 10
2601.114631797228
 20
787.939999485307
 30
0.0
 11
2594.148433455472
 21
787.939999485307
 31
0.0
1001
AcDbBlockRepETag
1070
     1
1071
       26
1005
479C7
  0
LINE
  5
479C8
330
479B9
100
AcDbEntity
  8
图框
 62
     6
100
AcDbLine
 10
2601.114631797228
 20
685.5814396056704
 30
0.0
 11
2594.148433455472
 21
685.5814396056704
 31
0.0
1001
AcDbBlockRepETag
1070
     1
1071
       27
1005
479C8
  0
MTEXT
  5
479C9
330
479B9
100
AcDbEntity
  8
图框
 62
     6
100
AcDbMText
 10
2550.950836311524
 20
487.0276899283231
 30
0.0
 40
5.303552325369808
 41
5.115827755854422
 71
     1
 72
     5
  1
6
  7
Romans字体
 73
     1
 44
1.0
1001
AcDbBlockRepETag
1070
     1
1071
       28
1005
479C9
  0
LINE
  5
479CA
330
479B9
100
AcDbEntity
  8
图框
 62
     6
100
AcDbLine
 10
2502.468558545313
 20
487.864319846393
 30
0.0
 11
2502.468558545313
 21
480.8643198463853
 31
0.0
1001
AcDbBlockRepETag
1070
     1
1071
       29
1005
479CA
  0
MTEXT
  5
479CB
330
479B9
100
AcDbEntity
  8
图框
 62
     6
100
AcDbMText
 10
2452.092620966628
 20
486.8348875440765
 30
0.0
 40
5.303552325369808
 41
5.115827755854422
 71
     1
 72
     5
  1
5
  7
Romans字体
 73
     1
 44
1.0
1001
AcDbBlockRepETag
1070
     1
1071
       30
1005
479CB
  0
LINE
  5
479CC
330
479B9
100
AcDbEntity
  8
图框
 62
     6
100
AcDbLine
 10
2403.398201107445
 20
487.864319846393
 30
0.0
 11
2403.398201107445
 21
480.8643198463853
 31
0.0
1001
AcDbBlockRepETag
1070
     1
1071
       31
1005
479CC
  0
MTEXT
  5
479CD
330
479B9
100
AcDbEntity
  8
图框
 62
     6
100
AcDbMText
 10
2353.05778938514
 20
486.9323729692697
 30
0.0
 40
5.303552325369808
 41
5.115827755854422
 71
     1
 72
     5
  1
4
  7
Romans字体
 73
     1
 44
1.0
1001
AcDbBlockRepETag
1070
     1
1071
       32
1005
479CD
  0
LINE
  5
479CE
330
479B9
100
AcDbEntity
  8
图框
 62
     6
100
AcDbLine
 10
2304.327843669523
 20
487.864319846393
 30
0.0
 11
2304.327843669523
 21
480.8643198463853
 31
0.0
1001
AcDbBlockRepETag
1070
     1
1071
       33
1005
479CE
  0
MTEXT
  5
479CF
330
479B9
100
AcDbEntity
  8
图框
 62
     6
100
AcDbMText
 10
2253.951906090817
 20
486.9927173856801
 30
0.0
 40
5.303552325369808
 41
5.115827755854422
 71
     1
 72
     5
  1
3
  7
Romans字体
 73
     1
 44
1.0
1001
AcDbBlockRepETag
1070
     1
1071
       34
1005
479CF
  0
LINE
  5
479D0
330
479B9
100
AcDbEntity
  8
图框
 62
     6
100
AcDbLine
 10
2205.257486231595
 20
487.864319846393
 30
0.0
 11
2205.257486231595
 21
480.8643198463853
 31
0.0
1001
AcDbBlockRepETag
1070
     1
1071
       35
1005
479D0
  0
MTEXT
  5
479D1
330
479B9
100
AcDbEntity
  8
图框
 62
     6
100
AcDbMText
 10
2152.341898200019
 20
487.0898313287217
 30
0.0
 40
5.303552325369808
 41
5.115827755854422
 71
     1
 72
     5
  1
2
  7
Romans字体
 73
     1
 44
1.0
1001
AcDbBlockRepETag
1070
     1
1071
       36
1005
479D1
  0
LINE
  5
479D2
330
479B9
100
AcDbEntity
  8
图框
 62
     6
100
AcDbLine
 10
2106.187128793675
 20
487.864319846393
 30
0.0
 11
2106.187128793675
 21
480.8643198463853
 31
0.0
1001
AcDbBlockRepETag
1070
     1
1071
       37
1005
479D2
  0
MTEXT
  5
479D3
330
479B9
100
AcDbEntity
  8
图框
 62
     6
100
AcDbMText
 10
2055.811191214985
 20
487.0984403155985
 30
0.0
 40
5.303552325369808
 41
5.115827755854422
 71
     1
 72
     5
  1
1
  7
Romans字体
 73
     1
 44
1.0
1001
AcDbBlockRepETag
1070
     1
1071
       38
1005
479D3
  0
LINE
  5
479D4
330
479B9
100
AcDbEntity
  8
图框
370
    50
100
AcDbLine
 10
2014.001070108865
 20
487.864319846393
 30
0.0
 11
2594.148433455472
 21
487.864319846393
 31
0.0
1001
AcDbBlockRepETag
1070
     1
1071
       39
1005
479D4
  0
LINE
  5
479D5
330
479B9
100
AcDbEntity
  8
图框
370
    50
100
AcDbLine
 10
2014.117131925818
 20
487.8305181881397
 30
0.0
 11
2014.117131925825
 21
869.8362203511749
 31
0.0
1001
AcDbBlockRepETag
1070
     1
1071
       40
1005
479D5
  0
MTEXT
  5
479D6
330
479B9
100
AcDbEntity
  8
图框
 62
     6
100
AcDbMText
 10
2007.986565392552
 20
837.2612157319135
 30
0.0
 40
5.303552325369808
 41
5.115827755854422
 71
     1
 72
     5
  1
D
  7
Romans字体
 11
0.0000000000000001
 21
1.0
 31
0.0
 73
     1
 44
1.0
1001
AcDbBlockRepETag
1070
     1
1071
       41
1005
479D6
  0
LINE
  5
479D7
330
479B9
100
AcDbEntity
  8
图框
 62
     6
100
AcDbLine
 10
2014.117131925823
 20
787.939999485307
 30
0.0
 11
2007.117131925818
 21
787.939999485307
 31
0.0
1001
AcDbBlockRepETag
1070
     1
1071
       42
1005
479D7
  0
MTEXT
  5
479D8
330
479B9
100
AcDbEntity
  8
图框
 62
     6
100
AcDbMText
 10
2008.099263730774
 20
734.9026558522901
 30
0.0
 40
5.303552325369808
 41
5.115827755854422
 71
     1
 72
     5
  1
C
  7
Romans字体
 11
0.0000000000000001
 21
1.0
 31
0.0
 73
     1
 44
1.0
1001
AcDbBlockRepETag
1070
     1
1071
       43
1005
479D8
  0
LINE
  5
479D9
330
479B9
100
AcDbEntity
  8
图框
 62
     6
100
AcDbLine
 10
2014.117131925821
 20
685.5814396056704
 30
0.0
 11
2007.117131925818
 21
685.5814396056704
 31
0.0
1001
AcDbBlockRepETag
1070
     1
1071
       44
1005
479D9
  0
MTEXT
  5
479DA
330
479B9
100
AcDbEntity
  8
图框
 62
     6
100
AcDbMText
 10
2008.099263730774
 20
632.5440959726677
 30
0.0
 40
5.303552325369808
 41
5.115827755854422
 71
     1
 72
     5
  1
B
  7
Romans字体
 11
0.0000000000000001
 21
1.0
 31
0.0
 73
     1
 44
1.0
1001
AcDbBlockRepETag
1070
     1
1071
       45
1005
479DA
  0
LINE
  5
479DB
330
479B9
100
AcDbEntity
  8
图框
 62
     6
100
AcDbLine
 10
2014.117131925819
 20
583.2228797260285
 30
0.0
 11
2007.117131925818
 21
583.2228797260285
 31
0.0
1001
AcDbBlockRepETag
1070
     1
1071
       46
1005
479DB
  0
MTEXT
  5
479DC
330
479B9
100
AcDbEntity
  8
图框
 62
     6
100
AcDbMText
 10
2008.099263730774
 20
537.3740884772853
 30
0.0
 40
5.303552325369808
 41
5.115827755854422
 71
     1
 72
     5
  1
A
  7
Romans字体
 11
0.0000000000000001
 21
1.0
 31
0.0
 73
     1
 44
1.0
1001
AcDbBlockRepETag
1070
     1
1071
       47
1005
479DC
  0
LINE
  5
479DD
330
479B9
100
AcDbEntity
  8
图框
370
    -3
100
AcDbLine
 10
2014.117131925825
 20
869.8362203511749
 30
0.0
 11
2014.117131925825
 21
888.7990583106031
 31
0.0
1001
AcDbBlockRepETag
1070
     1
1071
       48
1005
479DD
  0
LINE
  5
479DE
330
479B9
100
AcDbEntity
  8
图框
370
    -3
100
AcDbLine
 10
2025.538892529902
 20
870.8643198463933
 30
0.0
 11
2025.538892529902
 21
889.8271578058221
 31
0.0
1001
AcDbBlockRepETag
1070
     1
1071
       49
1005
479DE
  0
LINE
  5
479DF
330
479B9
100
AcDbEntity
  8
图框
370
    -3
100
AcDbLine
 10
2036.960653133983
 20
870.8643198463933
 30
0.0
 11
2036.960653133983
 21
889.8271578058221
 31
0.0
1001
AcDbBlockRepETag
1070
     1
1071
       50
1005
479DF
  0
LINE
  5
479E0
330
479B9
100
AcDbEntity
  8
图框
370
    -3
100
AcDbLine
 10
2048.382413738063
 20
870.8643198463933
 30
0.0
 11
2048.382413738063
 21
889.8271578058221
 31
0.0
1001
AcDbBlockRepETag
1070
     1
1071
       51
1005
479E0
  0
LINE
  5
479E1
330
479B9
100
AcDbEntity
  8
图框
370
    -3
100
AcDbLine
 10
2063.361803142582
 20
870.8643198463933
 30
0.0
 11
2063.361803142582
 21
893.3751729985869
 31
0.0
1001
AcDbBlockRepETag
1070
     1
1071
       52
1005
479E1
  0
MTEXT
  5
479E2
330
479B9
100
AcDbEntity
  8
图框
 62
     6
100
AcDbMText
 10
2550.950836311524
 20
877.5146194449884
 30
0.0
 40
5.303552325369808
 41
5.115827755854422
 71
     1
 72
     5
  1
6
  7
Romans字体
 73
     1
 44
1.0
1001
AcDbBlockRepETag
1070
     1
1071
       53
1005
479E2
  0
LINE
  5
479E3
330
479B9
100
AcDbEntity
  8
图框
 62
     6
100
AcDbLine
 10
2502.468558545313
 20
877.8643198463937
 30
0.0
 11
2502.468558545313
 21
870.8643198463933
 31
0.0
1001
AcDbBlockRepETag
1070
     1
1071
       54
1005
479E3
  0
MTEXT
  5
479E4
330
479B9
100
AcDbEntity
  8
图框
 62
     6
100
AcDbMText
 10
2452.092620966628
 20
877.5146194449884
 30
0.0
 40
5.303552325369808
 41
5.115827755854422
 71
     1
 72
     5
  1
5
  7
Romans字体
 73
     1
 44
1.0
1001
AcDbBlockRepETag
1070
     1
1071
       55
1005
479E4
  0
LINE
  5
479E5
330
479B9
100
AcDbEntity
  8
图框
 62
     6
100
AcDbLine
 10
2403.398201107445
 20
877.8643198463937
 30
0.0
 11
2403.398201107445
 21
870.8643198463933
 31
0.0
1001
AcDbBlockRepETag
1070
     1
1071
       56
1005
479E5
  0
MTEXT
  5
479E6
330
479B9
100
AcDbEntity
  8
图框
 62
     6
100
AcDbMText
 10
2353.022263528706
 20
877.2571980573198
 30
0.0
 40
5.303552325369808
 41
5.115827755854422
 71
     1
 72
     5
  1
4
  7
Romans字体
 73
     1
 44
1.0
1001
AcDbBlockRepETag
1070
     1
1071
       57
1005
479E6
  0
LINE
  5
479E7
330
479B9
100
AcDbEntity
  8
图框
 62
     6
100
AcDbLine
 10
2304.327843669523
 20
877.8643198463937
 30
0.0
 11
2304.327843669523
 21
870.8643198463933
 31
0.0
1001
AcDbBlockRepETag
1070
     1
1071
       58
1005
479E7
  0
MTEXT
  5
479E8
330
479B9
100
AcDbEntity
  8
图框
 62
     6
100
AcDbMText
 10
2253.951906090817
 20
877.5146194449884
 30
0.0
 40
5.303552325369808
 41
5.115827755854422
 71
     1
 72
     5
  1
3
  7
Romans字体
 73
     1
 44
1.0
1001
AcDbBlockRepETag
1070
     1
1071
       59
1005
479E8
  0
LINE
  5
479E9
330
479B9
100
AcDbEntity
  8
图框
 62
     6
100
AcDbLine
 10
2205.257486231595
 20
877.8643198463937
 30
0.0
 11
2205.257486231595
 21
870.8643198463933
 31
0.0
1001
AcDbBlockRepETag
1070
     1
1071
       60
1005
479E9
  0
MTEXT
  5
479EA
330
479B9
100
AcDbEntity
  8
图框
 62
     6
100
AcDbMText
 10
2154.88154865291
 20
877.5146194449884
 30
0.0
 40
5.303552325369808
 41
5.115827755854422
 71
     1
 72
     5
  1
2
  7
Romans字体
 73
     1
 44
1.0
1001
AcDbBlockRepETag
1070
     1
1071
       61
1005
479EA
  0
LINE
  5
479EB
330
479B9
100
AcDbEntity
  8
图框
 62
     6
100
AcDbLine
 10
2106.187128793675
 20
877.3872683524535
 30
0.0
 11
2106.187128793675
 21
870.8643198463933
 31
0.0
1001
AcDbBlockRepETag
1070
     1
1071
       62
1005
479EB
  0
MTEXT
  5
479EC
330
479B9
100
AcDbEntity
  8
图框
 62
     6
100
AcDbMText
 10
2065.548754163493
 20
877.5146194449884
 30
0.0
 40
5.303552325369808
 41
5.115827755854422
 71
     1
 72
     5
  1
1
  7
Romans字体
 73
     1
 44
1.0
1001
AcDbBlockRepETag
1070
     1
1071
       63
1005
479EC
  0
LINE
  5
479ED
330
479B9
100
AcDbEntity
  8
图框
370
    -3
100
AcDbLine
 10
2014.117131925825
 20
869.8362203511749
 30
0.0
 11
2014.117131925825
 21
893.3751729985869
 31
0.0
1001
AcDbBlockRepETag
1070
     1
1071
       64
1005
479ED
  0
LINE
  5
479EE
330
479B9
100
AcDbEntity
  8
图框
370
    50
100
AcDbLine
 10
2014.117131925825
 20
870.8643198463933
 30
0.0
 11
2594.148433455472
 21
870.8643198463933
 31
0.0
1001
AcDbBlockRepETag
1070
     1
1071
       65
1005
479EE
  0
LINE
  5
479EF
330
479B9
100
AcDbEntity
  8
图框
370
    -3
100
AcDbLine
 10
2025.538892529902
 20
870.8643198463933
 30
0.0
 11
2025.538892529902
 21
893.3751729985869
 31
0.0
1001
AcDbBlockRepETag
1070
     1
1071
       66
1005
479EF
  0
LINE
  5
479F0
330
479B9
100
AcDbEntity
  8
图框
370
    -3
100
AcDbLine
 10
2036.960653133983
 20
870.8643198463933
 30
0.0
 11
2036.960653133983
 21
893.3751729985869
 31
0.0
1001
AcDbBlockRepETag
1070
     1
1071
       67
1005
479F0
  0
MTEXT
  5
479F1
102
{ACAD_XDICTIONARY
360
4A3DC
102
}
330
479B9
100
AcDbEntity
  8
图框
100
AcDbMText
 10
2055.872108440323
 20
893.3751729985869
 30
0.0
 40
3.917996817642796
 41
22.51085315219344
 71
     4
 72
     5
  1
\pi5.6405;档案员{\H0.7x;\P\pi2.8317;\Fromans|c134;Filing Clerk\fFangSong_GB2312|b0|i0|c134|p49; }
 11
-0.0000000000000002
 21
-1.0
 31
0.0
 73
     1
 44
1.0
1001
AcDbBlockRepETag
1070
     1
1071
       68
1005
479F1
1001
ACAD
1000
ACAD_MTEXT_DEFINED_HEIGHT_BEGIN
1070
    46
1040
14.97938940451781
1000
ACAD_MTEXT_DEFINED_HEIGHT_END
  0
MTEXT
  5
479F2
102
{ACAD_XDICTIONARY
360
4A3DE
102
}
330
479B9
100
AcDbEntity
  8
图框
100
AcDbMText
 10
2031.249772831941
 20
893.3751729985869
 30
0.0
 40
3.917996817642796
 41
22.51085315219344
 71
     4
 72
     5
  1
\pi1.423;日期{\Fromans|c134;/Date}
 11
-0.0000000000000002
 21
-1.0
 31
0.0
 73
     1
 44
1.0
1001
AcDbBlockRepETag
1070
     1
1071
       69
1005
479F2
1001
ACAD
1000
ACAD_MTEXT_DEFINED_HEIGHT_BEGIN
1070
    46
1040
11.42176060407934
1000
ACAD_MTEXT_DEFINED_HEIGHT_END
  0
LINE
  5
479F3
330
479B9
100
AcDbEntity
  8
图框
370
    -3
100
AcDbLine
 10
2048.382413738063
 20
870.8643198463933
 30
0.0
 11
2048.382413738063
 21
893.3751729985869
 31
0.0
1001
AcDbBlockRepETag
1070
     1
1071
       70
1005
479F3
  0
LINE
  5
479F4
330
479B9
100
AcDbEntity
  8
图框
370
    -3
100
AcDbLine
 10
2413.59936316749
 20
582.4531165356732
 30
0.0
 11
2413.59936316749
 21
487.8199852767227
 31
0.0
1001
AcDbBlockRepETag
1070
     1
1071
       71
1005
479F4
  0
LINE
  5
479F5
330
479B9
100
AcDbEntity
  8
图框
370
    -3
100
AcDbLine
 10
2435.258060036272
 20
535.1365489283971
 30
0.0
 11
2435.258060036272
 21
503.5921705235521
 31
0.0
1001
AcDbBlockRepETag
1070
     1
1071
       72
1005
479F5
  0
LINE
  5
479F6
330
479B9
100
AcDbEntity
  8
图框
370
    -3
100
AcDbLine
 10
2456.916756905052
 20
535.1365489283971
 30
0.0
 11
2456.916756905052
 21
487.864319846393
 31
0.0
1001
AcDbBlockRepETag
1070
     1
1071
       73
1005
479F6
  0
LINE
  5
479F7
330
479B9
100
AcDbEntity
  8
图框
370
    25
100
AcDbLine
 10
2437.239698663658
 20
496.0139069920756
 30
0.0
 11
2450.184268811664
 21
496.0139069920756
 31
0.0
1001
AcDbBlockRepETag
1070
     1
1071
       74
1005
479F7
  0
LINE
  5
479F8
330
479B9
100
AcDbEntity
  8
图框
370
    25
100
AcDbLine
 10
2448.756482966724
 20
493.9471246946172
 30
0.0
 11
2438.604410063762
 21
492.7100360762905
 31
0.0
1001
AcDbBlockRepETag
1070
     1
1071
       75
1005
479F8
  0
LINE
  5
479F9
330
479B9
100
AcDbEntity
  8
图框
370
    25
100
AcDbLine
 10
2448.756482966724
 20
498.0806892895322
 30
0.0
 11
2438.604410063762
 21
499.3177779078595
 31
0.0
1001
AcDbBlockRepETag
1070
     1
1071
       76
1005
479F9
  0
LINE
  5
479FA
330
479B9
100
AcDbEntity
  8
图框
370
    25
100
AcDbLine
 10
2438.604410063762
 20
499.3177779078595
 30
0.0
 11
2438.604410063762
 21
492.7100360762905
 31
0.0
1001
AcDbBlockRepETag
1070
     1
1071
       77
1005
479FA
  0
LINE
  5
479FB
330
479B9
100
AcDbEntity
  8
图框
370
    25
100
AcDbLine
 10
2448.756482966724
 20
498.0806892895322
 30
0.0
 11
2448.756482966724
 21
493.9471246946172
 31
0.0
1001
AcDbBlockRepETag
1070
     1
1071
       78
1005
479FB
  0
CIRCLE
  5
479FC
330
479B9
100
AcDbEntity
  8
图框
370
    25
100
AcDbCircle
 10
2425.296829151904
 20
496.0139069920756
 30
0.0
 40
3.303870915783726
1001
AcDbBlockRepETag
1070
     1
1071
       79
1005
479FC
  0
CIRCLE
  5
479FD
330
479B9
100
AcDbEntity
  8
图框
370
    25
100
AcDbCircle
 10
2425.296829151904
 20
496.0139069920756
 30
0.0
 40
2.06678229745755
1001
AcDbBlockRepETag
1070
     1
1071
       80
1005
479FD
  0
LINE
  5
479FE
330
479B9
100
AcDbEntity
  8
图框
370
    25
100
AcDbLine
 10
2420.565172391178
 20
496.0139069920756
 30
0.0
 11
2430.028485912632
 21
496.0139069920756
 31
0.0
1001
AcDbBlockRepETag
1070
     1
1071
       81
1005
479FE
  0
LINE
  5
479FF
330
479B9
100
AcDbEntity
  8
图框
370
    25
100
AcDbLine
 10
2425.296829151904
 20
500.7455637528003
 30
0.0
 11
2425.296829151904
 21
491.2822502313483
 31
0.0
1001
AcDbBlockRepETag
1070
     1
1071
       82
1005
479FF
  0
LINE
  5
47A00
330
479B9
100
AcDbEntity
  8
图框
370
    -3
100
AcDbLine
 10
2478.575453773838
 20
535.1365489283971
 30
0.0
 11
2478.575453773838
 21
503.5921705235521
 31
0.0
1001
AcDbBlockRepETag
1070
     1
1071
       83
1005
47A00
  0
MTEXT
  5
47A01
330
479B9
100
AcDbEntity
  8
图框
100
AcDbMText
 10
2513.578900056624
 20
573.3961491886317
 30
0.0
 40
4.309796499407084
 41
26.68949882801146
 71
     5
 72
     5
  1
图号{\Ftxt|c134;\P\Fromans|c134;\W0.65;Drawing No.}
 73
     1
 44
1.0
1001
AcDbBlockRepETag
1070
     1
1071
       84
1005
47A01
1001
ACAD
1000
ACAD_MTEXT_DEFINED_HEIGHT_BEGIN
1070
    46
1040
18.11393469408355
1000
ACAD_MTEXT_DEFINED_HEIGHT_END
  0
LINE
  5
47A02
330
479B9
100
AcDbEntity
  8
图框
370
    -3
100
AcDbLine
 10
2526.92364947063
 20
582.4531165356732
 30
0.0
 11
2526.92364947063
 21
511.4782651247598
 31
0.0
1001
AcDbBlockRepETag
1070
     1
1071
       85
1005
47A02
  0
LINE
  5
47A03
330
479B9
100
AcDbEntity
  8
图框
370
    -3
100
AcDbLine
 10
2435.239367775708
 20
582.4531165356732
 30
0.0
 11
2435.239367775708
 21
535.1365489283971
 31
0.0
1001
AcDbBlockRepETag
1070
     1
1071
       86
1005
47A03
  0
MTEXT
  5
47A04
330
479B9
100
AcDbEntity
  8
图框
100
AcDbMText
 10
2467.746105339446
 20
527.250454327185
 30
0.0
 40
4.505696340289214
 41
21.65869686878416
 71
     5
 72
     5
  1
重量\P{\Fromans|c134;Weight}
 73
     1
 44
1.0
1001
AcDbBlockRepETag
1070
     1
1071
       87
1005
47A04
1001
ACAD
1000
ACAD_MTEXT_DEFINED_HEIGHT_BEGIN
1070
    46
1040
15.77218920242425
1000
ACAD_MTEXT_DEFINED_HEIGHT_END
  0
LINE
  5
47A05
330
479B9
100
AcDbEntity
  8
图框
370
    -3
100
AcDbLine
 10
2413.59936316749
 20
558.7948327320398
 30
0.0
 11
2500.23415064262
 21
558.7948327320398
 31
0.0
1001
AcDbBlockRepETag
1070
     1
1071
       88
1005
47A05
  0
MTEXT
  5
47A06
330
479B9
100
AcDbEntity
  8
图框
100
AcDbMText
 10
2489.404802208227
 20
527.250454327185
 30
0.0
 40
4.505696340289214
 41
21.65869686877968
 71
     5
 72
     5
  1
数量\P{\Fromans|c134;Qty.}
 73
     1
 44
1.0
1001
AcDbBlockRepETag
1070
     1
1071
       89
1005
47A06
1001
ACAD
1000
ACAD_MTEXT_DEFINED_HEIGHT_BEGIN
1070
    46
1040
15.77218920242428
1000
ACAD_MTEXT_DEFINED_HEIGHT_END
  0
LINE
  5
47A07
330
479B9
100
AcDbEntity
  8
图框
370
    -3
100
AcDbLine
 10
2500.23415064262
 20
511.4782651247598
 30
0.0
 11
2594.148433455472
 21
511.4782651247588
 31
0.0
1001
AcDbBlockRepETag
1070
     1
1071
       90
1005
47A07
  0
LINE
  5
47A08
330
479B9
100
AcDbEntity
  8
图框
370
    -3
100
AcDbLine
 10
2500.23415064262
 20
529.2213797342854
 30
0.0
 11
2594.148433455472
 21
529.2213797342854
 31
0.0
1001
AcDbBlockRepETag
1070
     1
1071
       91
1005
47A08
  0
MTEXT
  5
47A09
330
479B9
100
AcDbEntity
  8
图框
100
AcDbMText
 10
2446.078062340379
 20
527.250454327185
 30
0.0
 40
4.505696340289214
 41
21.67738912934278
 71
     5
 72
     5
  1
版本\P{\Fromans|c134;REV.}
 73
     1
 44
1.0
1001
AcDbBlockRepETag
1070
     1
1071
       92
1005
47A09
1001
ACAD
1000
ACAD_MTEXT_DEFINED_HEIGHT_BEGIN
1070
    46
1040
15.7721892024242
1000
ACAD_MTEXT_DEFINED_HEIGHT_END
  0
MTEXT
  5
47A0A
330
479B9
100
AcDbEntity
  8
图框
100
AcDbMText
 10
2424.428711601883
 20
527.250454327185
 30
0.0
 40
4.505696340289214
 41
21.6586968687816
 71
     5
 72
     5
  1
比例\P{\Fromans|c134;Scale}
 73
     1
 44
1.0
1001
AcDbBlockRepETag
1070
     1
1071
       93
1005
47A0A
1001
ACAD
1000
ACAD_MTEXT_DEFINED_HEIGHT_BEGIN
1070
    46
1040
15.77218920242427
1000
ACAD_MTEXT_DEFINED_HEIGHT_END
  0
LINE
  5
47A0B
330
479B9
100
AcDbEntity
  8
图框
370
    -3
100
AcDbLine
 10
2413.59936316749
 20
535.1365489283971
 30
0.0
 11
2500.23415064262
 21
535.1365489283971
 31
0.0
1001
AcDbBlockRepETag
1070
     1
1071
       94
1005
47A0B
  0
LINE
  5
47A0C
330
479B9
100
AcDbEntity
  8
图框
370
    -3
100
AcDbLine
 10
2413.59936316749
 20
503.5921705235521
 30
0.0
 11
2500.23415064262
 21
503.5921705235521
 31
0.0
1001
AcDbBlockRepETag
1070
     1
1071
       95
1005
47A0C
  0
LINE
  5
47A0D
330
479B9
100
AcDbEntity
  8
图框
370
    -3
100
AcDbLine
 10
2500.23415064262
 20
582.4531165356732
 30
0.0
 11
2500.23415064262
 21
487.819981321124
 31
0.0
1001
AcDbBlockRepETag
1070
     1
1071
       96
1005
47A0D
  0
MTEXT
  5
47A0E
330
479B9
100
AcDbEntity
  8
图框
100
AcDbMText
 10
2424.419365471598
 20
570.6239746338567
 30
0.0
 40
4.505696340289214
 41
21.64000460821866
 71
     5
 72
     5
  1
表面处理\P{\Fromans|c134;Finish}
 73
     1
 44
1.0
1001
AcDbBlockRepETag
1070
     1
1071
       97
1005
47A0E
1001
ACAD
1000
ACAD_MTEXT_DEFINED_HEIGHT_BEGIN
1070
    46
1040
23.65828380363416
1000
ACAD_MTEXT_DEFINED_HEIGHT_END
  0
MTEXT
  5
47A0F
330
479B9
100
AcDbEntity
  8
图框
100
AcDbMText
 10
2424.419365471598
 20
546.9656908302182
 30
0.0
 40
4.505696340289214
 41
21.64000460821866
 71
     5
 72
     5
  1
材料\P{\Fromans|c134;Material}
 73
     1
 44
1.0
1001
AcDbBlockRepETag
1070
     1
1071
       98
1005
47A0F
1001
ACAD
1000
ACAD_MTEXT_DEFINED_HEIGHT_BEGIN
1070
    46
1040
23.6582838036424
1000
ACAD_MTEXT_DEFINED_HEIGHT_END
  0
LINE
  5
47A10
330
479B9
100
AcDbEntity
  8
图框
370
    -3
100
AcDbLine
 10
2500.23415064262
 20
564.3391818415905
 30
0.0
 11
2594.148433455472
 21
564.3391818415905
 31
0.0
1001
AcDbBlockRepETag
1070
     1
1071
       99
1005
47A10
  0
LINE
  5
47A11
330
479B9
100
AcDbEntity
  8
图框
370
    -3
100
AcDbLine
 10
2500.23415064262
 20
546.9656908302188
 30
0.0
 11
2594.148433455472
 21
546.9656908302182
 31
0.0
1001
AcDbBlockRepETag
1070
     1
1071
      100
1005
47A11
  0
MTEXT
  5
47A12
330
479B9
100
AcDbEntity
  8
图框
100
AcDbMText
 10
2513.578900056624
 20
555.6524363359049
 30
0.0
 40
3.917996817642796
 41
26.68949882801146
 71
     5
 72
     5
  1
产品代号\P{\Fromans|c134;Part Code}
 73
     1
 44
1.0
1001
AcDbBlockRepETag
1070
     1
1071
      101
1005
47A12
1001
ACAD
1000
ACAD_MTEXT_DEFINED_HEIGHT_BEGIN
1070
    46
1040
17.37349101137162
1000
ACAD_MTEXT_DEFINED_HEIGHT_END
  0
LINE
  5
47A13
330
479B9
100
AcDbEntity
  8
图框
370
    -3
100
AcDbLine
 10
2234.148433455473
 20
571.3912341123728
 30
0.0
 11
2413.59936316749
 21
571.3912341123728
 31
0.0
1001
AcDbBlockRepETag
1070
     1
1071
      102
1005
47A13
  0
LINE
  5
47A14
330
479B9
100
AcDbEntity
  8
图框
370
    -3
100
AcDbLine
 10
2234.148433455473
 20
560.3293516890824
 30
0.0
 11
2413.59936316749
 21
560.3293516890824
 31
0.0
1001
AcDbBlockRepETag
1070
     1
1071
      103
1005
47A14
  0
LINE
  5
47A15
330
479B9
100
AcDbEntity
  8
图框
370
    35
100
AcDbLine
 10
2234.148433455473
 20
582.4531165356732
 30
0.0
 11
2594.148433455472
 21
582.4531165356732
 31
0.0
1001
AcDbBlockRepETag
1070
     1
1071
      104
1005
47A15
  0
LINE
  5
47A16
330
479B9
100
AcDbEntity
  8
图框
370
    -3
100
AcDbLine
 10
2321.636950806131
 20
538.2055868424821
 30
0.0
 11
2321.636950806131
 21
487.864319846393
 31
0.0
1001
AcDbBlockRepETag
1070
     1
1071
      105
1005
47A16
  0
MTEXT
  5
47A17
102
{ACAD_XDICTIONARY
360
4A3E0
102
}
330
479B9
100
AcDbEntity
  8
图框
100
AcDbMText
 10
2334.617062164992
 20
519.4279612835344
 30
0.0
 40
4.505696340289214
 41
25.96022271772104
 71
     5
 72
     5
  1
{\fFangSong_GB2312|b0|i0|c134|p49;标准化}\PStand.
  7
Romans字体
 73
     1
 44
1.0
1001
AcDbBlockRepETag
1070
     1
1071
      106
1005
47A17
1001
ACAD
1000
ACAD_MTEXT_DEFINED_HEIGHT_BEGIN
1070
    46
1040
12.3846176198495
1000
ACAD_MTEXT_DEFINED_HEIGHT_END
  0
LINE
  5
47A18
330
479B9
100
AcDbEntity
  8
图框
370
    -3
100
AcDbLine
 10
2291.11218299635
 20
538.2055868424821
 30
0.0
 11
2291.11218299635
 21
487.864319846393
 31
0.0
1001
AcDbBlockRepETag
1070
     1
1071
      107
1005
47A18
  0
MTEXT
  5
47A19
330
479B9
100
AcDbEntity
  8
图框
100
AcDbMText
 10
2309.309274195159
 20
543.7365280541306
 30
0.0
 40
4.897496022053504
 41
76.575798657386
 71
     5
 72
     5
  1
  变更描述{\Fromans|c134;/Description}
 73
     1
 44
1.0
1001
AcDbBlockRepETag
1070
     1
1071
      108
1005
47A19
1001
ACAD
1000
ACAD_MTEXT_DEFINED_HEIGHT_BEGIN
1070
    46
1040
11.06188242329766
1000
ACAD_MTEXT_DEFINED_HEIGHT_END
  0
MTEXT
  5
47A1A
102
{ACAD_XDICTIONARY
360
4A3E2
102
}
330
479B9
100
AcDbEntity
  8
图框
100
AcDbMText
 10
2365.2236003332
 20
543.7365280541306
 30
0.0
 40
3.917996817642796
 41
35.2528536186938
 71
     5
 72
     5
  1
签名\P{\Fromans|c134;Signature} 
 73
     1
 44
1.0
1001
AcDbBlockRepETag
1070
     1
1071
      109
1005
47A1A
1001
ACAD
1000
ACAD_MTEXT_DEFINED_HEIGHT_BEGIN
1070
    46
1040
11.06188242329765
1000
ACAD_MTEXT_DEFINED_HEIGHT_END
  0
MTEXT
  5
47A1B
102
{ACAD_XDICTIONARY
360
4A3E4
102
}
330
479B9
100
AcDbEntity
  8
图框
100
AcDbMText
 10
2261.803139513717
 20
543.7365280541306
 30
0.0
 40
3.917996817642796
 41
18.43647070549857
 71
     5
 72
     5
  1
处数\P{\Fromans|c134;Number }
 73
     1
 44
1.0
1001
AcDbBlockRepETag
1070
     1
1071
      110
1005
47A1B
1001
ACAD
1000
ACAD_MTEXT_DEFINED_HEIGHT_BEGIN
1070
    46
1040
11.06188242329768
1000
ACAD_MTEXT_DEFINED_HEIGHT_END
  0
LINE
  5
47A1C
330
479B9
100
AcDbEntity
  8
图框
370
    -3
100
AcDbLine
 10
2234.148433455473
 20
549.2674692657804
 30
0.0
 11
2413.59936316749
 21
549.2674692657804
 31
0.0
1001
AcDbBlockRepETag
1070
     1
1071
      111
1005
47A1C
  0
LINE
  5
47A1D
330
479B9
100
AcDbEntity
  8
图框
370
    -3
100
AcDbLine
 10
2234.148433455473
 20
538.2055868424821
 30
0.0
 11
2413.59936316749
 21
538.2055868424821
 31
0.0
1001
AcDbBlockRepETag
1070
     1
1071
      112
1005
47A1D
  0
LINE
  5
47A1E
330
479B9
100
AcDbEntity
  8
图框
370
    -3
100
AcDbLine
 10
2234.148433455473
 20
525.6202700934601
 30
0.0
 11
2413.59936316749
 21
525.6202700934601
 31
0.0
1001
AcDbBlockRepETag
1070
     1
1071
      113
1005
47A1E
  0
LINE
  5
47A1F
330
479B9
100
AcDbEntity
  8
图框
370
    -3
100
AcDbLine
 10
2234.148433455473
 20
513.0349533444363
 30
0.0
 11
2413.59936316749
 21
513.0349533444363
 31
0.0
1001
AcDbBlockRepETag
1070
     1
1071
      114
1005
47A1F
  0
LINE
  5
47A20
330
479B9
100
AcDbEntity
  8
图框
370
    35
380
     1
100
AcDbLine
 10
2234.148433455473
 20
582.4531165356732
 30
0.0
 11
2234.148433455473
 21
487.864319846393
 31
0.0
1001
AcDbBlockRepETag
1070
     1
1071
      115
1005
47A20
  0
LINE
  5
47A21
330
479B9
100
AcDbEntity
  8
图框
370
    -3
100
AcDbLine
 10
2382.894701861544
 20
582.4531165356732
 30
0.0
 11
2382.894701861544
 21
487.864319846393
 31
0.0
1001
AcDbBlockRepETag
1070
     1
1071
      116
1005
47A21
  0
LINE
  5
47A22
330
479B9
100
AcDbEntity
  8
图框
370
    -3
100
AcDbLine
 10
2347.597173523852
 20
582.4531165356732
 30
0.0
 11
2347.597173523852
 21
487.864319846393
 31
0.0
1001
AcDbBlockRepETag
1070
     1
1071
      117
1005
47A22
  0
LINE
  5
47A23
330
479B9
100
AcDbEntity
  8
图框
370
    -3
100
AcDbLine
 10
2271.021374866466
 20
582.4531165356732
 30
0.0
 11
2271.021374866466
 21
538.2055868424821
 31
0.0
1001
AcDbBlockRepETag
1070
     1
1071
      118
1005
47A23
  0
LINE
  5
47A24
330
479B9
100
AcDbEntity
  8
图框
370
    -3
100
AcDbLine
 10
2252.584904160968
 20
582.4531165356732
 30
0.0
 11
2252.584904160968
 21
538.2055868424821
 31
0.0
1001
AcDbBlockRepETag
1070
     1
1071
      119
1005
47A24
  0
MTEXT
  5
47A25
102
{ACAD_XDICTIONARY
360
4A3E6
102
}
330
479B9
100
AcDbEntity
  8
图框
100
AcDbMText
 10
2243.36666880822
 20
543.7365280541306
 30
0.0
 40
3.917996817642796
 41
18.43647070549538
 71
     5
 72
     5
  1
标记\P{\Fromans|c134;Mark}
 73
     1
 44
1.0
1001
AcDbBlockRepETag
1070
     1
1071
      120
1005
47A25
1001
ACAD
1000
ACAD_MTEXT_DEFINED_HEIGHT_BEGIN
1070
    46
1040
11.06188242329766
1000
ACAD_MTEXT_DEFINED_HEIGHT_END
  0
MTEXT
  5
47A26
102
{ACAD_XDICTIONARY
360
4A3E8
102
}
330
479B9
100
AcDbEntity
  8
图框
100
AcDbMText
 10
2247.128544814333
 20
506.7422949699268
 30
0.0
 40
4.505696340289214
 41
25.96022271772082
 71
     5
 72
     5
  1
审核\P{\Fromans|c134;Checked}
 73
     1
 44
1.0
1001
AcDbBlockRepETag
1070
     1
1071
      121
1005
47A26
1001
ACAD
1000
ACAD_MTEXT_DEFINED_HEIGHT_BEGIN
1070
    46
1040
12.58531674902076
1000
ACAD_MTEXT_DEFINED_HEIGHT_END
  0
MTEXT
  5
47A27
102
{ACAD_XDICTIONARY
360
4A3EA
102
}
330
479B9
100
AcDbEntity
  8
图框
100
AcDbMText
 10
2247.128544814333
 20
519.5499084014458
 30
0.0
 40
4.505696340289214
 41
25.96022271772082
 71
     5
 72
     5
  1
绘图\P{\Fromans|c134;Drawn\Ftxt|c134; }
 73
     1
 44
1.0
1001
AcDbBlockRepETag
1070
     1
1071
      122
1005
47A27
1001
ACAD
1000
ACAD_MTEXT_DEFINED_HEIGHT_BEGIN
1070
    46
1040
12.14072338402838
1000
ACAD_MTEXT_DEFINED_HEIGHT_END
  0
ARC
  5
47A28
330
479B9
100
AcDbEntity
  8
图框
 62
     4
370
    35
100
AcDbCircle
 10
2514.092682269588
 20
499.8307701563293
 30
0.0
 40
8.12662081678733
100
AcDbArc
 50
18.95237904564859
 51
161.0476209543514
1001
AcDbBlockRepETag
1070
     1
1071
      123
1005
47A28
  0
ARC
  5
47A29
330
479B9
100
AcDbEntity
  8
图框
 62
     4
370
    35
100
AcDbCircle
 10
2514.092682269588
 20
499.8307701563293
 30
0.0
 40
8.12662081678733
100
AcDbArc
 50
198.9523790456486
 51
341.0476209543514
1001
AcDbBlockRepETag
1070
     1
1071
      124
1005
47A29
  0
LINE
  5
47A2A
330
479B9
100
AcDbEntity
  8
图框
 62
     4
370
    35
100
AcDbLine
 10
2506.406614973842
 20
497.1913885194409
 30
0.0
 11
2521.778749565326
 21
497.1913885194409
 31
0.0
1001
AcDbBlockRepETag
1070
     1
1071
      125
1005
47A2A
  0
LINE
  5
47A2B
330
479B9
100
AcDbEntity
  8
图框
 62
     4
370
    35
100
AcDbLine
 10
2506.406614973842
 20
502.4701517932206
 30
0.0
 11
2521.778749565326
 21
502.4701517932206
 31
0.0
1001
AcDbBlockRepETag
1070
     1
1071
      126
1005
47A2B
  0
MTEXT
  5
47A2C
330
479B9
100
AcDbEntity
  8
图框
 62
     1
370
    20
100
AcDbMText
 10
2506.360593994084
 20
501.896038942428
 30
0.0
 40
4.011860088076668
 41
10.09448003866969
 71
     1
 72
     5
  1
{\fArial|b0|i0|c0|p34;W}
  7
Chinese
 73
     1
 44
1.0
1001
AcDbBlockRepETag
1070
     1
1071
      127
1005
47A2C
  0
LINE
  5
47A2D
330
479B9
100
AcDbEntity
  8
图框
370
    -3
100
AcDbLine
 10
2234.148433455473
 20
500.4496365954165
 30
0.0
 11
2413.59936316749
 21
500.4496365954165
 31
0.0
1001
AcDbBlockRepETag
1070
     1
1071
      128
1005
47A2D
  0
LINE
  5
47A2E
330
479B9
100
AcDbEntity
  8
图框
370
    -3
100
AcDbLine
 10
2260.108656173193
 20
538.2055868424821
 30
0.0
 11
2260.108656173193
 21
487.864319846393
 31
0.0
1001
AcDbBlockRepETag
1070
     1
1071
      129
1005
47A2E
  0
MTEXT
  5
47A2F
330
479B9
100
AcDbEntity
  8
图框
100
AcDbMText
 10
2275.610419584772
 20
531.9129284679711
 30
0.0
 40
4.505696340289214
 41
31.00352682315738
 71
     5
 72
     5
  1
姓名{\Fromans|c134;/Name\Ftxt|c134; }
 73
     1
 44
1.0
1001
AcDbBlockRepETag
1070
     1
1071
      130
1005
47A2F
1001
ACAD
1000
ACAD_MTEXT_DEFINED_HEIGHT_BEGIN
1070
    46
1040
12.58531674902249
1000
ACAD_MTEXT_DEFINED_HEIGHT_END
  0
MTEXT
  5
47A30
330
479B9
100
AcDbEntity
  8
图框
100
AcDbMText
 10
2306.374566901241
 20
531.9129284679711
 30
0.0
 40
4.505696340289214
 41
30.52476780978084
 71
     5
 72
     5
  1
日期{\Fromans|c134;/Date}
 73
     1
 44
1.0
1001
AcDbBlockRepETag
1070
     1
1071
      131
1005
47A30
1001
ACAD
1000
ACAD_MTEXT_DEFINED_HEIGHT_BEGIN
1070
    46
1040
12.5853167490224
1000
ACAD_MTEXT_DEFINED_HEIGHT_END
  0
LINE
  5
47A31
330
479B9
100
AcDbEntity
  8
图框
370
    -3
100
AcDbLine
 10
2234.148433455473
 20
538.2055868424821
 30
0.0
 11
2260.108656173193
 21
525.6202700934601
 31
0.0
1001
AcDbBlockRepETag
1070
     1
1071
      132
1005
47A31
  0
MTEXT
  5
47A32
330
479B9
100
AcDbEntity
  8
图框
100
AcDbMText
 10
2366.154238454918
 20
531.8319244942354
 30
0.0
 40
4.505696340289214
 41
33.86984442127132
 71
     5
 72
     5
  1
姓名{\Fromans|c134;/Name}
 73
     1
 44
1.0
1001
AcDbBlockRepETag
1070
     1
1071
      133
1005
47A32
  0
MTEXT
  5
47A33
330
479B9
100
AcDbEntity
  8
图框
100
AcDbMText
 10
2398.247032514518
 20
531.9129284679711
 30
0.0
 40
4.505696340289214
 41
30.70466130594566
 71
     5
 72
     5
  1
日期{\Fromans|c134;/Date}
 73
     1
 44
1.0
1001
AcDbBlockRepETag
1070
     1
1071
      134
1005
47A33
1001
ACAD
1000
ACAD_MTEXT_DEFINED_HEIGHT_BEGIN
1070
    46
1040
12.58531674902251
1000
ACAD_MTEXT_DEFINED_HEIGHT_END
  0
LINE
  5
47A34
330
479B9
100
AcDbEntity
  8
图框
370
    -3
100
AcDbLine
 10
2347.597173523852
 20
525.6202700934601
 30
0.0
 11
2321.636950806131
 21
538.2055868424821
 31
0.0
1001
AcDbBlockRepETag
1070
     1
1071
      135
1005
47A34
  0
MTEXT
  5
47A35
102
{ACAD_XDICTIONARY
360
4A3EC
102
}
330
479B9
100
AcDbEntity
  8
图框
100
AcDbMText
 10
2334.617062164992
 20
494.1569782209047
 30
0.0
 40
4.505696340289214
 41
25.96022271772104
 71
     5
 72
     5
  1
批准\P{\Fromans|c134;Approved}
 73
     1
 44
1.0
1001
AcDbBlockRepETag
1070
     1
1071
      136
1005
47A35
1001
ACAD
1000
ACAD_MTEXT_DEFINED_HEIGHT_BEGIN
1070
    46
1040
12.58531674902303
1000
ACAD_MTEXT_DEFINED_HEIGHT_END
  0
MTEXT
  5
47A36
102
{ACAD_XDICTIONARY
360
4A3EE
102
}
330
479B9
100
AcDbEntity
  8
图框
100
AcDbMText
 10
2247.128544814333
 20
494.1569782209047
 30
0.0
 40
4.505696340289214
 41
25.96022271772082
 71
     5
 72
     5
  1
工艺\P{\Fromans|c134;Process}
 73
     1
 44
1.0
1001
AcDbBlockRepETag
1070
     1
1071
      137
1005
47A36
1001
ACAD
1000
ACAD_MTEXT_DEFINED_HEIGHT_BEGIN
1070
    46
1040
12.58531674902299
1000
ACAD_MTEXT_DEFINED_HEIGHT_END
  0
MTEXT
  5
47A37
102
{ACAD_XDICTIONARY
360
4A3F0
102
}
330
479B9
100
AcDbEntity
  8
图框
100
AcDbMText
 10
2398.247032514518
 20
543.4523743876232
 30
0.0
 40
3.917996817642796
 41
30.70466130594561
 71
     5
 72
     5
  1
日期\P{\Fromans|c134;Date}
 73
     1
 44
1.0
1001
AcDbBlockRepETag
1070
     1
1071
      138
1005
47A37
1001
ACAD
1000
ACAD_MTEXT_DEFINED_HEIGHT_BEGIN
1070
    46
1040
10.49357509028133
1000
ACAD_MTEXT_DEFINED_HEIGHT_END
  0
MTEXT
  5
47A38
330
479B9
100
AcDbEntity
  8
图框
100
AcDbMText
 10
2513.578900056624
 20
538.0935352822523
 30
0.0
 40
4.309796499407084
 41
26.68949882801146
 71
     5
 72
     5
  1
产品料号\P{\Fromans|c134;Part No.}
 73
     1
 44
1.0
1001
AcDbBlockRepETag
1070
     1
1071
      139
1005
47A38
1001
ACAD
1000
ACAD_MTEXT_DEFINED_HEIGHT_BEGIN
1070
    46
1040
17.7443110959323
1000
ACAD_MTEXT_DEFINED_HEIGHT_END
  0
MTEXT
  5
47A39
330
479B9
100
AcDbEntity
  8
图框
100
AcDbMText
 10
2513.578900056624
 20
520.3498224295231
 30
0.0
 40
3.917996817642796
 41
26.68949882801146
 71
     5
 72
     5
  1
产品名称\P{\Fromans|c134;Part Name}
 73
     1
 44
1.0
1001
AcDbBlockRepETag
1070
     1
1071
      140
1005
47A39
1001
ACAD
1000
ACAD_MTEXT_DEFINED_HEIGHT_BEGIN
1070
    46
1040
17.74311460952664
1000
ACAD_MTEXT_DEFINED_HEIGHT_END
  0
LINE
  5
47A3A
330
479B9
100
AcDbEntity
  8
图框
 62
     1
370
    18
100
AcDbLine
 10
2007.117131925818
 20
900.8643198463936
 30
0.0
 11
2007.117131925818
 21
480.8643198463935
 31
0.0
1001
AcDbBlockRepETag
1070
     1
1071
      141
1005
47A3A
  0
LINE
  5
47A3B
330
479B9
100
AcDbEntity
  8
图框
 62
     1
370
    18
100
AcDbLine
 10
2007.117131925818
 20
480.8643198463935
 30
0.0
 11
2601.114631797218
 21
480.8643198463935
 31
0.0
1001
AcDbBlockRepETag
1070
     1
1071
      142
1005
47A3B
  0
LINE
  5
47A3C
330
479B9
100
AcDbEntity
  8
图框
 62
     1
370
    18
100
AcDbLine
 10
2007.117131925818
 20
900.8643198463936
 30
0.0
 11
2601.114631797218
 21
900.8643198463936
 31
0.0
1001
AcDbBlockRepETag
1070
     1
1071
      143
1005
47A3C
  0
LINE
  5
47A3D
330
479B9
100
AcDbEntity
  8
图框
 62
     1
370
    18
100
AcDbLine
 10
2601.114631797218
 20
480.8643198463935
 30
0.0
 11
2601.114631797218
 21
900.8643198463936
 31
0.0
1001
AcDbBlockRepETag
1070
     1
1071
      144
1005
47A3D
  0
LINE
  5
47A3E
330
479B9
100
AcDbEntity
  8
图框
370
    18
100
AcDbLine
 10
2014.117131925825
 20
893.3751729985869
 30
0.0
 11
2063.361803142582
 21
893.3751729985869
 31
0.0
1001
AcDbBlockRepETag
1070
     1
1071
      145
1005
47A3E
  0
LINE
  5
47A3F
330
479B9
100
AcDbEntity
  8
图框
370
    50
100
AcDbLine
 10
2594.148433455472
 20
488.476792264706
 30
0.0
 11
2594.148433455472
 21
870.8643198463933
 31
0.0
1001
AcDbBlockRepETag
1070
     1
1071
      146
1005
47A3F
  0
ENDBLK
  5
479BB
330
479B9
100
AcDbEntity
  8
0
100
AcDbBlockEnd
  0
BLOCK
  5
49196
330
49195
100
AcDbEntity
  8
0
100
AcDbBlockBegin
  2
*D3
 70
     1
 10
0.0
 20
0.0
 30
0.0
  3
*D3
  1

  0
LINE
  5
499D5
330
49195
100
AcDbEntity
  8
Dim
 62
     6
370
    -2
100
AcDbLine
 10
2308.109093273277
 20
696.4358272304743
 30
0.0
 11
2308.109093273277
 21
703.5547421718631
 31
0.0
  0
LINE
  5
499D6
330
49195
100
AcDbEntity
  8
Dim
 62
     6
370
    -2
100
AcDbLine
 10
2311.109093273278
 20
695.8358272304739
 30
0.0
 11
2311.109093273278
 21
703.5547421718631
 31
0.0
  0
LINE
  5
499D7
330
49195
100
AcDbEntity
  8
Dim
 62
     1
370
    -2
100
AcDbLine
 10
2309.234093273277
 20
703.2547421718632
 30
0.0
 11
2309.984093273278
 21
703.2547421718632
 31
0.0
  0
LINE
  5
499D8
330
49195
100
AcDbEntity
  8
Dim
 62
     1
370
    -2
100
AcDbLine
 10
2311.109093273278
 20
703.2547421718632
 30
0.0
 11
2313.250316246251
 21
703.2547421718632
 31
0.0
  0
SOLID
  5
499D9
330
49195
100
AcDbEntity
  8
Dim
 62
     1
100
AcDbTrace
 10
2309.234093273277
 20
703.4422421718629
 30
0.0
 11
2309.234093273277
 21
703.0672421718632
 31
0.0
 12
2308.109093273277
 22
703.2547421718632
 32
0.0
 13
2308.109093273277
 23
703.2547421718632
 33
0.0
  0
SOLID
  5
499DA
330
49195
100
AcDbEntity
  8
Dim
 62
     1
100
AcDbTrace
 10
2309.984093273278
 20
703.4422421718629
 30
0.0
 11
2309.984093273278
 21
703.0672421718632
 31
0.0
 12
2311.109093273278
 22
703.2547421718632
 32
0.0
 13
2311.109093273278
 23
703.2547421718632
 33
0.0
  0
MTEXT
  5
499DB
330
49195
100
AcDbEntity
  8
Dim
 62
     4
100
AcDbMText
 10
2312.812816246251
 20
704.0047421718631
 30
0.0
 40
1.25
 41
0.0
 71
     5
 72
     1
  1
\A1;3
  7
Romans字体
 73
     1
 44
1.0
  0
POINT
  5
499DC
330
49195
100
AcDbEntity
  8
Defpoints
 62
     0
100
AcDbPoint
 10
2308.109093273277
 20
696.3858272304744
 30
0.0
  0
POINT
  5
499DD
330
49195
100
AcDbEntity
  8
Defpoints
 62
     0
100
AcDbPoint
 10
2311.109093273278
 20
695.7858272304739
 30
0.0
  0
POINT
  5
499DE
330
49195
100
AcDbEntity
  8
Defpoints
 62
     0
100
AcDbPoint
 10
2311.109093273278
 20
703.2547421718632
 30
0.0
  0
ENDBLK
  5
49197
330
49195
100
AcDbEntity
  8
0
100
AcDbBlockEnd
  0
BLOCK
  5
491A3
330
491A2
100
AcDbEntity
  8
0
100
AcDbBlockBegin
  2
*D4
 70
     1
 10
0.0
 20
0.0
 30
0.0
  3
*D4
  1

  0
LINE
  5
499E8
330
491A2
100
AcDbEntity
  8
Dim
 62
     6
370
    -2
100
AcDbLine
 10
2292.609548494895
 20
698.885827230474
 30
0.0
 11
2292.609548494895
 21
707.5481084589019
 31
0.0
  0
LINE
  5
499E9
330
491A2
100
AcDbEntity
  8
Dim
 62
     6
370
    -2
100
AcDbLine
 10
2303.109548494896
 20
700.8858272304742
 30
0.0
 11
2303.109548494896
 21
707.5481084589019
 31
0.0
  0
LINE
  5
499EA
330
491A2
100
AcDbEntity
  8
Dim
 62
     1
370
    -2
100
AcDbLine
 10
2293.734548494895
 20
707.2481084589018
 30
0.0
 11
2301.984548494896
 21
707.2481084589018
 31
0.0
  0
SOLID
  5
499EB
330
491A2
100
AcDbEntity
  8
Dim
 62
     1
100
AcDbTrace
 10
2293.734548494895
 20
707.4356084589018
 30
0.0
 11
2293.734548494895
 21
707.0606084589018
 31
0.0
 12
2292.609548494895
 22
707.2481084589018
 32
0.0
 13
2292.609548494895
 23
707.2481084589018
 33
0.0
  0
SOLID
  5
499EC
330
491A2
100
AcDbEntity
  8
Dim
 62
     1
100
AcDbTrace
 10
2301.984548494896
 20
707.4356084589018
 30
0.0
 11
2301.984548494896
 21
707.0606084589018
 31
0.0
 12
2303.109548494896
 22
707.2481084589018
 32
0.0
 13
2303.109548494896
 23
707.2481084589018
 33
0.0
  0
MTEXT
  5
499ED
330
491A2
100
AcDbEntity
  8
Dim
 62
     4
100
AcDbMText
 10
2297.859548494896
 20
707.9981084589018
 30
0.0
 40
1.25
 41
0.0
 71
     5
 72
     1
  1
\A1;10.5
  7
Romans字体
 73
     1
 44
1.0
  0
POINT
  5
499EE
330
491A2
100
AcDbEntity
  8
Defpoints
 62
     0
100
AcDbPoint
 10
2292.609548494895
 20
698.8358272304743
 30
0.0
  0
POINT
  5
499EF
330
491A2
100
AcDbEntity
  8
Defpoints
 62
     0
100
AcDbPoint
 10
2303.109548494896
 20
700.8358272304742
 30
0.0
  0
POINT
  5
499F0
330
491A2
100
AcDbEntity
  8
Defpoints
 62
     0
100
AcDbPoint
 10
2303.109548494896
 20
707.2481084589018
 30
0.0
  0
ENDBLK
  5
491A4
330
491A2
100
AcDbEntity
  8
0
100
AcDbBlockEnd
  0
BLOCK
  5
491AF
330
491AE
100
AcDbEntity
  8
0
100
AcDbBlockBegin
  2
*D5
 70
     1
 10
0.0
 20
0.0
 30
0.0
  3
*D5
  1

  0
LINE
  5
499F1
330
491AE
100
AcDbEntity
  8
Dim
 62
     6
370
    -2
100
AcDbLine
 10
2294.969548494895
 20
699.9314232348742
 30
0.0
 11
2286.803927596511
 21
699.9314232348742
 31
0.0
  0
LINE
  5
499F2
330
491AE
100
AcDbEntity
  8
Dim
 62
     6
370
    -2
100
AcDbLine
 10
2294.402112196195
 20
688.1466653897739
 30
0.0
 11
2286.803927596511
 21
688.1466653897739
 31
0.0
  0
LINE
  5
499F3
330
491AE
100
AcDbEntity
  8
Dim
 62
     1
370
    -2
100
AcDbLine
 10
2287.103927596511
 20
698.8064232348744
 30
0.0
 11
2287.103927596511
 21
689.2716653897743
 31
0.0
  0
SOLID
  5
499F4
330
491AE
100
AcDbEntity
  8
Dim
 62
     1
100
AcDbTrace
 10
2286.916427596511
 20
698.8064232348744
 30
0.0
 11
2287.291427596511
 21
698.8064232348744
 31
0.0
 12
2287.103927596511
 22
699.9314232348742
 32
0.0
 13
2287.103927596511
 23
699.9314232348742
 33
0.0
  0
SOLID
  5
499F5
330
491AE
100
AcDbEntity
  8
Dim
 62
     1
100
AcDbTrace
 10
2286.916427596511
 20
689.2716653897743
 30
0.0
 11
2287.291427596511
 21
689.2716653897743
 31
0.0
 12
2287.103927596511
 22
688.1466653897739
 32
0.0
 13
2287.103927596511
 23
688.1466653897739
 33
0.0
  0
MTEXT
  5
499F6
330
491AE
100
AcDbEntity
  8
Dim
 62
     4
100
AcDbMText
 10
2286.353927596511
 20
694.0390443123252
 30
0.0
 40
1.25
 41
0.0
 71
     5
 72
     1
  1
\A1;M12*1
  7
Romans字体
 11
0.0000000000000001
 21
1.0
 31
0.0
 73
     1
 44
1.0
  0
POINT
  5
499F7
330
491AE
100
AcDbEntity
  8
Defpoints
 62
     0
100
AcDbPoint
 10
2295.019548494895
 20
699.9314232348742
 30
0.0
  0
POINT
  5
499F8
330
491AE
100
AcDbEntity
  8
Defpoints
 62
     0
100
AcDbPoint
 10
2294.452112196195
 20
688.1466653897739
 30
0.0
  0
POINT
  5
499F9
330
491AE
100
AcDbEntity
  8
Defpoints
 62
     0
100
AcDbPoint
 10
2287.103927596511
 20
688.1466653897739
 30
0.0
  0
ENDBLK
  5
491B0
330
491AE
100
AcDbEntity
  8
0
100
AcDbBlockEnd
  0
BLOCK
  5
491BB
330
491BA
100
AcDbEntity
  8
0
100
AcDbBlockBegin
  2
*D6
 70
     1
 10
0.0
 20
0.0
 30
0.0
  3
*D6
  1

  0
LINE
  5
49A0D
330
491BA
100
AcDbEntity
  8
Dim
 62
     6
370
    -2
100
AcDbLine
 10
2292.759548494895
 20
698.0364232348748
 30
0.0
 11
2290.11397816794
 21
698.0364232348748
 31
0.0
  0
LINE
  5
49A0E
330
491BA
100
AcDbEntity
  8
Dim
 62
     6
370
    -2
100
AcDbLine
 10
2292.759548494895
 20
690.0352378379927
 30
0.0
 11
2290.11397816794
 21
690.0352378379927
 31
0.0
  0
LINE
  5
49A0F
330
491BA
100
AcDbEntity
  8
Dim
 62
     1
370
    -2
100
AcDbLine
 10
2290.41397816794
 20
696.9114232348747
 30
0.0
 11
2290.41397816794
 21
691.1602378379925
 31
0.0
  0
SOLID
  5
49A10
330
491BA
100
AcDbEntity
  8
Dim
 62
     1
100
AcDbTrace
 10
2290.22647816794
 20
696.9114232348747
 30
0.0
 11
2290.60147816794
 21
696.9114232348747
 31
0.0
 12
2290.41397816794
 22
698.0364232348748
 32
0.0
 13
2290.41397816794
 23
698.0364232348748
 33
0.0
  0
SOLID
  5
49A11
330
491BA
100
AcDbEntity
  8
Dim
 62
     1
100
AcDbTrace
 10
2290.22647816794
 20
691.1602378379925
 30
0.0
 11
2290.60147816794
 21
691.1602378379925
 31
0.0
 12
2290.41397816794
 22
690.0352378379927
 32
0.0
 13
2290.41397816794
 23
690.0352378379927
 33
0.0
  0
MTEXT
  5
49A12
330
491BA
100
AcDbEntity
  8
Dim
 62
     4
100
AcDbMText
 10
2289.66397816794
 20
694.0358305364346
 30
0.0
 40
1.25
 41
0.0
 71
     5
 72
     1
  1
\A1;M8*1
  7
Romans字体
 11
0.0000000000000001
 21
1.0
 31
0.0
 73
     1
 44
1.0
  0
POINT
  5
49A13
330
491BA
100
AcDbEntity
  8
Defpoints
 62
     0
100
AcDbPoint
 10
2292.809548494895
 20
698.0364232348748
 30
0.0
  0
POINT
  5
49A14
330
491BA
100
AcDbEntity
  8
Defpoints
 62
     0
100
AcDbPoint
 10
2292.809548494895
 20
690.0352378379927
 30
0.0
  0
POINT
  5
49A15
330
491BA
100
AcDbEntity
  8
Defpoints
 62
     0
100
AcDbPoint
 10
2290.41397816794
 20
690.0352378379927
 30
0.0
  0
ENDBLK
  5
491BC
330
491BA
100
AcDbEntity
  8
0
100
AcDbBlockEnd
  0
BLOCK
  5
491C7
330
491C6
100
AcDbEntity
  8
0
100
AcDbBlockBegin
  2
*D7
 70
     1
 10
0.0
 20
0.0
 30
0.0
  3
*D7
  1

  0
LINE
  5
49A16
330
491C6
100
AcDbEntity
  8
Dim
 62
     6
370
    -2
100
AcDbLine
 10
2307.609548494895
 20
700.6308272304742
 30
0.0
 11
2307.609548494895
 21
710.524264970116
 31
0.0
  0
LINE
  5
49A17
330
491C6
100
AcDbEntity
  8
Dim
 62
     6
370
    -2
100
AcDbLine
 10
2292.609548494895
 20
698.885827230474
 30
0.0
 11
2292.609548494895
 21
710.524264970116
 31
0.0
  0
LINE
  5
49A18
330
491C6
100
AcDbEntity
  8
Dim
 62
     1
370
    -2
100
AcDbLine
 10
2306.484548494895
 20
710.2242649701162
 30
0.0
 11
2293.734548494895
 21
710.2242649701162
 31
0.0
  0
SOLID
  5
49A19
330
491C6
100
AcDbEntity
  8
Dim
 62
     1
100
AcDbTrace
 10
2306.484548494895
 20
710.4117649701162
 30
0.0
 11
2306.484548494895
 21
710.0367649701162
 31
0.0
 12
2307.609548494895
 22
710.2242649701162
 32
0.0
 13
2307.609548494895
 23
710.2242649701162
 33
0.0
  0
SOLID
  5
49A1A
330
491C6
100
AcDbEntity
  8
Dim
 62
     1
100
AcDbTrace
 10
2293.734548494895
 20
710.4117649701162
 30
0.0
 11
2293.734548494895
 21
710.0367649701162
 31
0.0
 12
2292.609548494895
 22
710.2242649701162
 32
0.0
 13
2292.609548494895
 23
710.2242649701162
 33
0.0
  0
MTEXT
  5
49A1B
330
491C6
100
AcDbEntity
  8
Dim
 62
     4
100
AcDbMText
 10
2300.109548494895
 20
710.9742649701161
 30
0.0
 40
1.25
 41
0.0
 71
     5
 72
     1
  1
\A1;15
  7
Romans字体
 73
     1
 44
1.0
  0
POINT
  5
49A1C
330
491C6
100
AcDbEntity
  8
Defpoints
 62
     0
100
AcDbPoint
 10
2307.609548494895
 20
700.5808272304744
 30
0.0
  0
POINT
  5
49A1D
330
491C6
100
AcDbEntity
  8
Defpoints
 62
     0
100
AcDbPoint
 10
2292.609548494895
 20
698.8358272304743
 30
0.0
  0
POINT
  5
49A1E
330
491C6
100
AcDbEntity
  8
Defpoints
 62
     0
100
AcDbPoint
 10
2292.609548494895
 20
710.2242649701162
 30
0.0
  0
ENDBLK
  5
491C8
330
491C6
100
AcDbEntity
  8
0
100
AcDbBlockEnd
  0
BLOCK
  5
491D3
330
491D2
100
AcDbEntity
  8
0
100
AcDbBlockBegin
  2
*D8
 70
     1
 10
0.0
 20
0.0
 30
0.0
  3
*D8
  1

  0
LINE
  5
499CB
330
491D2
100
AcDbEntity
  8
Dim
 62
     6
370
    -2
100
AcDbLine
 10
2308.109093273277
 20
696.4358272304743
 30
0.0
 11
2308.109093273277
 21
707.427462049309
 31
0.0
  0
LINE
  5
499CC
330
491D2
100
AcDbEntity
  8
Dim
 62
     6
370
    -2
100
AcDbLine
 10
2307.609548494895
 20
700.8858272304742
 30
0.0
 11
2307.609548494895
 21
707.427462049309
 31
0.0
  0
LINE
  5
499CD
330
491D2
100
AcDbEntity
  8
Dim
 62
     1
370
    -2
100
AcDbLine
 10
2306.484548494895
 20
707.1274620493092
 30
0.0
 11
2305.359548494894
 21
707.1274620493092
 31
0.0
  0
LINE
  5
499CE
330
491D2
100
AcDbEntity
  8
Dim
 62
     1
370
    -2
100
AcDbLine
 10
2309.234093273277
 20
707.1274620493092
 30
0.0
 11
2312.973511806097
 21
707.1274620493092
 31
0.0
  0
SOLID
  5
499CF
330
491D2
100
AcDbEntity
  8
Dim
 62
     1
100
AcDbTrace
 10
2306.484548494895
 20
707.3149620493092
 30
0.0
 11
2306.484548494895
 21
706.9399620493092
 31
0.0
 12
2307.609548494895
 22
707.1274620493092
 32
0.0
 13
2307.609548494895
 23
707.1274620493092
 33
0.0
  0
SOLID
  5
499D0
330
491D2
100
AcDbEntity
  8
Dim
 62
     1
100
AcDbTrace
 10
2309.234093273277
 20
707.3149620493092
 30
0.0
 11
2309.234093273277
 21
706.9399620493092
 31
0.0
 12
2308.109093273277
 22
707.1274620493092
 32
0.0
 13
2308.109093273277
 23
707.1274620493092
 33
0.0
  0
MTEXT
  5
499D1
330
491D2
100
AcDbEntity
  8
Dim
 62
     4
100
AcDbMText
 10
2311.866368948953
 20
707.8774620493092
 30
0.0
 40
1.25
 41
0.0
 71
     5
 72
     1
  1
\A1;0.5
  7
Romans字体
 73
     1
 44
1.0
  0
POINT
  5
499D2
330
491D2
100
AcDbEntity
  8
Defpoints
 62
     0
100
AcDbPoint
 10
2308.109093273277
 20
696.3858272304744
 30
0.0
  0
POINT
  5
499D3
330
491D2
100
AcDbEntity
  8
Defpoints
 62
     0
100
AcDbPoint
 10
2307.609548494895
 20
700.8358272304742
 30
0.0
  0
POINT
  5
499D4
330
491D2
100
AcDbEntity
  8
Defpoints
 62
     0
100
AcDbPoint
 10
2307.609548494895
 20
707.1274620493092
 30
0.0
  0
ENDBLK
  5
491D4
330
491D2
100
AcDbEntity
  8
0
100
AcDbBlockEnd
  0
BLOCK
  5
491EA
330
491E9
100
AcDbEntity
  8
0
100
AcDbBlockBegin
  2
*D9
 70
     1
 10
0.0
 20
0.0
 30
0.0
  3
*D9
  1

  0
LINE
  5
499DF
330
491E9
100
AcDbEntity
  8
Dim
 62
     6
370
    -2
100
AcDbLine
 10
2301.109548494895
 20
701.0858272304739
 30
0.0
 11
2301.109548494895
 21
703.4877188582869
 31
0.0
  0
LINE
  5
499E0
330
491E9
100
AcDbEntity
  8
Dim
 62
     6
370
    -2
100
AcDbLine
 10
2297.109548494895
 20
701.0858272304739
 30
0.0
 11
2297.109548494895
 21
703.4877188582869
 31
0.0
  0
LINE
  5
499E1
330
491E9
100
AcDbEntity
  8
Dim
 62
     1
370
    -2
100
AcDbLine
 10
2299.984548494895
 20
703.1877188582869
 30
0.0
 11
2298.234548494895
 21
703.1877188582869
 31
0.0
  0
SOLID
  5
499E2
330
491E9
100
AcDbEntity
  8
Dim
 62
     1
100
AcDbTrace
 10
2299.984548494895
 20
703.3752188582869
 30
0.0
 11
2299.984548494895
 21
703.0002188582868
 31
0.0
 12
2301.109548494895
 22
703.1877188582869
 32
0.0
 13
2301.109548494895
 23
703.1877188582869
 33
0.0
  0
SOLID
  5
499E3
330
491E9
100
AcDbEntity
  8
Dim
 62
     1
100
AcDbTrace
 10
2298.234548494895
 20
703.3752188582869
 30
0.0
 11
2298.234548494895
 21
703.0002188582868
 31
0.0
 12
2297.109548494895
 22
703.1877188582869
 32
0.0
 13
2297.109548494895
 23
703.1877188582869
 33
0.0
  0
MTEXT
  5
499E4
330
491E9
100
AcDbEntity
  8
Dim
 62
     4
100
AcDbMText
 10
2299.109548494895
 20
703.9377188582871
 30
0.0
 40
1.25
 41
0.0
 71
     5
 72
     1
  1
\A1;4
  7
Romans字体
 73
     1
 44
1.0
  0
POINT
  5
499E5
330
491E9
100
AcDbEntity
  8
Defpoints
 62
     0
100
AcDbPoint
 10
2301.109548494895
 20
701.0358272304739
 30
0.0
  0
POINT
  5
499E6
330
491E9
100
AcDbEntity
  8
Defpoints
 62
     0
100
AcDbPoint
 10
2297.109548494895
 20
701.0358272304739
 30
0.0
  0
POINT
  5
499E7
330
491E9
100
AcDbEntity
  8
Defpoints
 62
     0
100
AcDbPoint
 10
2297.109548494895
 20
703.1877188582869
 30
0.0
  0
ENDBLK
  5
491EB
330
491E9
100
AcDbEntity
  8
0
100
AcDbBlockEnd
  0
BLOCK
  5
49208
330
49207
100
AcDbEntity
  8
0
100
AcDbBlockBegin
  2
*D10
 70
     1
 10
0.0
 20
0.0
 30
0.0
  3
*D10
  1

  0
LINE
  5
499FA
330
49207
100
AcDbEntity
  8
Dim
 62
     6
370
    -2
100
AcDbLine
 10
2310.859093273278
 20
694.3358272304741
 30
0.0
 11
2312.904300934803
 21
694.3358272304741
 31
0.0
  0
LINE
  5
499FB
330
49207
100
AcDbEntity
  8
Dim
 62
     6
370
    -2
100
AcDbLine
 10
2310.859093273278
 20
693.7358272304747
 30
0.0
 11
2312.904300934803
 21
693.7358272304747
 31
0.0
  0
LINE
  5
499FC
330
49207
100
AcDbEntity
  8
Dim
 62
     1
370
    -2
100
AcDbLine
 10
2312.604300934803
 20
695.4608272304741
 30
0.0
 11
2312.604300934803
 21
696.5858272304741
 31
0.0
  0
LINE
  5
499FD
330
49207
100
AcDbEntity
  8
Dim
 62
     1
370
    -2
100
AcDbLine
 10
2312.604300934803
 20
692.6108272304746
 30
0.0
 11
2312.604300934803
 21
688.4233272304745
 31
0.0
  0
SOLID
  5
499FE
330
49207
100
AcDbEntity
  8
Dim
 62
     1
100
AcDbTrace
 10
2312.416800934803
 20
695.4608272304741
 30
0.0
 11
2312.791800934803
 21
695.4608272304741
 31
0.0
 12
2312.604300934803
 22
694.3358272304741
 32
0.0
 13
2312.604300934803
 23
694.3358272304741
 33
0.0
  0
SOLID
  5
499FF
330
49207
100
AcDbEntity
  8
Dim
 62
     1
100
AcDbTrace
 10
2312.416800934803
 20
692.6108272304746
 30
0.0
 11
2312.791800934803
 21
692.6108272304746
 31
0.0
 12
2312.604300934803
 22
693.7358272304747
 32
0.0
 13
2312.604300934803
 23
693.7358272304747
 33
0.0
  0
MTEXT
  5
49A00
330
49207
100
AcDbEntity
  8
Dim
 62
     4
100
AcDbMText
 10
2311.854300934803
 20
689.9545772304751
 30
0.0
 40
1.25
 41
0.0
 71
     5
 72
     1
  1
\A1;%%c0.6
  7
Romans字体
 11
0.0000000000000001
 21
1.0
 31
0.0
 73
     1
 44
1.0
  0
POINT
  5
49A01
330
49207
100
AcDbEntity
  8
Defpoints
 62
     0
100
AcDbPoint
 10
2310.809093273278
 20
694.3358272304741
 30
0.0
  0
POINT
  5
49A02
330
49207
100
AcDbEntity
  8
Defpoints
 62
     0
100
AcDbPoint
 10
2310.809093273278
 20
693.7358272304747
 30
0.0
  0
POINT
  5
49A03
330
49207
100
AcDbEntity
  8
Defpoints
 62
     0
100
AcDbPoint
 10
2312.604300934803
 20
693.7358272304747
 30
0.0
  0
ENDBLK
  5
49209
330
49207
100
AcDbEntity
  8
0
100
AcDbBlockEnd
  0
BLOCK
  5
49215
330
49214
100
AcDbEntity
  8
0
100
AcDbBlockBegin
  2
*D11
 70
     1
 10
0.0
 20
0.0
 30
0.0
  3
*D11
  1

  0
LINE
  5
4A274
330
49214
100
AcDbEntity
  8
Dim
 62
     6
370
    -2
100
AcDbLine
 10
2297.309548494895
 20
701.5358272304739
 30
0.0
 11
2283.726586295483
 21
701.5358272304739
 31
0.0
  0
LINE
  5
4A275
330
49214
100
AcDbEntity
  8
Dim
 62
     6
370
    -2
100
AcDbLine
 10
2297.309548494895
 20
686.5358272304741
 30
0.0
 11
2283.726586295483
 21
686.5358272304741
 31
0.0
  0
LINE
  5
4A276
330
49214
100
AcDbEntity
  8
Dim
 62
     1
370
    -2
100
AcDbLine
 10
2284.026586295483
 20
700.410827230474
 30
0.0
 11
2284.026586295483
 21
687.6608272304739
 31
0.0
  0
SOLID
  5
4A277
330
49214
100
AcDbEntity
  8
Dim
 62
     1
100
AcDbTrace
 10
2283.839086295483
 20
700.410827230474
 30
0.0
 11
2284.214086295483
 21
700.410827230474
 31
0.0
 12
2284.026586295483
 22
701.5358272304739
 32
0.0
 13
2284.026586295483
 23
701.5358272304739
 33
0.0
  0
SOLID
  5
4A278
330
49214
100
AcDbEntity
  8
Dim
 62
     1
100
AcDbTrace
 10
2283.839086295483
 20
687.6608272304739
 30
0.0
 11
2284.214086295483
 21
687.6608272304739
 31
0.0
 12
2284.026586295483
 22
686.5358272304741
 32
0.0
 13
2284.026586295483
 23
686.5358272304741
 33
0.0
  0
MTEXT
  5
4A279
330
49214
100
AcDbEntity
  8
Dim
 62
     4
100
AcDbMText
 10
2282.949205343102
 20
694.0358272304743
 30
0.0
 40
1.25
 41
0.0
 71
     5
 72
     1
  1
\A1;%%c15/SW14
  7
Romans字体
 11
0.0000000000000001
 21
1.0
 31
0.0
 73
     1
 44
1.0
  0
POINT
  5
4A27A
330
49214
100
AcDbEntity
  8
Defpoints
 62
     0
100
AcDbPoint
 10
2297.359548494895
 20
701.5358272304739
 30
0.0
  0
POINT
  5
4A27B
330
49214
100
AcDbEntity
  8
Defpoints
 62
     0
100
AcDbPoint
 10
2297.359548494895
 20
686.5358272304741
 30
0.0
  0
POINT
  5
4A27C
330
49214
100
AcDbEntity
  8
Defpoints
 62
     0
100
AcDbPoint
 10
2284.026586295483
 20
686.5358272304741
 30
0.0
  0
ENDBLK
  5
49216
330
49214
100
AcDbEntity
  8
0
100
AcDbBlockEnd
  0
BLOCK
  5
49F17
330
49F16
100
AcDbEntity
  8
0
100
AcDbBlockBegin
  2
*D12
 70
     1
 10
0.0
 20
0.0
 30
0.0
  3
*D12
  1

  0
LINE
  5
49F23
330
49F16
100
AcDbEntity
  8
Dim
 62
     6
370
    -2
100
AcDbLine
 10
2343.260883589293
 20
728.3289323860582
 30
0.0
 11
2343.260883589293
 21
729.6357817143281
 31
0.0
  0
LINE
  5
49F24
330
49F16
100
AcDbEntity
  8
Dim
 62
     6
370
    -2
100
AcDbLine
 10
2343.760883589285
 20
726.3075239325757
 30
0.0
 11
2343.760883589285
 21
729.6357817143281
 31
0.0
  0
LINE
  5
49F25
330
49F16
100
AcDbEntity
  8
Dim
 62
     1
370
    -2
100
AcDbLine
 10
2342.135883589293
 20
729.335781714328
 30
0.0
 11
2341.010883589293
 21
729.335781714328
 31
0.0
  0
LINE
  5
49F26
330
49F16
100
AcDbEntity
  8
Dim
 62
     1
370
    -2
100
AcDbLine
 10
2344.885883589284
 20
729.335781714328
 30
0.0
 11
2351.082312160716
 21
729.335781714328
 31
0.0
  0
SOLID
  5
49F27
330
49F16
100
AcDbEntity
  8
Dim
 62
     1
100
AcDbTrace
 10
2342.135883589293
 20
729.523281714328
 30
0.0
 11
2342.135883589293
 21
729.1482817143283
 31
0.0
 12
2343.260883589293
 22
729.335781714328
 32
0.0
 13
2343.260883589293
 23
729.335781714328
 33
0.0
  0
SOLID
  5
49F28
330
49F16
100
AcDbEntity
  8
Dim
 62
     1
100
AcDbTrace
 10
2344.885883589284
 20
729.523281714328
 30
0.0
 11
2344.885883589284
 21
729.1482817143283
 31
0.0
 12
2343.760883589285
 22
729.335781714328
 32
0.0
 13
2343.760883589285
 23
729.335781714328
 33
0.0
  0
MTEXT
  5
49F29
330
49F16
100
AcDbEntity
  8
Dim
 62
     4
100
AcDbMText
 10
2348.546597875002
 20
730.085781714328
 30
0.0
 40
1.25
 41
0.0
 71
     5
 72
     1
  1
\A1;0.5*45%%D
  7
Romans字体
 73
     1
 44
1.0
  0
POINT
  5
49F2A
330
49F16
100
AcDbEntity
  8
Defpoints
 62
     0
100
AcDbPoint
 10
2343.260883589293
 20
728.2789323860582
 30
0.0
  0
POINT
  5
49F2B
330
49F16
100
AcDbEntity
  8
Defpoints
 62
     0
100
AcDbPoint
 10
2343.760883589285
 20
726.257523932576
 30
0.0
  0
POINT
  5
49F2C
330
49F16
100
AcDbEntity
  8
Defpoints
 62
     0
100
AcDbPoint
 10
2343.760883589285
 20
729.335781714328
 30
0.0
  0
ENDBLK
  5
49F18
330
49F16
100
AcDbEntity
  8
0
100
AcDbBlockEnd
  0
BLOCK
  5
49F2E
330
49F2D
100
AcDbEntity
  8
0
100
AcDbBlockBegin
  2
*D13
 70
     1
 10
0.0
 20
0.0
 30
0.0
  3
*D13
  1

  0
LINE
  5
49F30
330
49F2D
100
AcDbEntity
  8
Dim
 62
     6
370
    -2
100
AcDbLine
 10
2343.260883589289
 20
712.0861154790966
 30
0.0
 11
2343.260883589289
 21
709.3042792092187
 31
0.0
  0
LINE
  5
49F31
330
49F2D
100
AcDbEntity
  8
Dim
 62
     6
370
    -2
100
AcDbLine
 10
2346.346262416537
 20
712.0861154790953
 30
0.0
 11
2346.346262416537
 21
709.3042792092187
 31
0.0
  0
LINE
  5
49F32
330
49F2D
100
AcDbEntity
  8
Dim
 62
     1
370
    -2
100
AcDbLine
 10
2344.385883589289
 20
709.6042792092189
 30
0.0
 11
2345.221262416537
 21
709.6042792092189
 31
0.0
  0
LINE
  5
49F33
330
49F2D
100
AcDbEntity
  8
Dim
 62
     1
370
    -2
100
AcDbLine
 10
2346.346262416537
 20
709.6042792092189
 30
0.0
 11
2353.1173938406
 21
709.6042792092189
 31
0.0
  0
SOLID
  5
49F34
330
49F2D
100
AcDbEntity
  8
Dim
 62
     1
100
AcDbTrace
 10
2344.385883589289
 20
709.7917792092189
 30
0.0
 11
2344.385883589289
 21
709.4167792092189
 31
0.0
 12
2343.260883589289
 22
709.6042792092189
 32
0.0
 13
2343.260883589289
 23
709.6042792092189
 33
0.0
  0
SOLID
  5
49F35
330
49F2D
100
AcDbEntity
  8
Dim
 62
     1
100
AcDbTrace
 10
2345.221262416537
 20
709.7917792092189
 30
0.0
 11
2345.221262416537
 21
709.4167792092189
 31
0.0
 12
2346.346262416537
 22
709.6042792092189
 32
0.0
 13
2346.346262416537
 23
709.6042792092189
 33
0.0
  0
MTEXT
  5
49F36
330
49F2D
100
AcDbEntity
  8
Dim
 62
     4
100
AcDbMText
 10
2350.559358126314
 20
710.3542792092189
 30
0.0
 40
1.25
 41
0.0
 71
     5
 72
     1
  1
\A1;max4.5
  7
Romans字体
 73
     1
 44
1.0
  0
POINT
  5
49F37
330
49F2D
100
AcDbEntity
  8
Defpoints
 62
     0
100
AcDbPoint
 10
2343.260883589289
 20
712.1361154790966
 30
0.0
  0
POINT
  5
49F38
330
49F2D
100
AcDbEntity
  8
Defpoints
 62
     0
100
AcDbPoint
 10
2346.346262416537
 20
712.1361154790953
 30
0.0
  0
POINT
  5
49F39
330
49F2D
100
AcDbEntity
  8
Defpoints
 62
     0
100
AcDbPoint
 10
2346.346262416537
 20
709.6042792092189
 30
0.0
  0
ENDBLK
  5
49F2F
330
49F2D
100
AcDbEntity
  8
0
100
AcDbBlockEnd
  0
BLOCK
  5
49F3B
330
49F3A
100
AcDbEntity
  8
0
100
AcDbBlockBegin
  2
*D14
 70
     1
 10
0.0
 20
0.0
 30
0.0
  3
*D14
  1

  0
LINE
  5
49F3D
330
49F3A
100
AcDbEntity
  8
Dim
 62
     6
370
    -2
100
AcDbLine
 10
2346.396262416539
 20
726.2575239325764
 30
0.0
 11
2350.050844897882
 21
726.2575239325764
 31
0.0
  0
LINE
  5
49F3E
330
49F3A
100
AcDbEntity
  8
Dim
 62
     6
370
    -2
100
AcDbLine
 10
2346.396262416536
 20
714.1575239325767
 30
0.0
 11
2350.050844897882
 21
714.1575239325767
 31
0.0
  0
LINE
  5
49F3F
330
49F3A
100
AcDbEntity
  8
Dim
 62
     1
370
    -2
100
AcDbLine
 10
2349.750844897882
 20
725.1325239325764
 30
0.0
 11
2349.750844897882
 21
715.2825239325767
 31
0.0
  0
SOLID
  5
49F40
330
49F3A
100
AcDbEntity
  8
Dim
 62
     1
100
AcDbTrace
 10
2349.563344897882
 20
725.1325239325764
 30
0.0
 11
2349.938344897882
 21
725.1325239325764
 31
0.0
 12
2349.750844897882
 22
726.2575239325764
 32
0.0
 13
2349.750844897882
 23
726.2575239325764
 33
0.0
  0
SOLID
  5
49F41
330
49F3A
100
AcDbEntity
  8
Dim
 62
     1
100
AcDbTrace
 10
2349.563344897882
 20
715.2825239325767
 30
0.0
 11
2349.938344897882
 21
715.2825239325767
 31
0.0
 12
2349.750844897882
 22
714.1575239325767
 32
0.0
 13
2349.750844897882
 23
714.1575239325767
 33
0.0
  0
MTEXT
  5
49F42
330
49F3A
100
AcDbEntity
  8
Dim
 62
     4
100
AcDbMText
 10
2349.000844897882
 20
720.207523932577
 30
0.0
 40
1.25
 41
0.0
 71
     5
 72
     1
  1
\A1;%%c12.1
  7
Romans字体
 11
0.0000000000000001
 21
1.0
 31
0.0
 73
     1
 44
1.0
  0
POINT
  5
49F43
330
49F3A
100
AcDbEntity
  8
Defpoints
 62
     0
100
AcDbPoint
 10
2346.346262416539
 20
726.2575239325764
 30
0.0
  0
POINT
  5
49F44
330
49F3A
100
AcDbEntity
  8
Defpoints
 62
     0
100
AcDbPoint
 10
2346.346262416536
 20
714.1575239325767
 30
0.0
  0
POINT
  5
49F45
330
49F3A
100
AcDbEntity
  8
Defpoints
 62
     0
100
AcDbPoint
 10
2349.750844897882
 20
714.1575239325767
 30
0.0
  0
ENDBLK
  5
49F3C
330
49F3A
100
AcDbEntity
  8
0
100
AcDbBlockEnd
  0
BLOCK
  5
49F47
330
49F46
100
AcDbEntity
  8
0
100
AcDbBlockBegin
  2
*D15
 70
     1
 10
0.0
 20
0.0
 30
0.0
  3
*D15
  1

  0
LINE
  5
49F49
330
49F46
100
AcDbEntity
  8
Dim
 62
     6
370
    -2
100
AcDbLine
 10
2338.262003429704
 20
723.5891901822326
 30
0.0
 11
2338.262003429704
 21
728.6654945671072
 31
0.0
  0
LINE
  5
49F4A
330
49F46
100
AcDbEntity
  8
Dim
 62
     6
370
    -2
100
AcDbLine
 10
2328.162003429704
 20
723.5891901822326
 30
0.0
 11
2328.162003429704
 21
728.6654945671072
 31
0.0
  0
LINE
  5
49F4B
330
49F46
100
AcDbEntity
  8
Dim
 62
     1
370
    -2
100
AcDbLine
 10
2337.137003429704
 20
728.3654945671074
 30
0.0
 11
2329.287003429704
 21
728.3654945671074
 31
0.0
  0
SOLID
  5
49F4C
330
49F46
100
AcDbEntity
  8
Dim
 62
     1
100
AcDbTrace
 10
2337.137003429704
 20
728.5529945671072
 30
0.0
 11
2337.137003429704
 21
728.1779945671074
 31
0.0
 12
2338.262003429704
 22
728.3654945671074
 32
0.0
 13
2338.262003429704
 23
728.3654945671074
 33
0.0
  0
SOLID
  5
49F4D
330
49F46
100
AcDbEntity
  8
Dim
 62
     1
100
AcDbTrace
 10
2329.287003429704
 20
728.5529945671072
 30
0.0
 11
2329.287003429704
 21
728.1779945671074
 31
0.0
 12
2328.162003429704
 22
728.3654945671074
 32
0.0
 13
2328.162003429704
 23
728.3654945671074
 33
0.0
  0
MTEXT
  5
49F4E
330
49F46
100
AcDbEntity
  8
Dim
 62
     4
100
AcDbMText
 10
2333.212003429704
 20
729.1154945671072
 30
0.0
 40
1.25
 41
0.0
 71
     5
 72
     1
  1
\A1;10.1
  7
Romans字体
 73
     1
 44
1.0
  0
POINT
  5
49F4F
330
49F46
100
AcDbEntity
  8
Defpoints
 62
     0
100
AcDbPoint
 10
2338.262003429704
 20
723.5391901822326
 30
0.0
  0
POINT
  5
49F50
330
49F46
100
AcDbEntity
  8
Defpoints
 62
     0
100
AcDbPoint
 10
2328.162003429704
 20
723.5391901822326
 30
0.0
  0
POINT
  5
49F51
330
49F46
100
AcDbEntity
  8
Defpoints
 62
     0
100
AcDbPoint
 10
2328.162003429704
 20
728.3654945671074
 30
0.0
  0
ENDBLK
  5
49F48
330
49F46
100
AcDbEntity
  8
0
100
AcDbBlockEnd
  0
BLOCK
  5
49F53
330
49F52
100
AcDbEntity
  8
0
100
AcDbBlockBegin
  2
*D16
 70
     1
 10
0.0
 20
0.0
 30
0.0
  3
*D16
  1

  0
LINE
  5
49F55
330
49F52
100
AcDbEntity
  8
Dim
 62
     6
370
    -2
100
AcDbLine
 10
2362.487326741248
 20
726.2075239325761
 30
0.0
 11
2366.373789895111
 21
726.2075239325761
 31
0.0
  0
LINE
  5
49F56
330
49F52
100
AcDbEntity
  8
Dim
 62
     6
370
    -2
100
AcDbLine
 10
2362.487326741245
 20
714.2075239325761
 30
0.0
 11
2366.373789895111
 21
714.2075239325761
 31
0.0
  0
LINE
  5
49F57
330
49F52
100
AcDbEntity
  8
Dim
 62
     1
370
    -2
100
AcDbLine
 10
2366.073789895111
 20
725.0825239325761
 30
0.0
 11
2366.073789895111
 21
715.3325239325761
 31
0.0
  0
SOLID
  5
49F58
330
49F52
100
AcDbEntity
  8
Dim
 62
     1
100
AcDbTrace
 10
2365.886289895111
 20
725.0825239325761
 30
0.0
 11
2366.261289895111
 21
725.0825239325761
 31
0.0
 12
2366.073789895111
 22
726.2075239325761
 32
0.0
 13
2366.073789895111
 23
726.2075239325761
 33
0.0
  0
SOLID
  5
49F59
330
49F52
100
AcDbEntity
  8
Dim
 62
     1
100
AcDbTrace
 10
2365.886289895111
 20
715.3325239325761
 30
0.0
 11
2366.261289895111
 21
715.3325239325761
 31
0.0
 12
2366.073789895111
 22
714.2075239325761
 32
0.0
 13
2366.073789895111
 23
714.2075239325761
 33
0.0
  0
MTEXT
  5
49F5A
330
49F52
100
AcDbEntity
  8
Dim
 62
     4
100
AcDbMText
 10
2365.323789895111
 20
720.2075239325769
 30
0.0
 40
1.25
 41
0.0
 71
     5
 72
     1
  1
\A1;M12*1
  7
Romans字体
 11
0.0000000000000001
 21
1.0
 31
0.0
 73
     1
 44
1.0
  0
POINT
  5
49F5B
330
49F52
100
AcDbEntity
  8
Defpoints
 62
     0
100
AcDbPoint
 10
2362.437326741248
 20
726.2075239325761
 30
0.0
  0
POINT
  5
49F5C
330
49F52
100
AcDbEntity
  8
Defpoints
 62
     0
100
AcDbPoint
 10
2362.437326741245
 20
714.2075239325761
 30
0.0
  0
POINT
  5
49F5D
330
49F52
100
AcDbEntity
  8
Defpoints
 62
     0
100
AcDbPoint
 10
2366.073789895111
 20
714.2075239325761
 30
0.0
  0
ENDBLK
  5
49F54
330
49F52
100
AcDbEntity
  8
0
100
AcDbBlockEnd
  0
BLOCK
  5
49F5F
330
49F5E
100
AcDbEntity
  8
0
100
AcDbBlockBegin
  2
*D17
 70
     1
 10
0.0
 20
0.0
 30
0.0
  3
*D17
  1

  0
LINE
  5
49F61
330
49F5E
100
AcDbEntity
  8
Dim
 62
     6
370
    -2
100
AcDbLine
 10
2359.351947914001
 20
728.3289323860582
 30
0.0
 11
2359.351947914001
 21
729.6767457665975
 31
0.0
  0
LINE
  5
49F62
330
49F5E
100
AcDbEntity
  8
Dim
 62
     6
370
    -2
100
AcDbLine
 10
2359.851947914
 20
725.8775239325763
 30
0.0
 11
2359.851947914
 21
729.6767457665975
 31
0.0
  0
LINE
  5
49F63
330
49F5E
100
AcDbEntity
  8
Dim
 62
     1
370
    -2
100
AcDbLine
 10
2358.226947914001
 20
729.3767457665974
 30
0.0
 11
2357.101947914001
 21
729.3767457665974
 31
0.0
  0
LINE
  5
49F64
330
49F5E
100
AcDbEntity
  8
Dim
 62
     1
370
    -2
100
AcDbLine
 10
2360.976947914001
 20
729.3767457665974
 30
0.0
 11
2367.173376485429
 21
729.3767457665974
 31
0.0
  0
SOLID
  5
49F65
330
49F5E
100
AcDbEntity
  8
Dim
 62
     1
100
AcDbTrace
 10
2358.226947914001
 20
729.5642457665974
 30
0.0
 11
2358.226947914001
 21
729.1892457665974
 31
0.0
 12
2359.351947914001
 22
729.3767457665974
 32
0.0
 13
2359.351947914001
 23
729.3767457665974
 33
0.0
  0
SOLID
  5
49F66
330
49F5E
100
AcDbEntity
  8
Dim
 62
     1
100
AcDbTrace
 10
2360.976947914001
 20
729.5642457665974
 30
0.0
 11
2360.976947914001
 21
729.1892457665974
 31
0.0
 12
2359.851947914
 22
729.3767457665974
 32
0.0
 13
2359.851947914
 23
729.3767457665974
 33
0.0
  0
MTEXT
  5
49F67
330
49F5E
100
AcDbEntity
  8
Dim
 62
     4
100
AcDbMText
 10
2364.637662199715
 20
730.1267457665974
 30
0.0
 40
1.25
 41
0.0
 71
     5
 72
     1
  1
\A1;0.5*45%%D
  7
Romans字体
 73
     1
 44
1.0
  0
POINT
  5
49F68
330
49F5E
100
AcDbEntity
  8
Defpoints
 62
     0
100
AcDbPoint
 10
2359.351947914001
 20
728.2789323860582
 30
0.0
  0
POINT
  5
49F69
330
49F5E
100
AcDbEntity
  8
Defpoints
 62
     0
100
AcDbPoint
 10
2359.851947914
 20
725.8275239325762
 30
0.0
  0
POINT
  5
49F6A
330
49F5E
100
AcDbEntity
  8
Defpoints
 62
     0
100
AcDbPoint
 10
2359.851947914
 20
729.3767457665974
 30
0.0
  0
ENDBLK
  5
49F60
330
49F5E
100
AcDbEntity
  8
0
100
AcDbBlockEnd
  0
ENDSEC
  0
SECTION
  2
ENTITIES
  0
POINT
  5
6C8F
330
1F
100
AcDbEntity
  8
0
 60
     1
100
AcDbPoint
 10
45143.05040943241
 20
-19004.18044894631
 30
0.0
1001
GENIUS_GENOBJ-N-TIT_13
1002
{
1000
OWNER
1000
GEN
1002
}
1001
GENIUS_GENOENT_13
1002
{
1000
MYREF
1005
6C8F
1002
}
1002
{
1000
GRP
1005
0
1002
}
1001
GENIUS_GENOLIS_13
1002
{
1000
ENT
1005
0
1005
0
1002
}
1001
GENIUS_GENTITLE_13
1002
{
1000
SCALE
1000
1:1
1002
}
1002
{
1000
BORDER
1000
GEN_A3
1002
}
1002
{
1000
TITLE
1000
GENTITLE
1002
}
1002
{
1000
UNCHG
1002
{
1000
GEN-TITLE-SCA
1000
GEN-TITLE-SIZ
1002
}
1002
}
1002
{
1000
HRA
1005
0
1002
}
1002
{
1000
HTIT
1005
0
1002
}
1002
{
1000
GENIUSID
1005
6C8F
1002
}
1001
GENIUS_GENODEF_13
1002
{
1000
HIER
1070
     1
1002
}
1002
{
1000
MANEDIT
1070
     0
1002
}
1002
{
1000
NOSEL
1070
     0
1002
}
1002
{
1000
BEHIND
1070
     0
1002
}
1002
{
1000
REACTOR
1002
}
  0
TEXT
  5
6C90
330
1F
100
AcDbEntity
  8
0
 60
     1
100
AcDbText
 10
45637.58773215241
 20
-18625.72255409374
 30
0.0
 40
2.0
  1
!GENTITLE-MAX
100
AcDbText
  0
TEXT
  5
6C91
330
1F
100
AcDbEntity
  8
0
 60
     1
100
AcDbText
 10
45627.5877321524
 20
-18635.72255409374
 30
0.0
 40
2.0
  1
!GENTITLE-RU
100
AcDbText
  0
TEXT
  5
6C92
330
1F
100
AcDbEntity
  8
0
 60
     1
100
AcDbText
 10
45627.5877321524
 20
-18917.72255409374
 30
0.0
 40
2.0
  1
!GENTITLE-INSERT
100
AcDbText
  0
TEXT
  5
6C93
330
1F
100
AcDbEntity
  8
0
 60
     1
100
AcDbText
 10
45227.5877321524
 20
-18912.72255409374
 30
0.0
 40
2.0
  1
!GENTITLE-LL
100
AcDbText
  0
POINT
  5
6C94
330
1F
100
AcDbEntity
  8
0
 60
     1
100
AcDbPoint
 10
44892.02967200544
 20
-18922.45331297959
 30
0.0
1001
GENIUS_GENOBJ-N-TIT_13
1002
{
1000
OWNER
1000
GEN
1002
}
1001
GENIUS_GENOENT_13
1002
{
1000
MYREF
1005
6C94
1002
}
1002
{
1000
GRP
1005
0
1002
}
1001
GENIUS_GENOLIS_13
1002
{
1000
ENT
1005
0
1005
0
1002
}
1001
GENIUS_GENTITLE_13
1002
{
1000
SCALE
1000
1:1
1002
}
1002
{
1000
BORDER
1000
GEN_A3
1002
}
1002
{
1000
TITLE
1000
GENTITLE
1002
}
1002
{
1000
UNCHG
1002
{
1000
GEN-TITLE-SCA
1000
GEN-TITLE-SIZ
1002
}
1002
}
1002
{
1000
HRA
1005
0
1002
}
1002
{
1000
HTIT
1005
0
1002
}
1002
{
1000
GENIUSID
1005
6C94
1002
}
1001
GENIUS_GENODEF_13
1002
{
1000
HIER
1070
     1
1002
}
1002
{
1000
MANEDIT
1070
     0
1002
}
1002
{
1000
NOSEL
1070
     0
1002
}
1002
{
1000
BEHIND
1070
     0
1002
}
1002
{
1000
REACTOR
1002
}
  0
TEXT
  5
6C95
330
1F
100
AcDbEntity
  8
0
 60
     1
100
AcDbText
 10
45386.56699472543
 20
-18543.99541812701
 30
0.0
 40
2.0
  1
!GENTITLE-MAX
100
AcDbText
  0
TEXT
  5
6C96
330
1F
100
AcDbEntity
  8
0
 60
     1
100
AcDbText
 10
45376.56699472543
 20
-18553.99541812701
 30
0.0
 40
2.0
  1
!GENTITLE-RU
100
AcDbText
  0
TEXT
  5
6C97
330
1F
100
AcDbEntity
  8
0
 60
     1
100
AcDbText
 10
45376.56699472543
 20
-18835.99541812701
 30
0.0
 40
2.0
  1
!GENTITLE-INSERT
100
AcDbText
  0
TEXT
  5
6C98
330
1F
100
AcDbEntity
  8
0
 60
     1
100
AcDbText
 10
44976.56699472543
 20
-18830.99541812701
 30
0.0
 40
2.0
  1
!GENTITLE-LL
100
AcDbText
  0
POINT
  5
6C99
330
1F
100
AcDbEntity
  8
0
 60
     1
100
AcDbPoint
 10
2841.073545212444
 20
724.9444851052893
 30
0.0
1001
GENIUS_GENOBJ-N-TIT_13
1002
{
1000
OWNER
1000
GEN
1002
}
1001
GENIUS_GENOENT_13
1002
{
1000
MYREF
1005
6C99
1002
}
1002
{
1000
GRP
1005
0
1002
}
1001
GENIUS_GENOLIS_13
1002
{
1000
ENT
1005
0
1005
0
1002
}
1001
GENIUS_GENTITLE_13
1002
{
1000
SCALE
1000
1:1
1002
}
1002
{
1000
BORDER
1000
GEN_A3
1002
}
1002
{
1000
TITLE
1000
GENTITLE
1002
}
1002
{
1000
UNCHG
1002
{
1000
GEN-TITLE-SCA
1000
GEN-TITLE-SIZ
1002
}
1002
}
1002
{
1000
HRA
1005
0
1002
}
1002
{
1000
HTIT
1005
0
1002
}
1002
{
1000
GENIUSID
1005
6C99
1002
}
1001
GENIUS_GENODEF_13
1002
{
1000
HIER
1070
     1
1002
}
1002
{
1000
MANEDIT
1070
     0
1002
}
1002
{
1000
NOSEL
1070
     0
1002
}
1002
{
1000
BEHIND
1070
     0
1002
}
1002
{
1000
REACTOR
1002
}
  0
TEXT
  5
6C9A
330
1F
100
AcDbEntity
  8
0
 60
     1
100
AcDbText
 10
3335.610867932429
 20
1103.402379957868
 30
0.0
 40
2.0
  1
!GENTITLE-MAX
100
AcDbText
  0
TEXT
  5
6C9B
330
1F
100
AcDbEntity
  8
0
 60
     1
100
AcDbText
 10
3325.61086793243
 20
1093.402379957868
 30
0.0
 40
2.0
  1
!GENTITLE-RU
100
AcDbText
  0
TEXT
  5
6C9C
330
1F
100
AcDbEntity
  8
0
 60
     1
100
AcDbText
 10
3325.61086793243
 20
811.4023799578674
 30
0.0
 40
2.0
  1
!GENTITLE-INSERT
100
AcDbText
  0
TEXT
  5
6C9D
330
1F
100
AcDbEntity
  8
0
 60
     1
100
AcDbText
 10
2925.610867932429
 20
816.4023799578677
 30
0.0
 40
2.0
  1
!GENTITLE-LL
100
AcDbText
  0
POINT
  5
6C9F
330
1F
100
AcDbEntity
  8
0
 60
     1
100
AcDbPoint
 10
44989.33493766866
 20
-19508.65683606648
 30
0.0
1001
GENIUS_GENOBJ-N-TIT_13
1002
{
1000
OWNER
1000
GEN
1002
}
1001
GENIUS_GENOENT_13
1002
{
1000
MYREF
1005
6C9F
1002
}
1002
{
1000
GRP
1005
0
1002
}
1001
GENIUS_GENOLIS_13
1002
{
1000
ENT
1005
0
1005
0
1002
}
1001
GENIUS_GENTITLE_13
1002
{
1000
SCALE
1000
1:1
1002
}
1002
{
1000
BORDER
1000
GEN_A3
1002
}
1002
{
1000
TITLE
1000
GENTITLE
1002
}
1002
{
1000
UNCHG
1002
{
1000
GEN-TITLE-SCA
1000
GEN-TITLE-SIZ
1002
}
1002
}
1002
{
1000
HRA
1005
0
1002
}
1002
{
1000
HTIT
1005
0
1002
}
1002
{
1000
GENIUSID
1005
6C9F
1002
}
1001
GENIUS_GENODEF_13
1002
{
1000
HIER
1070
     1
1002
}
1002
{
1000
MANEDIT
1070
     0
1002
}
1002
{
1000
NOSEL
1070
     0
1002
}
1002
{
1000
BEHIND
1070
     0
1002
}
1002
{
1000
REACTOR
1002
}
  0
TEXT
  5
6CA0
330
1F
100
AcDbEntity
  8
0
 60
     1
100
AcDbText
 10
45483.87226038866
 20
-19130.1989412139
 30
0.0
 40
2.0
  1
!GENTITLE-MAX
100
AcDbText
  0
TEXT
  5
6CA1
330
1F
100
AcDbEntity
  8
0
 60
     1
100
AcDbText
 10
45473.87226038866
 20
-19140.19894121389
 30
0.0
 40
2.0
  1
!GENTITLE-RU
100
AcDbText
  0
TEXT
  5
6CA2
330
1F
100
AcDbEntity
  8
0
 60
     1
100
AcDbText
 10
45473.87226038866
 20
-19422.19894121389
 30
0.0
 40
2.0
  1
!GENTITLE-INSERT
100
AcDbText
  0
TEXT
  5
6CA3
330
1F
100
AcDbEntity
  8
0
 60
     1
100
AcDbText
 10
45073.87226038866
 20
-19417.1989412139
 30
0.0
 40
2.0
  1
!GENTITLE-LL
100
AcDbText
  0
POINT
  5
6CA4
330
1F
100
AcDbEntity
  8
0
 60
     1
100
AcDbPoint
 10
46058.55120139381
 20
-19048.27380978762
 30
0.0
1001
GENIUS_GENOBJ-N-TIT_13
1002
{
1000
OWNER
1000
GEN
1002
}
1001
GENIUS_GENOENT_13
1002
{
1000
MYREF
1005
6CA4
1002
}
1002
{
1000
GRP
1005
0
1002
}
1001
GENIUS_GENOLIS_13
1002
{
1000
ENT
1005
0
1005
0
1002
}
1001
GENIUS_GENTITLE_13
1002
{
1000
SCALE
1000
1:1
1002
}
1002
{
1000
BORDER
1000
GEN_A3
1002
}
1002
{
1000
TITLE
1000
GENTITLE
1002
}
1002
{
1000
UNCHG
1002
{
1000
GEN-TITLE-SCA
1000
GEN-TITLE-SIZ
1002
}
1002
}
1002
{
1000
HRA
1005
0
1002
}
1002
{
1000
HTIT
1005
0
1002
}
1002
{
1000
GENIUSID
1005
6CA4
1002
}
1001
GENIUS_GENODEF_13
1002
{
1000
HIER
1070
     1
1002
}
1002
{
1000
MANEDIT
1070
     0
1002
}
1002
{
1000
NOSEL
1070
     0
1002
}
1002
{
1000
BEHIND
1070
     0
1002
}
1002
{
1000
REACTOR
1002
}
  0
TEXT
  5
6CA5
330
1F
100
AcDbEntity
  8
0
 60
     1
100
AcDbText
 10
46553.08852411378
 20
-18669.81591493504
 30
0.0
 40
2.0
  1
!GENTITLE-MAX
100
AcDbText
  0
TEXT
  5
6CA6
330
1F
100
AcDbEntity
  8
0
 60
     1
100
AcDbText
 10
46543.0885241138
 20
-18679.81591493504
 30
0.0
 40
2.0
  1
!GENTITLE-RU
100
AcDbText
  0
TEXT
  5
6CA7
330
1F
100
AcDbEntity
  8
0
 60
     1
100
AcDbText
 10
46543.0885241138
 20
-18961.81591493504
 30
0.0
 40
2.0
  1
!GENTITLE-INSERT
100
AcDbText
  0
TEXT
  5
6CA8
330
1F
100
AcDbEntity
  8
0
 60
     1
100
AcDbText
 10
46143.0885241138
 20
-18956.81591493504
 30
0.0
 40
2.0
  1
!GENTITLE-LL
100
AcDbText
  0
POINT
  5
6CA9
330
1F
100
AcDbEntity
  8
0
 60
     1
100
AcDbPoint
 10
45807.53046396681
 20
-18966.54667382089
 30
0.0
1001
GENIUS_GENOBJ-N-TIT_13
1002
{
1000
OWNER
1000
GEN
1002
}
1001
GENIUS_GENOENT_13
1002
{
1000
MYREF
1005
6CA9
1002
}
1002
{
1000
GRP
1005
0
1002
}
1001
GENIUS_GENOLIS_13
1002
{
1000
ENT
1005
0
1005
0
1002
}
1001
GENIUS_GENTITLE_13
1002
{
1000
SCALE
1000
1:1
1002
}
1002
{
1000
BORDER
1000
GEN_A3
1002
}
1002
{
1000
TITLE
1000
GENTITLE
1002
}
1002
{
1000
UNCHG
1002
{
1000
GEN-TITLE-SCA
1000
GEN-TITLE-SIZ
1002
}
1002
}
1002
{
1000
HRA
1005
0
1002
}
1002
{
1000
HTIT
1005
0
1002
}
1002
{
1000
GENIUSID
1005
6CA9
1002
}
1001
GENIUS_GENODEF_13
1002
{
1000
HIER
1070
     1
1002
}
1002
{
1000
MANEDIT
1070
     0
1002
}
1002
{
1000
NOSEL
1070
     0
1002
}
1002
{
1000
BEHIND
1070
     0
1002
}
1002
{
1000
REACTOR
1002
}
  0
TEXT
  5
6CAA
330
1F
100
AcDbEntity
  8
0
 60
     1
100
AcDbText
 10
46302.06778668681
 20
-18588.08877896832
 30
0.0
 40
2.0
  1
!GENTITLE-MAX
100
AcDbText
  0
TEXT
  5
6CAB
330
1F
100
AcDbEntity
  8
0
 60
     1
100
AcDbText
 10
46292.06778668681
 20
-18598.08877896832
 30
0.0
 40
2.0
  1
!GENTITLE-RU
100
AcDbText
  0
TEXT
  5
6CAC
330
1F
100
AcDbEntity
  8
0
 60
     1
100
AcDbText
 10
46292.06778668681
 20
-18880.08877896832
 30
0.0
 40
2.0
  1
!GENTITLE-INSERT
100
AcDbText
  0
TEXT
  5
6CAD
330
1F
100
AcDbEntity
  8
0
 60
     1
100
AcDbText
 10
45892.06778668681
 20
-18875.08877896832
 30
0.0
 40
2.0
  1
!GENTITLE-LL
100
AcDbText
  0
POINT
  5
6CAE
330
1F
100
AcDbEntity
  8
0
 60
     1
100
AcDbPoint
 10
3756.574337173829
 20
680.8511242639857
 30
0.0
1001
GENIUS_GENOBJ-N-TIT_13
1002
{
1000
OWNER
1000
GEN
1002
}
1001
GENIUS_GENOENT_13
1002
{
1000
MYREF
1005
6CAE
1002
}
1002
{
1000
GRP
1005
0
1002
}
1001
GENIUS_GENOLIS_13
1002
{
1000
ENT
1005
0
1005
0
1002
}
1001
GENIUS_GENTITLE_13
1002
{
1000
SCALE
1000
1:1
1002
}
1002
{
1000
BORDER
1000
GEN_A3
1002
}
1002
{
1000
TITLE
1000
GENTITLE
1002
}
1002
{
1000
UNCHG
1002
{
1000
GEN-TITLE-SCA
1000
GEN-TITLE-SIZ
1002
}
1002
}
1002
{
1000
HRA
1005
0
1002
}
1002
{
1000
HTIT
1005
0
1002
}
1002
{
1000
GENIUSID
1005
6CAE
1002
}
1001
GENIUS_GENODEF_13
1002
{
1000
HIER
1070
     1
1002
}
1002
{
1000
MANEDIT
1070
     0
1002
}
1002
{
1000
NOSEL
1070
     0
1002
}
1002
{
1000
BEHIND
1070
     0
1002
}
1002
{
1000
REACTOR
1002
}
  0
TEXT
  5
6CAF
330
1F
100
AcDbEntity
  8
0
 60
     1
100
AcDbText
 10
4251.111659893815
 20
1059.309019116564
 30
0.0
 40
2.0
  1
!GENTITLE-MAX
100
AcDbText
  0
TEXT
  5
6CB0
330
1F
100
AcDbEntity
  8
0
 60
     1
100
AcDbText
 10
4241.111659893814
 20
1049.309019116564
 30
0.0
 40
2.0
  1
!GENTITLE-RU
100
AcDbText
  0
TEXT
  5
6CB1
330
1F
100
AcDbEntity
  8
0
 60
     1
100
AcDbText
 10
4241.111659893814
 20
767.3090191165637
 30
0.0
 40
2.0
  1
!GENTITLE-INSERT
100
AcDbText
  0
TEXT
  5
6CB2
330
1F
100
AcDbEntity
  8
0
 60
     1
100
AcDbText
 10
3841.111659893814
 20
772.3090191165638
 30
0.0
 40
2.0
  1
!GENTITLE-LL
100
AcDbText
  0
POINT
  5
6CB4
330
1F
100
AcDbEntity
  8
0
 60
     1
100
AcDbPoint
 10
45904.83572963004
 20
-19552.75019690778
 30
0.0
1001
GENIUS_GENOBJ-N-TIT_13
1002
{
1000
OWNER
1000
GEN
1002
}
1001
GENIUS_GENOENT_13
1002
{
1000
MYREF
1005
6CB4
1002
}
1002
{
1000
GRP
1005
0
1002
}
1001
GENIUS_GENOLIS_13
1002
{
1000
ENT
1005
0
1005
0
1002
}
1001
GENIUS_GENTITLE_13
1002
{
1000
SCALE
1000
1:1
1002
}
1002
{
1000
BORDER
1000
GEN_A3
1002
}
1002
{
1000
TITLE
1000
GENTITLE
1002
}
1002
{
1000
UNCHG
1002
{
1000
GEN-TITLE-SCA
1000
GEN-TITLE-SIZ
1002
}
1002
}
1002
{
1000
HRA
1005
0
1002
}
1002
{
1000
HTIT
1005
0
1002
}
1002
{
1000
GENIUSID
1005
6CB4
1002
}
1001
GENIUS_GENODEF_13
1002
{
1000
HIER
1070
     1
1002
}
1002
{
1000
MANEDIT
1070
     0
1002
}
1002
{
1000
NOSEL
1070
     0
1002
}
1002
{
1000
BEHIND
1070
     0
1002
}
1002
{
1000
REACTOR
1002
}
  0
TEXT
  5
6CB5
330
1F
100
AcDbEntity
  8
0
 60
     1
100
AcDbText
 10
46399.37305235005
 20
-19174.29230205521
 30
0.0
 40
2.0
  1
!GENTITLE-MAX
100
AcDbText
  0
TEXT
  5
6CB6
330
1F
100
AcDbEntity
  8
0
 60
     1
100
AcDbText
 10
46389.37305235004
 20
-19184.29230205521
 30
0.0
 40
2.0
  1
!GENTITLE-RU
100
AcDbText
  0
TEXT
  5
6CB7
330
1F
100
AcDbEntity
  8
0
 60
     1
100
AcDbText
 10
46389.37305235004
 20
-19466.29230205521
 30
0.0
 40
2.0
  1
!GENTITLE-INSERT
100
AcDbText
  0
TEXT
  5
6CB8
330
1F
100
AcDbEntity
  8
0
 60
     1
100
AcDbText
 10
45989.37305235005
 20
-19461.29230205521
 30
0.0
 40
2.0
  1
!GENTITLE-LL
100
AcDbText
  0
INSERT
  5
8AE2
330
1F
100
AcDbEntity
  8
ASHADE
 62
     1
370
     0
100
AcDbBlockReference
  2
AVE_RENDER
 10
1581.033129310014
 20
668.2648064278827
 30
0.0
1001
AVE_RENDER
1002
{
1070
     7
1000
Pref
1070
    50
1070
    20
1070
     1
1070
     0
1000

1070
    10
1070
     1
1070
    10
1040
1.0
1070
     1
1040
0.7
1040
1.0
1040
0.0
1040
10.0
1010
-1.0
1020
-1.0
1030
-1.0
1040
0.3
1070
    49
1070
     0
1070
     0
1010
1.0
1020
1.0
1030
1.0
1040
45.0
1070
     1
1070
     0
1000
WCS
1040
0.0
1070
     0
1040
10.0
1002
}
  0
INSERT
  5
8AE3
330
1F
100
AcDbEntity
  8
ASHADE
 62
     3
370
     0
100
AcDbBlockReference
  2
AVE_RENDER
 10
1581.033129310014
 20
668.2648064278827
 30
0.0
1001
AVE_RENDER
1002
{
1070
     0
1000
Full Opt
1070
     0
1070
     1
1070
     1
1070
     1
1070
     0
1070
     0
1070
     0
1070
     1
1070
     1
1040
0.0001
1040
0.0001
1002
}
  0
INSERT
  5
8AE4
330
1F
100
AcDbEntity
  8
ASHADE
 62
     4
370
     0
100
AcDbBlockReference
  2
AVE_RENDER
 10
1581.033129310014
 20
668.2648064278827
 30
0.0
1001
AVE_RENDER
1002
{
1070
     0
1000
Quick Opt
1070
     0
1070
     1
1070
     1
1070
     1
1070
     0
1070
     0
1070
     1
1002
}
  0
INSERT
  5
8AE5
330
1F
100
AcDbEntity
  8
ASHADE
 62
     5
370
     0
100
AcDbBlockReference
  2
AVE_RENDER
 10
1581.033129310014
 20
668.2648064278827
 30
0.0
1001
AVE_RENDER
1002
{
1070
     1
1000
Scanl Opt
1070
     2
1070
     0
1070
     2
1040
2.0
1040
4.0
1070
     0
1070
     1
1070
     0
1040
0.03
1002
}
  0
INSERT
  5
8AE6
330
1F
100
AcDbEntity
  8
ASHADE
 62
     6
370
     0
100
AcDbBlockReference
  2
AVE_RENDER
 10
1581.033129310014
 20
668.2648064278827
 30
0.0
1001
AVE_RENDER
1002
{
1070
     2
1000
Raytr Opt
1070
     2
1070
     0
1070
     2
1040
2.0
1040
4.0
1070
     0
1070
     1
1070
     1
1040
0.03
1070
     3
1040
0.03
1002
}
  0
INSERT
  5
8AE7
330
1F
100
AcDbEntity
  8
ASHADE
 62
     7
370
     0
100
AcDbBlockReference
  2
AVE_RENDER
 10
1581.033129310014
 20
668.2648064278827
 30
0.0
1001
AVE_RENDER
1002
{
1070
     0
1000
RFile Opt
1070
     1
1070
   640
1070
   480
1070
 10000
1070
     1
1070
     8
1070
     8
1070
     0
1070
     0
1070
     0
1070
     0
1070
     0
1070
     0
1070
     0
1002
}
  0
INSERT
  5
8AE8
330
1F
100
AcDbEntity
  8
ASHADE
 62
     8
370
     0
100
AcDbBlockReference
  2
AVE_RENDER
 10
1581.033129310014
 20
668.2648064278827
 30
0.0
1001
AVE_RENDER
1002
{
1070
     0
1000
Fog Opt
1070
     0
1070
     0
1040
0.0
1040
1.0
1040
0.0
1040
1.0
1010
0.5
1020
0.5
1030
0.5
1002
}
  0
INSERT
  5
8AE9
330
1F
100
AcDbEntity
  8
ASHADE
 62
     9
370
     0
100
AcDbBlockReference
  2
AVE_RENDER
 10
1581.033129310014
 20
668.2648064278827
 30
0.0
1001
AVE_RENDER
1002
{
1070
     0
1000
BG Opt
1070
     0
1070
     1
1010
0.0
1020
0.0
1030
0.0
1010
1.0
1020
0.0
1030
0.0
1010
0.0
1020
1.0
1030
0.0
1010
0.0
1020
0.0
1030
1.0
1040
0.5
1040
0.33
1040
0.0
1000

1070
     1
1000

1070
     1
1070
     1
1040
1.0
1040
1.0
1040
0.0
1040
0.0
1070
     0
1002
}
  0
INSERT
  5
8AEA
330
1F
100
AcDbEntity
  8
ASHADE
 62
     1
370
     0
100
AcDbBlockReference
  2
AVE_GLOBAL
 10
1581.033129310014
 20
668.2648064278827
 30
0.0
1001
AVE_MATERIAL
1002
{
1000
*全局*
1000
2
1000
全局修饰。
1002
{
1002
}
1002
{
1070
    63
1002
{
1002
{
1010
-1.0
1020
-1.0
1030
-1.0
1002
}
1040
0.6999999880790711
1000

1040
0.0
1002
{
1002
}
1040
0.0
1002
{
1002
}
1040
0.0
1002
}
1002
{
1002
{
1010
-1.0
1020
-1.0
1030
-1.0
1002
}
1040
1.0
1000

1040
0.0
1002
{
1002
}
1040
0.0
1002
{
1002
}
1040
0.0
1002
}
1002
{
1002
{
1010
-1.0
1020
-1.0
1030
-1.0
1002
}
1040
0.2000000029802322
1000

1040
0.0
1002
{
1002
}
1040
0.0
1002
{
1002
}
1040
0.0
1002
}
1002
{
1070
     0
1002
{
1070
     1
1002
{
1040
1.0
1040
1.0
1000

1040
0.0
1002
{
1002
}
1040
0.0
1002
{
1002
}
1040
0.0
1002
}
1002
}
1040
1.0
1040
0.0
1040
0.0
1002
}
1002
{
1040
1.0
1040
1.0
1000

1040
0.0
1002
{
1002
}
1040
0.0
1002
{
1002
}
1040
0.0
1002
}
1002
{
1040
0.5
1040
1.0
1000

1040
0.0
1002
{
1002
}
1040
0.0
1002
{
1002
}
1040
0.0
1002
}
1002
{
1070
     0
1040
0.0
1002
{
1002
}
1040
1.0
1002
{
1002
}
1040
0.0
1002
}
1002
{
1040
0.0
1002
{
1002
{
1010
0.0
1020
0.0
1030
0.0
1002
}
1040
1.0
1000

1040
0.0
1002
{
1002
}
1040
0.0
1002
{
1002
}
1040
0.0
1002
}
1002
}
1002
{
1002
{
1070
     1
1002
{
1040
0.0
1040
1.0
1000

1040
0.0
1002
{
1002
}
1040
0.0
1002
{
1002
}
1040
0.0
1002
}
1002
}
1040
0.0
1002
{
1002
}
1010
1.0
1020
0.0
1030
0.0
1010
0.0
1020
1.0
1030
0.0
1010
0.0
1020
0.0
1030
1.0
1070
     0
1002
}
1002
{
1002
{
1040
1.0
1040
1.0
1002
{
1070
     1
1002
{
1040
1.0
1040
1.0
1000

1040
0.0
1002
{
1002
}
1040
0.0
1002
{
1002
}
1040
0.0
1002
}
1002
}
1002
}
1070
     0
1040
0.0
1002
{
1002
}
1002
}
1002
{
1002
}
1002
}
1002
{
1071
        3
1070
     3
1070
     0
1002
{
1070
     2
1070
     0
1070
     0
1040
0.0
1002
}
1070
     0
1070
     2
1002
{
1002
}
1002
}
1002
{
1040
8030.0
1040
190.3000030517578
1040
0.3050000071525574
1040
228.0
1040
545.0
1040
14.0
1040
17.39999961853027
1040
0.4560000002384186
1002
}
1000

1002
}
  0
POINT
  5
F4F6
330
1F
100
AcDbEntity
  8
0
 60
     1
100
AcDbPoint
 10
45069.99797304985
 20
-18959.85178738408
 30
0.0
1001
GENIUS_GENOBJ-N-TIT_13
1002
{
1000
OWNER
1000
GEN
1002
}
1001
GENIUS_GENOENT_13
1002
{
1000
MYREF
1005
F4F6
1002
}
1002
{
1000
GRP
1005
0
1002
}
1001
GENIUS_GENOLIS_13
1002
{
1000
ENT
1005
0
1005
0
1002
}
1001
GENIUS_GENTITLE_13
1002
{
1000
SCALE
1000
1:1
1002
}
1002
{
1000
BORDER
1000
GEN_A3
1002
}
1002
{
1000
TITLE
1000
GENTITLE
1002
}
1002
{
1000
UNCHG
1002
{
1000
GEN-TITLE-SCA
1000
GEN-TITLE-SIZ
1002
}
1002
}
1002
{
1000
HRA
1005
0
1002
}
1002
{
1000
HTIT
1005
0
1002
}
1002
{
1000
GENIUSID
1005
F4F6
1002
}
1001
GENIUS_GENODEF_13
1002
{
1000
HIER
1070
     1
1002
}
1002
{
1000
MANEDIT
1070
     0
1002
}
1002
{
1000
NOSEL
1070
     0
1002
}
1002
{
1000
BEHIND
1070
     0
1002
}
1002
{
1000
REACTOR
1002
}
  0
TEXT
  5
F4F7
330
1F
100
AcDbEntity
  8
0
 60
     1
100
AcDbText
 10
45564.53529576981
 20
-18581.39389253151
 30
0.0
 40
2.0
  1
!GENTITLE-MAX
100
AcDbText
  0
TEXT
  5
F4F8
330
1F
100
AcDbEntity
  8
0
 60
     1
100
AcDbText
 10
45554.53529576984
 20
-18591.39389253151
 30
0.0
 40
2.0
  1
!GENTITLE-RU
100
AcDbText
  0
TEXT
  5
F4F9
330
1F
100
AcDbEntity
  8
0
 60
     1
100
AcDbText
 10
45554.53529576984
 20
-18873.39389253151
 30
0.0
 40
2.0
  1
!GENTITLE-INSERT
100
AcDbText
  0
TEXT
  5
F4FA
330
1F
100
AcDbEntity
  8
0
 60
     1
100
AcDbText
 10
45154.53529576983
 20
-18868.39389253151
 30
0.0
 40
2.0
  1
!GENTITLE-LL
100
AcDbText
  0
POINT
  5
F4FB
330
1F
100
AcDbEntity
  8
0
 60
     1
100
AcDbPoint
 10
44818.97723562287
 20
-18878.12465141736
 30
0.0
1001
GENIUS_GENOBJ-N-TIT_13
1002
{
1000
OWNER
1000
GEN
1002
}
1001
GENIUS_GENOENT_13
1002
{
1000
MYREF
1005
F4FB
1002
}
1002
{
1000
GRP
1005
0
1002
}
1001
GENIUS_GENOLIS_13
1002
{
1000
ENT
1005
0
1005
0
1002
}
1001
GENIUS_GENTITLE_13
1002
{
1000
SCALE
1000
1:1
1002
}
1002
{
1000
BORDER
1000
GEN_A3
1002
}
1002
{
1000
TITLE
1000
GENTITLE
1002
}
1002
{
1000
UNCHG
1002
{
1000
GEN-TITLE-SCA
1000
GEN-TITLE-SIZ
1002
}
1002
}
1002
{
1000
HRA
1005
0
1002
}
1002
{
1000
HTIT
1005
0
1002
}
1002
{
1000
GENIUSID
1005
F4FB
1002
}
1001
GENIUS_GENODEF_13
1002
{
1000
HIER
1070
     1
1002
}
1002
{
1000
MANEDIT
1070
     0
1002
}
1002
{
1000
NOSEL
1070
     0
1002
}
1002
{
1000
BEHIND
1070
     0
1002
}
1002
{
1000
REACTOR
1002
}
  0
TEXT
  5
F4FC
330
1F
100
AcDbEntity
  8
0
 60
     1
100
AcDbText
 10
45313.51455834286
 20
-18499.66675656478
 30
0.0
 40
2.0
  1
!GENTITLE-MAX
100
AcDbText
  0
TEXT
  5
F4FD
330
1F
100
AcDbEntity
  8
0
 60
     1
100
AcDbText
 10
45303.51455834286
 20
-18509.66675656478
 30
0.0
 40
2.0
  1
!GENTITLE-RU
100
AcDbText
  0
TEXT
  5
F4FE
330
1F
100
AcDbEntity
  8
0
 60
     1
100
AcDbText
 10
45303.51455834286
 20
-18791.66675656478
 30
0.0
 40
2.0
  1
!GENTITLE-INSERT
100
AcDbText
  0
TEXT
  5
F4FF
330
1F
100
AcDbEntity
  8
0
 60
     1
100
AcDbText
 10
44903.51455834286
 20
-18786.66675656478
 30
0.0
 40
2.0
  1
!GENTITLE-LL
100
AcDbText
  0
POINT
  5
F500
330
1F
100
AcDbEntity
  8
0
 60
     1
100
AcDbPoint
 10
2768.021108829877
 20
769.2731466675221
 30
0.0
1001
GENIUS_GENOBJ-N-TIT_13
1002
{
1000
OWNER
1000
GEN
1002
}
1001
GENIUS_GENOENT_13
1002
{
1000
MYREF
1005
F500
1002
}
1002
{
1000
GRP
1005
0
1002
}
1001
GENIUS_GENOLIS_13
1002
{
1000
ENT
1005
0
1005
0
1002
}
1001
GENIUS_GENTITLE_13
1002
{
1000
SCALE
1000
1:1
1002
}
1002
{
1000
BORDER
1000
GEN_A3
1002
}
1002
{
1000
TITLE
1000
GENTITLE
1002
}
1002
{
1000
UNCHG
1002
{
1000
GEN-TITLE-SCA
1000
GEN-TITLE-SIZ
1002
}
1002
}
1002
{
1000
HRA
1005
0
1002
}
1002
{
1000
HTIT
1005
0
1002
}
1002
{
1000
GENIUSID
1005
F500
1002
}
1001
GENIUS_GENODEF_13
1002
{
1000
HIER
1070
     1
1002
}
1002
{
1000
MANEDIT
1070
     0
1002
}
1002
{
1000
NOSEL
1070
     0
1002
}
1002
{
1000
BEHIND
1070
     0
1002
}
1002
{
1000
REACTOR
1002
}
  0
TEXT
  5
F501
330
1F
100
AcDbEntity
  8
0
 60
     1
100
AcDbText
 10
3262.558431549862
 20
1147.7310415201
 30
0.0
 40
2.0
  1
!GENTITLE-MAX
100
AcDbText
  0
TEXT
  5
F502
330
1F
100
AcDbEntity
  8
0
 60
     1
100
AcDbText
 10
3252.558431549863
 20
1137.7310415201
 30
0.0
 40
2.0
  1
!GENTITLE-RU
100
AcDbText
  0
TEXT
  5
F503
330
1F
100
AcDbEntity
  8
0
 60
     1
100
AcDbText
 10
3252.558431549863
 20
855.7310415201005
 30
0.0
 40
2.0
  1
!GENTITLE-INSERT
100
AcDbText
  0
TEXT
  5
F504
330
1F
100
AcDbEntity
  8
0
 60
     1
100
AcDbText
 10
2852.558431549864
 20
860.7310415201004
 30
0.0
 40
2.0
  1
!GENTITLE-LL
100
AcDbText
  0
POINT
  5
F506
330
1F
100
AcDbEntity
  8
0
 60
     1
100
AcDbPoint
 10
44916.28250128608
 20
-19464.32817450425
 30
0.0
1001
GENIUS_GENOBJ-N-TIT_13
1002
{
1000
OWNER
1000
GEN
1002
}
1001
GENIUS_GENOENT_13
1002
{
1000
MYREF
1005
F506
1002
}
1002
{
1000
GRP
1005
0
1002
}
1001
GENIUS_GENOLIS_13
1002
{
1000
ENT
1005
0
1005
0
1002
}
1001
GENIUS_GENTITLE_13
1002
{
1000
SCALE
1000
1:1
1002
}
1002
{
1000
BORDER
1000
GEN_A3
1002
}
1002
{
1000
TITLE
1000
GENTITLE
1002
}
1002
{
1000
UNCHG
1002
{
1000
GEN-TITLE-SCA
1000
GEN-TITLE-SIZ
1002
}
1002
}
1002
{
1000
HRA
1005
0
1002
}
1002
{
1000
HTIT
1005
0
1002
}
1002
{
1000
GENIUSID
1005
F506
1002
}
1001
GENIUS_GENODEF_13
1002
{
1000
HIER
1070
     1
1002
}
1002
{
1000
MANEDIT
1070
     0
1002
}
1002
{
1000
NOSEL
1070
     0
1002
}
1002
{
1000
BEHIND
1070
     0
1002
}
1002
{
1000
REACTOR
1002
}
  0
TEXT
  5
F507
330
1F
100
AcDbEntity
  8
0
 60
     1
100
AcDbText
 10
45410.81982400608
 20
-19085.87027965167
 30
0.0
 40
2.0
  1
!GENTITLE-MAX
100
AcDbText
  0
TEXT
  5
F508
330
1F
100
AcDbEntity
  8
0
 60
     1
100
AcDbText
 10
45400.81982400608
 20
-19095.87027965167
 30
0.0
 40
2.0
  1
!GENTITLE-RU
100
AcDbText
  0
TEXT
  5
F509
330
1F
100
AcDbEntity
  8
0
 60
     1
100
AcDbText
 10
45400.81982400608
 20
-19377.87027965167
 30
0.0
 40
2.0
  1
!GENTITLE-INSERT
100
AcDbText
  0
TEXT
  5
F50A
330
1F
100
AcDbEntity
  8
0
 60
     1
100
AcDbText
 10
45000.81982400608
 20
-19372.87027965167
 30
0.0
 40
2.0
  1
!GENTITLE-LL
100
AcDbText
  0
POINT
  5
F50B
330
1F
100
AcDbEntity
  8
0
 60
     1
100
AcDbPoint
 10
45985.49876501124
 20
-19003.94514822539
 30
0.0
1001
GENIUS_GENOBJ-N-TIT_13
1002
{
1000
OWNER
1000
GEN
1002
}
1001
GENIUS_GENOENT_13
1002
{
1000
MYREF
1005
F50B
1002
}
1002
{
1000
GRP
1005
0
1002
}
1001
GENIUS_GENOLIS_13
1002
{
1000
ENT
1005
0
1005
0
1002
}
1001
GENIUS_GENTITLE_13
1002
{
1000
SCALE
1000
1:1
1002
}
1002
{
1000
BORDER
1000
GEN_A3
1002
}
1002
{
1000
TITLE
1000
GENTITLE
1002
}
1002
{
1000
UNCHG
1002
{
1000
GEN-TITLE-SCA
1000
GEN-TITLE-SIZ
1002
}
1002
}
1002
{
1000
HRA
1005
0
1002
}
1002
{
1000
HTIT
1005
0
1002
}
1002
{
1000
GENIUSID
1005
F50B
1002
}
1001
GENIUS_GENODEF_13
1002
{
1000
HIER
1070
     1
1002
}
1002
{
1000
MANEDIT
1070
     0
1002
}
1002
{
1000
NOSEL
1070
     0
1002
}
1002
{
1000
BEHIND
1070
     0
1002
}
1002
{
1000
REACTOR
1002
}
  0
TEXT
  5
F50C
330
1F
100
AcDbEntity
  8
0
 60
     1
100
AcDbText
 10
46480.03608773121
 20
-18625.48725337281
 30
0.0
 40
2.0
  1
!GENTITLE-MAX
100
AcDbText
  0
TEXT
  5
F50D
330
1F
100
AcDbEntity
  8
0
 60
     1
100
AcDbText
 10
46470.03608773123
 20
-18635.48725337281
 30
0.0
 40
2.0
  1
!GENTITLE-RU
100
AcDbText
  0
TEXT
  5
F50E
330
1F
100
AcDbEntity
  8
0
 60
     1
100
AcDbText
 10
46470.03608773123
 20
-18917.48725337281
 30
0.0
 40
2.0
  1
!GENTITLE-INSERT
100
AcDbText
  0
TEXT
  5
F50F
330
1F
100
AcDbEntity
  8
0
 60
     1
100
AcDbText
 10
46070.03608773123
 20
-18912.48725337281
 30
0.0
 40
2.0
  1
!GENTITLE-LL
100
AcDbText
  0
POINT
  5
F510
330
1F
100
AcDbEntity
  8
0
 60
     1
100
AcDbPoint
 10
45734.47802758423
 20
-18922.21801225866
 30
0.0
1001
GENIUS_GENOBJ-N-TIT_13
1002
{
1000
OWNER
1000
GEN
1002
}
1001
GENIUS_GENOENT_13
1002
{
1000
MYREF
1005
F510
1002
}
1002
{
1000
GRP
1005
0
1002
}
1001
GENIUS_GENOLIS_13
1002
{
1000
ENT
1005
0
1005
0
1002
}
1001
GENIUS_GENTITLE_13
1002
{
1000
SCALE
1000
1:1
1002
}
1002
{
1000
BORDER
1000
GEN_A3
1002
}
1002
{
1000
TITLE
1000
GENTITLE
1002
}
1002
{
1000
UNCHG
1002
{
1000
GEN-TITLE-SCA
1000
GEN-TITLE-SIZ
1002
}
1002
}
1002
{
1000
HRA
1005
0
1002
}
1002
{
1000
HTIT
1005
0
1002
}
1002
{
1000
GENIUSID
1005
F510
1002
}
1001
GENIUS_GENODEF_13
1002
{
1000
HIER
1070
     1
1002
}
1002
{
1000
MANEDIT
1070
     0
1002
}
1002
{
1000
NOSEL
1070
     0
1002
}
1002
{
1000
BEHIND
1070
     0
1002
}
1002
{
1000
REACTOR
1002
}
  0
TEXT
  5
F511
330
1F
100
AcDbEntity
  8
0
 60
     1
100
AcDbText
 10
46229.01535030425
 20
-18543.76011740608
 30
0.0
 40
2.0
  1
!GENTITLE-MAX
100
AcDbText
  0
TEXT
  5
F512
330
1F
100
AcDbEntity
  8
0
 60
     1
100
AcDbText
 10
46219.01535030422
 20
-18553.76011740609
 30
0.0
 40
2.0
  1
!GENTITLE-RU
100
AcDbText
  0
TEXT
  5
F513
330
1F
100
AcDbEntity
  8
0
 60
     1
100
AcDbText
 10
46219.01535030422
 20
-18835.76011740609
 30
0.0
 40
2.0
  1
!GENTITLE-INSERT
100
AcDbText
  0
TEXT
  5
F514
330
1F
100
AcDbEntity
  8
0
 60
     1
100
AcDbText
 10
45819.01535030423
 20
-18830.76011740609
 30
0.0
 40
2.0
  1
!GENTITLE-LL
100
AcDbText
  0
POINT
  5
F515
330
1F
100
AcDbEntity
  8
0
 60
     1
100
AcDbPoint
 10
3683.521900791263
 20
725.1797858262184
 30
0.0
1001
GENIUS_GENOBJ-N-TIT_13
1002
{
1000
OWNER
1000
GEN
1002
}
1001
GENIUS_GENOENT_13
1002
{
1000
MYREF
1005
F515
1002
}
1002
{
1000
GRP
1005
0
1002
}
1001
GENIUS_GENOLIS_13
1002
{
1000
ENT
1005
0
1005
0
1002
}
1001
GENIUS_GENTITLE_13
1002
{
1000
SCALE
1000
1:1
1002
}
1002
{
1000
BORDER
1000
GEN_A3
1002
}
1002
{
1000
TITLE
1000
GENTITLE
1002
}
1002
{
1000
UNCHG
1002
{
1000
GEN-TITLE-SCA
1000
GEN-TITLE-SIZ
1002
}
1002
}
1002
{
1000
HRA
1005
0
1002
}
1002
{
1000
HTIT
1005
0
1002
}
1002
{
1000
GENIUSID
1005
F515
1002
}
1001
GENIUS_GENODEF_13
1002
{
1000
HIER
1070
     1
1002
}
1002
{
1000
MANEDIT
1070
     0
1002
}
1002
{
1000
NOSEL
1070
     0
1002
}
1002
{
1000
BEHIND
1070
     0
1002
}
1002
{
1000
REACTOR
1002
}
  0
TEXT
  5
F516
330
1F
100
AcDbEntity
  8
0
 60
     1
100
AcDbText
 10
4178.059223511247
 20
1103.637680678797
 30
0.0
 40
2.0
  1
!GENTITLE-MAX
100
AcDbText
  0
TEXT
  5
F517
330
1F
100
AcDbEntity
  8
0
 60
     1
100
AcDbText
 10
4168.059223511247
 20
1093.637680678797
 30
0.0
 40
2.0
  1
!GENTITLE-RU
100
AcDbText
  0
TEXT
  5
F518
330
1F
100
AcDbEntity
  8
0
 60
     1
100
AcDbText
 10
4168.059223511247
 20
811.637680678797
 30
0.0
 40
2.0
  1
!GENTITLE-INSERT
100
AcDbText
  0
TEXT
  5
F519
330
1F
100
AcDbEntity
  8
0
 60
     1
100
AcDbText
 10
3768.059223511247
 20
816.6376806787971
 30
0.0
 40
2.0
  1
!GENTITLE-LL
100
AcDbText
  0
POINT
  5
F51B
330
1F
100
AcDbEntity
  8
0
 60
     1
100
AcDbPoint
 10
45831.78329324749
 20
-19508.42153534555
 30
0.0
1001
GENIUS_GENOBJ-N-TIT_13
1002
{
1000
OWNER
1000
GEN
1002
}
1001
GENIUS_GENOENT_13
1002
{
1000
MYREF
1005
F51B
1002
}
1002
{
1000
GRP
1005
0
1002
}
1001
GENIUS_GENOLIS_13
1002
{
1000
ENT
1005
0
1005
0
1002
}
1001
GENIUS_GENTITLE_13
1002
{
1000
SCALE
1000
1:1
1002
}
1002
{
1000
BORDER
1000
GEN_A3
1002
}
1002
{
1000
TITLE
1000
GENTITLE
1002
}
1002
{
1000
UNCHG
1002
{
1000
GEN-TITLE-SCA
1000
GEN-TITLE-SIZ
1002
}
1002
}
1002
{
1000
HRA
1005
0
1002
}
1002
{
1000
HTIT
1005
0
1002
}
1002
{
1000
GENIUSID
1005
F51B
1002
}
1001
GENIUS_GENODEF_13
1002
{
1000
HIER
1070
     1
1002
}
1002
{
1000
MANEDIT
1070
     0
1002
}
1002
{
1000
NOSEL
1070
     0
1002
}
1002
{
1000
BEHIND
1070
     0
1002
}
1002
{
1000
REACTOR
1002
}
  0
TEXT
  5
F51C
330
1F
100
AcDbEntity
  8
0
 60
     1
100
AcDbText
 10
46326.32061596748
 20
-19129.96364049297
 30
0.0
 40
2.0
  1
!GENTITLE-MAX
100
AcDbText
  0
TEXT
  5
F51D
330
1F
100
AcDbEntity
  8
0
 60
     1
100
AcDbText
 10
46316.32061596747
 20
-19139.96364049298
 30
0.0
 40
2.0
  1
!GENTITLE-RU
100
AcDbText
  0
TEXT
  5
F51E
330
1F
100
AcDbEntity
  8
0
 60
     1
100
AcDbText
 10
46316.32061596747
 20
-19421.96364049298
 30
0.0
 40
2.0
  1
!GENTITLE-INSERT
100
AcDbText
  0
TEXT
  5
F51F
330
1F
100
AcDbEntity
  8
0
 60
     1
100
AcDbText
 10
45916.32061596748
 20
-19416.96364049297
 30
0.0
 40
2.0
  1
!GENTITLE-LL
100
AcDbText
  0
MTEXT
  5
47925
102
{ACAD_XDICTIONARY
360
4A3DA
102
}
330
1F
100
AcDbEntity
  8
图框
 62
     3
100
AcDbMText
 10
2293.787070033147
 20
646.9439674821432
 30
0.0
 40
1.492756787517073
 41
7.75088170578932
 71
     5
 72
     5
  1
TC CHEN
  7
Romans字体
 73
     1
 44
1.0
1001
AcDbBlockRepETag
1070
     1
1071
        0
1005
47925
1001
ACAD
1000
ACAD_MTEXT_DEFINED_HEIGHT_BEGIN
1070
    46
1040
3.146329187255509
1000
ACAD_MTEXT_DEFINED_HEIGHT_END
  0
MTEXT
  5
47926
330
1F
100
AcDbEntity
  8
图框
 62
     3
100
AcDbMText
 10
2301.478106862264
 20
646.9439674821432
 30
0.0
 40
1.243963989597562
 41
7.631191952445306
 71
     5
 72
     5
  1
{\W0.7;12.05.2016}
  7
Romans字体
 73
     1
 44
1.0
1001
AcDbBlockRepETag
1070
     1
1071
        1
1005
47926
1001
ACAD
1000
ACAD_MTEXT_DEFINED_HEIGHT_BEGIN
1070
    46
1040
3.146329187255521
1000
ACAD_MTEXT_DEFINED_HEIGHT_END
  0
MTEXT
  5
47927
330
1F
100
AcDbEntity
  8
图框
 62
     3
100
AcDbMText
 10
2316.195949560129
 20
640.6513091076321
 30
0.0
 40
1.492756787517073
 41
8.824382084423074
 71
     5
 72
     5
  1
YY LUO
  7
Romans字体
 73
     1
 44
1.0
1001
AcDbBlockRepETag
1070
     1
1071
        2
1005
47927
1001
ACAD
1000
ACAD_MTEXT_DEFINED_HEIGHT_BEGIN
1070
    46
1040
3.146329187255727
1000
ACAD_MTEXT_DEFINED_HEIGHT_END
  0
MTEXT
  5
47928
330
1F
100
AcDbEntity
  8
图框
 62
     3
100
AcDbMText
 10
2324.446223265583
 20
640.6513091076321
 30
0.0
 40
1.243963989597562
 41
7.67616532648638
 71
     5
 72
     5
  1
{\W0.7;12.05.2016}
  7
Romans字体
 73
     1
 44
1.0
1001
AcDbBlockRepETag
1070
     1
1071
        3
1005
47928
1001
ACAD
1000
ACAD_MTEXT_DEFINED_HEIGHT_BEGIN
1070
    46
1040
3.146329187255747
1000
ACAD_MTEXT_DEFINED_HEIGHT_END
  0
MTEXT
  5
4792D
330
1F
100
AcDbEntity
  8
图框
 62
     3
100
AcDbMText
 10
2293.787070033147
 20
643.7976382948877
 30
0.0
 40
1.492756787517073
 41
7.75088170578932
 71
     5
 72
     5
  1
ZM LIN
  7
Romans字体
 73
     1
 44
1.0
1001
AcDbBlockRepETag
1070
     1
1071
        8
1005
4792D
1001
ACAD
1000
ACAD_MTEXT_DEFINED_HEIGHT_BEGIN
1070
    46
1040
3.146329187255166
1000
ACAD_MTEXT_DEFINED_HEIGHT_END
  0
MTEXT
  5
4792E
330
1F
100
AcDbEntity
  8
图框
 62
     3
100
AcDbMText
 10
2301.478106862264
 20
643.6828584064486
 30
0.0
 40
1.243963989597562
 41
7.631191952445249
 71
     5
 72
     5
  1
{\W0.7;12.05.2016}
  7
Romans字体
 73
     1
 44
1.0
1001
AcDbBlockRepETag
1070
     1
1071
        9
1005
4792E
1001
ACAD
1000
ACAD_MTEXT_DEFINED_HEIGHT_BEGIN
1070
    46
1040
3.375888964133241
1000
ACAD_MTEXT_DEFINED_HEIGHT_END
  0
MTEXT
  5
4792F
330
1F
100
AcDbEntity
  8
图框
 62
     3
100
AcDbMText
 10
2316.195949560129
 20
646.9439674821431
 30
0.0
 40
1.492756787517073
 41
8.824382084423074
 71
     5
 72
     5
  1
-
  7
Romans字体
 73
     1
 44
1.0
1001
AcDbBlockRepETag
1070
     1
1071
       10
1005
4792F
1001
ACAD
1000
ACAD_MTEXT_DEFINED_HEIGHT_BEGIN
1070
    46
1040
3.146329187255698
1000
ACAD_MTEXT_DEFINED_HEIGHT_END
  0
MTEXT
  5
47930
330
1F
100
AcDbEntity
  8
图框
 62
     3
100
AcDbMText
 10
2324.446223265583
 20
646.9439674821431
 30
0.0
 40
1.243963989597562
 41
7.676165326486325
 71
     5
 72
     5
  1
-
  7
Romans字体
 73
     1
 44
1.0
1001
AcDbBlockRepETag
1070
     1
1071
       11
1005
47930
1001
ACAD
1000
ACAD_MTEXT_DEFINED_HEIGHT_BEGIN
1070
    46
1040
3.146329187255691
1000
ACAD_MTEXT_DEFINED_HEIGHT_END
  0
MTEXT
  5
47931
330
1F
100
AcDbEntity
  8
图框
 62
     3
100
AcDbMText
 10
2293.787070033147
 20
640.6513091076321
 30
0.0
 40
1.492756787517073
 41
7.750881705789312
 71
     5
 72
     5
  1
-
  7
Romans字体
 73
     1
 44
1.0
1001
AcDbBlockRepETag
1070
     1
1071
       12
1005
47931
1001
ACAD
1000
ACAD_MTEXT_DEFINED_HEIGHT_BEGIN
1070
    46
1040
3.146329187255739
1000
ACAD_MTEXT_DEFINED_HEIGHT_END
  0
MTEXT
  5
47932
330
1F
100
AcDbEntity
  8
图框
 62
     3
100
AcDbMText
 10
2301.478106862264
 20
640.6513091076321
 30
0.0
 40
1.243963989597562
 41
7.631191952445306
 71
     5
 72
     5
  1
-
  7
Romans字体
 73
     1
 44
1.0
1001
AcDbBlockRepETag
1070
     1
1071
       13
1005
47932
1001
ACAD
1000
ACAD_MTEXT_DEFINED_HEIGHT_BEGIN
1070
    46
1040
3.146329187255747
1000
ACAD_MTEXT_DEFINED_HEIGHT_END
  0
MTEXT
  5
479B8
330
1F
100
AcDbEntity
  8
图框
 62
     3
100
AcDbMText
 10
2336.406317254619
 20
644.9816308335963
 30
0.0
 40
1.492756787517073
 41
5.414674217195567
 71
     5
 72
     5
  1
V1.0
  7
Romans字体
 73
     1
 44
1.0
1001
AcDbBlockRepETag
1070
     1
1071
      147
1005
479B8
1001
ACAD
1000
ACAD_MTEXT_DEFINED_HEIGHT_BEGIN
1070
    46
1040
3.94304730060565
1000
ACAD_MTEXT_DEFINED_HEIGHT_END
  0
INSERT
  5
47A40
330
1F
100
AcDbEntity
  8
Dim
100
AcDbBlockReference
  2
A4
 10
1724.884465136954
 20
517.112064552406
 30
0.0
 41
0.25
 42
0.25
 43
0.25
  0
MTEXT
  5
47E8B
330
1F
100
AcDbEntity
  8
图框
 62
     3
100
AcDbMText
 10
2331.259174730579
 20
644.9816308335963
 30
0.0
 40
1.492756787517073
 41
5.414674217195567
 71
     5
 72
     5
  1
2:1
  7
Romans字体
 73
     1
 44
1.0
1001
AcDbBlockRepETag
1070
     1
1071
      147
1005
479B8
1001
ACAD
1000
ACAD_MTEXT_DEFINED_HEIGHT_BEGIN
1070
    46
1040
3.94304730060565
1000
ACAD_MTEXT_DEFINED_HEIGHT_END
  0
MTEXT
  5
4842B
330
1F
100
AcDbEntity
  8
图框
 62
     3
100
AcDbMText
 10
2365.018475502717
 20
651.6816513227372
 30
0.0
 40
1.194205430013659
 41
13.44495679696855
 71
     5
 72
     5
  1
1620033241011
  7
Romans字体
 73
     1
 44
1.0
1001
AcDbBlockRepETag
1070
     1
1071
        6
1005
4792B
1001
ACAD
1000
ACAD_MTEXT_DEFINED_HEIGHT_BEGIN
1070
    46
1040
4.52848367352089
1000
ACAD_MTEXT_DEFINED_HEIGHT_END
  0
MTEXT
  5
4842C
330
1F
100
AcDbEntity
  8
图框
 62
     3
100
AcDbMText
 10
2365.018475502717
 20
656.1177290967207
 30
0.0
 40
1.194205430013659
 41
13.44495679696855
 71
     5
 72
     5
  1
M8-F03-BKR-M8-D0.5
  7
Romans字体
 73
     1
 44
1.0
1001
AcDbBlockRepETag
1070
     1
1071
        6
1005
4792B
1001
ACAD
1000
ACAD_MTEXT_DEFINED_HEIGHT_BEGIN
1070
    46
1040
3.622786938816711
1000
ACAD_MTEXT_DEFINED_HEIGHT_END
  0
MTEXT
  5
484CF
330
1F
100
AcDbEntity
  8
图框
 62
     3
100
AcDbMText
 10
2341.820991471815
 20
644.9816308335972
 30
0.0
 40
1.492756787517073
 41
5.414674217195567
 71
     5
 72
     5
  1
12.3g
  7
Romans字体
 73
     1
 44
1.0
1001
AcDbBlockRepETag
1070
     1
1071
      147
1005
479B8
1001
ACAD
1000
ACAD_MTEXT_DEFINED_HEIGHT_BEGIN
1070
    46
1040
3.94304730060565
1000
ACAD_MTEXT_DEFINED_HEIGHT_END
  0
LINE
  5
490B9
330
1F
100
AcDbEntity
  8
0
  6
Continuous
 62
     7
100
AcDbLine
 10
2310.809093273278
 20
696.0858272304742
 30
0.0
 11
2310.809093273278
 21
695.4858272304747
 31
0.0
  0
LINE
  5
490BA
330
1F
100
AcDbEntity
  8
0
  6
Continuous
 62
     7
100
AcDbLine
 10
2310.809093273278
 20
694.3358272304742
 30
0.0
 11
2310.809093273278
 21
693.7358272304747
 31
0.0
  0
LINE
  5
490BB
330
1F
100
AcDbEntity
  8
0
  6
Continuous
 62
     7
100
AcDbLine
 10
2297.109548494895
 20
701.0358272304739
 30
0.0
 11
2297.359548494895
 21
701.5358272304739
 31
0.0
  0
LINE
  5
490BC
330
1F
100
AcDbEntity
  8
0
  6
Continuous
 62
     7
100
AcDbLine
 10
2308.109093273277
 20
696.3857343041745
 30
0.0
 11
2308.109093273277
 21
695.1859201568741
 31
0.0
  0
LINE
  5
490BD
330
1F
100
AcDbEntity
  8
0
  6
Continuous
 62
     7
100
AcDbLine
 10
2308.109093273277
 20
694.6357343041746
 30
0.0
 11
2308.109093273277
 21
693.435920156874
 31
0.0
  0
LINE
  5
490BE
330
1F
100
AcDbEntity
  8
0
  6
Continuous
 62
     7
100
AcDbLine
 10
2300.859548494895
 20
701.5358272304739
 30
0.0
 11
2297.359548494895
 21
701.5358272304739
 31
0.0
  0
LINE
  5
490BF
330
1F
100
AcDbEntity
  8
0
  6
Continuous
 62
     7
100
AcDbLine
 10
2300.859548494895
 20
701.4442962587747
 30
0.0
 11
2297.359548494895
 21
701.4442962587747
 31
0.0
  0
LINE
  5
490C0
330
1F
100
AcDbEntity
  8
0
  6
Continuous
 62
     7
100
AcDbLine
 10
2307.409548494895
 20
701.0358272304739
 30
0.0
 11
2303.309548494896
 21
701.0358272304739
 31
0.0
  0
LINE
  5
490C1
330
1F
100
AcDbEntity
  8
0
  6
Continuous
 62
     7
100
AcDbLine
 10
2301.609548494895
 20
699.3858272304744
 30
0.0
 11
2301.326042847495
 21
699.3858272304744
 31
0.0
  0
LINE
  5
490C2
330
1F
100
AcDbEntity
  8
0
  6
Continuous
 62
     7
100
AcDbLine
 10
2300.859548494895
 20
698.7517138551741
 30
0.0
 11
2297.359548494895
 21
698.7517138551741
 31
0.0
  0
LINE
  5
490C3
330
1F
100
AcDbEntity
  8
0
  6
Continuous
 62
     7
100
AcDbLine
 10
2300.859548494895
 20
696.7284096340748
 30
0.0
 11
2297.359548494895
 21
696.7284096340748
 31
0.0
  0
LINE
  5
490C4
102
{ACAD_REACTORS
330
490F9
102
}
330
1F
100
AcDbEntity
  8
0
  6
Continuous
 62
     7
100
AcDbLine
 10
2307.609548494895
 20
696.3858272304744
 30
0.0
 11
2308.109093273277
 21
696.3858272304744
 31
0.0
  0
LINE
  5
490C5
330
1F
100
AcDbEntity
  8
0
  6
Continuous
 62
     7
100
AcDbLine
 10
2308.109093273277
 20
696.0858272304742
 30
0.0
 11
2310.809093273278
 21
696.0858272304742
 31
0.0
  0
LINE
  5
490C6
330
1F
100
AcDbEntity
  8
0
  6
Continuous
 62
     7
100
AcDbLine
 10
2308.109093273277
 20
695.4858272304747
 30
0.0
 11
2310.809093273278
 21
695.4858272304747
 31
0.0
  0
LINE
  5
490C7
330
1F
100
AcDbEntity
  8
0
  6
Continuous
 62
     7
100
AcDbLine
 10
2307.609548494895
 20
695.1858272304747
 30
0.0
 11
2308.109093273277
 21
695.1858272304747
 31
0.0
  0
LINE
  5
490C8
330
1F
100
AcDbEntity
  8
0
  6
Continuous
 62
     7
100
AcDbLine
 10
2300.859548494895
 20
686.5358272304741
 30
0.0
 11
2301.109548494895
 21
687.035827230474
 31
0.0
  0
LINE
  5
490C9
330
1F
100
AcDbEntity
  8
0
  6
Continuous
 62
     7
100
AcDbLine
 10
2307.609548494895
 20
700.8358272304742
 30
0.0
 11
2307.609548494895
 21
687.2358272304746
 31
0.0
  0
LINE
  5
490CA
330
1F
100
AcDbEntity
  8
0
  6
Continuous
 62
     7
100
AcDbLine
 10
2307.409548494895
 20
701.0358272304739
 30
0.0
 11
2307.409548494895
 21
687.035827230474
 31
0.0
  0
LINE
  5
490CB
330
1F
100
AcDbEntity
  8
0
  6
Continuous
 62
     7
100
AcDbLine
 10
2307.609548494895
 20
694.6358272304744
 30
0.0
 11
2308.109093273277
 21
694.6358272304744
 31
0.0
  0
LINE
  5
490CC
102
{ACAD_REACTORS
330
4910B
102
}
330
1F
100
AcDbEntity
  8
0
  6
Continuous
 62
     7
100
AcDbLine
 10
2308.109093273277
 20
694.3358272304742
 30
0.0
 11
2310.809093273278
 21
694.3358272304742
 31
0.0
  0
LINE
  5
490CD
102
{ACAD_REACTORS
330
4910B
102
}
330
1F
100
AcDbEntity
  8
0
  6
Continuous
 62
     7
100
AcDbLine
 10
2308.109093273277
 20
693.7358272304747
 30
0.0
 11
2310.809093273278
 21
693.7358272304747
 31
0.0
  0
LINE
  5
490CE
330
1F
100
AcDbEntity
  8
0
  6
Continuous
 62
     7
100
AcDbLine
 10
2307.609548494895
 20
693.4358272304747
 30
0.0
 11
2308.109093273277
 21
693.4358272304747
 31
0.0
  0
LINE
  5
490CF
330
1F
100
AcDbEntity
  8
0
  6
Continuous
 62
     7
100
AcDbLine
 10
2301.201733694296
 20
695.9170150479742
 30
0.0
 11
2301.109548494895
 21
695.9731586408744
 31
0.0
  0
LINE
  5
490D0
330
1F
100
AcDbEntity
  8
0
  6
Continuous
 62
     7
100
AcDbLine
 10
2300.859548494895
 20
701.5358272304739
 30
0.0
 11
2301.109548494895
 21
701.0358272304739
 31
0.0
  0
LINE
  5
490D1
330
1F
100
AcDbEntity
  8
0
  6
Continuous
 62
     7
100
AcDbLine
 10
2301.109548494895
 20
699.7635630861744
 30
0.0
 11
2301.327320130494
 21
699.3865650739746
 31
0.0
  0
LINE
  5
490D2
330
1F
100
AcDbEntity
  8
0
  6
Continuous
 62
     7
100
AcDbLine
 10
2300.859548494895
 20
691.3432448269742
 30
0.0
 11
2297.359548494895
 21
691.3432448269742
 31
0.0
  0
LINE
  5
490D3
330
1F
100
AcDbEntity
  8
0
  6
Continuous
 62
     7
100
AcDbLine
 10
2303.309548494896
 20
701.0358272304739
 30
0.0
 11
2303.309548494896
 21
687.035827230474
 31
0.0
  0
LINE
  5
490D4
330
1F
100
AcDbEntity
  8
0
  6
Continuous
 62
     7
100
AcDbLine
 10
2303.109548494895
 20
700.8358272304742
 30
0.0
 11
2303.109548494895
 21
687.2358272304746
 31
0.0
  0
LINE
  5
490D5
330
1F
100
AcDbEntity
  8
0
  6
Continuous
 62
     7
100
AcDbLine
 10
2300.859548494895
 20
689.3199406057739
 30
0.0
 11
2297.359548494895
 21
689.3199406057739
 31
0.0
  0
LINE
  5
490D6
330
1F
100
AcDbEntity
  8
0
  6
Continuous
 62
     7
100
AcDbLine
 10
2301.609548494895
 20
688.6858272304747
 30
0.0
 11
2301.109548494895
 21
688.6858272304747
 31
0.0
  0
LINE
  5
490D7
330
1F
100
AcDbEntity
  8
0
  6
Continuous
 62
     7
100
AcDbLine
 10
2301.609548494895
 20
700.0358272304739
 30
0.0
 11
2301.609548494895
 21
688.0358272304739
 31
0.0
  0
LINE
  5
490D8
102
{ACAD_REACTORS
330
490FD
102
}
330
1F
100
AcDbEntity
  8
0
  6
Continuous
 62
     7
100
AcDbLine
 10
2301.109548494895
 20
687.035827230474
 30
0.0
 11
2301.109548494895
 21
701.0358272304739
 31
0.0
  0
LINE
  5
490D9
330
1F
100
AcDbEntity
  8
0
  6
Continuous
 62
     7
100
AcDbLine
 10
2300.859548494895
 20
701.5358272304739
 30
0.0
 11
2300.859548494895
 21
701.4442962587747
 31
0.0
  0
LINE
  5
490DA
330
1F
100
AcDbEntity
  8
0
  6
Continuous
 62
     7
100
AcDbLine
 10
2300.859548494895
 20
698.7517138551741
 30
0.0
 11
2300.859548494895
 21
696.7284096340748
 31
0.0
  0
LINE
  5
490DB
330
1F
100
AcDbEntity
  8
0
  6
Continuous
 62
     7
100
AcDbLine
 10
2300.859548494895
 20
691.3432448269742
 30
0.0
 11
2300.859548494895
 21
689.3199406057739
 31
0.0
  0
LINE
  5
490DC
330
1F
100
AcDbEntity
  8
0
  6
Continuous
 62
     7
100
AcDbLine
 10
2300.859548494895
 20
686.6273582022742
 30
0.0
 11
2300.859548494895
 21
686.5358272304741
 31
0.0
  0
LINE
  5
490DD
330
1F
100
AcDbEntity
  8
0
  6
Continuous
 62
     7
100
AcDbLine
 10
2307.409548494895
 20
687.035827230474
 30
0.0
 11
2303.309548494896
 21
687.035827230474
 31
0.0
  0
LINE
  5
490DE
330
1F
100
AcDbEntity
  8
0
  6
Continuous
 62
     7
100
AcDbLine
 10
2300.859548494895
 20
686.6273582022742
 30
0.0
 11
2297.359548494895
 21
686.6273582022742
 31
0.0
  0
LINE
  5
490DF
330
1F
100
AcDbEntity
  8
0
  6
Continuous
 62
     7
100
AcDbLine
 10
2300.859548494895
 20
686.5358272304741
 30
0.0
 11
2297.359548494895
 21
686.5358272304741
 31
0.0
  0
LINE
  5
490E0
102
{ACAD_REACTORS
330
4910E
102
}
330
1F
100
AcDbEntity
  8
0
  6
Continuous
 62
     7
100
AcDbLine
 10
2297.359548494895
 20
701.5358272304739
 30
0.0
 11
2297.359548494895
 21
701.4442962587747
 31
0.0
  0
LINE
  5
490E1
330
1F
100
AcDbEntity
  8
0
  6
Continuous
 62
     7
100
AcDbLine
 10
2297.359548494895
 20
686.6273582022742
 30
0.0
 11
2297.359548494895
 21
686.5358272304741
 31
0.0
  0
LINE
  5
490E2
102
{ACAD_REACTORS
330
490FD
102
}
330
1F
100
AcDbEntity
  8
0
  6
Continuous
 62
     7
100
AcDbLine
 10
2297.109548494895
 20
687.035827230474
 30
0.0
 11
2297.109548494895
 21
701.0358272304739
 31
0.0
  0
LINE
  5
490E3
102
{ACAD_REACTORS
330
4910E
102
}
330
1F
100
AcDbEntity
  8
0
  6
Continuous
 62
     7
100
AcDbLine
 10
2297.109548494895
 20
687.035827230474
 30
0.0
 11
2297.359548494895
 21
686.5358272304741
 31
0.0
  0
ARC
  5
490E4
330
1F
100
AcDbEntity
  8
0
  6
Continuous
 62
     7
100
AcDbCircle
 10
3098.661890954496
 20
670.7339969121742
 30
0.0
 40
797.8576858186999
100
AcDbArc
 50
178.1912559545404
 51
178.3264103031143
  0
ARC
  5
490E5
330
1F
100
AcDbEntity
  8
0
  6
Continuous
 62
     7
100
AcDbCircle
 10
2302.359548494895
 20
700.0358272304739
 30
0.0
 40
0.75
100
AcDbArc
 50
0.0
 51
180.0
  0
ARC
  5
490E6
330
1F
100
AcDbEntity
  8
0
  6
Continuous
 62
     7
100
AcDbCircle
 10
2302.359548494895
 20
688.0358272304739
 30
0.0
 40
0.75
100
AcDbArc
 50
180.0
 51
0.0
  0
ARC
  5
490E7
330
1F
100
AcDbEntity
  8
0
  6
Continuous
 62
     7
100
AcDbCircle
 10
2310.809093273278
 20
695.7858272304739
 30
0.0
 40
0.3
100
AcDbArc
 50
270.0
 51
90.0
  0
ARC
  5
490E8
330
1F
100
AcDbEntity
  8
0
  6
Continuous
 62
     7
100
AcDbCircle
 10
2310.809093273278
 20
694.0358272304741
 30
0.0
 40
0.3
100
AcDbArc
 50
270.0
 51
90.0
  0
ARC
  5
490E9
330
1F
100
AcDbEntity
  8
0
  6
Continuous
 62
     7
100
AcDbCircle
 10
2307.409548494895
 20
687.2358272304746
 30
0.0
 40
0.2
100
AcDbArc
 50
270.0
 51
0.0
  0
ARC
  5
490EA
102
{ACAD_REACTORS
330
490F9
102
}
330
1F
100
AcDbEntity
  8
0
  6
Continuous
 62
     7
100
AcDbCircle
 10
2307.409548494895
 20
700.8358272304742
 30
0.0
 40
0.2
100
AcDbArc
 50
0.0
 51
90.0
  0
ARC
  5
490EB
330
1F
100
AcDbEntity
  8
0
  6
Continuous
 62
     7
100
AcDbCircle
 10
2303.309548494896
 20
687.2358272304746
 30
0.0
 40
0.2
100
AcDbArc
 50
180.0
 51
270.0
  0
ARC
  5
490EC
330
1F
100
AcDbEntity
  8
0
  6
Continuous
 62
     7
100
AcDbCircle
 10
2303.309548494896
 20
700.8358272304742
 30
0.0
 40
0.2
100
AcDbArc
 50
90.0
 51
180.0
  0
SPLINE
  5
490ED
330
1F
100
AcDbEntity
  8
0
  6
Continuous
 62
     7
100
AcDbSpline
210
0.0
220
0.0
230
1.0
 70
     8
 71
     3
 72
     9
 73
     5
 74
     0
 42
0.0000000001
 43
0.0000000001
 40
0.0
 40
0.0
 40
0.0
 40
0.0
 40
0.5060034244000004
 40
1.0
 40
1.0
 40
1.0
 40
1.0
 10
2300.859548494895
 20
698.7517138551741
 30
0.0
 10
2300.937885469095
 20
698.9699160188741
 30
0.0
 10
2301.063984537595
 20
699.4125422065747
 30
0.0
 10
2301.109548494895
 20
699.8716682763745
 30
0.0
 10
2301.109548494895
 20
700.0980050569743
 30
0.0
  0
SPLINE
  5
490EE
330
1F
100
AcDbEntity
  8
0
  6
Continuous
 62
     7
100
AcDbSpline
210
0.0
220
0.0
230
1.0
 70
     8
 71
     3
 72
     9
 73
     5
 74
     0
 42
0.0000000001
 43
0.0000000001
 40
0.0
 40
0.0
 40
0.0
 40
0.0
 40
0.4939965805
 40
1.0
 40
1.0
 40
1.0
 40
1.0
 10
2301.109548494895
 20
700.0980050569743
 30
0.0
 10
2301.109548494895
 20
700.3243418398746
 30
0.0
 10
2301.063984536995
 20
700.7834679096742
 30
0.0
 10
2300.937885468296
 20
701.2260940972748
 30
0.0
 10
2300.859548494895
 20
701.4442962587747
 30
0.0
  0
SPLINE
  5
490EF
330
1F
100
AcDbEntity
  8
0
  6
Continuous
 62
     7
100
AcDbSpline
210
0.0
220
0.0
230
1.0
 70
     8
 71
     3
 72
     9
 73
     5
 74
     0
 42
0.0000000001
 43
0.0000000001
 40
0.0
 40
0.0
 40
0.0
 40
0.0
 40
0.4939965805
 40
1.0
 40
1.0
 40
1.0
 40
1.0
 10
2297.109548494895
 20
700.0980050569743
 30
0.0
 10
2297.109548494895
 20
700.3243418398746
 30
0.0
 10
2297.155112452895
 20
700.7834679096742
 30
0.0
 10
2297.281211521495
 20
701.2260940972748
 30
0.0
 10
2297.359548494895
 20
701.4442962587747
 30
0.0
  0
SPLINE
  5
490F0
330
1F
100
AcDbEntity
  8
0
  6
Continuous
 62
     7
100
AcDbSpline
210
0.0
220
0.0
230
1.0
 70
     8
 71
     3
 72
     9
 73
     5
 74
     0
 42
0.0000000001
 43
0.0000000001
 40
0.0
 40
0.0
 40
0.0
 40
0.0
 40
0.5000165563000003
 40
1.0
 40
1.0
 40
1.0
 40
1.0
 10
2300.859548494895
 20
691.3432448269742
 30
0.0
 10
2300.939260323095
 20
691.7873082735742
 30
0.0
 10
2301.065346743695
 20
692.6818975168746
 30
0.0
 10
2301.109548494895
 20
693.5846960276742
 30
0.0
 10
2301.109548494895
 20
694.0358272304741
 30
0.0
  0
SPLINE
  5
490F1
330
1F
100
AcDbEntity
  8
0
  6
Continuous
 62
     7
100
AcDbSpline
210
0.0
220
0.0
230
1.0
 70
     8
 71
     3
 72
     9
 73
     5
 74
     0
 42
0.0000000001
 43
0.0000000001
 40
0.0
 40
0.0
 40
0.0
 40
0.0
 40
0.4999834462
 40
1.0
 40
1.0
 40
1.0
 40
1.0
 10
2301.109548494895
 20
694.0358272304741
 30
0.0
 10
2301.109548494895
 20
694.4869584356738
 30
0.0
 10
2301.065346743395
 20
695.3897569463745
 30
0.0
 10
2300.939260322695
 20
696.2843461896746
 30
0.0
 10
2300.859548494895
 20
696.7284096340748
 30
0.0
  0
SPLINE
  5
490F2
330
1F
100
AcDbEntity
  8
0
  6
Continuous
 62
     7
100
AcDbSpline
210
0.0
220
0.0
230
1.0
 70
     8
 71
     3
 72
     9
 73
     5
 74
     0
 42
0.0000000001
 43
0.0000000001
 40
0.0
 40
0.0
 40
0.0
 40
0.0
 40
0.5060034244000004
 40
1.0
 40
1.0
 40
1.0
 40
1.0
 10
2300.859548494895
 20
686.6273582022742
 30
0.0
 10
2300.937885469095
 20
686.8455603658742
 30
0.0
 10
2301.063984537595
 20
687.2881865535746
 30
0.0
 10
2301.109548494895
 20
687.7473126233748
 30
0.0
 10
2301.109548494895
 20
687.9736494039746
 30
0.0
  0
SPLINE
  5
490F3
330
1F
100
AcDbEntity
  8
0
  6
Continuous
 62
     7
100
AcDbSpline
210
0.0
220
0.0
230
1.0
 70
     8
 71
     3
 72
     9
 73
     5
 74
     0
 42
0.0000000001
 43
0.0000000001
 40
0.0
 40
0.0
 40
0.0
 40
0.0
 40
0.4939965805
 40
1.0
 40
1.0
 40
1.0
 40
1.0
 10
2301.109548494895
 20
687.9736494039746
 30
0.0
 10
2301.109548494895
 20
688.1999861868746
 30
0.0
 10
2301.063984536995
 20
688.659112256774
 30
0.0
 10
2300.937885468296
 20
689.1017384442741
 30
0.0
 10
2300.859548494895
 20
689.3199406057739
 30
0.0
  0
SPLINE
  5
490F4
330
1F
100
AcDbEntity
  8
0
  6
Continuous
 62
     7
100
AcDbSpline
210
0.0
220
0.0
230
1.0
 70
     8
 71
     3
 72
     9
 73
     5
 74
     0
 42
0.0000000001
 43
0.0000000001
 40
0.0
 40
0.0
 40
0.0
 40
0.0
 40
0.5060034244000004
 40
1.0
 40
1.0
 40
1.0
 40
1.0
 10
2297.359548494895
 20
686.6273582022742
 30
0.0
 10
2297.281211520795
 20
686.8455603658742
 30
0.0
 10
2297.155112452295
 20
687.2881865535746
 30
0.0
 10
2297.109548494895
 20
687.7473126233748
 30
0.0
 10
2297.109548494895
 20
687.9736494039746
 30
0.0
  0
SPLINE
  5
490F5
330
1F
100
AcDbEntity
  8
0
  6
Continuous
 62
     7
100
AcDbSpline
210
0.0
220
0.0
230
1.0
 70
     8
 71
     3
 72
    24
 73
    20
 74
     0
 42
0.0000000001
 43
0.0000000001
 40
0.0
 40
0.0
 40
0.0
 40
0.0
 40
0.0015699148
 40
0.0050599007
 40
0.0106778559
 40
0.0184588846
 40
0.0284058888
 40
0.0405080908
 40
0.0711201286
 40
0.1101421561
 40
0.1573506335
 40
0.2124858453
 40
0.2752272369
 40
0.3452240199
 40
0.4220710266000001
 40
0.5053349188000002
 40
0.5945255662
 40
0.7886494713
 40
1.0
 40
1.0
 40
1.0
 40
1.0
 10
2301.326048873195
 20
699.3858250664746
 30
0.0
 10
2301.324230958295
 20
699.3858279323742
 30
0.0
 10
2301.320539109395
 20
699.3794746434744
 30
0.0
 10
2301.317657081195
 20
699.3685202685748
 30
0.0
 10
2301.313700190496
 20
699.3487871663748
 30
0.0
 10
2301.310085739595
 20
699.3222286191742
 30
0.0
 10
2301.306237621295
 20
699.2878078228742
 30
0.0
 10
2301.300720277195
 20
699.2271174089749
 30
0.0
 10
2301.294062237395
 20
699.1326686686743
 30
0.0
 10
2301.286476403295
 20
698.9975912484744
 30
0.0
 10
2301.278837581595
 20
698.8340658209747
 30
0.0
 10
2301.271165103095
 20
698.6430565891743
 30
0.0
 10
2301.263470146695
 20
698.4256395101739
 30
0.0
 10
2301.255761813395
 20
698.1830679790747
 30
0.0
 10
2301.248042162896
 20
697.9167212930745
 30
0.0
 10
2301.240315963195
 20
697.6281403604747
 30
0.0
 10
2301.229704503895
 20
697.2037853228743
 30
0.0
 10
2301.216623624795
 20
696.6311258799743
 30
0.0
 10
2301.206746696195
 20
696.161701661774
 30
0.0
 10
2301.201733694296
 20
695.9170150479742
 30
0.0
  0
SPLINE
  5
490F6
330
1F
100
AcDbEntity
  8
0
  6
Continuous
 62
     7
100
AcDbSpline
210
0.0
220
0.0
230
1.0
 70
     8
 71
     3
 72
     9
 73
     5
 74
     0
 42
0.0000000001
 43
0.0000000001
 40
0.0
 40
0.0
 40
0.0
 40
0.0
 40
0.2517835727
 40
1.0
 40
1.0
 40
1.0
 40
1.0
 10
2301.144548494895
 20
694.0358272304741
 30
0.0
 10
2301.141634701195
 20
693.9378799334747
 30
0.0
 10
2301.130061783995
 20
693.5488660983748
 30
0.0
 10
2301.118421760395
 20
693.1598542133745
 30
0.0
 10
2301.109549478695
 20
692.8687940888742
 30
0.0
  0
DIMENSION
  5
490F7
102
{ACAD_XDICTIONARY
360
490F8
102
}
102
{ACAD_REACTORS
330
490F9
102
}
330
1F
100
AcDbEntity
  8
Dim
 62
     0
100
AcDbDimension
  2
*D8
 10
2307.609548494895
 20
707.1274620493092
 30
0.0
 11
2311.866368948953
 21
707.1274620493092
 31
0.0
 70
   160
  1
0.5
 71
     5
 42
0.4995447783826421
  3
01
100
AcDbAlignedDimension
 13
2308.109093273277
 23
696.3858272304744
 33
0.0
 14
2307.609548494895
 24
700.8358272304742
 34
0.0
100
AcDbRotatedDimension
1001
ACAD
1000
DSTYLE
1002
{
1070
   340
1005
474F8
1002
}
  0
DIMENSION
  5
490FA
330
1F
100
AcDbEntity
  8
Dim
 62
     0
100
AcDbDimension
  2
*D3
 10
2311.109093273278
 20
703.2547421718632
 30
0.0
 11
2312.812816246251
 21
703.2547421718632
 31
0.0
 70
   160
  1
<>
 71
     5
 42
3.000000000001362
  3
01
100
AcDbAlignedDimension
 13
2308.109093273277
 23
696.3858272304744
 33
0.0
 14
2311.109093273278
 24
695.7858272304739
 34
0.0
100
AcDbRotatedDimension
1001
ACAD
1000
DSTYLE
1002
{
1070
   340
1005
474F8
1002
}
  0
DIMENSION
  5
490FB
102
{ACAD_XDICTIONARY
360
490FC
102
}
102
{ACAD_REACTORS
330
490FD
102
}
330
1F
100
AcDbEntity
  8
Dim
 62
     0
100
AcDbDimension
  2
*D9
 10
2297.109548494895
 20
703.1877188582869
 30
0.0
 11
2299.109548494895
 21
703.9377188582871
 31
0.0
 70
    32
 71
     5
 42
4.0
  3
01
100
AcDbAlignedDimension
 13
2301.109548494895
 23
701.0358272304739
 33
0.0
 14
2297.109548494895
 24
701.0358272304739
 34
0.0
100
AcDbRotatedDimension
1001
ACAD
1000
DSTYLE
1002
{
1070
   340
1005
474F8
1002
}
  0
DIMENSION
  5
490FE
330
1F
100
AcDbEntity
  8
Dim
 62
     0
100
AcDbDimension
  2
*D4
 10
2303.109548494896
 20
707.2481084589018
 30
0.0
 11
2297.859548494896
 21
707.9981084589018
 31
0.0
 70
    32
 71
     5
 42
10.50000000000091
  3
01
100
AcDbAlignedDimension
 13
2292.609548494895
 23
698.8358272304743
 33
0.0
 14
2303.109548494896
 24
700.8358272304742
 34
0.0
100
AcDbRotatedDimension
1001
ACAD
1000
DSTYLE
1002
{
1070
   340
1005
474F8
1002
}
  0
LINE
  5
490FF
330
1F
100
AcDbEntity
  8
Dim
 62
     6
100
AcDbLine
 10
2303.109548494895
 20
687.1530786372511
 30
0.0
 11
2303.109548494895
 21
682.5000682371002
 31
0.0
  0
LINE
  5
49100
330
1F
100
AcDbEntity
  8
Dim
 62
     6
100
AcDbLine
 10
2301.109548494895
 20
686.7808272304742
 30
0.0
 11
2301.109548494895
 21
682.5000682371002
 31
0.0
  0
LINE
  5
49101
330
1F
100
AcDbEntity
  8
Dim
 62
     1
100
AcDbLine
 10
2299.919548494895
 20
682.8400682371002
 30
0.0
 11
2298.729548494895
 21
682.8400682371002
 31
0.0
  0
LINE
  5
49102
330
1F
100
AcDbEntity
  8
Dim
 62
     1
100
AcDbLine
 10
2304.299548494894
 20
682.8400682371002
 30
0.0
 11
2311.158220325088
 21
682.8400682371002
 31
0.0
  0
SOLID
  5
49103
330
1F
100
AcDbEntity
  8
Dim
 62
     1
100
AcDbTrace
 10
2299.919548494895
 20
683.0384015704337
 30
0.0
 11
2299.919548494895
 21
682.641734903767
 31
0.0
 12
2301.109548494895
 22
682.8400682371002
 32
0.0
 13
2301.109548494895
 23
682.8400682371002
 33
0.0
  0
SOLID
  5
49104
330
1F
100
AcDbEntity
  8
Dim
 62
     1
100
AcDbTrace
 10
2304.299548494894
 20
683.0384015704337
 30
0.0
 11
2304.299548494894
 21
682.641734903767
 31
0.0
 12
2303.109548494895
 22
682.8400682371002
 32
0.0
 13
2303.109548494895
 23
682.8400682371002
 33
0.0
  0
MTEXT
  5
49105
330
1F
100
AcDbEntity
  8
Dim
 62
     4
100
AcDbMText
 10
2308.312879784548
 20
683.8600682371003
 30
0.0
 40
1.36
 41
0.0
 71
     5
 72
     1
  1
\A1;max4.5
  7
Romans字体
 73
     1
 44
1.0
  0
DIMENSION
  5
49106
330
1F
100
AcDbEntity
  8
Dim
 62
     0
100
AcDbDimension
  2
*D5
 10
2287.103927596511
 20
688.1466653897739
 30
0.0
 11
2287.103927596511
 21
694.0390443123252
 31
0.0
 70
   160
  1
M12*1
 71
     5
 42
11.78475784509999
  3
01
100
AcDbAlignedDimension
 13
2295.019548494895
 23
699.9314232348742
 33
0.0
 14
2294.452112196195
 24
688.1466653897739
 34
0.0
 50
90.0
100
AcDbRotatedDimension
1001
ACAD
1000
DSTYLE
1002
{
1070
   340
1005
474F8
1002
}
  0
LINE
  5
49107
330
1F
100
AcDbEntity
  8
粗实线
  6
CENTER
 62
     1
 48
0.0024772536126615
370
     0
100
AcDbLine
 10
2311.109093273278
 20
694.0358272304741
 30
0.0
 11
2292.609548494895
 21
694.0358272304741
 31
0.0
  0
MTEXT
  5
49108
330
1F
100
AcDbEntity
  8
Dim
 62
     4
100
AcDbMText
 10
2308.312879784548
 20
682.0351327309715
 30
0.0
 40
1.36
 41
0.0
 71
     5
 72
     1
  1
\A1;min2.5
  7
Romans字体
 73
     1
 44
1.0
  0
DIMENSION
  5
49109
102
{ACAD_XDICTIONARY
360
4910A
102
}
102
{ACAD_REACTORS
330
4910B
102
}
330
1F
100
AcDbEntity
  8
Dim
 62
     0
100
AcDbDimension
  2
*D10
 10
2312.604300934803
 20
693.7358272304747
 30
0.0
 11
2311.854300934803
 21
689.9545772304751
 31
0.0
 70
    32
  1
%%c<>
 71
     5
 42
0.5999999999994543
  3
01
100
AcDbAlignedDimension
 13
2310.809093273278
 23
694.3358272304742
 33
0.0
 14
2310.809093273278
 24
693.7358272304747
 34
0.0
 50
90.0
100
AcDbRotatedDimension
1001
ACAD
1000
DSTYLE
1002
{
1070
   340
1005
474F8
1002
}
  0
DIMENSION
  5
4910C
102
{ACAD_XDICTIONARY
360
4910D
102
}
102
{ACAD_REACTORS
330
4910E
102
}
330
1F
100
AcDbEntity
  8
Dim
 62
     0
100
AcDbDimension
  2
*D11
 10
2284.026586295483
 20
686.5358272304741
 30
0.0
 11
2282.949205343102
 21
694.0358272304743
 31
0.0
 70
    32
  1
%%c<>/SW14
 71
     5
 42
14.99999999999988
  3
01
100
AcDbAlignedDimension
 13
2297.359548494895
 23
701.5358272304739
 33
0.0
 14
2297.359548494895
 24
686.5358272304741
 34
0.0
 50
90.0
100
AcDbRotatedDimension
1001
ACAD
1000
DSTYLE
1002
{
1070
   340
1005
474F8
1002
}
  0
DIMENSION
  5
4910F
330
1F
100
AcDbEntity
  8
Dim
 62
     0
100
AcDbDimension
  2
*D6
 10
2290.41397816794
 20
690.0352378379927
 30
0.0
 11
2290.41397816794
 21
694.0358305364346
 31
0.0
 70
   160
  1
M<>*1
 71
     5
 42
8.001185396882075
  3
01
100
AcDbAlignedDimension
 13
2292.809548494895
 23
698.0364232348748
 33
0.0
 14
2292.809548494895
 24
690.0352378379927
 34
0.0
 50
90.0
100
AcDbRotatedDimension
1001
ACAD
1000
DSTYLE
1002
{
1070
   340
1005
474F8
1002
}
  0
DIMENSION
  5
49110
330
1F
100
AcDbEntity
  8
Dim
 62
     0
100
AcDbDimension
  2
*D7
 10
2292.609548494895
 20
710.2242649701162
 30
0.0
 11
2300.109548494895
 21
710.9742649701161
 31
0.0
 70
    32
 71
     5
 42
14.99999999999909
  3
01
100
AcDbAlignedDimension
 13
2307.609548494895
 23
700.5808272304744
 33
0.0
 14
2292.609548494895
 24
698.8358272304743
 34
0.0
100
AcDbRotatedDimension
1001
ACAD
1000
DSTYLE
1002
{
1070
   340
1005
474F8
1002
}
  0
LINE
  5
49111
330
1F
100
AcDbEntity
  8
0
  6
Continuous
 62
     7
100
AcDbLine
 10
2292.609548494895
 20
689.2358272304739
 30
0.0
 11
2292.809548494895
 21
689.0358272304739
 31
0.0
  0
LINE
  5
49112
330
1F
100
AcDbEntity
  8
0
  6
Continuous
 62
     7
100
AcDbLine
 10
2293.609548494895
 20
688.6858272304738
 30
0.0
 11
2293.259548494895
 21
689.0358272304739
 31
0.0
  0
LINE
  5
49113
330
1F
100
AcDbEntity
  8
0
  6
Continuous
 62
     7
100
AcDbLine
 10
2294.409548494895
 20
688.4287822330747
 30
0.0
 11
2294.094548494896
 21
688.9476748682739
 31
0.0
  0
LINE
  5
49114
330
1F
100
AcDbEntity
  8
0
  6
Continuous
 62
     7
100
AcDbLine
 10
2294.136355114995
 20
688.6929150686738
 30
0.0
 11
2294.452112196195
 21
688.1466653897739
 31
0.0
  0
LINE
  5
49115
330
1F
100
AcDbEntity
  8
0
  6
Continuous
 62
     7
100
AcDbLine
 10
2295.452112196195
 20
688.1466653897739
 30
0.0
 11
2295.459548494895
 21
688.1402312260745
 31
0.0
  0
LINE
  5
49116
330
1F
100
AcDbEntity
  8
0
  6
Continuous
 62
     7
100
AcDbLine
 10
2295.136355114995
 20
688.6929150686738
 30
0.0
 11
2295.452112196195
 21
688.1466653897739
 31
0.0
  0
LINE
  5
49117
330
1F
100
AcDbEntity
  8
0
  6
Continuous
 62
     7
100
AcDbLine
 10
2296.452112196195
 20
688.1466653897739
 30
0.0
 11
2296.459548494895
 21
688.1402312260745
 31
0.0
  0
LINE
  5
49118
330
1F
100
AcDbEntity
  8
0
  6
Continuous
 62
     7
100
AcDbLine
 10
2294.459548494895
 20
688.1402312260745
 30
0.0
 11
2294.579548494895
 21
688.1402312260745
 31
0.0
  0
LINE
  5
49119
330
1F
100
AcDbEntity
  8
0
  6
Continuous
 62
     7
100
AcDbLine
 10
2295.459548494895
 20
688.1402312260745
 30
0.0
 11
2295.579548494895
 21
688.1402312260745
 31
0.0
  0
LINE
  5
4911A
330
1F
100
AcDbEntity
  8
0
  6
Continuous
 62
     7
100
AcDbLine
 10
2296.459548494895
 20
688.1402312260745
 30
0.0
 11
2296.579548494895
 21
688.1402312260745
 31
0.0
  0
LINE
  5
4911B
330
1F
100
AcDbEntity
  8
0
  6
Continuous
 62
     7
100
AcDbLine
 10
2294.529548494895
 20
688.4287822330747
 30
0.0
 11
2294.409548494895
 21
688.4287822330747
 31
0.0
  0
LINE
  5
4911C
330
1F
100
AcDbEntity
  8
0
  6
Continuous
 62
     7
100
AcDbLine
 10
2296.136355114995
 20
688.6929150686738
 30
0.0
 11
2296.452112196195
 21
688.1466653897739
 31
0.0
  0
LINE
  5
4911D
330
1F
100
AcDbEntity
  8
0
  6
Continuous
 62
     7
100
AcDbLine
 10
2297.109548494895
 20
688.6858272304738
 30
0.0
 11
2296.894548494895
 21
688.6858272304738
 31
0.0
  0
LINE
  5
4911E
330
1F
100
AcDbEntity
  8
0
  6
Continuous
 62
     7
100
AcDbLine
 10
2296.140452546695
 20
688.6858272304738
 30
0.0
 11
2295.894548494894
 21
688.6858272304738
 31
0.0
  0
LINE
  5
4911F
330
1F
100
AcDbEntity
  8
0
  6
Continuous
 62
     7
100
AcDbLine
 10
2295.140452546695
 20
688.6858272304738
 30
0.0
 11
2294.894548494894
 21
688.6858272304738
 31
0.0
  0
LINE
  5
49120
330
1F
100
AcDbEntity
  8
0
  6
Continuous
 62
     7
100
AcDbLine
 10
2294.140452546695
 20
688.6858272304738
 30
0.0
 11
2293.609548494895
 21
688.6858272304738
 31
0.0
  0
LINE
  5
49121
330
1F
100
AcDbEntity
  8
0
  6
Continuous
 62
     7
100
AcDbLine
 10
2293.259548494895
 20
689.0358272304739
 30
0.0
 11
2292.809548494895
 21
689.0358272304739
 31
0.0
  0
LINE
  5
49122
330
1F
100
AcDbEntity
  8
0
  6
Continuous
 62
     7
100
AcDbLine
 10
2296.418424594594
 20
690.9120391059744
 30
0.0
 11
2296.298424594595
 21
690.9120391059744
 31
0.0
  0
LINE
  5
49123
330
1F
100
AcDbEntity
  8
0
  6
Continuous
 62
     7
100
AcDbLine
 10
2295.418424594595
 20
690.9120391059744
 30
0.0
 11
2295.298424594594
 21
690.9120391059744
 31
0.0
  0
LINE
  5
49124
330
1F
100
AcDbEntity
  8
0
  6
Continuous
 62
     7
100
AcDbLine
 10
2294.415535908995
 20
691.0368107186742
 30
0.0
 11
2294.295535908995
 21
691.0368107186742
 31
0.0
  0
LINE
  5
49125
330
1F
100
AcDbEntity
  8
0
  6
Continuous
 62
     7
100
AcDbLine
 10
2294.260568586595
 20
699.3733102617746
 30
0.0
 11
2294.089871370995
 21
699.6683107415739
 31
0.0
  0
LINE
  5
49126
330
1F
100
AcDbEntity
  8
0
  6
Continuous
 62
     7
100
AcDbLine
 10
2296.579548494895
 20
688.1402312260745
 30
0.0
 11
2296.586984793795
 21
688.146665389974
 31
0.0
  0
LINE
  5
49127
330
1F
100
AcDbEntity
  8
0
  6
Continuous
 62
     7
100
AcDbLine
 10
2296.952436532795
 20
692.1325405993741
 30
0.0
 11
2296.702436532795
 21
692.1325405993741
 31
0.0
  0
LINE
  5
49128
330
1F
100
AcDbEntity
  8
0
  6
Continuous
 62
     7
100
AcDbLine
 10
2295.952436532795
 20
692.1325405993741
 30
0.0
 11
2295.702436532796
 21
692.1325405993741
 31
0.0
  0
LINE
  5
49129
330
1F
100
AcDbEntity
  8
0
  6
Continuous
 62
     7
100
AcDbLine
 10
2294.952436532796
 20
692.1325405993741
 30
0.0
 11
2294.655551744495
 21
692.1325405993741
 31
0.0
  0
LINE
  5
4912A
330
1F
100
AcDbEntity
  8
0
  6
Continuous
 62
     7
100
AcDbLine
 10
2293.999321321195
 20
692.1325405993741
 30
0.0
 11
2293.609548494895
 21
692.1325405993741
 31
0.0
  0
LINE
  5
4912B
330
1F
100
AcDbEntity
  8
0
  6
Continuous
 62
     7
100
AcDbLine
 10
2295.402741874695
 20
699.3787393925742
 30
0.0
 11
2295.086984793795
 21
699.9249890709744
 31
0.0
  0
LINE
  5
4912C
330
1F
100
AcDbEntity
  8
0
  6
Continuous
 62
     7
100
AcDbLine
 10
2295.579548494895
 20
688.1402312260745
 30
0.0
 11
2295.586984793795
 21
688.146665389974
 31
0.0
  0
LINE
  5
4912D
330
1F
100
AcDbEntity
  8
0
  6
Continuous
 62
     7
100
AcDbLine
 10
2294.579548494895
 20
688.1402312260745
 30
0.0
 11
2294.586984793795
 21
688.146665389974
 31
0.0
  0
LINE
  5
4912E
330
1F
100
AcDbEntity
  8
0
  6
Continuous
 62
     7
100
AcDbLine
 10
2296.402741874695
 20
699.3787393925742
 30
0.0
 11
2296.086984793795
 21
699.9249890709744
 31
0.0
  0
LINE
  5
4912F
330
1F
100
AcDbEntity
  8
0
  6
Continuous
 62
     7
100
AcDbLine
 10
2297.109548494895
 20
699.8859515835739
 30
0.0
 11
2297.086984793795
 21
699.9249890709744
 31
0.0
  0
LINE
  5
49130
330
1F
100
AcDbEntity
  8
0
  6
Continuous
 62
     7
100
AcDbLine
 10
2296.586984793795
 20
688.146665389974
 30
0.0
 11
2296.897618476195
 21
688.6840524936745
 31
0.0
  0
LINE
  5
49131
330
1F
100
AcDbEntity
  8
0
  6
Continuous
 62
     7
100
AcDbLine
 10
2295.079548494895
 20
699.9314232348742
 30
0.0
 11
2295.086984793795
 21
699.9249890709744
 31
0.0
  0
LINE
  5
49132
330
1F
100
AcDbEntity
  8
0
  6
Continuous
 62
     7
100
AcDbLine
 10
2295.586984793795
 20
688.146665389974
 30
0.0
 11
2295.897618476195
 21
688.6840524936745
 31
0.0
  0
LINE
  5
49133
330
1F
100
AcDbEntity
  8
0
  6
Continuous
 62
     7
100
AcDbLine
 10
2296.836660456895
 20
695.9391138615739
 30
0.0
 11
2296.586660456895
 21
695.9391138615739
 31
0.0
  0
LINE
  5
49134
330
1F
100
AcDbEntity
  8
0
  6
Continuous
 62
     7
100
AcDbLine
 10
2295.836660456895
 20
695.9391138615739
 30
0.0
 11
2295.586660456894
 21
695.9391138615739
 31
0.0
  0
LINE
  5
49135
330
1F
100
AcDbEntity
  8
0
  6
Continuous
 62
     7
100
AcDbLine
 10
2294.836660456895
 20
695.9391138615739
 30
0.0
 11
2294.501579469395
 21
695.9391138615739
 31
0.0
  0
LINE
  5
49136
330
1F
100
AcDbEntity
  8
0
  6
Continuous
 62
     7
100
AcDbLine
 10
2293.921741444395
 20
695.9391138615739
 30
0.0
 11
2293.609548494895
 21
695.9391138615739
 31
0.0
  0
LINE
  5
49137
330
1F
100
AcDbEntity
  8
0
  6
Continuous
 62
     7
100
AcDbLine
 10
2296.079548494895
 20
699.9314232348742
 30
0.0
 11
2296.086984793795
 21
699.9249890709744
 31
0.0
  0
LINE
  5
49138
330
1F
100
AcDbEntity
  8
0
  6
Continuous
 62
     7
100
AcDbLine
 10
2294.586984793795
 20
688.146665389974
 30
0.0
 11
2294.897618476195
 21
688.6840524936745
 31
0.0
  0
LINE
  5
49139
330
1F
100
AcDbEntity
  8
0
  6
Continuous
 62
     7
100
AcDbLine
 10
2294.844548494895
 20
688.9476748682739
 30
0.0
 11
2294.529548494895
 21
688.4287822330747
 31
0.0
  0
LINE
  5
4913A
330
1F
100
AcDbEntity
  8
0
  6
Continuous
 62
     7
100
AcDbLine
 10
2294.128096484495
 20
696.8443044572743
 30
0.0
 11
2294.248096484495
 21
696.8443044572743
 31
0.0
  0
LINE
  5
4913B
330
1F
100
AcDbEntity
  8
0
  6
Continuous
 62
     7
100
AcDbLine
 10
2297.079548494895
 20
699.9314232348742
 30
0.0
 11
2297.086984793795
 21
699.9249890709744
 31
0.0
  0
LINE
  5
4913C
330
1F
100
AcDbEntity
  8
0
  6
Continuous
 62
     7
100
AcDbLine
 10
2297.359548494895
 20
689.3199406057739
 30
0.0
 11
2297.359548494895
 21
691.3432448268742
 31
0.0
  0
LINE
  5
4913D
330
1F
100
AcDbEntity
  8
0
  6
Continuous
 62
     7
100
AcDbLine
 10
2297.359548494895
 20
696.7284096340738
 30
0.0
 11
2297.359548494895
 21
698.7517138551741
 31
0.0
  0
LINE
  5
4913E
330
1F
100
AcDbEntity
  8
0
  6
Continuous
 62
     7
100
AcDbLine
 10
2295.120672395094
 20
697.1596153549738
 30
0.0
 11
2295.240672395095
 21
697.1596153549738
 31
0.0
  0
LINE
  5
4913F
330
1F
100
AcDbEntity
  8
0
  6
Continuous
 62
     7
100
AcDbLine
 10
2296.120672395095
 20
697.1596153549738
 30
0.0
 11
2296.240672395095
 21
697.1596153549738
 31
0.0
  0
LINE
  5
49140
330
1F
100
AcDbEntity
  8
0
  6
Continuous
 62
     7
100
AcDbLine
 10
2293.259548494895
 20
699.0358272304741
 30
0.0
 11
2292.809548494895
 21
699.0358272304741
 31
0.0
  0
LINE
  5
49141
330
1F
100
AcDbEntity
  8
0
  6
Continuous
 62
     7
100
AcDbLine
 10
2296.644548494894
 20
699.3858272304744
 30
0.0
 11
2296.398644440395
 21
699.3858272304744
 31
0.0
  0
LINE
  5
49142
330
1F
100
AcDbEntity
  8
0
  6
Continuous
 62
     7
100
AcDbLine
 10
2295.644548494894
 20
699.3858272304744
 30
0.0
 11
2295.398644440394
 21
699.3858272304744
 31
0.0
  0
LINE
  5
49143
330
1F
100
AcDbEntity
  8
0
  6
Continuous
 62
     7
100
AcDbLine
 10
2294.644548494895
 20
699.3858272304744
 30
0.0
 11
2294.253325319295
 21
699.3858272304744
 31
0.0
  0
LINE
  5
49144
330
1F
100
AcDbEntity
  8
0
  6
Continuous
 62
     7
100
AcDbLine
 10
2293.793009992695
 20
699.3858272304744
 30
0.0
 11
2293.609548494895
 21
699.3858272304744
 31
0.0
  0
LINE
  5
49145
330
1F
100
AcDbEntity
  8
0
  6
Continuous
 62
     7
100
AcDbLine
 10
2294.082114701795
 20
699.6750136590738
 30
0.0
 11
2293.962114701795
 21
699.6750136590738
 31
0.0
  0
LINE
  5
49146
330
1F
100
AcDbEntity
  8
0
  6
Continuous
 62
     7
100
AcDbLine
 10
2296.952112196195
 20
699.9249890711737
 30
0.0
 11
2296.641478510494
 21
699.3876019678737
 31
0.0
  0
LINE
  5
49147
330
1F
100
AcDbEntity
  8
0
  6
Continuous
 62
     7
100
AcDbLine
 10
2297.079548494895
 20
699.9314232348742
 30
0.0
 11
2296.959548494895
 21
699.9314232348742
 31
0.0
  0
LINE
  5
49148
330
1F
100
AcDbEntity
  8
0
  6
Continuous
 62
     7
100
AcDbLine
 10
2296.079548494895
 20
699.9314232348742
 30
0.0
 11
2295.959548494895
 21
699.9314232348742
 31
0.0
  0
LINE
  5
49149
330
1F
100
AcDbEntity
  8
0
  6
Continuous
 62
     7
100
AcDbLine
 10
2295.079548494895
 20
699.9314232348742
 30
0.0
 11
2294.959548494895
 21
699.9314232348742
 31
0.0
  0
LINE
  5
4914A
330
1F
100
AcDbEntity
  8
0
  6
Continuous
 62
     7
100
AcDbLine
 10
2293.609548494895
 20
692.1325405993741
 30
0.0
 11
2293.609548494895
 21
688.6858272304738
 31
0.0
  0
LINE
  5
4914B
330
1F
100
AcDbEntity
  8
0
  6
Continuous
 62
     7
100
AcDbLine
 10
2293.609548494895
 20
695.9391138615739
 30
0.0
 11
2293.609548494895
 21
699.3858272304744
 31
0.0
  0
LINE
  5
4914C
330
1F
100
AcDbEntity
  8
0
  6
Continuous
 62
     7
100
AcDbLine
 10
2293.259548494895
 20
689.0358272304739
 30
0.0
 11
2293.259548494895
 21
699.0358272304741
 31
0.0
  0
LINE
  5
4914D
330
1F
100
AcDbEntity
  8
0
  6
Continuous
 62
     7
100
AcDbLine
 10
2295.952112196195
 20
699.9249890711737
 30
0.0
 11
2295.641478510494
 21
699.3876019678737
 31
0.0
  0
LINE
  5
4914E
330
1F
100
AcDbEntity
  8
0
  6
Continuous
 62
     7
100
AcDbLine
 10
2296.952112196195
 20
699.9249890711737
 30
0.0
 11
2296.959548494895
 21
699.9314232348742
 31
0.0
  0
LINE
  5
4914F
330
1F
100
AcDbEntity
  8
0
  6
Continuous
 62
     7
100
AcDbLine
 10
2292.809548494895
 20
689.0358272304739
 30
0.0
 11
2292.809548494895
 21
699.0358272304741
 31
0.0
  0
LINE
  5
49150
330
1F
100
AcDbEntity
  8
0
  6
Continuous
 62
     7
100
AcDbLine
 10
2292.609548494895
 20
689.2358272304739
 30
0.0
 11
2292.609548494895
 21
698.8358272304743
 31
0.0
  0
LINE
  5
49151
330
1F
100
AcDbEntity
  8
0
  6
Continuous
 62
     7
100
AcDbLine
 10
2294.952112196195
 20
699.9249890711737
 30
0.0
 11
2294.641478510495
 21
699.3876019678737
 31
0.0
  0
LINE
  5
49152
330
1F
100
AcDbEntity
  8
0
  6
Continuous
 62
     7
100
AcDbLine
 10
2295.952112196195
 20
699.9249890711737
 30
0.0
 11
2295.959548494895
 21
699.9314232348742
 31
0.0
  0
LINE
  5
49153
330
1F
100
AcDbEntity
  8
0
  6
Continuous
 62
     7
100
AcDbLine
 10
2294.952112196195
 20
699.9249890711737
 30
0.0
 11
2294.959548494895
 21
699.9314232348742
 31
0.0
  0
LINE
  5
49154
330
1F
100
AcDbEntity
  8
0
  6
Continuous
 62
     7
100
AcDbLine
 10
2293.954333605195
 20
699.6682755371741
 30
0.0
 11
2293.791630238995
 21
699.3866242969743
 31
0.0
  0
LINE
  5
49155
330
1F
100
AcDbEntity
  8
0
  6
Continuous
 62
     7
100
AcDbLine
 10
2293.609548494895
 20
699.3858272304744
 30
0.0
 11
2293.259548494895
 21
699.0358272304741
 31
0.0
  0
LINE
  5
49156
330
1F
100
AcDbEntity
  8
0
  6
Continuous
 62
     7
100
AcDbLine
 10
2293.954333605195
 20
699.6682755371741
 30
0.0
 11
2293.962114701795
 21
699.6750136590738
 31
0.0
  0
LINE
  5
49157
330
1F
100
AcDbEntity
  8
0
  6
Continuous
 62
     7
100
AcDbLine
 10
2292.609548494895
 20
698.8358272304743
 30
0.0
 11
2292.809548494895
 21
699.0358272304741
 31
0.0
  0
ARC
  5
49158
330
1F
100
AcDbEntity
  8
0
  6
Continuous
 62
     7
100
AcDbCircle
 10
2541.286279256495
 20
699.9036889960747
 30
0.0
 40
246.4563913118
100
AcDbArc
 50
181.8069233958069
 51
182.1671323619995
  0
ARC
  5
49159
330
1F
100
AcDbEntity
  8
0
  6
Continuous
 62
     7
100
AcDbCircle
 10
2542.285457727496
 20
699.9036609494743
 30
0.0
 40
246.4555693069
100
AcDbArc
 50
181.8069229009827
 51
182.1671329052207
  0
ARC
  5
4915A
330
1F
100
AcDbEntity
  8
0
  6
Continuous
 62
     7
100
AcDbCircle
 10
2309.651532742095
 20
695.1035309031741
 30
0.0
 40
13.0420024505
100
AcDbArc
 50
193.1676829855321
 51
195.8927056602157
  0
SPLINE
  5
4915B
330
1F
100
AcDbEntity
  8
0
  6
Continuous
 62
     7
100
AcDbSpline
210
0.0
220
0.0
230
1.0
 70
     8
 71
     3
 72
     9
 73
     5
 74
     0
 42
0.0000000001
 43
0.0000000001
 40
0.0
 40
0.0
 40
0.0
 40
0.0
 40
0.5060034244000004
 40
1.0
 40
1.0
 40
1.0
 40
1.0
 10
2297.359548494895
 20
689.3199406057739
 30
0.0
 10
2297.281211520695
 20
689.1017384421741
 30
0.0
 10
2297.155112452196
 20
688.6591122543742
 30
0.0
 10
2297.109548494895
 20
688.1999861845744
 30
0.0
 10
2297.109548494895
 20
687.9736494039737
 30
0.0
  0
SPLINE
  5
4915C
330
1F
100
AcDbEntity
  8
0
  6
Continuous
 62
     7
100
AcDbSpline
210
0.0
220
0.0
230
1.0
 70
     8
 71
     3
 72
     9
 73
     5
 74
     0
 42
0.0000000001
 43
0.0000000001
 40
0.0
 40
0.0
 40
0.0
 40
0.0
 40
0.4999834462
 40
1.0
 40
1.0
 40
1.0
 40
1.0
 10
2297.109548494895
 20
694.0358272304741
 30
0.0
 10
2297.109548494895
 20
693.5846960253741
 30
0.0
 10
2297.153750246395
 20
692.6818975145744
 30
0.0
 10
2297.279836667095
 20
691.787308271374
 30
0.0
 10
2297.359548494895
 20
691.3432448268742
 30
0.0
  0
SPLINE
  5
4915D
330
1F
100
AcDbEntity
  8
0
  6
Continuous
 62
     7
100
AcDbSpline
210
0.0
220
0.0
230
1.0
 70
     8
 71
     3
 72
     9
 73
     5
 74
     0
 42
0.0000000001
 43
0.0000000001
 40
0.0
 40
0.0
 40
0.0
 40
0.0
 40
0.5000165563000003
 40
1.0
 40
1.0
 40
1.0
 40
1.0
 10
2297.359548494895
 20
696.7284096340738
 30
0.0
 10
2297.279836666695
 20
696.2843461873736
 30
0.0
 10
2297.153750246096
 20
695.3897569440742
 30
0.0
 10
2297.109548494895
 20
694.4869584333738
 30
0.0
 10
2297.109548494895
 20
694.0358272304741
 30
0.0
  0
SPLINE
  5
4915E
330
1F
100
AcDbEntity
  8
0
  6
Continuous
 62
     7
100
AcDbSpline
210
0.0
220
0.0
230
1.0
 70
     8
 71
     3
 72
     9
 73
     5
 74
     0
 42
0.0000000001
 43
0.0000000001
 40
0.0
 40
0.0
 40
0.0
 40
0.0
 40
0.4939965805
 40
1.0
 40
1.0
 40
1.0
 40
1.0
 10
2297.109548494895
 20
700.0980050569743
 30
0.0
 10
2297.109548494895
 20
699.8716682740742
 30
0.0
 10
2297.155112452795
 20
699.4125422042737
 30
0.0
 10
2297.281211521495
 20
698.969916016674
 30
0.0
 10
2297.359548494895
 20
698.7517138551741
 30
0.0
  0
SPLINE
  5
4915F
330
1F
100
AcDbEntity
  8
0
  6
Continuous
 62
     7
100
AcDbSpline
210
0.0
220
0.0
230
1.0
 70
     8
 71
     3
 72
     9
 73
     5
 74
     0
 42
0.0000000001
 43
0.0000000001
 40
0.0
 40
0.0
 40
0.0
 40
0.0
 40
0.3366578921
 40
1.0
 40
1.0
 40
1.0
 40
1.0
 10
2294.452112200795
 20
688.1466646567744
 30
0.0
 10
2294.452674829195
 20
688.145691128374
 30
0.0
 10
2294.454395376195
 20
688.1429541502742
 30
0.0
 10
2294.457332977995
 20
688.1402316546739
 30
0.0
 10
2294.459548493895
 20
688.1402345480737
 30
0.0
  0
SPLINE
  5
49160
330
1F
100
AcDbEntity
  8
0
  6
Continuous
 62
     7
100
AcDbSpline
210
0.0
220
0.0
230
1.0
 70
     8
 71
     3
 72
     9
 73
     5
 74
     0
 42
0.0000000001
 43
0.0000000001
 40
0.0
 40
0.0
 40
0.0
 40
0.0
 40
0.1881046507
 40
1.0
 40
1.0
 40
1.0
 40
1.0
 10
2294.082114696895
 20
699.6750118148741
 30
0.0
 10
2294.082776100495
 20
699.6750123647736
 30
0.0
 10
2294.086304912795
 20
699.6741332700743
 30
0.0
 10
2294.088442290795
 20
699.6707797355742
 30
0.0
 10
2294.089871382196
 20
699.6683084476734
 30
0.0
  0
SPLINE
  5
49161
330
1F
100
AcDbEntity
  8
0
  6
Continuous
 62
     7
100
AcDbSpline
210
0.0
220
0.0
230
1.0
 70
     8
 71
     3
 72
    20
 73
    16
 74
     0
 42
0.0000000001
 43
0.0000000001
 40
0.0
 40
0.0
 40
0.0
 40
0.0
 40
0.2031439357
 40
0.3905713279
 40
0.5583767386
 40
0.7030858294
 40
0.7658178955000004
 40
0.8216930176999998
 40
0.8704221772
 40
0.9117578559
 40
0.9454967034
 40
0.9714814232
 40
0.9896248983999999
 40
0.9957640509999999
 40
1.0
 40
1.0
 40
1.0
 40
1.0
 10
2296.586660456895
 20
695.9391138615739
 30
0.0
 10
2296.579233934095
 20
696.1724249565742
 30
0.0
 10
2296.564583077596
 20
696.6209850046745
 30
0.0
 10
2296.541932003396
 20
697.262207584474
 30
0.0
 10
2296.519349732995
 20
697.8362400347743
 30
0.0
 10
2296.499837760995
 20
698.2669928255735
 30
0.0
 10
2296.483865608195
 20
698.5691451207742
 30
0.0
 10
2296.472485541896
 20
698.7610922897738
 30
0.0
 10
2296.461148290395
 20
698.9284109690745
 30
0.0
 10
2296.449848843095
 20
699.0702195381735
 30
0.0
 10
2296.438695879395
 20
699.1858356806742
 30
0.0
 10
2296.427594634195
 20
699.274590754474
 30
0.0
 10
2296.417980343395
 20
699.3316674790742
 30
0.0
 10
2296.409480661295
 20
699.3632991374745
 30
0.0
 10
2296.405177351695
 20
699.3745185212738
 30
0.0
 10
2296.402741883495
 20
699.3787328581736
 30
0.0
  0
SPLINE
  5
49162
330
1F
100
AcDbEntity
  8
0
  6
Continuous
 62
     7
100
AcDbSpline
210
0.0
220
0.0
230
1.0
 70
     8
 71
     3
 72
    21
 73
    17
 74
     0
 42
0.0000000001
 43
0.0000000001
 40
0.0
 40
0.0
 40
0.0
 40
0.0
 40
0.0021884895
 40
0.0058724586
 40
0.0190006595
 40
0.0402281933
 40
0.0696075712
 40
0.1070771055
 40
0.1525356561
 40
0.2058275635
 40
0.2667814564
 40
0.3351886278
 40
0.4108143074
 40
0.5826615041
 40
0.7799392814
 40
1.0
 40
1.0
 40
1.0
 40
1.0
 10
2296.959548494895
 20
699.9314232348742
 30
0.0
 10
2296.961328743595
 20
699.9314232348742
 30
0.0
 10
2296.965644375895
 20
699.928177640274
 30
0.0
 10
2296.972398783595
 20
699.9144020059741
 30
0.0
 10
2296.980352071395
 20
699.8841309444745
 30
0.0
 10
2296.989097676895
 20
699.8331623995738
 30
0.0
 10
2296.998155676295
 20
699.7620087285739
 30
0.0
 10
2297.007306646395
 20
699.6711307979742
 30
0.0
 10
2297.016531367695
 20
699.5606928402742
 30
0.0
 10
2297.025794551695
 20
699.4311114117737
 30
0.0
 10
2297.035082767695
 20
699.2828186443739
 30
0.0
 10
2297.044389223295
 20
699.1163293952742
 30
0.0
 10
2297.057373908895
 20
698.8597008476737
 30
0.0
 10
2297.073314734095
 20
698.4982620258745
 30
0.0
 10
2297.091806743795
 20
698.0193385837739
 30
0.0
 10
2297.103579176195
 20
697.6800538104737
 30
0.0
 10
2297.109549176895
 20
697.5011427952741
 30
0.0
  0
SPLINE
  5
49163
330
1F
100
AcDbEntity
  8
0
  6
Continuous
 62
     7
100
AcDbSpline
210
0.0
220
0.0
230
1.0
 70
     8
 71
     3
 72
    20
 73
    16
 74
     0
 42
0.0000000001
 43
0.0000000001
 40
0.0
 40
0.0
 40
0.0
 40
0.0
 40
0.2031486119
 40
0.3905724119
 40
0.5583787445000003
 40
0.7030847101000001
 40
0.7658159136
 40
0.8216919419999999
 40
0.8704198558999999
 40
0.9117574371999999
 40
0.9454948137
 40
0.9714814357999999
 40
0.9896228728
 40
0.9957643012999998
 40
1.0
 40
1.0
 40
1.0
 40
1.0
 10
2295.586660456894
 20
695.9391138615739
 30
0.0
 10
2295.579233751895
 20
696.1724306797743
 30
0.0
 10
2295.564582884895
 20
696.620992651874
 30
0.0
 10
2295.541931542695
 20
697.2622184994746
 30
0.0
 10
2295.519349512195
 20
697.8362451599742
 30
0.0
 10
2295.499837910194
 20
698.2669950993741
 30
0.0
 10
2295.483865432795
 20
698.5691442821737
 30
0.0
 10
2295.472486235495
 20
698.7610904219739
 30
0.0
 10
2295.461147600295
 20
698.9284110360742
 30
0.0
 10
2295.449850114295
 20
699.0702190914737
 30
0.0
 10
2295.438694015595
 20
699.1858377033742
 30
0.0
 10
2295.427597270294
 20
699.2745917393739
 30
0.0
 10
2295.417976940695
 20
699.3316700206744
 30
0.0
 10
2295.409481294595
 20
699.363302341074
 30
0.0
 10
2295.405178589995
 20
699.3745249631739
 30
0.0
 10
2295.402741869295
 20
699.378738252274
 30
0.0
  0
SPLINE
  5
49164
330
1F
100
AcDbEntity
  8
0
  6
Continuous
 62
     7
100
AcDbSpline
210
0.0
220
0.0
230
1.0
 70
     8
 71
     3
 72
    21
 73
    17
 74
     0
 42
0.0000000001
 43
0.0000000001
 40
0.0
 40
0.0
 40
0.0
 40
0.0
 40
0.0020982036
 40
0.0057583783
 40
0.0189669643
 40
0.0403943165
 40
0.0700625688
 40
0.1078937437
 40
0.1537564175
 40
0.2074719377
 40
0.2688386158
 40
0.337608468
 40
0.4135175225000002
 40
0.5854869884000001
 40
0.7820407416
 40
1.0
 40
1.0
 40
1.0
 40
1.0
 10
2295.959548494895
 20
699.9314232348742
 30
0.0
 10
2295.961494268895
 20
699.9314232348742
 30
0.0
 10
2295.966195232095
 20
699.9275380388738
 30
0.0
 10
2295.973331938495
 20
699.9117155143742
 30
0.0
 10
2295.981935155295
 20
699.8767872594735
 30
0.0
 10
2295.991276903095
 20
699.8180819485743
 30
0.0
 10
2296.001023982695
 20
699.7360877885742
 30
0.0
 10
2296.010843154095
 20
699.6314500242744
 30
0.0
 10
2296.020754354195
 20
699.5043929422737
 30
0.0
 10
2296.030702405795
 20
699.3554743264743
 30
0.0
 10
2296.040678299095
 20
699.1852680016735
 30
0.0
 10
2296.050674920295
 20
698.9944523149745
 30
0.0
 10
2296.064605069095
 20
698.7011372427744
 30
0.0
 10
2296.081709228795
 20
698.2893438628734
 30
0.0
 10
2296.101560633395
 20
697.7458291390742
 30
0.0
 10
2296.114241812595
 20
697.361638063074
 30
0.0
 10
2296.120672395095
 20
697.1596153549738
 30
0.0
  0
SPLINE
  5
49165
330
1F
100
AcDbEntity
  8
0
  6
Continuous
 62
     7
100
AcDbSpline
210
0.0
220
0.0
230
1.0
 70
     8
 71
     3
 72
     8
 73
     4
 74
     0
 42
0.0000000001
 43
0.0000000001
 40
0.0
 40
0.0
 40
0.0
 40
0.0
 40
1.0
 40
1.0
 40
1.0
 40
1.0
 10
2294.248096484495
 20
696.8443044572743
 30
0.0
 10
2294.342217137695
 20
696.5454370838742
 30
0.0
 10
2294.427772799395
 20
696.2436347634741
 30
0.0
 10
2294.501579469395
 20
695.9391138615739
 30
0.0
  0
SPLINE
  5
49166
330
1F
100
AcDbEntity
  8
0
  6
Continuous
 62
     7
100
AcDbSpline
210
0.0
220
0.0
230
1.0
 70
     8
 71
     3
 72
     8
 73
     4
 74
     0
 42
0.0000000001
 43
0.0000000001
 40
0.0
 40
0.0
 40
0.0
 40
0.0
 40
1.0
 40
1.0
 40
1.0
 40
1.0
 10
2294.655551744495
 20
692.1325405993741
 30
0.0
 10
2294.593453502594
 20
691.7638302572743
 30
0.0
 10
2294.511597991595
 20
691.3981631565741
 30
0.0
 10
2294.415535908995
 20
691.0368107186742
 30
0.0
  0
SPLINE
  5
49167
330
1F
100
AcDbEntity
  8
0
  6
Continuous
 62
     7
100
AcDbSpline
210
0.0
220
0.0
230
1.0
 70
     8
 71
     3
 72
    21
 73
    17
 74
     0
 42
0.0000000001
 43
0.0000000001
 40
0.0
 40
0.0
 40
0.0
 40
0.0
 40
0.0020982036
 40
0.0057583783
 40
0.0189669643
 40
0.0403943165
 40
0.0700625688
 40
0.1078937437
 40
0.1537564175
 40
0.2074719377
 40
0.2688386158
 40
0.337608468
 40
0.4135175225000002
 40
0.5854869884000001
 40
0.7820407416
 40
1.0
 40
1.0
 40
1.0
 40
1.0
 10
2294.959548494895
 20
699.9314232348742
 30
0.0
 10
2294.961494268895
 20
699.9314232348742
 30
0.0
 10
2294.966195232095
 20
699.9275380388738
 30
0.0
 10
2294.973331938495
 20
699.9117155143742
 30
0.0
 10
2294.981935155295
 20
699.8767872594735
 30
0.0
 10
2294.991276903095
 20
699.8180819485743
 30
0.0
 10
2295.001023982695
 20
699.7360877885742
 30
0.0
 10
2295.010843154095
 20
699.6314500242744
 30
0.0
 10
2295.020754354195
 20
699.5043929422737
 30
0.0
 10
2295.030702405795
 20
699.3554743264743
 30
0.0
 10
2295.040678299095
 20
699.1852680016735
 30
0.0
 10
2295.050674920295
 20
698.9944523149745
 30
0.0
 10
2295.064605069095
 20
698.7011372427744
 30
0.0
 10
2295.081709228796
 20
698.2893438628734
 30
0.0
 10
2295.101560633395
 20
697.7458291390742
 30
0.0
 10
2295.114241812595
 20
697.361638063074
 30
0.0
 10
2295.120672395094
 20
697.1596153549738
 30
0.0
  0
SPLINE
  5
49168
330
1F
100
AcDbEntity
  8
0
  6
Continuous
 62
     7
100
AcDbSpline
210
0.0
220
0.0
230
1.0
 70
     8
 71
     3
 72
    11
 73
     7
 74
     0
 42
0.0000000001
 43
0.0000000001
 40
0.0
 40
0.0
 40
0.0
 40
0.0
 40
0.328369844
 40
0.6100814056
 40
0.8362943468
 40
1.0
 40
1.0
 40
1.0
 40
1.0
 10
2294.415535908995
 20
691.0368107186742
 30
0.0
 10
2294.424543057195
 20
690.7511953708737
 30
0.0
 10
2294.442055826895
 20
690.2205736586742
 30
0.0
 10
2294.469675520195
 20
689.4933170545738
 30
0.0
 10
2294.496980714494
 20
688.9094899514741
 30
0.0
 10
2294.517708311495
 20
688.5707509476746
 30
0.0
 10
2294.529548494895
 20
688.4287822330747
 30
0.0
  0
SPLINE
  5
49169
330
1F
100
AcDbEntity
  8
0
  6
Continuous
 62
     7
100
AcDbSpline
210
0.0
220
0.0
230
1.0
 70
     8
 71
     3
 72
     8
 73
     4
 74
     0
 42
0.0000000001
 43
0.0000000001
 40
0.0
 40
0.0
 40
0.0
 40
0.0
 40
1.0
 40
1.0
 40
1.0
 40
1.0
 10
2293.921741444395
 20
695.9391138615739
 30
0.0
 10
2293.978557431995
 20
696.2433250289742
 30
0.0
 10
2294.048395218695
 20
696.5452723535737
 30
0.0
 10
2294.128096484495
 20
696.8443044572743
 30
0.0
  0
SPLINE
  5
4916A
330
1F
100
AcDbEntity
  8
0
  6
Continuous
 62
     7
100
AcDbSpline
210
0.0
220
0.0
230
1.0
 70
     8
 71
     3
 72
     8
 73
     4
 74
     0
 42
0.0000000001
 43
0.0000000001
 40
0.0
 40
0.0
 40
0.0
 40
0.0
 40
1.0
 40
1.0
 40
1.0
 40
1.0
 10
2294.295535908995
 20
691.0368107186742
 30
0.0
 10
2294.182630066895
 20
691.3979258881736
 30
0.0
 10
2294.082032003695
 20
691.7633376229744
 30
0.0
 10
2293.999321321195
 20
692.1325405993741
 30
0.0
  0
SPLINE
  5
4916B
330
1F
100
AcDbEntity
  8
0
  6
Continuous
 62
     7
100
AcDbSpline
210
0.0
220
0.0
230
1.0
 70
     8
 71
     3
 72
    11
 73
     7
 74
     0
 42
0.0000000001
 43
0.0000000001
 40
0.0
 40
0.0
 40
0.0
 40
0.0
 40
0.328369844
 40
0.6100814056
 40
0.8362943468
 40
1.0
 40
1.0
 40
1.0
 40
1.0
 10
2294.295535908995
 20
691.0368107186742
 30
0.0
 10
2294.304543057195
 20
690.7511953708737
 30
0.0
 10
2294.322055826895
 20
690.2205736586742
 30
0.0
 10
2294.349675520195
 20
689.4933170545738
 30
0.0
 10
2294.376980714495
 20
688.9094899514741
 30
0.0
 10
2294.397708311495
 20
688.5707509476746
 30
0.0
 10
2294.409548494895
 20
688.4287822330747
 30
0.0
  0
SPLINE
  5
4916C
330
1F
100
AcDbEntity
  8
0
  6
Continuous
 62
     7
100
AcDbSpline
210
0.0
220
0.0
230
1.0
 70
     8
 71
     3
 72
     8
 73
     4
 74
     0
 42
0.0000000001
 43
0.0000000001
 40
0.0
 40
0.0
 40
0.0
 40
0.0
 40
1.0
 40
1.0
 40
1.0
 40
1.0
 10
2295.240672395095
 20
697.1596153549738
 30
0.0
 10
2295.372755482395
 20
696.7579081430741
 30
0.0
 10
2295.490626151895
 20
696.3509294007738
 30
0.0
 10
2295.586660456894
 20
695.9391138615739
 30
0.0
  0
SPLINE
  5
4916D
330
1F
100
AcDbEntity
  8
0
  6
Continuous
 62
     7
100
AcDbSpline
210
0.0
220
0.0
230
1.0
 70
     8
 71
     3
 72
     8
 73
     4
 74
     0
 42
0.0000000001
 43
0.0000000001
 40
0.0
 40
0.0
 40
0.0
 40
0.0
 40
1.0
 40
1.0
 40
1.0
 40
1.0
 10
2295.702436532796
 20
692.1325405993741
 30
0.0
 10
2295.629398326795
 20
691.7212721738742
 30
0.0
 10
2295.532173228895
 20
691.313956442774
 30
0.0
 10
2295.418424594595
 20
690.9120391059744
 30
0.0
  0
SPLINE
  5
4916E
330
1F
100
AcDbEntity
  8
0
  6
Continuous
 62
     7
100
AcDbSpline
210
0.0
220
0.0
230
1.0
 70
     8
 71
     3
 72
     8
 73
     4
 74
     0
 42
0.0000000001
 43
0.0000000001
 40
0.0
 40
0.0
 40
0.0
 40
0.0
 40
1.0
 40
1.0
 40
1.0
 40
1.0
 10
2296.240672395095
 20
697.1596153549738
 30
0.0
 10
2296.372755482395
 20
696.7579081430741
 30
0.0
 10
2296.490626151895
 20
696.3509294007738
 30
0.0
 10
2296.586660456895
 20
695.9391138615739
 30
0.0
  0
SPLINE
  5
4916F
330
1F
100
AcDbEntity
  8
0
  6
Continuous
 62
     7
100
AcDbSpline
210
0.0
220
0.0
230
1.0
 70
     8
 71
     3
 72
     8
 73
     4
 74
     0
 42
0.0000000001
 43
0.0000000001
 40
0.0
 40
0.0
 40
0.0
 40
0.0
 40
1.0
 40
1.0
 40
1.0
 40
1.0
 10
2296.702436532795
 20
692.1325405993741
 30
0.0
 10
2296.629398326795
 20
691.7212721738742
 30
0.0
 10
2296.532173228895
 20
691.313956442774
 30
0.0
 10
2296.418424594594
 20
690.9120391059744
 30
0.0
  0
SPLINE
  5
49170
330
1F
100
AcDbEntity
  8
0
  6
Continuous
 62
     7
100
AcDbSpline
210
0.0
220
0.0
230
1.0
 70
     8
 71
     3
 72
    10
 73
     6
 74
     0
 42
0.0000000001
 43
0.0000000001
 40
0.0
 40
0.0
 40
0.0
 40
0.0
 40
0.1446785104
 40
0.3586530485
 40
1.0
 40
1.0
 40
1.0
 40
1.0
 10
2297.086984801495
 20
699.9249838966742
 30
0.0
 10
2297.089417147895
 20
699.920773774774
 30
0.0
 10
2297.093637541895
 20
699.9093700645737
 30
0.0
 10
2297.102011425095
 20
699.876853262674
 30
0.0
 10
2297.106468015295
 20
699.8483712371737
 30
0.0
 10
2297.109541833595
 20
699.8270376395741
 30
0.0
  0
SPLINE
  5
49171
330
1F
100
AcDbEntity
  8
0
  6
Continuous
 62
     7
100
AcDbSpline
210
0.0
220
0.0
230
1.0
 70
     8
 71
     3
 72
    20
 73
    16
 74
     0
 42
0.0000000001
 43
0.0000000001
 40
0.0
 40
0.0
 40
0.0
 40
0.0
 40
0.0043269616
 40
0.0104705905
 40
0.0283682068
 40
0.0538029255
 40
0.0867240327
 40
0.1270412063
 40
0.1746109097
 40
0.2292716281
 40
0.290827959
 40
0.4337198663000001
 40
0.6012074037000003
 40
0.7909048603
 40
1.0
 40
1.0
 40
1.0
 40
1.0
 10
2296.086984801495
 20
699.9249838966742
 30
0.0
 10
2296.088984891695
 20
699.921521962274
 30
0.0
 10
2296.092578213595
 20
699.912465292374
 30
0.0
 10
2296.099660656595
 20
699.887233994974
 30
0.0
 10
2296.107731272595
 20
699.842142439974
 30
0.0
 10
2296.117012813494
 20
699.7723160949738
 30
0.0
 10
2296.126349871295
 20
699.6815991033737
 30
0.0
 10
2296.135795177594
 20
699.5703724313746
 30
0.0
 10
2296.145275750795
 20
699.4389939849743
 30
0.0
 10
2296.154789060195
 20
699.2879512394742
 30
0.0
 10
2296.168171532495
 20
699.0489038207745
 30
0.0
 10
2296.184528093495
 20
698.7056148598742
 30
0.0
 10
2296.203428400795
 20
698.2439222230744
 30
0.0
 10
2296.222385861795
 20
697.7210141417737
 30
0.0
 10
2296.234525550895
 20
697.3527241608735
 30
0.0
 10
2296.240672395095
 20
697.1596153549738
 30
0.0
  0
SPLINE
  5
49172
330
1F
100
AcDbEntity
  8
0
  6
Continuous
 62
     7
100
AcDbSpline
210
0.0
220
0.0
230
1.0
 70
     8
 71
     3
 72
    20
 73
    16
 74
     0
 42
0.0000000001
 43
0.0000000001
 40
0.0
 40
0.0
 40
0.0
 40
0.0
 40
0.0043269616
 40
0.0104705905
 40
0.0283682068
 40
0.0538029255
 40
0.0867240327
 40
0.1270412063
 40
0.1746109097
 40
0.2292716281
 40
0.290827959
 40
0.4337198663000001
 40
0.6012074037000003
 40
0.7909048603
 40
1.0
 40
1.0
 40
1.0
 40
1.0
 10
2295.086984801494
 20
699.9249838966742
 30
0.0
 10
2295.088984891695
 20
699.921521962274
 30
0.0
 10
2295.092578213595
 20
699.912465292374
 30
0.0
 10
2295.099660656595
 20
699.887233994974
 30
0.0
 10
2295.107731272596
 20
699.842142439974
 30
0.0
 10
2295.117012813495
 20
699.7723160949738
 30
0.0
 10
2295.126349871296
 20
699.6815991033737
 30
0.0
 10
2295.135795177594
 20
699.5703724313746
 30
0.0
 10
2295.145275750795
 20
699.4389939849743
 30
0.0
 10
2295.154789060195
 20
699.2879512394742
 30
0.0
 10
2295.168171532495
 20
699.0489038207745
 30
0.0
 10
2295.184528093495
 20
698.7056148598742
 30
0.0
 10
2295.203428400795
 20
698.2439222230744
 30
0.0
 10
2295.222385861794
 20
697.7210141417737
 30
0.0
 10
2295.234525550894
 20
697.3527241608735
 30
0.0
 10
2295.240672395095
 20
697.1596153549738
 30
0.0
  0
SPLINE
  5
49173
330
1F
100
AcDbEntity
  8
0
  6
Continuous
 62
     7
100
AcDbSpline
210
0.0
220
0.0
230
1.0
 70
     8
 71
     3
 72
    21
 73
    17
 74
     0
 42
0.0000000001
 43
0.0000000001
 40
0.0
 40
0.0
 40
0.0
 40
0.0
 40
0.2179592584
 40
0.4145130116
 40
0.5864824775000002
 40
0.662391532
 40
0.7311613842
 40
0.7925280623000001
 40
0.8462435825
 40
0.8921062562999997
 40
0.9299374312000001
 40
0.9596056834999997
 40
0.9810330356999998
 40
0.9942416216999999
 40
0.9979017964
 40
1.0
 40
1.0
 40
1.0
 40
1.0
 10
2295.418424594595
 20
690.9120391059744
 30
0.0
 10
2295.424855177195
 20
690.7100163979737
 30
0.0
 10
2295.437536356295
 20
690.3258253218739
 30
0.0
 10
2295.457387760995
 20
689.7823105981744
 30
0.0
 10
2295.474491920695
 20
689.3705172181736
 30
0.0
 10
2295.488422069495
 20
689.0772021460747
 30
0.0
 10
2295.498418690695
 20
688.8863864592742
 30
0.0
 10
2295.508394583895
 20
688.7161801344737
 30
0.0
 10
2295.518342635595
 20
688.5672615186742
 30
0.0
 10
2295.528253835595
 20
688.4402044366745
 30
0.0
 10
2295.538073007096
 20
688.3355666724741
 30
0.0
 10
2295.547820086695
 20
688.2535725123736
 30
0.0
 10
2295.557161834495
 20
688.1948672014742
 30
0.0
 10
2295.565765051295
 20
688.1599389465739
 30
0.0
 10
2295.572901757595
 20
688.1441164220744
 30
0.0
 10
2295.577602720895
 20
688.1402312260745
 30
0.0
 10
2295.579548494895
 20
688.1402312260745
 30
0.0
  0
SPLINE
  5
49174
330
1F
100
AcDbEntity
  8
0
  6
Continuous
 62
     7
100
AcDbSpline
210
0.0
220
0.0
230
1.0
 70
     8
 71
     3
 72
    21
 73
    17
 74
     0
 42
0.0000000001
 43
0.0000000001
 40
0.0
 40
0.0
 40
0.0
 40
0.0
 40
0.2179592584
 40
0.4145130116
 40
0.5864824775000002
 40
0.662391532
 40
0.7311613842
 40
0.7925280623000001
 40
0.8462435825
 40
0.8921062562999997
 40
0.9299374312000001
 40
0.9596056834999997
 40
0.9810330356999998
 40
0.9942416216999999
 40
0.9979017964
 40
1.0
 40
1.0
 40
1.0
 40
1.0
 10
2296.418424594594
 20
690.9120391059744
 30
0.0
 10
2296.424855177196
 20
690.7100163979737
 30
0.0
 10
2296.437536356295
 20
690.3258253218739
 30
0.0
 10
2296.457387760995
 20
689.7823105981744
 30
0.0
 10
2296.474491920695
 20
689.3705172181736
 30
0.0
 10
2296.488422069495
 20
689.0772021460747
 30
0.0
 10
2296.498418690695
 20
688.8863864592742
 30
0.0
 10
2296.508394583895
 20
688.7161801344737
 30
0.0
 10
2296.518342635595
 20
688.5672615186742
 30
0.0
 10
2296.528253835595
 20
688.4402044366745
 30
0.0
 10
2296.538073007095
 20
688.3355666724741
 30
0.0
 10
2296.547820086695
 20
688.2535725123736
 30
0.0
 10
2296.557161834495
 20
688.1948672014742
 30
0.0
 10
2296.565765051295
 20
688.1599389465739
 30
0.0
 10
2296.572901757595
 20
688.1441164220744
 30
0.0
 10
2296.577602720895
 20
688.1402312260745
 30
0.0
 10
2296.579548494895
 20
688.1402312260745
 30
0.0
  0
SPLINE
  5
49175
330
1F
100
AcDbEntity
  8
0
  6
Continuous
 62
     7
100
AcDbSpline
210
0.0
220
0.0
230
1.0
 70
     8
 71
     3
 72
    21
 73
    17
 74
     0
 42
0.0000000001
 43
0.0000000001
 40
0.0
 40
0.0
 40
0.0
 40
0.0
 40
0.0021295851
 40
0.0058341816
 40
0.0191843364
 40
0.0408159756
 40
0.0707441903
 40
0.108867921
 40
0.1550404113
 40
0.2090585443
 40
0.270698264
 40
0.3396877332999999
 40
0.4157367702000001
 40
0.5876505448
 40
0.7835271339000001
 40
1.0
 40
1.0
 40
1.0
 40
1.0
 10
2293.962114696896
 20
699.6750118148741
 30
0.0
 10
2293.964131672394
 20
699.6750134919741
 30
0.0
 10
2293.969010807195
 20
699.671018370974
 30
0.0
 10
2293.976421553795
 20
699.6546786670744
 30
0.0
 10
2293.985337530495
 20
699.6186599578743
 30
0.0
 10
2293.995018609595
 20
699.5581411638742
 30
0.0
 10
2294.005101895695
 20
699.4736935120738
 30
0.0
 10
2294.015254020294
 20
699.3660157376738
 30
0.0
 10
2294.025488114095
 20
699.2353991625742
 30
0.0
 10
2294.035750953894
 20
699.0824721454737
 30
0.0
 10
2294.046031506195
 20
698.9078882503737
 30
0.0
 10
2294.056322709494
 20
698.7124089958745
 30
0.0
 10
2294.070637813995
 20
698.4125570467742
 30
0.0
 10
2294.088186098594
 20
697.9925503618742
 30
0.0
 10
2294.108524305795
 20
697.439554625874
 30
0.0
 10
2294.121515037095
 20
697.0492249395738
 30
0.0
 10
2294.128096484495
 20
696.8443044572743
 30
0.0
  0
SPLINE
  5
49176
330
1F
100
AcDbEntity
  8
0
  6
Continuous
 62
     7
100
AcDbSpline
210
0.0
220
0.0
230
1.0
 70
     8
 71
     3
 72
    20
 73
    16
 74
     0
 42
0.0000000001
 43
0.0000000001
 40
0.0
 40
0.0
 40
0.0
 40
0.0
 40
0.2003938608
 40
0.3855913651
 40
0.5518462046
 40
0.6958269375000004
 40
0.7585397799
 40
0.8146402156999997
 40
0.8638511799999999
 40
0.9059314926999999
 40
0.9406883449
 40
0.9679714305
 40
0.9877108193999999
 40
0.9947666567999997
 40
1.0
 40
1.0
 40
1.0
 40
1.0
 10
2294.501579469395
 20
695.9391138615739
 30
0.0
 10
2294.491842353995
 20
696.1691290360739
 30
0.0
 10
2294.472624880995
 20
696.6116966913744
 30
0.0
 10
2294.442927224495
 20
697.2449877644741
 30
0.0
 10
2294.413314707795
 20
697.8133947567743
 30
0.0
 10
2294.387747852494
 20
698.241098908474
 30
0.0
 10
2294.366843239395
 20
698.5422862030739
 30
0.0
 10
2294.351920884795
 20
698.7347441723742
 30
0.0
 10
2294.337046606995
 20
698.9034257456744
 30
0.0
 10
2294.322221375195
 20
699.0474758852744
 30
0.0
 10
2294.307539950995
 20
699.1662166636745
 30
0.0
 10
2294.292951036395
 20
699.2590167283744
 30
0.0
 10
2294.280194389895
 20
699.3199399054739
 30
0.0
 10
2294.269179986695
 20
699.3550586395739
 30
0.0
 10
2294.263579765395
 20
699.3680989151738
 30
0.0
 10
2294.260568591995
 20
699.3733028072738
 30
0.0
  0
SPLINE
  5
49177
330
1F
100
AcDbEntity
  8
0
  6
Continuous
 62
     7
100
AcDbSpline
210
0.0
220
0.0
230
1.0
 70
     8
 71
     3
 72
    20
 73
    16
 74
     0
 42
0.0000000001
 43
0.0000000001
 40
0.0
 40
0.0
 40
0.0
 40
0.0
 40
0.0043889069
 40
0.0106106624
 40
0.0287059497
 40
0.0543902923
 40
0.0875966091
 40
0.1282171026
 40
0.1760931137
 40
0.2310398019
 40
0.2928444922
 40
0.4360288983000002
 40
0.6033936009000001
 40
0.7923749748000001
 40
1.0
 40
1.0
 40
1.0
 40
1.0
 10
2294.089871382196
 20
699.6683084476734
 30
0.0
 10
2294.091944651395
 20
699.6647232008736
 30
0.0
 10
2294.095671402295
 20
699.6553539159743
 30
0.0
 10
2294.103011271595
 20
699.6292854300736
 30
0.0
 10
2294.111375071195
 20
699.5827531746737
 30
0.0
 10
2294.120980026095
 20
699.5107629861743
 30
0.0
 10
2294.130635174095
 20
699.4173361092737
 30
0.0
 10
2294.140392225795
 20
699.3029087315734
 30
0.0
 10
2294.150175207495
 20
699.167899531174
 30
0.0
 10
2294.159983286595
 20
699.0128593775737
 30
0.0
 10
2294.173755833295
 20
698.7679586565739
 30
0.0
 10
2294.190564570094
 20
698.4169877301739
 30
0.0
 10
2294.209959212395
 20
697.9460078368739
 30
0.0
 10
2294.229375229795
 20
697.4141746904745
 30
0.0
 10
2294.241807240395
 20
697.0401268742737
 30
0.0
 10
2294.248096484495
 20
696.8443044572743
 30
0.0
  0
SPLINE
  5
49178
330
1F
100
AcDbEntity
  8
0
  6
Continuous
 62
     7
100
AcDbSpline
210
0.0
220
0.0
230
1.0
 70
     8
 71
     3
 72
    14
 73
    10
 74
     0
 42
0.0000000001
 43
0.0000000001
 40
0.0
 40
0.0
 40
0.0
 40
0.0
 40
0.4263680633
 40
0.7344760636
 40
0.8436783643000001
 40
0.9231658188
 40
0.9520123282
 40
0.9739078574
 40
1.0
 40
1.0
 40
1.0
 40
1.0
 10
2294.529548494895
 20
688.4287822330747
 30
0.0
 10
2294.533210399295
 20
688.3868645808744
 30
0.0
 10
2294.540196279595
 20
688.3147106393737
 30
0.0
 10
2294.550689444395
 20
688.232093032174
 30
0.0
 10
2294.559894308894
 20
688.1838739083741
 30
0.0
 10
2294.565145692995
 20
688.1631089580743
 30
0.0
 10
2294.569810545094
 20
688.1509635826744
 30
0.0
 10
2294.573099736095
 20
688.1444511751745
 30
0.0
 10
2294.576973521594
 20
688.1402311852736
 30
0.0
 10
2294.579548493894
 20
688.1402345480737
 30
0.0
  0
SPLINE
  5
49179
330
1F
100
AcDbEntity
  8
0
  6
Continuous
 62
     7
100
AcDbSpline
210
0.0
220
0.0
230
1.0
 70
     8
 71
     3
 72
     8
 73
     4
 74
     0
 42
0.0000000001
 43
0.0000000001
 40
0.0
 40
0.0
 40
0.0
 40
0.0
 40
1.0
 40
1.0
 40
1.0
 40
1.0
 10
2294.836660456895
 20
695.9391138615739
 30
0.0
 10
2294.909698662995
 20
696.3503822870745
 30
0.0
 10
2295.006923760895
 20
696.757698018274
 30
0.0
 10
2295.120672395094
 20
697.1596153549738
 30
0.0
  0
SPLINE
  5
4917A
330
1F
100
AcDbEntity
  8
0
  6
Continuous
 62
     7
100
AcDbSpline
210
0.0
220
0.0
230
1.0
 70
     8
 71
     3
 72
     8
 73
     4
 74
     0
 42
0.0000000001
 43
0.0000000001
 40
0.0
 40
0.0
 40
0.0
 40
0.0
 40
1.0
 40
1.0
 40
1.0
 40
1.0
 10
2295.298424594594
 20
690.9120391059744
 30
0.0
 10
2295.166341507394
 20
691.3137463178737
 30
0.0
 10
2295.048470837895
 20
691.7207250602744
 30
0.0
 10
2294.952436532796
 20
692.1325405993741
 30
0.0
  0
SPLINE
  5
4917B
330
1F
100
AcDbEntity
  8
0
  6
Continuous
 62
     7
100
AcDbSpline
210
0.0
220
0.0
230
1.0
 70
     8
 71
     3
 72
    20
 73
    16
 74
     0
 42
0.0000000001
 43
0.0000000001
 40
0.0
 40
0.0
 40
0.0
 40
0.0
 40
0.2090951398
 40
0.3987925965999999
 40
0.566280134
 40
0.7091720414
 40
0.7707283723
 40
0.8253890906999997
 40
0.8729587940000001
 40
0.9132759675999999
 40
0.9461970747
 40
0.9716317934
 40
0.9895294095999995
 40
0.9956730384999998
 40
1.0
 40
1.0
 40
1.0
 40
1.0
 10
2295.298424594594
 20
690.9120391059744
 30
0.0
 10
2295.304571438894
 20
690.7189302998743
 30
0.0
 10
2295.316711127995
 20
690.3506403187741
 30
0.0
 10
2295.335668588995
 20
689.827732236974
 30
0.0
 10
2295.354568896295
 20
689.3660395999742
 30
0.0
 10
2295.370925457295
 20
689.0227506388741
 30
0.0
 10
2295.384307929595
 20
688.7837032201744
 30
0.0
 10
2295.393821239095
 20
688.6326604746739
 30
0.0
 10
2295.403301812294
 20
688.5012820283739
 30
0.0
 10
2295.412747118595
 20
688.3900553564735
 30
0.0
 10
2295.422084176394
 20
688.2993383650738
 30
0.0
 10
2295.431365717295
 20
688.2295120202743
 30
0.0
 10
2295.439436333295
 20
688.1844204653737
 30
0.0
 10
2295.446518776395
 20
688.1591891681738
 30
0.0
 10
2295.450112098195
 20
688.1501324983737
 30
0.0
 10
2295.452112188495
 20
688.146670564074
 30
0.0
  0
SPLINE
  5
4917C
330
1F
100
AcDbEntity
  8
0
  6
Continuous
 62
     7
100
AcDbSpline
210
0.0
220
0.0
230
1.0
 70
     8
 71
     3
 72
     8
 73
     4
 74
     0
 42
0.0000000001
 43
0.0000000001
 40
0.0
 40
0.0
 40
0.0
 40
0.0
 40
1.0
 40
1.0
 40
1.0
 40
1.0
 10
2295.836660456895
 20
695.9391138615739
 30
0.0
 10
2295.909698662995
 20
696.3503822870745
 30
0.0
 10
2296.006923760895
 20
696.757698018274
 30
0.0
 10
2296.120672395095
 20
697.1596153549738
 30
0.0
  0
SPLINE
  5
4917D
330
1F
100
AcDbEntity
  8
0
  6
Continuous
 62
     7
100
AcDbSpline
210
0.0
220
0.0
230
1.0
 70
     8
 71
     3
 72
     8
 73
     4
 74
     0
 42
0.0000000001
 43
0.0000000001
 40
0.0
 40
0.0
 40
0.0
 40
0.0
 40
1.0
 40
1.0
 40
1.0
 40
1.0
 10
2296.298424594595
 20
690.9120391059744
 30
0.0
 10
2296.166341507395
 20
691.3137463178737
 30
0.0
 10
2296.048470837895
 20
691.7207250602744
 30
0.0
 10
2295.952436532795
 20
692.1325405993741
 30
0.0
  0
SPLINE
  5
4917E
330
1F
100
AcDbEntity
  8
0
  6
Continuous
 62
     7
100
AcDbSpline
210
0.0
220
0.0
230
1.0
 70
     8
 71
     3
 72
    20
 73
    16
 74
     0
 42
0.0000000001
 43
0.0000000001
 40
0.0
 40
0.0
 40
0.0
 40
0.0
 40
0.2090951398
 40
0.3987925965999999
 40
0.566280134
 40
0.7091720414
 40
0.7707283723
 40
0.8253890906999997
 40
0.8729587940000001
 40
0.9132759675999999
 40
0.9461970747
 40
0.9716317934
 40
0.9895294095999995
 40
0.9956730384999998
 40
1.0
 40
1.0
 40
1.0
 40
1.0
 10
2296.298424594595
 20
690.9120391059744
 30
0.0
 10
2296.304571438895
 20
690.7189302998743
 30
0.0
 10
2296.316711127995
 20
690.3506403187741
 30
0.0
 10
2296.335668588995
 20
689.827732236974
 30
0.0
 10
2296.354568896295
 20
689.3660395999742
 30
0.0
 10
2296.370925457295
 20
689.0227506388741
 30
0.0
 10
2296.384307929595
 20
688.7837032201744
 30
0.0
 10
2296.393821239095
 20
688.6326604746739
 30
0.0
 10
2296.403301812295
 20
688.5012820283739
 30
0.0
 10
2296.412747118595
 20
688.3900553564735
 30
0.0
 10
2296.422084176395
 20
688.2993383650738
 30
0.0
 10
2296.431365717295
 20
688.2295120202743
 30
0.0
 10
2296.439436333295
 20
688.1844204653737
 30
0.0
 10
2296.446518776395
 20
688.1591891681738
 30
0.0
 10
2296.450112098195
 20
688.1501324983737
 30
0.0
 10
2296.452112188495
 20
688.146670564074
 30
0.0
  0
SPLINE
  5
4917F
330
1F
100
AcDbEntity
  8
0
  6
Continuous
 62
     7
100
AcDbSpline
210
0.0
220
0.0
230
1.0
 70
     8
 71
     3
 72
     8
 73
     4
 74
     0
 42
0.0000000001
 43
0.0000000001
 40
0.0
 40
0.0
 40
0.0
 40
0.0
 40
1.0
 40
1.0
 40
1.0
 40
1.0
 10
2296.836660456895
 20
695.9391138615739
 30
0.0
 10
2296.907188096595
 20
696.3362456219742
 30
0.0
 10
2297.000269483795
 20
696.7296909341737
 30
0.0
 10
2297.108989570595
 20
697.1181078825741
 30
0.0
  0
SPLINE
  5
49180
330
1F
100
AcDbEntity
  8
0
  6
Continuous
 62
     7
100
AcDbSpline
210
0.0
220
0.0
230
1.0
 70
     8
 71
     3
 72
    12
 73
     8
 74
     0
 42
0.0000000001
 43
0.0000000001
 40
0.0
 40
0.0
 40
0.0
 40
0.0
 40
0.3832892589
 40
0.6781507811000002
 40
0.8833758172999999
 40
0.9525372931999999
 40
1.0
 40
1.0
 40
1.0
 40
1.0
 10
2294.409548494895
 20
688.4287822330747
 30
0.0
 10
2294.412729583895
 20
688.3923684527736
 30
0.0
 10
2294.418816699795
 20
688.3279638353744
 30
0.0
 10
2294.429092216995
 20
688.2443796240742
 30
0.0
 10
2294.437988373294
 20
688.1907119199742
 30
0.0
 10
2294.445863998995
 20
688.1610647730741
 30
0.0
 10
2294.449847359695
 20
688.1505835609742
 30
0.0
 10
2294.452112200795
 20
688.1466646567744
 30
0.0
  0
SPLINE
  5
49181
330
1F
100
AcDbEntity
  8
0
  6
Continuous
 62
     7
100
AcDbSpline
210
0.0
220
0.0
230
1.0
 70
     8
 71
     3
 72
    10
 73
     6
 74
     0
 42
0.0000000001
 43
0.0000000001
 40
0.0
 40
0.0
 40
0.0
 40
0.0
 40
0.2500874791
 40
0.5001759739000004
 40
1.0
 40
1.0
 40
1.0
 40
1.0
 10
2293.259548494895
 20
694.0358272304741
 30
0.0
 10
2293.259548494895
 20
694.1978436310741
 30
0.0
 10
2293.275410834995
 20
694.5221145885747
 30
0.0
 10
2293.368313819795
 20
695.1639778383743
 30
0.0
 10
2293.501016654995
 20
695.6340387697738
 30
0.0
 10
2293.609548494895
 20
695.9391138615739
 30
0.0
  0
SPLINE
  5
49182
330
1F
100
AcDbEntity
  8
0
  6
Continuous
 62
     7
100
AcDbSpline
210
0.0
220
0.0
230
1.0
 70
     8
 71
     3
 72
    13
 73
     9
 74
     0
 42
0.0000000001
 43
0.0000000001
 40
0.0
 40
0.0
 40
0.0
 40
0.0
 40
0.0277300008
 40
0.0790628865
 40
0.1587788029
 40
0.26789709
 40
0.5751496628
 40
1.0
 40
1.0
 40
1.0
 40
1.0
 10
2294.894548661795
 20
688.6858324641734
 30
0.0
 10
2294.892053633895
 20
688.6858301406738
 30
0.0
 10
2294.886100040296
 20
688.6915856157741
 30
0.0
 10
2294.881022752594
 20
688.7045143277739
 30
0.0
 10
2294.874761022895
 20
688.7254414564742
 30
0.0
 10
2294.865831897795
 20
688.7690876710742
 30
0.0
 10
2294.855126182595
 20
688.8441427982743
 30
0.0
 10
2294.848211542095
 20
688.9096245297743
 30
0.0
 10
2294.844548494895
 20
688.9476748682739
 30
0.0
  0
SPLINE
  5
49183
330
1F
100
AcDbEntity
  8
0
  6
Continuous
 62
     7
100
AcDbSpline
210
0.0
220
0.0
230
1.0
 70
     8
 71
     3
 72
    21
 73
    17
 74
     0
 42
0.0000000001
 43
0.0000000001
 40
0.0
 40
0.0
 40
0.0
 40
0.0
 40
0.0020573319
 40
0.005789142
 40
0.0194237398
 40
0.0415790855
 40
0.0722348954
 40
0.1112484359
 40
0.1584174886
 40
0.2134813025
 40
0.2761331366
 40
0.3460196856
 40
0.422745928
 40
0.5949433691000002
 40
0.7888220797
 40
1.0
 40
1.0
 40
1.0
 40
1.0
 10
2295.894535434595
 20
688.6858331314745
 30
0.0
 10
2295.892163863095
 20
688.6858394790745
 30
0.0
 10
2295.886488333395
 20
688.6910558370738
 30
0.0
 10
2295.878135538695
 20
688.7113409050737
 30
0.0
 10
2295.867803328095
 20
688.7564149124739
 30
0.0
 10
2295.856729246095
 20
688.8318945158736
 30
0.0
 10
2295.845092767295
 20
688.9372623525741
 30
0.0
 10
2295.833398706195
 20
689.0713902260742
 30
0.0
 10
2295.821582618395
 20
689.2338054372743
 30
0.0
 10
2295.809727880095
 20
689.4235012093742
 30
0.0
 10
2295.797836453995
 20
689.6394351948741
 30
0.0
 10
2295.785923234495
 20
689.8803699940738
 30
0.0
 10
2295.769375208696
 20
690.2475054389745
 30
0.0
 10
2295.749068123996
 20
690.7575427098739
 30
0.0
 10
2295.725437799996
 20
691.422551050674
 30
0.0
 10
2295.710181367595
 20
691.8892294401739
 30
0.0
 10
2295.702436532796
 20
692.1325405993741
 30
0.0
  0
SPLINE
  5
49184
330
1F
100
AcDbEntity
  8
0
  6
Continuous
 62
     7
100
AcDbSpline
210
0.0
220
0.0
230
1.0
 70
     8
 71
     3
 72
    21
 73
    17
 74
     0
 42
0.0000000001
 43
0.0000000001
 40
0.0
 40
0.0
 40
0.0
 40
0.0
 40
0.002055783
 40
0.0057850313
 40
0.0194148207
 40
0.0415660422
 40
0.0722189903
 40
0.1112301885
 40
0.1583979402
 40
0.2134607155
 40
0.2761122706
 40
0.3459984035
 40
0.4227248803000001
 40
0.5949268222999999
 40
0.7888134626000002
 40
1.0
 40
1.0
 40
1.0
 40
1.0
 10
2296.894544101095
 20
688.6858326489738
 30
0.0
 10
2296.892174301895
 20
688.6858348172737
 30
0.0
 10
2296.886494905095
 20
688.6910419198741
 30
0.0
 10
2296.878143739695
 20
688.7113179596738
 30
0.0
 10
2296.867809237595
 20
688.7563768007741
 30
0.0
 10
2296.856735933095
 20
688.8318437132741
 30
0.0
 10
2296.845098662295
 20
688.9372005842743
 30
0.0
 10
2296.833404109295
 20
689.0713213320744
 30
0.0
 10
2296.821587607094
 20
689.2337314454738
 30
0.0
 10
2296.809732290095
 20
689.4234246211737
 30
0.0
 10
2296.797840544795
 20
689.6393570946741
 30
0.0
 10
2296.785926865695
 20
689.880291910774
 30
0.0
 10
2296.769378217095
 20
690.2474331797741
 30
0.0
 10
2296.749070192594
 20
690.7574862305739
 30
0.0
 10
2296.725438810795
 20
691.4225203832739
 30
0.0
 10
2296.710181701895
 20
691.8892189376739
 30
0.0
 10
2296.702436532795
 20
692.1325405993741
 30
0.0
  0
SPLINE
  5
49185
330
1F
100
AcDbEntity
  8
0
  6
Continuous
 62
     7
100
AcDbSpline
210
0.0
220
0.0
230
1.0
 70
     8
 71
     3
 72
    14
 73
    10
 74
     0
 42
0.0000000001
 43
0.0000000001
 40
0.0
 40
0.0
 40
0.0
 40
0.0
 40
0.3505262892
 40
0.5060193298
 40
0.6451315029
 40
0.7657425704000002
 40
0.8660342593000001
 40
0.9445022993
 40
1.0
 40
1.0
 40
1.0
 40
1.0
 10
2296.952436532795
 20
692.1325405993741
 30
0.0
 10
2296.964786275294
 20
691.7445619980734
 30
0.0
 10
2296.983320629395
 20
691.1844965749743
 30
0.0
 10
2297.010278244995
 20
690.4705815913737
 30
0.0
 10
2297.029617637896
 20
690.0111719571744
 30
0.0
 10
2297.048882112995
 20
689.6129549210739
 30
0.0
 10
2297.067930566095
 20
689.2819600099739
 30
0.0
 10
2297.086817343595
 20
689.0232403942737
 30
0.0
 10
2297.101249931595
 20
688.8755201874737
 30
0.0
 10
2297.109555069196
 20
688.814625409974
 30
0.0
  0
LINE
  5
49186
330
1F
100
AcDbEntity
  8
0
  6
Continuous
 62
     7
100
AcDbLine
 10
2296.006160160895
 20
690.5840454799736
 30
0.0
 11
2296.006613306995
 21
690.5724216874744
 31
0.0
  0
SPLINE
  5
49187
330
1F
100
AcDbEntity
  8
0
  6
Continuous
 62
     7
100
AcDbSpline
210
0.0
220
0.0
230
1.0
 70
     8
 71
     3
 72
    18
 73
    14
 74
     0
 42
0.0000000001
 43
0.0000000001
 40
0.0
 40
0.0
 40
0.0
 40
0.0
 40
0.2105649791
 40
0.3999125062
 40
0.5660923614
 40
0.7073990905000001
 40
0.8223857303999999
 40
0.8696355678999998
 40
0.9099030875
 40
0.9430989615999999
 40
0.9691597270999999
 40
0.9880874030999999
 40
1.0
 40
1.0
 40
1.0
 40
1.0
 10
2296.006613306995
 20
690.5724216874744
 30
0.0
 10
2296.011776651595
 20
690.4401347482737
 30
0.0
 10
2296.021979298595
 20
690.1889056771745
 30
0.0
 10
2296.038007175995
 20
689.8333485810738
 30
0.0
 10
2296.053974193895
 20
689.5213808285745
 30
0.0
 10
2296.069870522295
 20
689.2562349576738
 30
0.0
 10
2296.083721412295
 20
689.065878860674
 30
0.0
 10
2296.095173054695
 20
688.9390754766739
 30
0.0
 10
2296.103149865695
 20
688.8635882200745
 30
0.0
 10
2296.111091208295
 20
688.801536083474
 30
0.0
 10
2296.118877314295
 20
688.7529299517738
 30
0.0
 10
2296.126616132095
 20
688.7180970977745
 30
0.0
 10
2296.132605458195
 20
688.699399735574
 30
0.0
 10
2296.136355120595
 20
688.6929161779736
 30
0.0
  0
LINE
  5
49188
330
1F
100
AcDbEntity
  8
0
  6
Continuous
 62
     7
100
AcDbLine
 10
2295.006160184695
 20
690.5840447775736
 30
0.0
 11
2295.006613407895
 21
690.5724190066742
 31
0.0
  0
SPLINE
  5
49189
330
1F
100
AcDbEntity
  8
0
  6
Continuous
 62
     7
100
AcDbSpline
210
0.0
220
0.0
230
1.0
 70
     8
 71
     3
 72
    18
 73
    14
 74
     0
 42
0.0000000001
 43
0.0000000001
 40
0.0
 40
0.0
 40
0.0
 40
0.0
 40
0.210565183
 40
0.3999151095
 40
0.5660962485000001
 40
0.7074028733
 40
0.8223882228
 40
0.8696375793999997
 40
0.9099041439
 40
0.9430996013999999
 40
0.9691600631
 40
0.9880873646999999
 40
1.0
 40
1.0
 40
1.0
 40
1.0
 10
2295.006613407895
 20
690.5724190066742
 30
0.0
 10
2295.011776751795
 20
690.4401321244741
 30
0.0
 10
2295.021979466195
 20
690.1889017699742
 30
0.0
 10
2295.038007457495
 20
689.8333427306744
 30
0.0
 10
2295.053974640195
 20
689.5213731715743
 30
0.0
 10
2295.069870931495
 20
689.2562277389743
 30
0.0
 10
2295.083721945495
 20
689.0658731021742
 30
0.0
 10
2295.095173371194
 20
688.9390715987739
 30
0.0
 10
2295.103150218295
 20
688.8635856218743
 30
0.0
 10
2295.111091432395
 20
688.8015346261737
 30
0.0
 10
2295.118877318195
 20
688.7529292130741
 30
0.0
 10
2295.126616273094
 20
688.7180968680742
 30
0.0
 10
2295.132605420094
 20
688.6993996866741
 30
0.0
 10
2295.136355120295
 20
688.6929161350733
 30
0.0
  0
SPLINE
  5
4918A
330
1F
100
AcDbEntity
  8
0
  6
Continuous
 62
     7
100
AcDbSpline
210
0.0
220
0.0
230
1.0
 70
     8
 71
     3
 72
    12
 73
     8
 74
     0
 42
0.0000000001
 43
0.0000000001
 40
0.0
 40
0.0
 40
0.0
 40
0.0
 40
0.0680308538
 40
0.1549810954
 40
0.3812012275
 40
0.6675837419000003
 40
1.0
 40
1.0
 40
1.0
 40
1.0
 10
2294.844548494895
 20
688.9476748682739
 30
0.0
 10
2294.835359103695
 20
689.0194508350742
 30
0.0
 10
2294.818147257595
 20
689.1834313224737
 30
0.0
 10
2294.784446257895
 20
689.5875059481743
 30
0.0
 10
2294.744860139495
 20
690.2240531902736
 30
0.0
 10
2294.699370855495
 20
691.121712305474
 30
0.0
 10
2294.670506210595
 20
691.7792784695741
 30
0.0
 10
2294.655551744495
 20
692.1325405993741
 30
0.0
  0
SPLINE
  5
4918B
330
1F
100
AcDbEntity
  8
0
  6
Continuous
 62
     7
100
AcDbSpline
210
0.0
220
0.0
230
1.0
 70
     8
 71
     3
 72
    21
 73
    17
 74
     0
 42
0.0000000001
 43
0.0000000001
 40
0.0
 40
0.0
 40
0.0
 40
0.0
 40
0.0020560941
 40
0.0057858803
 40
0.0194102124
 40
0.0415634285
 40
0.0722121014
 40
0.1112245147
 40
0.1583885149
 40
0.213452936
 40
0.2761025751
 40
0.3459917347999999
 40
0.4227199308
 40
0.5949256801000004
 40
0.78881614
 40
1.0
 40
1.0
 40
1.0
 40
1.0
 10
2296.644548489395
 20
699.3858272104737
 30
0.0
 10
2296.646918652195
 20
699.3858275113738
 30
0.0
 10
2296.652597959695
 20
699.380613495274
 30
0.0
 10
2296.660946413495
 20
699.3603479524737
 30
0.0
 10
2296.671290311795
 20
699.3152896453741
 30
0.0
 10
2296.682354564095
 20
699.2398327397743
 30
0.0
 10
2296.693998461895
 20
699.1344767282737
 30
0.0
 10
2296.705688923294
 20
699.0003635769737
 30
0.0
 10
2296.717508337595
 20
698.8379543362746
 30
0.0
 10
2296.729361805595
 20
698.6482653857739
 30
0.0
 10
2296.741255350696
 20
698.4323294551742
 30
0.0
 10
2296.753168408894
 20
698.1913909271745
 30
0.0
 10
2296.769718400495
 20
697.8242392214743
 30
0.0
 10
2296.790026516995
 20
697.3141745136737
 30
0.0
 10
2296.813658204995
 20
696.6491335249741
 30
0.0
 10
2296.828915372795
 20
696.1824328549737
 30
0.0
 10
2296.836660456895
 20
695.9391138615739
 30
0.0
  0
SPLINE
  5
4918C
330
1F
100
AcDbEntity
  8
0
  6
Continuous
 62
     7
100
AcDbSpline
210
0.0
220
0.0
230
1.0
 70
     8
 71
     3
 72
    12
 73
     8
 74
     0
 42
0.0000000001
 43
0.0000000001
 40
0.0
 40
0.0
 40
0.0
 40
0.0
 40
0.3326459567
 40
0.6191525655
 40
0.8453343948999998
 40
0.9321733455
 40
1.0
 40
1.0
 40
1.0
 40
1.0
 10
2293.999321321195
 20
692.1325405993741
 30
0.0
 10
2294.006855670995
 20
691.7793042459742
 30
0.0
 10
2294.021396727395
 20
691.1218363832743
 30
0.0
 10
2294.044314863295
 20
690.2242660745744
 30
0.0
 10
2294.064254900994
 20
689.5877819245744
 30
0.0
 10
2294.081237852995
 20
689.183623076274
 30
0.0
 10
2294.089910878595
 20
689.0195668688741
 30
0.0
 10
2294.094548494896
 20
688.9476748682739
 30
0.0
  0
SPLINE
  5
4918D
330
1F
100
AcDbEntity
  8
0
  6
Continuous
 62
     7
100
AcDbSpline
210
0.0
220
0.0
230
1.0
 70
     8
 71
     3
 72
    21
 73
    17
 74
     0
 42
0.0000000001
 43
0.0000000001
 40
0.0
 40
0.0
 40
0.0
 40
0.0
 40
0.0020563073
 40
0.0057859682
 40
0.019410174
 40
0.0415626845
 40
0.0722107058
 40
0.1112229066
 40
0.1583868883
 40
0.2134515172
 40
0.276101188
 40
0.3459904585
 40
0.4227184756000001
 40
0.5949225006000001
 40
0.7888138562
 40
1.0
 40
1.0
 40
1.0
 40
1.0
 10
2295.644549198695
 20
699.3858271595739
 30
0.0
 10
2295.646919606495
 20
699.3858262612741
 30
0.0
 10
2295.652597678897
 20
699.3806122334738
 30
0.0
 10
2295.660947881895
 20
699.3603468128744
 30
0.0
 10
2295.671289552794
 20
699.3152894481736
 30
0.0
 10
2295.682354782295
 20
699.2398343532742
 30
0.0
 10
2295.693997969594
 20
699.1344801293737
 30
0.0
 10
2295.705688562495
 20
699.0003680485743
 30
0.0
 10
2295.717508033595
 20
698.837958883274
 30
0.0
 10
2295.729361536195
 20
698.648269732874
 30
0.0
 10
2295.741255158395
 20
698.4323334620743
 30
0.0
 10
2295.753168194895
 20
698.1913950421742
 30
0.0
 10
2295.769718142695
 20
697.8242455051741
 30
0.0
 10
2295.790026245995
 20
697.3141821012744
 30
0.0
 10
2295.813657990595
 20
696.6491396213744
 30
0.0
 10
2295.828915291195
 20
696.1824354184738
 30
0.0
 10
2295.836660456895
 20
695.9391138615739
 30
0.0
  0
SPLINE
  5
4918E
330
1F
100
AcDbEntity
  8
0
  6
Continuous
 62
     7
100
AcDbSpline
210
0.0
220
0.0
230
1.0
 70
     8
 71
     3
 72
    12
 73
     8
 74
     0
 42
0.0000000001
 43
0.0000000001
 40
0.0
 40
0.0
 40
0.0
 40
0.0
 40
0.3786640738
 40
0.6718823192
 40
0.8786018426
 40
0.9497427925
 40
1.0
 40
1.0
 40
1.0
 40
1.0
 10
2294.094548494896
 20
688.9476748682739
 30
0.0
 10
2294.097680243095
 20
688.9151434612743
 30
0.0
 10
2294.103688322295
 20
688.8574495473742
 30
0.0
 10
2294.113787735195
 20
688.7823152798738
 30
0.0
 10
2294.122574631195
 20
688.733715923974
 30
0.0
 10
2294.130275766695
 20
688.7064698777741
 30
0.0
 10
2294.134184145795
 20
688.6966697423742
 30
0.0
 10
2294.136355115895
 20
688.6929145154738
 30
0.0
  0
SPLINE
  5
4918F
330
1F
100
AcDbEntity
  8
0
  6
Continuous
 62
     7
100
AcDbSpline
210
0.0
220
0.0
230
1.0
 70
     8
 71
     3
 72
    21
 73
    17
 74
     0
 42
0.0000000001
 43
0.0000000001
 40
0.0
 40
0.0
 40
0.0
 40
0.0
 40
0.0020571554
 40
0.0057886017
 40
0.0194225596
 40
0.0415773963
 40
0.0722330482
 40
0.1112463978
 40
0.1584154794
 40
0.2134791922
 40
0.2761310183
 40
0.3460171139
 40
0.4227428738000001
 40
0.5949404907
 40
0.7888206422000003
 40
1.0
 40
1.0
 40
1.0
 40
1.0
 10
2294.644560477594
 20
699.3858214989743
 30
0.0
 10
2294.646931847495
 20
699.385815594974
 30
0.0
 10
2294.652607701195
 20
699.3806003499742
 30
0.0
 10
2294.660960558595
 20
699.3603166241738
 30
0.0
 10
2294.671292780295
 20
699.315244466574
 30
0.0
 10
2294.682366973095
 20
699.2397663391741
 30
0.0
 10
2294.694003465895
 20
699.1343994777737
 30
0.0
 10
2294.705697722495
 20
699.0002719460734
 30
0.0
 10
2294.717513810395
 20
698.8378569895743
 30
0.0
 10
2294.729368669195
 20
698.6481612592744
 30
0.0
 10
2294.741260065695
 20
698.4322278552737
 30
0.0
 10
2294.753173323595
 20
698.191294073674
 30
0.0
 10
2294.769721339695
 20
697.8241593927744
 30
0.0
 10
2294.790028542295
 20
697.3141206618739
 30
0.0
 10
2294.813659017495
 20
696.6491085997743
 30
0.0
 10
2294.828915567095
 20
696.182426751374
 30
0.0
 10
2294.836660456895
 20
695.9391138615739
 30
0.0
  0
SPLINE
  5
49190
330
1F
100
AcDbEntity
  8
0
  6
Continuous
 62
     7
100
AcDbSpline
210
0.0
220
0.0
230
1.0
 70
     8
 71
     3
 72
    24
 73
    20
 74
     0
 42
0.0000000001
 43
0.0000000001
 40
0.0
 40
0.0
 40
0.0
 40
0.0
 40
0.0016050169
 40
0.0051111159
 40
0.0107366246
 40
0.0185181906
 40
0.0284625688
 40
0.0405602095
 40
0.0711533595
 40
0.1101485994
 40
0.1573246029
 40
0.2124251914
 40
0.2751315268
 40
0.345095575
 40
0.4219145751
 40
0.5051587471
 40
0.59434308
 40
0.7885058878
 40
1.0
 40
1.0
 40
1.0
 40
1.0
 10
2293.793009992695
 20
699.3858272304744
 30
0.0
 10
2293.794856937895
 20
699.3858272360742
 30
0.0
 10
2293.798701369995
 20
699.3796057761739
 30
0.0
 10
2293.801696412795
 20
699.3686089143741
 30
0.0
 10
2293.805794481595
 20
699.3490468467737
 30
0.0
 10
2293.809540096695
 20
699.3226493411741
 30
0.0
 10
2293.813524627894
 20
699.2884771322743
 30
0.0
 10
2293.819237438594
 20
699.2282137642744
 30
0.0
 10
2293.826132587195
 20
699.1344352570743
 30
0.0
 10
2293.833987883395
 20
699.0003093695743
 30
0.0
 10
2293.841898416995
 20
698.8379298465745
 30
0.0
 10
2293.849843574595
 20
698.6482453503739
 30
0.0
 10
2293.857812185794
 20
698.4323170343742
 30
0.0
 10
2293.865794492095
 20
698.191382684674
 30
0.0
 10
2293.873788472195
 20
697.9268032686743
 30
0.0
 10
2293.881789225795
 20
697.6400974681736
 30
0.0
 10
2293.892778676095
 20
697.2183918758737
 30
0.0
 10
2293.906326070496
 20
696.6491224603744
 30
0.0
 10
2293.916551600395
 20
696.1824316848742
 30
0.0
 10
2293.921741444395
 20
695.9391138615739
 30
0.0
  0
SPLINE
  5
49191
330
1F
100
AcDbEntity
  8
0
  6
Continuous
 62
     7
100
AcDbSpline
210
0.0
220
0.0
230
1.0
 70
     8
 71
     3
 72
    10
 73
     6
 74
     0
 42
0.0000000001
 43
0.0000000001
 40
0.0
 40
0.0
 40
0.0
 40
0.0
 40
0.4998243215000004
 40
0.7499126214000002
 40
1.0
 40
1.0
 40
1.0
 40
1.0
 10
2293.609548494895
 20
692.1325405993741
 30
0.0
 10
2293.501016590996
 20
692.4376158710741
 30
0.0
 10
2293.368313778395
 20
692.9076768788736
 30
0.0
 10
2293.275410812795
 20
693.5495401288734
 30
0.0
 10
2293.259548494895
 20
693.8738108951739
 30
0.0
 10
2293.259548494895
 20
694.0358272304741
 30
0.0
  0
MTEXT
  5
498B3
102
{ACAD_XDICTIONARY
360
4A3F2
102
}
330
1F
100
AcDbEntity
  8
打标文字
 62
     3
100
AcDbMText
 10
2238.56058442785
 20
732.5405052849996
 30
0.0
 40
1.5
 41
25.53120620515509
 71
     1
 72
     5
  3
\A1;技术参数：{\Fromans|c134;                             \P- }额定电流{\Fromans|c134;(40}℃{\Fromans|c134;)}：{\Fromans|c134;4A              \P- }额定电压：{\Fromans|c134;60V                  \P- }额定脉冲电压：{\Fromans|c134;800V \P- }插针数：{\Fromans|c134;3           \P- }
  3
污染等级：{\Fromans|c134;3                   \P- }接触电阻：≤{\Fromans|c134;10mΩ             \P- }绝缘电阻：≥{\Fromans|c134;100MΩ            \P- }锁紧方式：螺纹式{\Fromans|c134;M8*1           \P- }连接方式：浸焊{\Fromans|c134;                \P- }防护等级：{\Fromans|c134;IP67         
  3
      \P- }插拔次数：≥{\Fromans|c134;100            \P- }温度范围：{\Fromans|c134;-40}℃{\Fromans|c134; ... +85}℃{\Fromans|c134;          \P- }外壳材料：{\Fromans|c134;CuZn                        \P- }插体材料：{\Fromans|c134;PA                         \P- }插针材料：铜合金{\Fro
  1
mans|c134;                      \P- }电镀材料：金{\Fromans|c134;                         \P               \P\P  }
 73
     1
 44
1.0
1001
ACAD
1000
ACAD_MTEXT_DEFINED_HEIGHT_BEGIN
1070
    46
1040
61.24215749856475
1000
ACAD_MTEXT_DEFINED_HEIGHT_END
  0
MTEXT
  5
498B4
102
{ACAD_XDICTIONARY
360
4A3F4
102
}
330
1F
100
AcDbEntity
  8
打标文字
 62
     3
100
AcDbMText
 10
2238.388379400555
 20
684.4417705373972
 30
0.0
 40
1.5
 41
75.20499655345273
 71
     1
 72
     5
  3
\A1;{\Fromans|c134;Technical specification:\P- \A0;Rated current (40\fFangSong_GB2312|b0|i0|c134|p49;℃\Fromans|c134;)\A1;: 4A\P- \A0;Rated voltage\A1;: 60V\P- \A0;Rated impulse voltage\A1;: 800V\P- Number of contacts: 3\P- \A0;Pollution degree\A1;: 3
  3
\P- \A0;Contact resistance\A1;: }≤{\Fromans|c134;10mΩ\P- Insulation resistance: }≥{\Fromans|c134;100MΩ \P- \A0;Connector locking system\A1;: \A0;screw\A1; M8*1\P- \A0;Terminal\A1;: \A0;dip solder\A1;\P- \A0;Degree of protection\A1;: IP67\P- \A0;Matin
  3
g cycles\A1;: }≥{\Fromans|c134;100  \P- \A0;Temperature range\A1;: -40}℃{\Fromans|c134; ... +85}℃{\Fromans|c134;\P- \A0;Material of housing: CuZn\A1;\P- \A0;Material of insert\A1;: PA\P- \A0;Material of contact\A1;: \A0;copper alloy\A1;\P- \A0;Contac
  1
t plating\A1;: \A0;Au\A1;\P\P\P  }
 73
     1
 44
1.0
1001
ACAD
1000
ACAD_MTEXT_DEFINED_HEIGHT_BEGIN
1070
    46
1040
61.24215749856475
1000
ACAD_MTEXT_DEFINED_HEIGHT_END
  0
MTEXT
  5
49E79
330
1F
100
AcDbEntity
  8
Dim
 62
     4
100
AcDbMText
 10
2344.553658294514
 20
697.5790330116383
 30
0.0
 40
1.0
 41
41.2735239780402
 71
     1
 72
     5
  1
{\fSimSun|b0|i0|c134|p2;         \fFangSong_GB2312|b0|i0|c134|p49;针位图\P\fSimSun|b0|i0|c134|p2; }Contact arrangement
  7
Romans字体
 73
     1
 44
1.0
  0
LWPOLYLINE
  5
49E7A
330
1F
100
AcDbEntity
  8
标注
 62
     4
 48
10.0
100
AcDbPolyline
 90
        4
 70
     0
 43
0.0
 10
2373.421573500822
 20
698.7466799175291
 10
2373.421573500822
 20
734.8281445140042
 10
2326.088478479376
 20
734.8281445140035
 10
2326.088478479376
 20
698.7466799175291
  0
LWPOLYLINE
  5
49E7B
330
1F
100
AcDbEntity
  8
标注
 62
     4
 48
10.0
100
AcDbPolyline
 90
        5
 70
     0
 43
0.0
 10
2326.088478479376
 20
697.9712862881569
 10
2326.088478479376
 20
675.4810670249096
 10
2326.088478479376
 20
675.4810670249096
 10
2373.421573500822
 20
675.4810670249096
 10
2373.421573500822
 20
697.9712862881569
  0
LINE
  5
49E7C
330
1F
100
AcDbEntity
  8
标注
 62
     4
 48
10.0
100
AcDbLine
 10
2353.355670749144
 20
734.8281445140039
 30
0.0
 11
2353.355670749143
 21
702.9465512669203
 31
0.0
  0
LINE
  5
49E7D
330
1F
100
AcDbEntity
  8
标注
 62
     4
 48
10.0
100
AcDbLine
 10
2326.088478479376
 20
702.9465512669203
 30
0.0
 11
2373.421573500822
 21
702.9465512669203
 31
0.0
  0
MTEXT
  5
49E7E
330
1F
100
AcDbEntity
  8
Dim
 62
     4
100
AcDbMText
 10
2348.299149562047
 20
702.3819189551089
 30
0.0
 40
1.0
 41
41.2735239780402
 71
     1
 72
     5
  1
{\fFangSong_GB2312|b0|i0|c134|p49;面板安装尺寸}\PPanel Cut-out
  7
Romans字体
 73
     1
 44
1.0
  0
MTEXT
  5
49E7F
330
1F
100
AcDbEntity
  8
Dim
 62
     4
100
AcDbMText
 10
2334.676146104413
 20
706.8427807918567
 30
0.0
 40
1.0
 41
41.2735239780402
 71
     1
 72
     5
  1
    通孔安装\P{\Fromans|c134;With bore hole}
 73
     1
 44
1.0
1001
ACAD
1000
ACAD_MTEXT_DEFINED_HEIGHT_BEGIN
1070
    46
1040
5.835019932156011
1000
ACAD_MTEXT_DEFINED_HEIGHT_END
  0
MTEXT
  5
49E80
330
1F
100
AcDbEntity
  8
Dim
 62
     4
100
AcDbMText
 10
2358.164238257288
 20
706.8158766555043
 30
0.0
 40
1.0
 41
41.2735239780402
 71
     1
 72
     5
  1
      {\fFangSong_GB2312|b0|i0|c134|p49;螺纹安装}\PWith thread to screw in
  7
Romans字体
 73
     1
 44
1.0
1001
ACAD
1000
ACAD_MTEXT_DEFINED_HEIGHT_BEGIN
1070
    46
1040
5.851236148372223
1000
ACAD_MTEXT_DEFINED_HEIGHT_END
  0
LINE
  5
49E81
330
1F
100
AcDbEntity
  8
标注
 62
     4
 48
10.0
100
AcDbLine
 10
2326.088478479376
 20
697.9712862881569
 30
0.0
 11
2373.421573500822
 21
697.9712862881569
 31
0.0
  0
LINE
  5
49E82
330
1F
100
AcDbEntity
  8
标注
 62
     4
 48
10.0
100
AcDbLine
 10
2326.088478479376
 20
698.7466799175291
 30
0.0
 11
2373.421573500822
 21
698.7466799175291
 31
0.0
  0
LINE
  5
49E83
330
1F
100
AcDbEntity
  8
标注
 62
     4
 48
10.0
100
AcDbLine
 10
2326.088478479376
 20
693.9251939806447
 30
0.0
 11
2373.421573500822
 21
693.9251939806447
 31
0.0
  0
LINE
  5
49E84
330
1F
100
AcDbEntity
  8
标注
 62
     4
 48
10.0
100
AcDbLine
 10
2349.755025990099
 20
675.4810670249096
 30
0.0
 11
2349.755025990099
 21
693.9251939806447
 31
0.0
  0
LINE
  5
49E85
330
1F
100
AcDbEntity
  8
标注
 62
     4
 48
10.0
100
AcDbLine
 10
2326.088478479376
 20
691.5856523625095
 30
0.0
 11
2373.421573500822
 21
691.5856523625095
 31
0.0
  0
MTEXT
  5
49E86
330
1F
100
AcDbEntity
  8
粗实线
100
AcDbMText
 10
2337.65386352273
 20
692.6731728828769
 30
0.0
 40
1.008720148248116
 41
0.9142085783339039
 71
     5
 72
     5
  1
{\C4;3Pin}
  7
Romans字体
 73
     1
 44
1.0
1001
ACAD
1000
ACAD_MTEXT_DEFINED_HEIGHT_BEGIN
1070
    46
1040
0.9216177990686128
1000
ACAD_MTEXT_DEFINED_HEIGHT_END
  0
MTEXT
  5
49E87
330
1F
100
AcDbEntity
  8
粗实线
100
AcDbMText
 10
2361.320411033454
 20
692.6731728828769
 30
0.0
 40
1.008720148248116
 41
0.9142085783339039
 71
     5
 72
     5
  1
{\C4;4Pin}
  7
Romans字体
 73
     1
 44
1.0
1001
ACAD
1000
ACAD_MTEXT_DEFINED_HEIGHT_BEGIN
1070
    46
1040
0.9216177990686128
1000
ACAD_MTEXT_DEFINED_HEIGHT_END
  0
MTEXT
  5
49E88
330
1F
100
AcDbEntity
  8
Dim
 62
     4
100
AcDbMText
 10
2353.787862624399
 20
732.9648312985772
 30
0.0
 40
1.0
 41
41.2735239780402
 71
     1
 72
     5
  1
{\fFangSong_GB2312|b0|i0|c134|p49;拧紧力矩}(Tightening moment):1Nm
  7
Romans字体
 73
     1
 44
1.0
  0
LINE
  5
49E89
330
1F
100
AcDbEntity
  8
Layer1
100
AcDbLine
 10
2337.615546178683
 20
688.7398603173628
 30
0.0
 11
2347.296805084779
 21
688.7398603173628
 31
0.0
  0
LINE
  5
49E8A
330
1F
100
AcDbEntity
  8
Layer1
100
AcDbLine
 10
2347.296805084779
 20
680.0972641304674
 30
0.0
 11
2337.615546178683
 21
680.0972641304674
 31
0.0
  0
LINE
  5
49E8B
330
1F
100
AcDbEntity
  8
Layer1
100
AcDbLine
 10
2337.615546178683
 20
678.1711043360942
 30
0.0
 11
2337.615546178683
 21
688.7398603173628
 31
0.0
  0
LINE
  5
49E8C
330
1F
100
AcDbEntity
  8
Layer1
100
AcDbLine
 10
2339.885860905206
 20
688.7398603173628
 30
0.0
 11
2339.885860905206
 21
678.1711043360942
 31
0.0
  0
LINE
  5
49E8D
330
1F
100
AcDbEntity
  8
Layer1
100
AcDbLine
 10
2337.615546178683
 20
686.5010481865223
 30
0.0
 11
2347.296805084779
 21
686.5010481865223
 31
0.0
  0
LINE
  5
49E8E
330
1F
100
AcDbEntity
  8
Layer1
100
AcDbLine
 10
2337.615546178683
 20
684.2622360556815
 30
0.0
 11
2347.296805084779
 21
684.2622360556815
 31
0.0
  0
LINE
  5
49E8F
330
1F
100
AcDbEntity
  8
Layer1
100
AcDbLine
 10
2337.615546178683
 20
682.023423924841
 30
0.0
 11
2347.296805084779
 21
682.023423924841
 31
0.0
  0
LINE
  5
49E90
330
1F
100
AcDbEntity
  8
Layer1
100
AcDbLine
 10
2343.591332994992
 20
688.7398603173628
 30
0.0
 11
2343.591332994992
 21
678.1711043360942
 31
0.0
  0
LINE
  5
49E91
330
1F
100
AcDbEntity
  8
Layer1
100
AcDbLine
 10
2347.296805084779
 20
688.7398603173628
 30
0.0
 11
2347.296805084779
 21
678.1711043360942
 31
0.0
  0
MTEXT
  5
49E92
330
1F
100
AcDbEntity
  8
粗实线
100
AcDbMText
 10
2341.867003721636
 20
687.6228545639983
 30
0.0
 40
1.008720148248116
 41
0.9142085783339039
 71
     5
 72
     5
  1
{\C4;X}
  7
Romans字体
 73
     1
 44
1.0
1001
ACAD
1000
ACAD_MTEXT_DEFINED_HEIGHT_BEGIN
1070
    46
1040
0.9216177990686128
1000
ACAD_MTEXT_DEFINED_HEIGHT_END
  0
MTEXT
  5
49E93
330
1F
100
AcDbEntity
  8
粗实线
100
AcDbMText
 10
2345.518533775432
 20
687.6228545639983
 30
0.0
 40
1.008720148248116
 41
0.9142085783339039
 71
     5
 72
     5
  1
{\C4;Y}
  7
Romans字体
 73
     1
 44
1.0
1001
ACAD
1000
ACAD_MTEXT_DEFINED_HEIGHT_BEGIN
1070
    46
1040
0.9216177990686128
1000
ACAD_MTEXT_DEFINED_HEIGHT_END
  0
MTEXT
  5
49E94
330
1F
100
AcDbEntity
  8
粗实线
100
AcDbMText
 10
2338.720039695205
 20
685.3734348134179
 30
0.0
 40
1.008720148248116
 41
0.9142085783339039
 71
     5
 72
     5
  1
{\C4;1}
  7
Romans字体
 73
     1
 44
1.0
1001
ACAD
1000
ACAD_MTEXT_DEFINED_HEIGHT_BEGIN
1070
    46
1040
0.9216177990686128
1000
ACAD_MTEXT_DEFINED_HEIGHT_END
  0
MTEXT
  5
49E95
330
1F
100
AcDbEntity
  8
粗实线
100
AcDbMText
 10
2338.720039695205
 20
683.1346226825773
 30
0.0
 40
1.008720148248116
 41
0.9142085783339039
 71
     5
 72
     5
  1
{\C4;2}
  7
Romans字体
 73
     1
 44
1.0
1001
ACAD
1000
ACAD_MTEXT_DEFINED_HEIGHT_BEGIN
1070
    46
1040
0.9216177990686128
1000
ACAD_MTEXT_DEFINED_HEIGHT_END
  0
MTEXT
  5
49E96
330
1F
100
AcDbEntity
  8
粗实线
100
AcDbMText
 10
2338.720039695205
 20
681.2084628882039
 30
0.0
 40
1.008720148248116
 41
0.9142085783339039
 71
     5
 72
     5
  1
{\C4;3}
  7
Romans字体
 73
     1
 44
1.0
1001
ACAD
1000
ACAD_MTEXT_DEFINED_HEIGHT_BEGIN
1070
    46
1040
0.9216177990686128
1000
ACAD_MTEXT_DEFINED_HEIGHT_END
  0
LINE
  5
49E97
330
1F
100
AcDbEntity
  8
Layer1
100
AcDbLine
 10
2337.615546178683
 20
678.1711043360942
 30
0.0
 11
2347.296805084779
 21
678.1711043360942
 31
0.0
  0
MTEXT
  5
49E98
330
1F
100
AcDbEntity
  8
粗实线
100
AcDbMText
 10
2338.720039695205
 20
679.2823030938307
 30
0.0
 40
1.008720148248116
 41
0.9142085783339039
 71
     5
 72
     5
  1
{\C4;4}
  7
Romans字体
 73
     1
 44
1.0
1001
ACAD
1000
ACAD_MTEXT_DEFINED_HEIGHT_BEGIN
1070
    46
1040
0.9216177990686128
1000
ACAD_MTEXT_DEFINED_HEIGHT_END
  0
MTEXT
  5
49E99
330
1F
100
AcDbEntity
  8
粗实线
100
AcDbMText
 10
2341.597293039127
 20
685.3840424331576
 30
0.0
 40
1.008720148248116
 41
0.9142085783339039
 71
     5
 72
     5
  1
{\C4;1.75}
  7
Romans字体
 73
     1
 44
1.0
1001
ACAD
1000
ACAD_MTEXT_DEFINED_HEIGHT_BEGIN
1070
    46
1040
0.9216177990686128
1000
ACAD_MTEXT_DEFINED_HEIGHT_END
  0
MTEXT
  5
49E9A
330
1F
100
AcDbEntity
  8
粗实线
100
AcDbMText
 10
2345.302765128913
 20
685.3840424331576
 30
0.0
 40
1.008720148248116
 41
0.9142085783339039
 71
     5
 72
     5
  1
{\C4;0.00}
  7
Romans字体
 73
     1
 44
1.0
1001
ACAD
1000
ACAD_MTEXT_DEFINED_HEIGHT_BEGIN
1070
    46
1040
0.9216177990686128
1000
ACAD_MTEXT_DEFINED_HEIGHT_END
  0
MTEXT
  5
49E9B
330
1F
100
AcDbEntity
  8
粗实线
100
AcDbMText
 10
2341.597293039127
 20
683.1452303023169
 30
0.0
 40
1.008720148248116
 41
0.9142085783339039
 71
     5
 72
     5
  1
{\C4;-}
  7
Romans字体
 73
     1
 44
1.0
1001
ACAD
1000
ACAD_MTEXT_DEFINED_HEIGHT_BEGIN
1070
    46
1040
0.9216177990686128
1000
ACAD_MTEXT_DEFINED_HEIGHT_END
  0
MTEXT
  5
49E9C
330
1F
100
AcDbEntity
  8
粗实线
100
AcDbMText
 10
2345.302765128913
 20
683.1452303023169
 30
0.0
 40
1.008720148248116
 41
0.9142085783339039
 71
     5
 72
     5
  1
{\C4;-}
  7
Romans字体
 73
     1
 44
1.0
1001
ACAD
1000
ACAD_MTEXT_DEFINED_HEIGHT_BEGIN
1070
    46
1040
0.9216177990686128
1000
ACAD_MTEXT_DEFINED_HEIGHT_END
  0
MTEXT
  5
49E9D
330
1F
100
AcDbEntity
  8
粗实线
100
AcDbMText
 10
2341.597293039127
 20
681.2190705079435
 30
0.0
 40
1.008720148248116
 41
0.9142085783339039
 71
     5
 72
     5
  1
{\C4;-1.75}
  7
Romans字体
 73
     1
 44
1.0
1001
ACAD
1000
ACAD_MTEXT_DEFINED_HEIGHT_BEGIN
1070
    46
1040
0.9216177990686128
1000
ACAD_MTEXT_DEFINED_HEIGHT_END
  0
MTEXT
  5
49E9E
330
1F
100
AcDbEntity
  8
粗实线
100
AcDbMText
 10
2345.302765128913
 20
681.2190705079435
 30
0.0
 40
1.008720148248116
 41
0.9142085783339039
 71
     5
 72
     5
  1
{\C4;0.00}
  7
Romans字体
 73
     1
 44
1.0
1001
ACAD
1000
ACAD_MTEXT_DEFINED_HEIGHT_BEGIN
1070
    46
1040
0.9216177990686128
1000
ACAD_MTEXT_DEFINED_HEIGHT_END
  0
MTEXT
  5
49E9F
330
1F
100
AcDbEntity
  8
粗实线
100
AcDbMText
 10
2341.597293039127
 20
679.2929107135702
 30
0.0
 40
1.008720148248116
 41
0.9142085783339039
 71
     5
 72
     5
  1
{\C4;0.00}
  7
Romans字体
 73
     1
 44
1.0
1001
ACAD
1000
ACAD_MTEXT_DEFINED_HEIGHT_BEGIN
1070
    46
1040
0.9216177990686128
1000
ACAD_MTEXT_DEFINED_HEIGHT_END
  0
MTEXT
  5
49EA0
330
1F
100
AcDbEntity
  8
粗实线
100
AcDbMText
 10
2345.302765128913
 20
679.2929107135702
 30
0.0
 40
1.008720148248116
 41
0.9142085783339039
 71
     5
 72
     5
  1
{\C4;1.75}
  7
Romans字体
 73
     1
 44
1.0
1001
ACAD
1000
ACAD_MTEXT_DEFINED_HEIGHT_BEGIN
1070
    46
1040
0.9216177990686128
1000
ACAD_MTEXT_DEFINED_HEIGHT_END
  0
LINE
  5
49EA1
330
1F
100
AcDbEntity
  8
Layer1
100
AcDbLine
 10
2361.133512990482
 20
688.7398603173628
 30
0.0
 11
2370.814771896577
 21
688.7398603173628
 31
0.0
  0
LINE
  5
49EA2
330
1F
100
AcDbEntity
  8
Layer1
100
AcDbLine
 10
2370.814771896577
 20
680.0972641304674
 30
0.0
 11
2361.133512990482
 21
680.0972641304674
 31
0.0
  0
LINE
  5
49EA3
330
1F
100
AcDbEntity
  8
Layer1
100
AcDbLine
 10
2361.133512990482
 20
678.1711043360942
 30
0.0
 11
2361.133512990482
 21
688.7398603173628
 31
0.0
  0
LINE
  5
49EA4
330
1F
100
AcDbEntity
  8
Layer1
100
AcDbLine
 10
2363.403827717005
 20
688.7398603173628
 30
0.0
 11
2363.403827717005
 21
678.1711043360942
 31
0.0
  0
LINE
  5
49EA5
330
1F
100
AcDbEntity
  8
Layer1
100
AcDbLine
 10
2361.133512990482
 20
686.5010481865223
 30
0.0
 11
2370.814771896577
 21
686.5010481865223
 31
0.0
  0
LINE
  5
49EA6
330
1F
100
AcDbEntity
  8
Layer1
100
AcDbLine
 10
2361.133512990482
 20
684.2622360556815
 30
0.0
 11
2370.814771896577
 21
684.2622360556815
 31
0.0
  0
LINE
  5
49EA7
330
1F
100
AcDbEntity
  8
Layer1
100
AcDbLine
 10
2361.133512990482
 20
682.023423924841
 30
0.0
 11
2370.814771896577
 21
682.023423924841
 31
0.0
  0
LINE
  5
49EA8
330
1F
100
AcDbEntity
  8
Layer1
100
AcDbLine
 10
2367.109299806791
 20
688.7398603173628
 30
0.0
 11
2367.109299806791
 21
678.1711043360942
 31
0.0
  0
LINE
  5
49EA9
330
1F
100
AcDbEntity
  8
Layer1
100
AcDbLine
 10
2370.814771896577
 20
688.7398603173628
 30
0.0
 11
2370.814771896577
 21
678.1711043360942
 31
0.0
  0
MTEXT
  5
49EAA
330
1F
100
AcDbEntity
  8
粗实线
100
AcDbMText
 10
2365.223143922905
 20
687.6228545639983
 30
0.0
 40
1.008720148248116
 41
0.9142085783339039
 71
     5
 72
     5
  1
{\C4;X}
  7
Romans字体
 73
     1
 44
1.0
1001
ACAD
1000
ACAD_MTEXT_DEFINED_HEIGHT_BEGIN
1070
    46
1040
0.9216177990686128
1000
ACAD_MTEXT_DEFINED_HEIGHT_END
  0
MTEXT
  5
49EAB
330
1F
100
AcDbEntity
  8
粗实线
100
AcDbMText
 10
2369.090443125783
 20
687.6228545639983
 30
0.0
 40
1.008720148248116
 41
0.9142085783339039
 71
     5
 72
     5
  1
{\C4;Y}
  7
Romans字体
 73
     1
 44
1.0
1001
ACAD
1000
ACAD_MTEXT_DEFINED_HEIGHT_BEGIN
1070
    46
1040
0.9216177990686128
1000
ACAD_MTEXT_DEFINED_HEIGHT_END
  0
MTEXT
  5
49EAC
330
1F
100
AcDbEntity
  8
粗实线
100
AcDbMText
 10
2362.238006507004
 20
685.3734348134179
 30
0.0
 40
1.008720148248116
 41
0.9142085783339039
 71
     5
 72
     5
  1
{\C4;1}
  7
Romans字体
 73
     1
 44
1.0
1001
ACAD
1000
ACAD_MTEXT_DEFINED_HEIGHT_BEGIN
1070
    46
1040
0.9216177990686128
1000
ACAD_MTEXT_DEFINED_HEIGHT_END
  0
MTEXT
  5
49EAD
330
1F
100
AcDbEntity
  8
粗实线
100
AcDbMText
 10
2362.238006507004
 20
683.1346226825773
 30
0.0
 40
1.008720148248116
 41
0.9142085783339039
 71
     5
 72
     5
  1
{\C4;2}
  7
Romans字体
 73
     1
 44
1.0
1001
ACAD
1000
ACAD_MTEXT_DEFINED_HEIGHT_BEGIN
1070
    46
1040
0.9216177990686128
1000
ACAD_MTEXT_DEFINED_HEIGHT_END
  0
MTEXT
  5
49EAE
330
1F
100
AcDbEntity
  8
粗实线
100
AcDbMText
 10
2362.238006507004
 20
681.2084628882039
 30
0.0
 40
1.008720148248116
 41
0.9142085783339039
 71
     5
 72
     5
  1
{\C4;3}
  7
Romans字体
 73
     1
 44
1.0
1001
ACAD
1000
ACAD_MTEXT_DEFINED_HEIGHT_BEGIN
1070
    46
1040
0.9216177990686128
1000
ACAD_MTEXT_DEFINED_HEIGHT_END
  0
LINE
  5
49EAF
330
1F
100
AcDbEntity
  8
Layer1
100
AcDbLine
 10
2361.133512990482
 20
678.1711043360942
 30
0.0
 11
2370.814771896577
 21
678.1711043360942
 31
0.0
  0
MTEXT
  5
49EB0
330
1F
100
AcDbEntity
  8
粗实线
100
AcDbMText
 10
2362.238006507004
 20
679.2823030938307
 30
0.0
 40
1.008720148248116
 41
0.9142085783339039
 71
     5
 72
     5
  1
{\C4;4}
  7
Romans字体
 73
     1
 44
1.0
1001
ACAD
1000
ACAD_MTEXT_DEFINED_HEIGHT_BEGIN
1070
    46
1040
0.9216177990686128
1000
ACAD_MTEXT_DEFINED_HEIGHT_END
  0
MTEXT
  5
49EB1
330
1F
100
AcDbEntity
  8
粗实线
100
AcDbMText
 10
2365.115259850926
 20
685.3840424331576
 30
0.0
 40
1.008720148248116
 41
0.9142085783339039
 71
     5
 72
     5
  1
{\C4;1.70}
  7
Romans字体
 73
     1
 44
1.0
1001
ACAD
1000
ACAD_MTEXT_DEFINED_HEIGHT_BEGIN
1070
    46
1040
0.9216177990686128
1000
ACAD_MTEXT_DEFINED_HEIGHT_END
  0
MTEXT
  5
49EB2
330
1F
100
AcDbEntity
  8
粗实线
100
AcDbMText
 10
2368.820731940712
 20
685.3840424331576
 30
0.0
 40
1.008720148248116
 41
0.9142085783339039
 71
     5
 72
     5
  1
{\C4;-0.50}
  7
Romans字体
 73
     1
 44
1.0
1001
ACAD
1000
ACAD_MTEXT_DEFINED_HEIGHT_BEGIN
1070
    46
1040
0.9216177990686128
1000
ACAD_MTEXT_DEFINED_HEIGHT_END
  0
MTEXT
  5
49EB3
330
1F
100
AcDbEntity
  8
粗实线
100
AcDbMText
 10
2365.115259850926
 20
683.1452303023169
 30
0.0
 40
1.008720148248116
 41
0.9142085783339039
 71
     5
 72
     5
  1
{\C4;1.08}
  7
Romans字体
 73
     1
 44
1.0
1001
ACAD
1000
ACAD_MTEXT_DEFINED_HEIGHT_BEGIN
1070
    46
1040
0.9216177990686128
1000
ACAD_MTEXT_DEFINED_HEIGHT_END
  0
MTEXT
  5
49EB4
330
1F
100
AcDbEntity
  8
粗实线
100
AcDbMText
 10
2368.820731940712
 20
683.1452303023169
 30
0.0
 40
1.008720148248116
 41
0.9142085783339039
 71
     5
 72
     5
  1
{\C4;1.45}
  7
Romans字体
 73
     1
 44
1.0
1001
ACAD
1000
ACAD_MTEXT_DEFINED_HEIGHT_BEGIN
1070
    46
1040
0.9216177990686128
1000
ACAD_MTEXT_DEFINED_HEIGHT_END
  0
MTEXT
  5
49EB5
330
1F
100
AcDbEntity
  8
粗实线
100
AcDbMText
 10
2365.115259850926
 20
681.2190705079435
 30
0.0
 40
1.008720148248116
 41
0.9142085783339039
 71
     5
 72
     5
  1
{\C4;-1.70}
  7
Romans字体
 73
     1
 44
1.0
1001
ACAD
1000
ACAD_MTEXT_DEFINED_HEIGHT_BEGIN
1070
    46
1040
0.9216177990686128
1000
ACAD_MTEXT_DEFINED_HEIGHT_END
  0
MTEXT
  5
49EB6
330
1F
100
AcDbEntity
  8
粗实线
100
AcDbMText
 10
2368.820731940712
 20
681.2190705079435
 30
0.0
 40
1.008720148248116
 41
0.9142085783339039
 71
     5
 72
     5
  1
{\C4;-0.50}
  7
Romans字体
 73
     1
 44
1.0
1001
ACAD
1000
ACAD_MTEXT_DEFINED_HEIGHT_BEGIN
1070
    46
1040
0.9216177990686128
1000
ACAD_MTEXT_DEFINED_HEIGHT_END
  0
MTEXT
  5
49EB7
330
1F
100
AcDbEntity
  8
粗实线
100
AcDbMText
 10
2365.115259850926
 20
679.2929107135702
 30
0.0
 40
1.008720148248116
 41
0.9142085783339039
 71
     5
 72
     5
  1
{\C4;-1.08}
  7
Romans字体
 73
     1
 44
1.0
1001
ACAD
1000
ACAD_MTEXT_DEFINED_HEIGHT_BEGIN
1070
    46
1040
0.9216177990686128
1000
ACAD_MTEXT_DEFINED_HEIGHT_END
  0
MTEXT
  5
49EB8
330
1F
100
AcDbEntity
  8
粗实线
100
AcDbMText
 10
2368.820731940712
 20
679.2929107135702
 30
0.0
 40
1.008720148248116
 41
0.9142085783339039
 71
     5
 72
     5
  1
{\C4;1.45}
  7
Romans字体
 73
     1
 44
1.0
1001
ACAD
1000
ACAD_MTEXT_DEFINED_HEIGHT_BEGIN
1070
    46
1040
0.9216177990686128
1000
ACAD_MTEXT_DEFINED_HEIGHT_END
  0
CIRCLE
  5
49EB9
330
1F
100
AcDbEntity
  8
0
  6
Continuous
 62
     7
370
    30
100
AcDbCircle
 10
2332.268532275088
 20
683.131487200424
 30
0.0
 40
2.799999999999998
  0
CIRCLE
  5
49EBA
330
1F
100
AcDbEntity
  8
0
  6
Continuous
 62
     7
370
    30
100
AcDbCircle
 10
2332.268532275088
 20
684.8814872004241
 30
0.0
 40
0.55
  0
CIRCLE
  5
49EBB
330
1F
100
AcDbEntity
  8
0
  6
Continuous
 62
     7
370
    30
100
AcDbCircle
 10
2330.518532275087
 20
683.131487200424
 30
0.0
 40
0.55
  0
CIRCLE
  5
49EBC
330
1F
100
AcDbEntity
  8
0
  6
Continuous
 62
     7
370
    30
100
AcDbCircle
 10
2334.018532275088
 20
683.131487200424
 30
0.0
 40
0.55
  0
LINE
  5
49EBD
330
1F
100
AcDbEntity
  8
0
  6
CENTER
 62
     1
 48
0.5
370
     5
100
AcDbLine
 10
2334.018532275088
 20
683.7364872004242
 30
0.0
 11
2334.018532275088
 21
682.5264872004241
 31
0.0
  0
LINE
  5
49EBE
330
1F
100
AcDbEntity
  8
0
  6
CENTER
 62
     1
 48
0.5
370
     5
100
AcDbLine
 10
2333.413532275088
 20
683.131487200424
 30
0.0
 11
2334.623532275087
 21
683.131487200424
 31
0.0
  0
LINE
  5
49EBF
330
1F
100
AcDbEntity
  8
0
  6
CENTER
 62
     1
 48
0.5
370
     5
100
AcDbLine
 10
2332.268532275088
 20
685.4864872004242
 30
0.0
 11
2332.268532275088
 21
684.2764872004241
 31
0.0
  0
LINE
  5
49EC0
330
1F
100
AcDbEntity
  8
0
  6
CENTER
 62
     1
 48
0.5
370
     5
100
AcDbLine
 10
2331.663532275088
 20
684.8814872004241
 30
0.0
 11
2332.873532275087
 21
684.8814872004241
 31
0.0
  0
LINE
  5
49EC1
330
1F
100
AcDbEntity
  8
0
  6
CENTER
 62
     1
 48
0.5
370
     5
100
AcDbLine
 10
2330.518532275087
 20
683.7364872004242
 30
0.0
 11
2330.518532275087
 21
682.5264872004241
 31
0.0
  0
LINE
  5
49EC2
330
1F
100
AcDbEntity
  8
0
  6
CENTER
 62
     1
 48
0.5
370
     5
100
AcDbLine
 10
2329.913532275088
 20
683.131487200424
 30
0.0
 11
2331.123532275087
 21
683.131487200424
 31
0.0
  0
MTEXT
  5
49EC3
330
1F
100
AcDbEntity
  8
粗实线
100
AcDbMText
 10
2333.937803925756
 20
681.6648335438457
 30
0.0
 40
1.024238919759631
 41
0.9282733256928871
 71
     5
 72
     5
  1
{\C4;1}
  7
Romans字体
 73
     1
 44
1.0
1001
ACAD
1000
ACAD_MTEXT_DEFINED_HEIGHT_BEGIN
1070
    46
1040
0.935796534438899
1000
ACAD_MTEXT_DEFINED_HEIGHT_END
  0
MTEXT
  5
49EC4
330
1F
100
AcDbEntity
  8
粗实线
100
AcDbMText
 10
2330.771780603702
 20
681.6861607823201
 30
0.0
 40
1.024238919759631
 41
0.9282733256928871
 71
     5
 72
     5
  1
{\C4;3}
  7
Romans字体
 73
     1
 44
1.0
1001
ACAD
1000
ACAD_MTEXT_DEFINED_HEIGHT_BEGIN
1070
    46
1040
0.935796534438899
1000
ACAD_MTEXT_DEFINED_HEIGHT_END
  0
MTEXT
  5
49EC5
330
1F
100
AcDbEntity
  8
粗实线
100
AcDbMText
 10
2333.303212901824
 20
684.9448724013512
 30
0.0
 40
1.024238919759631
 41
0.9282733256928871
 71
     5
 72
     5
  1
{\C4;4}
  7
Romans字体
 73
     1
 44
1.0
1001
ACAD
1000
ACAD_MTEXT_DEFINED_HEIGHT_BEGIN
1070
    46
1040
0.935796534438899
1000
ACAD_MTEXT_DEFINED_HEIGHT_END
  0
MTEXT
  5
49EC6
330
1F
100
AcDbEntity
  8
粗实线
100
AcDbMText
 10
2335.974557524616
 20
683.0204125824677
 30
0.0
 40
1.008720148248114
 41
0.9142085783339039
 71
     5
 72
     5
  1
{\C4;X}
  7
Romans字体
 73
     1
 44
1.0
1001
ACAD
1000
ACAD_MTEXT_DEFINED_HEIGHT_BEGIN
1070
    46
1040
0.9216177990686128
1000
ACAD_MTEXT_DEFINED_HEIGHT_END
  0
MTEXT
  5
49EC7
330
1F
100
AcDbEntity
  8
粗实线
100
AcDbMText
 10
2332.282098952552
 20
686.9126029778757
 30
0.0
 40
1.008720148248114
 41
0.9142085783339039
 71
     5
 72
     5
  1
{\C4;Y}
  7
Romans字体
 73
     1
 44
1.0
1001
ACAD
1000
ACAD_MTEXT_DEFINED_HEIGHT_BEGIN
1070
    46
1040
0.9216177990686128
1000
ACAD_MTEXT_DEFINED_HEIGHT_END
  0
CIRCLE
  5
49EC8
330
1F
100
AcDbEntity
  8
0
  6
Continuous
 62
     7
370
    30
100
AcDbCircle
 10
2355.796024473391
 20
683.1013150583601
 30
0.0
 40
2.799999999999998
  0
MTEXT
  5
49EC9
330
1F
100
AcDbEntity
  8
粗实线
100
AcDbMText
 10
2354.548455522556
 20
681.3502949209796
 30
0.0
 40
1.008720148248114
 41
0.9142085783339039
 71
     5
 72
     5
  1
{\C4;3}
  7
Romans字体
 73
     1
 44
1.0
1001
ACAD
1000
ACAD_MTEXT_DEFINED_HEIGHT_BEGIN
1070
    46
1040
0.9216177990686128
1000
ACAD_MTEXT_DEFINED_HEIGHT_END
  0
MTEXT
  5
49ECA
330
1F
100
AcDbEntity
  8
粗实线
100
AcDbMText
 10
2357.809942616654
 20
684.2619094853294
 30
0.0
 40
1.008720148248114
 41
0.9142085783339039
 71
     5
 72
     5
  1
{\C4;2}
  7
Romans字体
 73
     1
 44
1.0
1001
ACAD
1000
ACAD_MTEXT_DEFINED_HEIGHT_BEGIN
1070
    46
1040
0.9216177990686128
1000
ACAD_MTEXT_DEFINED_HEIGHT_END
  0
CIRCLE
  5
49ECB
330
1F
100
AcDbEntity
  8
0
  6
Continuous
 62
     7
370
    30
100
AcDbCircle
 10
2354.096024473391
 20
682.6013150583602
 30
0.0
 40
0.55
  0
CIRCLE
  5
49ECC
330
1F
100
AcDbEntity
  8
0
  6
Continuous
 62
     7
370
    30
100
AcDbCircle
 10
2357.496024473391
 20
682.6013150583602
 30
0.0
 40
0.55
  0
CIRCLE
  5
49ECD
330
1F
100
AcDbEntity
  8
0
  6
Continuous
 62
     7
370
    30
100
AcDbCircle
 10
2354.716024473392
 20
684.5513150583599
 30
0.0
 40
0.55
  0
CIRCLE
  5
49ECE
330
1F
100
AcDbEntity
  8
0
  6
Continuous
 62
     7
370
    30
100
AcDbCircle
 10
2356.876024473391
 20
684.5513150583599
 30
0.0
 40
0.55
  0
MTEXT
  5
49ECF
330
1F
100
AcDbEntity
  8
粗实线
100
AcDbMText
 10
2357.111377605093
 20
681.3566446727008
 30
0.0
 40
1.008720148248114
 41
0.9142085783339039
 71
     5
 72
     5
  1
{\C4;1}
  7
Romans字体
 73
     1
 44
1.0
1001
ACAD
1000
ACAD_MTEXT_DEFINED_HEIGHT_BEGIN
1070
    46
1040
0.9216177990686128
1000
ACAD_MTEXT_DEFINED_HEIGHT_END
  0
MTEXT
  5
49ED0
330
1F
100
AcDbEntity
  8
粗实线
100
AcDbMText
 10
2353.854717795654
 20
684.1025094802334
 30
0.0
 40
1.008720148248114
 41
0.9142085783339039
 71
     5
 72
     5
  1
{\C4;4}
  7
Romans字体
 73
     1
 44
1.0
1001
ACAD
1000
ACAD_MTEXT_DEFINED_HEIGHT_BEGIN
1070
    46
1040
0.9216177990686128
1000
ACAD_MTEXT_DEFINED_HEIGHT_END
  0
MTEXT
  5
49ED1
330
1F
100
AcDbEntity
  8
粗实线
100
AcDbMText
 10
2359.502049722919
 20
682.9902404404037
 30
0.0
 40
1.008720148248114
 41
0.9142085783339039
 71
     5
 72
     5
  1
{\C4;X}
  7
Romans字体
 73
     1
 44
1.0
1001
ACAD
1000
ACAD_MTEXT_DEFINED_HEIGHT_BEGIN
1070
    46
1040
0.9216177990686128
1000
ACAD_MTEXT_DEFINED_HEIGHT_END
  0
MTEXT
  5
49ED2
330
1F
100
AcDbEntity
  8
粗实线
100
AcDbMText
 10
2355.809591150856
 20
686.8824308358122
 30
0.0
 40
1.008720148248114
 41
0.9142085783339039
 71
     5
 72
     5
  1
{\C4;Y}
  7
Romans字体
 73
     1
 44
1.0
1001
ACAD
1000
ACAD_MTEXT_DEFINED_HEIGHT_BEGIN
1070
    46
1040
0.9216177990686128
1000
ACAD_MTEXT_DEFINED_HEIGHT_END
  0
LINE
  5
49ED3
330
1F
100
AcDbEntity
  8
0
  6
CENTER
 62
     1
 48
0.0435017967734536
100
AcDbLine
 10
2329.188532275087
 20
683.131487200424
 30
0.0
 11
2335.348532275087
 21
683.131487200424
 31
0.0
  0
LINE
  5
49ED4
330
1F
100
AcDbEntity
  8
0
  6
CENTER
 62
     1
 48
0.0435017967734536
100
AcDbLine
 10
2332.268532275088
 20
680.0514872004239
 30
0.0
 11
2332.268532275088
 21
686.2114872004239
 31
0.0
  0
LINE
  5
49ED5
330
1F
100
AcDbEntity
  8
0
  6
CENTER
 62
     1
 48
0.0435017967734536
100
AcDbLine
 10
2352.716024473391
 20
683.1013150583601
 30
0.0
 11
2358.876024473391
 21
683.1013150583601
 31
0.0
  0
LINE
  5
49ED6
330
1F
100
AcDbEntity
  8
0
  6
CENTER
 62
     1
 48
0.0435017967734536
100
AcDbLine
 10
2355.796024473391
 20
680.02131505836
 30
0.0
 11
2355.796024473391
 21
686.1813150583603
 31
0.0
  0
LINE
  5
49ED7
330
1F
100
AcDbEntity
  8
center
100
AcDbLine
 10
2342.76088358929
 20
720.2075239325761
 30
0.0
 11
2346.846262416538
 21
720.2075239325761
 31
0.0
  0
HATCH
  5
49ED8
330
1F
100
AcDbEntity
  8
Dim
 62
     2
100
AcDbHatch
 10
0.0
 20
0.0
 30
0.0
210
0.0
220
0.0
230
1.0
  2
ANSI31
 70
     0
 71
     1
 91
        2
 92
        7
 72
     0
 73
     1
 93
        7
 10
2346.346262416539
 20
726.2575239325765
 10
2346.34626241654
 20
728.278932386058
 10
2344.803573002915
 20
727.708607443144
 10
2343.260883589293
 20
728.2789323860579
 10
2343.260883589293
 20
727.2575239325759
 10
2343.260883589293
 20
726.7575239326014
 10
2343.760883589316
 20
726.257523932576
 97
        7
330
49EDB
330
49EDA
330
49ED9
330
49EE4
330
49EF3
330
49EDF
330
49EDC
 92
        7
 72
     0
 73
     1
 93
        7
 10
2346.346262416536
 20
712.1361154790953
 10
2346.346262416536
 20
714.1575239325767
 10
2343.760883589288
 20
714.157523932576
 10
2343.260883589289
 20
713.6575239325789
 10
2343.260883589289
 20
713.157523932579
 10
2343.260883589289
 20
712.1361154790958
 10
2344.803573002915
 20
712.7064404220102
 97
        7
330
49EE0
330
49EE2
330
49EE4
330
49EE1
330
49EDD
330
49EDE
330
49EDC
 75
     0
 76
     1
 52
0.0
 41
0.1
 77
     0
 78
     1
 53
45.0
 43
-2849.613273645492
 44
679.626989448139
 45
-0.2245064030267288
 46
0.2245064030267288
 79
     0
 47
0.0220114108594471
 98
        2
 10
2344.620361638326
 20
726.7923034423605
 10
2345.285107910873
 20
713.0671772356479
1001
ACAD
1010
0.0
1020
0.0
1030
0.0
  0
LINE
  5
49ED9
102
{ACAD_REACTORS
330
49ED8
102
}
330
1F
100
AcDbEntity
  8
M8-FBKR-M8_SOLIDLINE
  6
Continuous
 62
     7
100
AcDbLine
 10
2343.260883589293
 20
727.2575239325759
 30
0.0
 11
2343.260883589293
 21
728.2789323860582
 31
0.0
  0
LINE
  5
49EDA
102
{ACAD_REACTORS
330
49ED8
102
}
330
1F
100
AcDbEntity
  8
M8-FBKR-M8_SOLIDLINE
  6
Continuous
 62
     7
100
AcDbLine
 10
2343.260883589293
 20
728.2789323860582
 30
0.0
 11
2344.803573002916
 21
727.708607443144
 31
0.0
  0
LINE
  5
49EDB
102
{ACAD_REACTORS
330
49ED8
102
}
330
1F
100
AcDbEntity
  8
M8-FBKR-M8_SOLIDLINE
  6
Continuous
 62
     7
100
AcDbLine
 10
2346.34626241654
 20
728.2789323860582
 30
0.0
 11
2344.803573002916
 21
727.708607443144
 31
0.0
  0
LINE
  5
49EDC
102
{ACAD_REACTORS
330
49ED8
102
}
330
1F
100
AcDbEntity
  8
M8-FBKR-M8_SOLIDLINE
  6
Continuous
 62
     7
100
AcDbLine
 10
2346.34626241654
 20
728.2789323860582
 30
0.0
 11
2346.346262416537
 21
712.1361154790953
 31
0.0
  0
LINE
  5
49EDD
102
{ACAD_REACTORS
330
49ED8
102
}
330
1F
100
AcDbEntity
  8
M8-FBKR-M8_SOLIDLINE
  6
Continuous
 62
     7
100
AcDbLine
 10
2343.26088358929
 20
712.1361154790962
 30
0.0
 11
2344.803573002915
 21
712.7064404220102
 31
0.0
  0
LINE
  5
49EDE
102
{ACAD_REACTORS
330
49EE8
330
49ED8
102
}
330
1F
100
AcDbEntity
  8
M8-FBKR-M8_SOLIDLINE
  6
Continuous
 62
     7
100
AcDbLine
 10
2346.346262416537
 20
712.1361154790953
 30
0.0
 11
2344.803573002915
 21
712.7064404220102
 31
0.0
  0
LINE
  5
49EDF
102
{ACAD_REACTORS
330
49EEF
330
49ED8
102
}
330
1F
100
AcDbEntity
  8
M8-FBKR-M8_SOLIDLINE
  6
Continuous
 62
     7
100
AcDbLine
 10
2343.760883589316
 20
726.257523932576
 30
0.0
 11
2346.346262416539
 21
726.2575239325764
 31
0.0
  0
LINE
  5
49EE0
102
{ACAD_REACTORS
330
49EEF
330
49ED8
102
}
330
1F
100
AcDbEntity
  8
M8-FBKR-M8_SOLIDLINE
  6
Continuous
 62
     7
100
AcDbLine
 10
2343.760883589288
 20
714.1575239325759
 30
0.0
 11
2346.346262416536
 21
714.1575239325767
 31
0.0
  0
LINE
  5
49EE1
102
{ACAD_REACTORS
330
49EE8
330
49ED8
102
}
330
1F
100
AcDbEntity
  8
M8-FBKR-M8_SOLIDLINE
  6
Continuous
 62
     7
100
AcDbLine
 10
2343.260883589289
 20
713.157523932579
 30
0.0
 11
2343.260883589289
 21
712.1361154790966
 31
0.0
  0
LINE
  5
49EE2
102
{ACAD_REACTORS
330
49ED8
102
}
330
1F
100
AcDbEntity
  8
M8-FBKR-M8_SOLIDLINE
  6
Continuous
 62
     7
100
AcDbLine
 10
2343.760883589288
 20
714.1575239325767
 30
0.0
 11
2343.260883589289
 21
713.6575239325784
 31
0.0
  0
LINE
  5
49EE3
330
1F
100
AcDbEntity
  8
M8-FBKR-M8_SOLIDLINE
  6
Continuous
 62
     7
100
AcDbLine
 10
2343.760883589293
 20
726.2575239325975
 30
0.0
 11
2343.760883589288
 21
714.1575239325767
 31
0.0
  0
LINE
  5
49EE4
102
{ACAD_REACTORS
330
49ED8
102
}
330
1F
100
AcDbEntity
  8
M8-FBKR-M8_SOLIDLINE
  6
Continuous
 62
     7
100
AcDbLine
 10
2343.260883589289
 20
713.157523932579
 30
0.0
 11
2343.260883589293
 21
727.2575239325759
 31
0.0
  0
DIMENSION
  5
49EE5
330
1F
100
AcDbEntity
  8
Dim
100
AcDbDimension
  2
*D12
 10
2343.760883589285
 20
729.335781714328
 30
0.0
 11
2348.546597875002
 21
729.335781714328
 31
0.0
 70
   160
  1
0.5*45%%D
 71
     5
 42
0.4999999999918149
  3
01
100
AcDbAlignedDimension
 13
2343.260883589293
 23
728.2789323860582
 33
0.0
 14
2343.760883589285
 24
726.257523932576
 34
0.0
100
AcDbRotatedDimension
  0
DIMENSION
  5
49EE6
102
{ACAD_XDICTIONARY
360
49EE7
102
}
102
{ACAD_REACTORS
330
49EE8
102
}
330
1F
100
AcDbEntity
  8
Dim
100
AcDbDimension
  2
*D13
 10
2346.346262416537
 20
709.6042792092189
 30
0.0
 11
2350.559358126314
 21
709.6042792092189
 31
0.0
 70
   160
  1
max4.5
 71
     5
 42
3.08537882724795
  3
01
100
AcDbAlignedDimension
 13
2343.260883589289
 23
712.1361154790966
 33
0.0
 14
2346.346262416537
 24
712.1361154790953
 34
0.0
100
AcDbRotatedDimension
  0
ARC
  5
49EE9
330
1F
100
AcDbEntity
  8
M8-FBKR-M8_SOLIDLINE
  6
Continuous
 62
     7
100
AcDbCircle
 10
2333.212003429704
 20
720.2075239325766
 30
0.0
 40
6.049999999999998
100
AcDbArc
 50
213.4142691334809
 51
326.5857308665662
  0
ARC
  5
49EEA
330
1F
100
AcDbEntity
  8
M8-FBKR-M8_SOLIDLINE
  6
Continuous
 62
     7
100
AcDbCircle
 10
2333.212003429704
 20
720.2075239325766
 30
0.0
 40
6.049999999999998
100
AcDbArc
 50
33.41426913239491
 51
146.5857308675744
  0
LINE
  5
49EEB
102
{ACAD_REACTORS
330
49EF2
102
}
330
1F
100
AcDbEntity
  8
M8-FBKR-M8_SOLIDLINE
  6
Continuous
 62
     7
100
AcDbLine
 10
2338.262003429705
 20
716.8758576827865
 30
0.0
 11
2338.262003429704
 21
723.5391901822326
 31
0.0
  0
LINE
  5
49EEC
102
{ACAD_REACTORS
330
49EF2
102
}
330
1F
100
AcDbEntity
  8
M8-FBKR-M8_SOLIDLINE
  6
Continuous
 62
     7
100
AcDbLine
 10
2328.162003429704
 20
716.8758576827848
 30
0.0
 11
2328.162003429704
 21
723.5391901822342
 31
0.0
  0
DIMENSION
  5
49EED
102
{ACAD_XDICTIONARY
360
49EEE
102
}
102
{ACAD_REACTORS
330
49EEF
102
}
330
1F
100
AcDbEntity
  8
Dim
100
AcDbDimension
  2
*D14
 10
2349.750844897882
 20
714.1575239325767
 30
0.0
 11
2349.000844897882
 21
720.207523932577
 31
0.0
 70
    32
  1
%%c<>
 71
     5
 42
12.09999999999979
  3
01
100
AcDbAlignedDimension
 13
2346.346262416539
 23
726.2575239325764
 33
0.0
 14
2346.346262416536
 24
714.1575239325767
 34
0.0
 50
90.0
100
AcDbRotatedDimension
  0
DIMENSION
  5
49EF0
102
{ACAD_XDICTIONARY
360
49EF1
102
}
102
{ACAD_REACTORS
330
49EF2
102
}
330
1F
100
AcDbEntity
  8
Dim
100
AcDbDimension
  2
*D15
 10
2328.162003429704
 20
728.3654945671074
 30
0.0
 11
2333.212003429704
 21
729.1154945671072
 31
0.0
 70
    32
 71
     5
 42
10.10000000000036
  3
01
100
AcDbAlignedDimension
 13
2338.262003429704
 23
723.5391901822326
 33
0.0
 14
2328.162003429704
 24
723.5391901822326
 34
0.0
100
AcDbRotatedDimension
  0
LINE
  5
49EF3
102
{ACAD_REACTORS
330
49ED8
102
}
330
1F
100
AcDbEntity
  8
M8-FBKR-M8_SOLIDLINE
  6
Continuous
 62
     7
100
AcDbLine
 10
2343.760883589316
 20
726.257523932576
 30
0.0
 11
2343.260883589309
 21
726.7575239325847
 31
0.0
  0
LINE
  5
49EF4
330
1F
100
AcDbEntity
  8
center
100
AcDbLine
 10
2358.851947913998
 20
720.2075239325761
 30
0.0
 11
2362.937326741246
 21
720.2075239325761
 31
0.0
  0
LINE
  5
49EF5
102
{ACAD_REACTORS
330
49F07
102
}
330
1F
100
AcDbEntity
  8
M8-FBKR-M8_SOLIDLINE
  6
Continuous
 62
     7
100
AcDbLine
 10
2359.471947913996
 20
714.2075239325761
 30
0.0
 11
2362.437326741245
 21
714.2075239325761
 31
0.0
  0
LINE
  5
49EF6
102
{ACAD_REACTORS
330
49F07
102
}
330
1F
100
AcDbEntity
  8
M8-FBKR-M8_SOLIDLINE
  6
Continuous
 62
     7
100
AcDbLine
 10
2359.471947914002
 20
726.207523932576
 30
0.0
 11
2362.437326741248
 21
726.2075239325761
 31
0.0
  0
HATCH
  5
49EF7
330
1F
100
AcDbEntity
  8
Dim
 62
     2
100
AcDbHatch
 10
0.0
 20
0.0
 30
0.0
210
0.0
220
0.0
230
1.0
  2
ANSI31
 70
     0
 71
     1
 91
        2
 92
        7
 72
     0
 73
     1
 93
        7
 10
2360.894637327621
 20
712.7064404220102
 10
2362.437326741245
 20
712.1361154790953
 10
2362.437326741246
 20
714.5875239325768
 10
2359.851947913995
 20
714.587523932576
 10
2359.351947913998
 20
714.087523932577
 10
2359.351947913997
 20
713.157523932579
 10
2359.351947913997
 20
712.1361154790958
 97
        7
330
49EFF
330
49F01
330
49F03
330
49F00
330
49EFC
330
49EFD
330
49EFB
 92
        7
 72
     0
 73
     1
 93
        7
 10
2362.437326741248
 20
728.2789323860582
 10
2360.894637327624
 20
727.708607443144
 10
2359.351947914001
 20
728.2789323860582
 10
2359.351947914001
 20
727.2575239325759
 10
2359.351947914001
 20
726.3275239325768
 10
2359.851947914
 20
725.827523932576
 10
2362.437326741248
 20
725.8275239325762
 97
        7
330
49EFA
330
49EF9
330
49EF8
330
49F03
330
49F04
330
49EFE
330
49EFB
 75
     0
 76
     1
 52
0.0
 41
0.1
 77
     0
 78
     1
 53
45.0
 43
-2853.096971109731
 44
679.626989448139
 45
-0.2245064030267288
 46
0.2245064030267288
 79
     0
 47
0.0386375718393165
 98
        2
 10
2360.764684628062
 20
713.3330511586862
 10
2361.5766590306
 20
726.8562019674114
1001
ACAD
1010
0.0
1020
0.0
1030
0.0
  0
LINE
  5
49EF8
102
{ACAD_REACTORS
330
49EF7
102
}
330
1F
100
AcDbEntity
  8
M8-FBKR-M8_SOLIDLINE
  6
Continuous
 62
     7
100
AcDbLine
 10
2359.351947914001
 20
727.2575239325759
 30
0.0
 11
2359.351947914001
 21
728.2789323860582
 31
0.0
  0
LINE
  5
49EF9
102
{ACAD_REACTORS
330
49EF7
330
49F13
102
}
330
1F
100
AcDbEntity
  8
M8-FBKR-M8_SOLIDLINE
  6
Continuous
 62
     7
100
AcDbLine
 10
2359.351947914001
 20
728.2789323860582
 30
0.0
 11
2360.894637327624
 21
727.708607443144
 31
0.0
  0
LINE
  5
49EFA
102
{ACAD_REACTORS
330
49EF7
102
}
330
1F
100
AcDbEntity
  8
M8-FBKR-M8_SOLIDLINE
  6
Continuous
 62
     7
100
AcDbLine
 10
2362.437326741248
 20
728.2789323860582
 30
0.0
 11
2360.894637327624
 21
727.708607443144
 31
0.0
  0
LINE
  5
49EFB
102
{ACAD_REACTORS
330
49EF7
102
}
330
1F
100
AcDbEntity
  8
M8-FBKR-M8_SOLIDLINE
  6
Continuous
 62
     7
100
AcDbLine
 10
2362.437326741248
 20
728.2789323860582
 30
0.0
 11
2362.437326741245
 21
712.1361154790953
 31
0.0
  0
LINE
  5
49EFC
102
{ACAD_REACTORS
330
49EF7
102
}
330
1F
100
AcDbEntity
  8
M8-FBKR-M8_SOLIDLINE
  6
Continuous
 62
     7
100
AcDbLine
 10
2359.351947913998
 20
712.1361154790962
 30
0.0
 11
2360.894637327621
 21
712.7064404220102
 31
0.0
  0
LINE
  5
49EFD
102
{ACAD_REACTORS
330
49EF7
102
}
330
1F
100
AcDbEntity
  8
M8-FBKR-M8_SOLIDLINE
  6
Continuous
 62
     7
100
AcDbLine
 10
2362.437326741245
 20
712.1361154790953
 30
0.0
 11
2360.894637327621
 21
712.7064404220102
 31
0.0
  0
LINE
  5
49EFE
102
{ACAD_REACTORS
330
49EF7
102
}
330
1F
100
AcDbEntity
  8
M8-FBKR-M8_SOLIDLINE
  6
Continuous
 62
     7
100
AcDbLine
 10
2359.851947914
 20
725.827523932576
 30
0.0
 11
2362.437326741247
 21
725.8275239325762
 31
0.0
  0
LINE
  5
49EFF
102
{ACAD_REACTORS
330
49EF7
102
}
330
1F
100
AcDbEntity
  8
M8-FBKR-M8_SOLIDLINE
  6
Continuous
 62
     7
100
AcDbLine
 10
2359.851947913995
 20
714.5875239325761
 30
0.0
 11
2362.437326741244
 21
714.5875239325768
 31
0.0
  0
LINE
  5
49F00
102
{ACAD_REACTORS
330
49EF7
102
}
330
1F
100
AcDbEntity
  8
M8-FBKR-M8_SOLIDLINE
  6
Continuous
 62
     7
100
AcDbLine
 10
2359.351947913997
 20
713.157523932579
 30
0.0
 11
2359.351947913997
 21
712.1361154790966
 31
0.0
  0
LINE
  5
49F01
102
{ACAD_REACTORS
330
49EF7
102
}
330
1F
100
AcDbEntity
  8
M8-FBKR-M8_SOLIDLINE
  6
Continuous
 62
     7
100
AcDbLine
 10
2359.851947913995
 20
714.587523932576
 30
0.0
 11
2359.351947913998
 21
714.0875239325778
 31
0.0
  0
LINE
  5
49F02
102
{ACAD_REACTORS
330
49F13
102
}
330
1F
100
AcDbEntity
  8
M8-FBKR-M8_SOLIDLINE
  6
Continuous
 62
     7
100
AcDbLine
 10
2359.851947914
 20
725.8275239325762
 30
0.0
 11
2359.851947913996
 21
714.5875239325761
 31
0.0
  0
LINE
  5
49F03
102
{ACAD_REACTORS
330
49EF7
102
}
330
1F
100
AcDbEntity
  8
M8-FBKR-M8_SOLIDLINE
  6
Continuous
 62
     7
100
AcDbLine
 10
2359.351947913997
 20
713.157523932579
 30
0.0
 11
2359.351947914001
 21
727.2575239325759
 31
0.0
  0
LINE
  5
49F04
102
{ACAD_REACTORS
330
49EF7
102
}
330
1F
100
AcDbEntity
  8
M8-FBKR-M8_SOLIDLINE
  6
Continuous
 62
     7
100
AcDbLine
 10
2359.851947914
 20
725.8275239325762
 30
0.0
 11
2359.351947913999
 21
726.3275239325786
 31
0.0
  0
DIMENSION
  5
49F05
102
{ACAD_XDICTIONARY
360
49F06
102
}
102
{ACAD_REACTORS
330
49F07
102
}
330
1F
100
AcDbEntity
  8
Dim
100
AcDbDimension
  2
*D16
 10
2366.073789895111
 20
714.2075239325761
 30
0.0
 11
2366.073789895111
 21
720.2075239325769
 31
0.0
 70
   160
  1
M12*1
 71
     5
 42
12.0
  3
01
100
AcDbAlignedDimension
 13
2362.437326741248
 23
726.2075239325761
 33
0.0
 14
2362.437326741245
 24
714.2075239325761
 34
0.0
 50
90.0
100
AcDbRotatedDimension
  0
MTEXT
  5
49F08
330
1F
100
AcDbEntity
  8
Dim
100
AcDbMText
 10
2348.283944602775
 20
709.4789078471443
 30
0.0
 40
1.3
 41
4.183282030084225
 71
     1
 72
     5
  1
\A1;{\C4;min2.5}
  7
Romans字体
 73
     1
 44
1.0
1001
ACAD
1000
ACAD_MTEXT_DEFINED_HEIGHT_BEGIN
1070
    46
1040
4.572860198374129
1000
ACAD_MTEXT_DEFINED_HEIGHT_END
  0
LINE
  5
49F09
330
1F
100
AcDbEntity
  8
标注
 62
     6
100
AcDbLine
 10
2359.351947913997
 20
711.8111154790932
 30
0.0
 11
2359.351947913997
 21
708.8222431091434
 31
0.0
  0
LINE
  5
49F0A
330
1F
100
AcDbEntity
  8
标注
 62
     6
100
AcDbLine
 10
2362.437326741245
 20
711.811115479092
 30
0.0
 11
2362.437326741245
 21
708.8222431091434
 31
0.0
  0
LINE
  5
49F0B
330
1F
100
AcDbEntity
  8
标注
 62
     1
100
AcDbLine
 10
2358.051947913997
 20
709.3097431091432
 30
0.0
 11
2356.751947913997
 21
709.3097431091432
 31
0.0
  0
LINE
  5
49F0C
330
1F
100
AcDbEntity
  8
标注
 62
     1
100
AcDbLine
 10
2363.737326741245
 20
709.3097431091432
 30
0.0
 11
2369.300146993206
 21
709.3097431091432
 31
0.0
  0
SOLID
  5
49F0D
330
1F
100
AcDbEntity
  8
标注
 62
     1
100
AcDbTrace
 10
2358.051947913997
 20
709.5264097758099
 30
0.0
 11
2358.051947913997
 21
709.0930764424768
 31
0.0
 12
2359.351947913997
 22
709.3097431091432
 32
0.0
 13
2359.351947913997
 23
709.3097431091432
 33
0.0
  0
SOLID
  5
49F0E
330
1F
100
AcDbEntity
  8
标注
 62
     1
100
AcDbTrace
 10
2363.737326741245
 20
709.5264097758099
 30
0.0
 11
2363.737326741245
 21
709.0930764424768
 31
0.0
 12
2362.437326741245
 22
709.3097431091432
 32
0.0
 13
2362.437326741245
 23
709.3097431091432
 33
0.0
  0
MTEXT
  5
49F0F
330
1F
100
AcDbEntity
  8
Dim
 62
     4
100
AcDbMText
 10
2366.739106445527
 20
710.2197431091433
 30
0.0
 40
1.3
 41
0.0
 71
     5
 72
     1
  1
\A1;max4.5
  7
Romans字体
 73
     1
 44
1.0
  0
MTEXT
  5
49F10
330
1F
100
AcDbEntity
  8
Dim
100
AcDbMText
 10
2364.34725679904
 20
709.0392188652295
 30
0.0
 40
1.3
 41
5.012185241864695
 71
     1
 72
     5
  1
\A1;{\C4;min2.5}
  7
Romans字体
 73
     1
 44
1.0
1001
ACAD
1000
ACAD_MTEXT_DEFINED_HEIGHT_BEGIN
1070
    46
1040
4.306191103327178
1000
ACAD_MTEXT_DEFINED_HEIGHT_END
  0
DIMENSION
  5
49F11
102
{ACAD_XDICTIONARY
360
49F12
102
}
102
{ACAD_REACTORS
330
49F13
102
}
330
1F
100
AcDbEntity
  8
Dim
100
AcDbDimension
  2
*D17
 10
2359.851947914
 20
729.3767457665974
 30
0.0
 11
2364.637662199715
 21
730.1267457665974
 31
0.0
 70
    32
  1
<>*45%%D
 71
     5
 42
0.5
  3
01
100
AcDbAlignedDimension
 13
2359.351947914001
 23
728.2789323860582
 33
0.0
 14
2359.851947914
 24
725.8275239325762
 34
0.0
100
AcDbRotatedDimension
  0
LINE
  5
49F14
330
1F
100
AcDbEntity
  8
M8-FBKR-M8_SOLIDLINE
  6
CENTER
 62
     1
 48
0.0939949537426409
100
AcDbLine
 10
2326.557003429704
 20
720.2075239325766
 30
0.0
 11
2339.867003429704
 21
720.2075239325766
 31
0.0
  0
LINE
  5
49F15
330
1F
100
AcDbEntity
  8
M8-FBKR-M8_SOLIDLINE
  6
CENTER
 62
     1
 48
0.0939949537426409
100
AcDbLine
 10
2333.212003429704
 20
713.5525239325763
 30
0.0
 11
2333.212003429704
 21
726.8625239325764
 31
0.0
  0
MTEXT
  5
4A2D2
330
1F
100
AcDbEntity
  8
图框
 62
     3
100
AcDbMText
 10
2341.573553555015
 20
659.669231126463
 30
0.0
 40
1.243963989597562
 41
7.676165326486325
 71
     5
 72
     5
  1
-
  7
Romans字体
 73
     1
 44
1.0
1001
AcDbBlockRepETag
1070
     1
1071
       11
1005
47930
1001
ACAD
1000
ACAD_MTEXT_DEFINED_HEIGHT_BEGIN
1070
    46
1040
3.146329187255691
1000
ACAD_MTEXT_DEFINED_HEIGHT_END
  0
MTEXT
  5
4A2D3
330
1F
100
AcDbEntity
  8
图框
 62
     3
100
AcDbMText
 10
2365.251776972309
 20
660.4947119289256
 30
0.0
 40
1.243963989597562
 41
7.676165326486325
 71
     5
 72
     5
  1
-
  7
Romans字体
 73
     1
 44
1.0
1001
AcDbBlockRepETag
1070
     1
1071
       11
1005
47930
1001
ACAD
1000
ACAD_MTEXT_DEFINED_HEIGHT_BEGIN
1070
    46
1040
3.146329187255691
1000
ACAD_MTEXT_DEFINED_HEIGHT_END
  0
MTEXT
  5
4A2D4
330
1F
100
AcDbEntity
  8
图框
 62
     3
100
AcDbMText
 10
2341.573553555015
 20
653.7546601755547
 30
0.0
 40
1.243963989597562
 41
7.676165326486325
 71
     5
 72
     5
  1
-
  7
Romans字体
 73
     1
 44
1.0
1001
AcDbBlockRepETag
1070
     1
1071
       11
1005
47930
1001
ACAD
1000
ACAD_MTEXT_DEFINED_HEIGHT_BEGIN
1070
    46
1040
3.146329187255691
1000
ACAD_MTEXT_DEFINED_HEIGHT_END
  0
MTEXT
  5
4A2D5
330
1F
100
AcDbEntity
  8
图框
 62
     3
100
AcDbMText
 10
2365.251776972309
 20
647.1867777285786
 30
0.0
 40
1.243963989597562
 41
7.676165326486325
 71
     5
 72
     5
  1
-
  7
Romans字体
 73
     1
 44
1.0
1001
AcDbBlockRepETag
1070
     1
1071
       11
1005
47930
1001
ACAD
1000
ACAD_MTEXT_DEFINED_HEIGHT_BEGIN
1070
    46
1040
3.146329187255691
1000
ACAD_MTEXT_DEFINED_HEIGHT_END
  0
MTEXT
  5
4A2D6
330
1F
100
AcDbEntity
  8
图框
 62
     3
100
AcDbMText
 10
2347.053128204461
 20
644.9568993045335
 30
0.0
 40
1.243963989597562
 41
7.676165326486325
 71
     5
 72
     5
  1
-
  7
Romans字体
 73
     1
 44
1.0
1001
AcDbBlockRepETag
1070
     1
1071
       11
1005
47930
1001
ACAD
1000
ACAD_MTEXT_DEFINED_HEIGHT_BEGIN
1070
    46
1040
3.146329187255691
1000
ACAD_MTEXT_DEFINED_HEIGHT_END
  0
ENDSEC
  0
SECTION
  2
OBJECTS
  0
DICTIONARY
  5
C
330
0
100
AcDbDictionary
281
     1
  3
ACAD_COLOR
350
3F2
  3
ACAD_GROUP
350
D
  3
ACAD_LAYOUT
350
1A
  3
ACAD_MATERIAL
350
3F1
  3
ACAD_MLEADERSTYLE
350
12D6D
  3
ACAD_MLINESTYLE
350
17
  3
ACAD_PLOTSETTINGS
350
19
  3
ACAD_PLOTSTYLENAME
350
E
  3
ACAD_SCALELIST
350
12D4B
  3
ACAD_TABLESTYLE
350
12D49
  3
ACAD_VBA
350
13F35
  3
ACAD_VISUALSTYLE
350
12D38
  3
ACDB_RECOMPOSE_DATA
350
12DCF
  3
AcDbVariableDictionary
350
125BE
  3
ASE_INDEX_DICTIONARY
350
47848
  3
lxx_dict
350
E28
  0
DICTIONARY
  5
12DD3
330
8
100
AcDbDictionary
280
     1
281
     1
  0
DICTIONARY
  5
7EA
330
2
100
AcDbDictionary
280
     1
281
     1
  3
ACAD_LAYERFILTERS
360
47712
  3
ACAD_LAYERSTATES
360
7EB
  3
ACLYDICTIONARY
360
47711
  0
DICTIONARY
  5
12D81
330
10
100
AcDbDictionary
280
     1
281
     1
  3
ADSK_XREC_LAYER_RECONCILED
360
12D82
  0
DICTIONARY
  5
12D8B
330
876E
100
AcDbDictionary
280
     1
281
     1
  3
ADSK_XREC_LAYER_RECONCILED
360
12D8C
  0
DICTIONARY
  5
12D8D
330
F6EE
100
AcDbDictionary
280
     1
281
     1
  3
ADSK_XREC_LAYER_RECONCILED
360
12D8E
  0
DICTIONARY
  5
1E3C0
330
1E3BF
100
AcDbDictionary
280
     1
281
     1
  0
DICTIONARY
  5
478CD
330
1F
100
AcDbDictionary
280
     1
281
     1
  3
ACAD_SORTENTS
360
478CE
  0
DICTIONARY
  5
4A3DC
330
479F1
100
AcDbDictionary
280
     1
281
     1
  3
ACAD_MTEXT_2008_RT
360
4A3F8
  0
DICTIONARY
  5
4A3DE
330
479F2
100
AcDbDictionary
280
     1
281
     1
  3
ACAD_MTEXT_2008_RT
360
4A3F9
  0
DICTIONARY
  5
4A3E0
330
47A17
100
AcDbDictionary
280
     1
281
     1
  3
ACAD_MTEXT_2008_RT
360
4A3FA
  0
DICTIONARY
  5
4A3E2
330
47A1A
100
AcDbDictionary
280
     1
281
     1
  3
ACAD_MTEXT_2008_RT
360
4A3FB
  0
DICTIONARY
  5
4A3E4
330
47A1B
100
AcDbDictionary
280
     1
281
     1
  3
ACAD_MTEXT_2008_RT
360
4A3FC
  0
DICTIONARY
  5
4A3E6
330
47A25
100
AcDbDictionary
280
     1
281
     1
  3
ACAD_MTEXT_2008_RT
360
4A3FD
  0
DICTIONARY
  5
4A3E8
330
47A26
100
AcDbDictionary
280
     1
281
     1
  3
ACAD_MTEXT_2008_RT
360
4A3FE
  0
DICTIONARY
  5
4A3EA
330
47A27
100
AcDbDictionary
280
     1
281
     1
  3
ACAD_MTEXT_2008_RT
360
4A3FF
  0
DICTIONARY
  5
4A3EC
330
47A35
100
AcDbDictionary
280
     1
281
     1
  3
ACAD_MTEXT_2008_RT
360
4A400
  0
DICTIONARY
  5
4A3EE
330
47A36
100
AcDbDictionary
280
     1
281
     1
  3
ACAD_MTEXT_2008_RT
360
4A401
  0
DICTIONARY
  5
4A3F0
330
47A37
100
AcDbDictionary
280
     1
281
     1
  3
ACAD_MTEXT_2008_RT
360
4A402
  0
DICTIONARY
  5
4A3DA
330
47925
100
AcDbDictionary
280
     1
281
     1
  3
ACAD_MTEXT_2008_RT
360
4A3F7
  0
DICTIONARY
  5
490F8
330
490F7
100
AcDbDictionary
280
     1
281
     1
  3
ACAD_DIMASSOC
360
490F9
  0
DICTIONARY
  5
490FC
330
490FB
100
AcDbDictionary
280
     1
281
     1
  3
ACAD_DIMASSOC
360
490FD
  0
DICTIONARY
  5
4910A
330
49109
100
AcDbDictionary
280
     1
281
     1
  3
ACAD_DIMASSOC
360
4910B
  0
DICTIONARY
  5
4910D
330
4910C
100
AcDbDictionary
280
     1
281
     1
  3
ACAD_DIMASSOC
360
4910E
  0
DICTIONARY
  5
4A3F2
330
498B3
100
AcDbDictionary
280
     1
281
     1
  3
ACAD_MTEXT_2008_RT
360
4A403
  0
DICTIONARY
  5
4A3F4
330
498B4
100
AcDbDictionary
280
     1
281
     1
  3
ACAD_MTEXT_2008_RT
360
4A404
  0
DICTIONARY
  5
49EE7
330
49EE6
100
AcDbDictionary
280
     1
281
     1
  3
ACAD_DIMASSOC
360
49EE8
  0
DICTIONARY
  5
49EEE
330
49EED
100
AcDbDictionary
280
     1
281
     1
  3
ACAD_DIMASSOC
360
49EEF
  0
DICTIONARY
  5
49EF1
330
49EF0
100
AcDbDictionary
280
     1
281
     1
  3
ACAD_DIMASSOC
360
49EF2
  0
DICTIONARY
  5
49F06
330
49F05
100
AcDbDictionary
280
     1
281
     1
  3
ACAD_DIMASSOC
360
49F07
  0
DICTIONARY
  5
49F12
330
49F11
100
AcDbDictionary
280
     1
281
     1
  3
ACAD_DIMASSOC
360
49F13
  0
DICTIONARY
  5
3F2
102
{ACAD_REACTORS
330
C
102
}
330
C
100
AcDbDictionary
281
     1
  0
DICTIONARY
  5
D
102
{ACAD_REACTORS
330
C
102
}
330
C
100
AcDbDictionary
281
     1
  0
DICTIONARY
  5
1A
102
{ACAD_REACTORS
330
C
102
}
330
C
100
AcDbDictionary
281
     1
  3
Layout1
350
1E
  3
Model
350
22
  0
DICTIONARY
  5
3F1
102
{ACAD_REACTORS
330
C
102
}
330
C
100
AcDbDictionary
281
     1
  3
ByBlock
350
12D30
  3
ByLayer
350
12D28
  3
Global
350
6897
  0
DICTIONARY
  5
12D6D
102
{ACAD_REACTORS
330
C
102
}
330
C
100
AcDbDictionary
281
     1
  3
Standard
350
12D6E
  0
DICTIONARY
  5
17
102
{ACAD_REACTORS
330
C
102
}
330
C
100
AcDbDictionary
281
     1
  3
Standard
350
18
  0
DICTIONARY
  5
19
102
{ACAD_REACTORS
330
C
102
}
330
C
100
AcDbDictionary
281
     1
  3
ISO A4 标题栏 (纵向) - 无输出设备
350
176E
  0
ACDBDICTIONARYWDFLT
  5
E
102
{ACAD_REACTORS
330
C
102
}
330
C
100
AcDbDictionary
281
     1
  3
Normal
350
F
100
AcDbDictionaryWithDefault
340
F
  0
DICTIONARY
  5
12D4B
102
{ACAD_REACTORS
330
C
102
}
330
C
100
AcDbDictionary
281
     1
  3
A0
350
12D4C
  3
A1
350
12D4D
  3
A2
350
12D4E
  3
A3
350
12D4F
  3
A4
350
12D50
  3
A5
350
12D51
  3
A6
350
12D52
  3
A7
350
12D53
  3
A8
350
12D54
  3
A9
350
12D55
  3
B0
350
12D56
  3
B1
350
12D57
  3
B2
350
12D58
  3
B3
350
12D59
  3
B4
350
12D5A
  3
B5
350
12D5B
  3
B6
350
12D5C
  3
B7
350
12D5D
  3
B8
350
12D5E
  3
B9
350
12D5F
  3
C0
350
12D60
  3
C1
350
12D61
  3
C2
350
12D62
  3
C3
350
12D63
  3
C4
350
12D64
  3
C5
350
12D65
  3
C6
350
12D66
  3
C7
350
12D67
  3
C8
350
12D68
  3
C9
350
12D69
  3
D0
350
12D6A
  3
D1
350
12D6B
  3
D2
350
12D6C
  0
DICTIONARY
  5
12D49
102
{ACAD_REACTORS
330
C
102
}
330
C
100
AcDbDictionary
281
     1
  3
Standard
350
12D4A
  0
DICTIONARY
  5
13F35
102
{ACAD_REACTORS
330
C
102
}
330
C
100
AcDbDictionary
281
     1
  3
VBAProject
350
13F36
  0
DICTIONARY
  5
12D38
102
{ACAD_REACTORS
330
C
102
}
330
C
100
AcDbDictionary
281
     1
  3
2dWireframe
350
12D3E
  3
3D Hidden
350
12D40
  3
3dWireframe
350
12D3F
  3
Basic
350
12D3D
  3
Brighten
350
12D44
  3
ColorChange
350
12D48
  3
Conceptual
350
12D41
  3
Dim
350
12D43
  3
Facepattern
350
12D47
  3
Flat
350
12D39
  3
FlatWithEdges
350
12D3A
  3
Gouraud
350
12D3B
  3
GouraudWithEdges
350
12D3C
  3
Linepattern
350
12D46
  3
Realistic
350
12D42
  3
Thicken
350
12D45
  3
Wireframe
350
1E3C4
  0
XRECORD
  5
12DCF
102
{ACAD_REACTORS
330
C
102
}
330
C
100
AcDbXrecord
280
     1
 90
        1
330
12D4A
330
47925
330
479F1
330
479F2
330
47A17
330
47A1A
330
47A1B
330
47A25
330
47A26
330
47A27
330
47A35
330
47A36
330
47A37
330
498B3
330
498B4
  0
DICTIONARY
  5
125BE
102
{ACAD_REACTORS
330
C
102
}
330
C
100
AcDbDictionary
281
     1
  3
CANNOSCALE
350
12DE7
  3
CMLEADERSTYLE
350
12DE6
  3
CTABLESTYLE
350
12DE5
  3
DIMASSOC
350
125BF
  3
INDEXCTL
350
13324
  3
LIGHTINGUNITS
350
12EB5
  3
MSLTSCALE
350
12EB4
  3
PROJECTNAME
350
125C0
  3
SORTENTS
350
13323
  0
DICTIONARY
  5
47848
102
{ACAD_REACTORS
330
C
102
}
330
C
100
AcDbDictionary
281
     1
  3
ASEBlockHierarchyIndexRecord
350
47849
1001
DCO15
1040
1901610380.359
  0
DICTIONARY
  5
E28
102
{ACAD_REACTORS
330
C
102
}
330
C
100
AcDbDictionary
281
     1
  3
lxx_dimth
350
E29
  0
DICTIONARY
  5
47712
102
{ACAD_REACTORS
330
7EA
102
}
330
7EA
100
AcDbDictionary
281
     1
  0
DICTIONARY
  5
7EB
102
{ACAD_REACTORS
330
7EA
102
}
330
7EA
100
AcDbDictionary
281
     1
  0
DICTIONARY
  5
47711
102
{ACAD_REACTORS
330
7EA
102
}
330
7EA
100
AcDbDictionary
281
     1
1001
ACAD
1000
<All
  0
XRECORD
  5
12D82
102
{ACAD_REACTORS
330
12D81
102
}
330
12D81
100
AcDbXrecord
280
     1
290
     1
  0
XRECORD
  5
12D8C
102
{ACAD_REACTORS
330
12D8B
102
}
330
12D8B
100
AcDbXrecord
280
     1
290
     1
  0
XRECORD
  5
12D8E
102
{ACAD_REACTORS
330
12D8D
102
}
330
12D8D
100
AcDbXrecord
280
     1
290
     1
  0
SORTENTSTABLE
  5
478CE
102
{ACAD_REACTORS
330
478CD
102
}
330
478CD
100
AcDbSortentsTable
330
1F
331
F51F
  5
F51F
331
6CB5
  5
6CB5
331
6C97
  5
6C97
331
F512
  5
F512
331
F4FE
  5
F4FE
331
6CA8
  5
6CA8
331
8AE4
  5
8AE4
331
6C9B
  5
6C9B
331
F513
  5
F513
331
6CB6
  5
6CB6
331
6CA9
  5
6CA9
331
8AE5
  5
8AE5
331
F4FF
  5
F4FF
331
6C9C
  5
6C9C
331
479B8
  5
479B8
331
6CB7
  5
6CB7
331
F514
  5
F514
331
F500
  5
F500
331
6CAA
  5
6CAA
331
8AE6
  5
8AE6
331
6C9D
  5
6C9D
331
F515
  5
F515
331
F508
  5
F508
331
6CAB
  5
6CAB
331
8AE7
  5
8AE7
331
F501
  5
F501
331
F516
  5
F516
331
F502
  5
F502
331
6CAC
  5
6CAC
331
F509
  5
F509
331
8AE8
  5
8AE8
331
6C9F
  5
6C9F
331
4792D
  5
4792D
331
F517
  5
F517
331
F503
  5
F503
331
6CAD
  5
6CAD
331
6C8F
  5
6C8F
331
F50A
  5
F50A
331
8AE9
  5
8AE9
331
6CA0
  5
6CA0
331
47E8B
  5
4842C
331
4792E
  5
4792E
331
F518
  5
F518
331
F504
  5
F504
331
6CAE
  5
6CAE
331
F50B
  5
F50B
331
6C90
  5
6C90
331
8AEA
  5
8AEA
331
6CA1
  5
6CA1
331
4792F
  5
4792F
331
47A40
  5
47A40
331
F519
  5
F519
331
6CAF
  5
6CAF
331
F50C
  5
F50C
331
6C91
  5
6C91
331
F4F8
  5
F4F8
331
6CA2
  5
6CA2
331
47930
  5
47930
331
F506
  5
F506
331
6CB0
  5
6CB0
331
F50D
  5
F50D
331
6C92
  5
6C92
331
F4F9
  5
F4F9
331
6CA3
  5
6CA3
331
484CF
  5
4857C
331
47931
  5
47931
331
F51B
  5
F51B
331
F507
  5
F507
331
6CB1
  5
6CB1
331
6C93
  5
6C93
331
F50E
  5
F50E
331
F4FA
  5
F4FA
331
6CA4
  5
6CA4
331
47932
  5
47932
331
4842B
  5
484CF
331
47925
  5
47925
331
F51C
  5
F51C
331
6CB2
  5
6CB2
331
6C94
  5
6C94
331
F50F
  5
F50F
331
F4FB
  5
F4FB
331
6CA5
  5
6CA5
331
6C98
  5
6C98
331
4842C
  5
48575
331
47926
  5
47926
331
F51D
  5
F51D
331
6C95
  5
6C95
331
F510
  5
F510
331
F4FC
  5
F4FC
331
6CA6
  5
6CA6
331
8AE2
  5
8AE2
331
6C99
  5
6C99
331
47927
  5
47927
331
F4F6
  5
F4F6
331
F51E
  5
F51E
331
6CB4
  5
6CB4
331
6C96
  5
6C96
331
F511
  5
F511
331
F4FD
  5
F4FD
331
8AE3
  5
8AE3
331
6CA7
  5
6CA7
331
6C9A
  5
6C9A
331
6CB8
  5
6CB8
331
47928
  5
47928
331
F4F7
  5
F4F7
  0
XRECORD
  5
4A3F8
102
{ACAD_REACTORS
330
4A3DC
102
}
330
4A3DC
100
AcDbXrecord
280
     1
 40
382130.0
  1
\pxqc;档案员{\H0.7x;\P\Fromans|c134;Filing Clerk\fFangSong_GB2312|b0|i0|c134|p49; }
  0
XRECORD
  5
4A3F9
102
{ACAD_REACTORS
330
4A3DE
102
}
330
4A3DE
100
AcDbXrecord
280
     1
 40
45984.0
  1
\pxqc;日期{\Fromans|c134;/Date}
  0
XRECORD
  5
4A3FA
102
{ACAD_REACTORS
330
4A3E0
102
}
330
4A3E0
100
AcDbXrecord
280
     1
 40
71634.0
  1
\pxsm0.7;{\fFangSong_GB2312|b0|i0|c134|p49;标准化}\PStand.
  0
XRECORD
  5
4A3FB
102
{ACAD_REACTORS
330
4A3E2
102
}
330
4A3E2
100
AcDbXrecord
280
     1
 40
48353.0
  1
\pxsm0.7;签名\P{\Fromans|c134;Signature} 
  0
XRECORD
  5
4A3FC
102
{ACAD_REACTORS
330
4A3E4
102
}
330
4A3E4
100
AcDbXrecord
280
     1
 40
38427.0
  1
\pxsm0.7,qc;处数\P{\Fromans|c134;Number }
  0
XRECORD
  5
4A3FD
102
{ACAD_REACTORS
330
4A3E6
102
}
330
4A3E6
100
AcDbXrecord
280
     1
 40
31190.0
  1
\pxsm0.7;标记\P{\Fromans|c134;Mark}
  0
XRECORD
  5
4A3FE
102
{ACAD_REACTORS
330
4A3E8
102
}
330
4A3E8
100
AcDbXrecord
280
     1
 40
39355.0
  1
\pxsm0.7;审核\P{\Fromans|c134;Checked}
  0
XRECORD
  5
4A3FF
102
{ACAD_REACTORS
330
4A3EA
102
}
330
4A3EA
100
AcDbXrecord
280
     1
 40
66730.0
  1
\pxsm0.7;绘图\P{\Fromans|c134;Drawn\Ftxt|c134; }
  0
XRECORD
  5
4A400
102
{ACAD_REACTORS
330
4A3EC
102
}
330
4A3EC
100
AcDbXrecord
280
     1
 40
43787.0
  1
\pxsm0.7;批准\P{\Fromans|c134;Approved}
  0
XRECORD
  5
4A401
102
{ACAD_REACTORS
330
4A3EE
102
}
330
4A3EE
100
AcDbXrecord
280
     1
 40
40691.0
  1
\pxsm0.7;工艺\P{\Fromans|c134;Process}
  0
XRECORD
  5
4A402
102
{ACAD_REACTORS
330
4A3F0
102
}
330
4A3F0
100
AcDbXrecord
280
     1
 40
30977.0
  1
\pxsm0.7;日期\P{\Fromans|c134;Date}
  0
XRECORD
  5
4A3F7
102
{ACAD_REACTORS
330
4A3DA
102
}
330
4A3DA
100
AcDbXrecord
280
     1
 40
1902.0
  1
\pxqc;TC CHEN
  0
DIMASSOC
  5
490F9
102
{ACAD_REACTORS
330
490F8
102
}
330
490F8
100
AcDbDimAssoc
330
490F7
 90
        3
 70
     0
 71
     0
  1
AcDbOsnapPointRef
 72
     1
331
490C4
 73
     2
 91
        0
 40
1.0
 10
0.0
 20
0.0
 30
2.000000000000000E+50
 75
     0
  1
AcDbOsnapPointRef
 72
    13
331
490EA
 73
     2
 91
        0
 40
0.0
 10
0.0
 20
0.0
 30
2.000000000000000E+50
 75
     0
  0
DIMASSOC
  5
490FD
102
{ACAD_REACTORS
330
490FC
102
}
330
490FC
100
AcDbDimAssoc
330
490FB
 90
        3
 70
     0
 71
     0
  1
AcDbOsnapPointRef
 72
     1
331
490D8
 73
     2
 91
        0
 40
1.0
 10
0.0
 20
0.0
 30
2.000000000000000E+50
 75
     0
  1
AcDbOsnapPointRef
 72
     1
331
490E2
 73
     2
 91
        0
 40
1.0
 10
0.0
 20
0.0
 30
2.000000000000000E+50
 75
     0
  0
DIMASSOC
  5
4910B
102
{ACAD_REACTORS
330
4910A
102
}
330
4910A
100
AcDbDimAssoc
330
49109
 90
        3
 70
     0
 71
     0
  1
AcDbOsnapPointRef
 72
     1
331
490CC
 73
     2
 91
        0
 40
1.0
 10
0.0
 20
0.0
 30
2.000000000000000E+50
 75
     0
  1
AcDbOsnapPointRef
 72
     1
331
490CD
 73
     2
 91
        0
 40
1.0
 10
0.0
 20
0.0
 30
2.000000000000000E+50
 75
     0
  0
DIMASSOC
  5
4910E
102
{ACAD_REACTORS
330
4910D
102
}
330
4910D
100
AcDbDimAssoc
330
4910C
 90
        3
 70
     0
 71
     0
  1
AcDbOsnapPointRef
 72
    13
331
490E0
 73
     2
 91
        0
 40
0.0
 10
0.0
 20
0.0
 30
2.000000000000000E+50
 75
     0
  1
AcDbOsnapPointRef
 72
     1
331
490E3
 73
     2
 91
        0
 40
1.0
 10
0.0
 20
0.0
 30
2.000000000000000E+50
 75
     0
  0
XRECORD
  5
4A403
102
{ACAD_REACTORS
330
4A3F2
102
}
330
4A3F2
100
AcDbXrecord
280
     1
 40
17093709.0
  1
\A1;\pxql;技术参数：{\Fromans|c134;                             \P- }额定电流{\Fromans|c134;(40}℃{\Fromans|c134;)}：{\Fromans|c134;4A              \P- }额定电压：{\Fromans|c134;60V                  \P- }额定脉冲电压：{\Fromans|c134;800V \P- }插针数：{\Fromans|c134;3          
  1
 \P- }污染等级：{\Fromans|c134;3                   \P- }接触电阻：≤{\Fromans|c134;10mΩ             \P- }绝缘电阻：≥{\Fromans|c134;100MΩ            \P- }锁紧方式：螺纹式{\Fromans|c134;M8*1           \P- }连接方式：浸焊{\Fromans|c134;                \P- }防护等级：{\Fromans|c134;IP67   
  1
            \P- }插拔次数：≥{\Fromans|c134;100            \P- }温度范围：{\Fromans|c134;-40}℃{\Fromans|c134; ... +85}℃{\Fromans|c134;          \P- }外壳材料：{\Fromans|c134;CuZn                        \P- }插体材料：{\Fromans|c134;PA                         \P- }插针材料：铜合
  1
金{\Fromans|c134;                      \P- }电镀材料：金{\Fromans|c134;                         \P               \P\P  }
  0
XRECORD
  5
4A404
102
{ACAD_REACTORS
330
4A3F4
102
}
330
4A3F4
100
AcDbXrecord
280
     1
 40
24925437.0
  1
\A1;\pxql;{\Fromans|c134;Technical specification:\P- \A0;Rated current (40\fFangSong_GB2312|b0|i0|c134|p49;℃\Fromans|c134;)\A1;: 4A\P- \A0;Rated voltage\A1;: 60V\P- \A0;Rated impulse voltage\A1;: 800V\P- Number of contacts: 3\P- \A0;Pollution degree\
  1
A1;: 3\P- \A0;Contact resistance\A1;: }≤{\Fromans|c134;10mΩ\P- Insulation resistance: }≥{\Fromans|c134;100MΩ \P- \A0;Connector locking system\A1;: \A0;screw\A1; M8*1\P- \A0;Terminal\A1;: \A0;dip solder\A1;\P- \A0;Degree of protection\A1;: IP67\P- \A0
  1
;Mating cycles\A1;: }≥{\Fromans|c134;100  \P- \A0;Temperature range\A1;: -40}℃{\Fromans|c134; ... +85}℃{\Fromans|c134;\P- \A0;Material of housing: CuZn\A1;\P- \A0;Material of insert\A1;: PA\P- \A0;Material of contact\A1;: \A0;copper alloy\A1;\P\pq*;-
  1
 \A0;Contact plating\A1;: \A0;Au\A1;\P\pql;\P\P  }
  0
DIMASSOC
  5
49EE8
102
{ACAD_REACTORS
330
49EE7
102
}
330
49EE7
100
AcDbDimAssoc
330
49EE6
 90
        3
 70
     0
 71
     0
  1
AcDbOsnapPointRef
 72
     1
331
49EE1
 73
     2
 91
        0
 40
1.0
 10
0.0
 20
0.0
 30
2.000000000000000E+50
 75
     0
  1
AcDbOsnapPointRef
 72
    13
331
49EDE
 73
     2
 91
        0
 40
0.0
 10
0.0
 20
0.0
 30
2.000000000000000E+50
 75
     0
  0
DIMASSOC
  5
49EEF
102
{ACAD_REACTORS
330
49EEE
102
}
330
49EEE
100
AcDbDimAssoc
330
49EED
 90
        3
 70
     0
 71
     0
  1
AcDbOsnapPointRef
 72
     1
331
49EDF
 73
     2
 91
        0
 40
1.0
 10
0.0
 20
0.0
 30
2.000000000000000E+50
 75
     0
  1
AcDbOsnapPointRef
 72
     1
331
49EE0
 73
     2
 91
        0
 40
1.0
 10
0.0
 20
0.0
 30
2.000000000000000E+50
 75
     0
  0
DIMASSOC
  5
49EF2
102
{ACAD_REACTORS
330
49EF1
102
}
330
49EF1
100
AcDbDimAssoc
330
49EF0
 90
        3
 70
     0
 71
     0
  1
AcDbOsnapPointRef
 72
     1
331
49EEB
 73
     2
 91
        0
 40
1.0
 10
0.0
 20
0.0
 30
2.000000000000000E+50
 75
     0
  1
AcDbOsnapPointRef
 72
     8
331
49EEC
 73
     2
 91
        0
 40
0.9999999999997491
 10
0.0
 20
0.0
 30
0.0
 75
     1
  1
AcDbOsnapPointRef
 72
     1
331
49EEB
 73
     2
 91
        0
 40
1.0
 10
0.0
 20
0.0
 30
2.000000000000000E+50
 75
     0
  0
DIMASSOC
  5
49F07
102
{ACAD_REACTORS
330
49F06
102
}
330
49F06
100
AcDbDimAssoc
330
49F05
 90
        3
 70
     0
 71
     0
  1
AcDbOsnapPointRef
 72
     1
331
49EF6
 73
     2
 91
        0
 40
1.0
 10
0.0
 20
0.0
 30
2.000000000000000E+50
 75
     0
  1
AcDbOsnapPointRef
 72
     1
331
49EF5
 73
     2
 91
        0
 40
1.0
 10
0.0
 20
0.0
 30
2.000000000000000E+50
 75
     0
  0
DIMASSOC
  5
49F13
102
{ACAD_REACTORS
330
49F12
102
}
330
49F12
100
AcDbDimAssoc
330
49F11
 90
        3
 70
     0
 71
     0
  1
AcDbOsnapPointRef
 72
    13
331
49EF9
 73
     2
 91
        0
 40
0.0
 10
0.0
 20
0.0
 30
2.000000000000000E+50
 75
     0
  1
AcDbOsnapPointRef
 72
    13
331
49F02
 73
     2
 91
        0
 40
0.0
 10
0.0
 20
0.0
 30
2.000000000000000E+50
 75
     0
  0
LAYOUT
  5
1E
102
{ACAD_REACTORS
330
1A
102
}
330
1A
100
AcDbPlotSettings
  1

  2

  4

  6

 40
0.0
 41
0.0
 42
0.0
 43
0.0
 44
0.0
 45
0.0
 46
0.0
 47
0.0
 48
0.0
 49
0.0
140
0.0
141
0.0
142
1.0
143
1.0
 70
     0
 72
     0
 73
     0
 74
     0
  7

 75
     0
147
1.0
 76
     0
 77
     2
 78
   300
148
0.0
149
0.0
100
AcDbLayout
  1
Layout1
 70
     0
 71
     1
 10
0.0
 20
0.0
 11
12.0
 21
9.0
 12
0.0
 22
0.0
 32
0.0
 14
1.000000000000000E+20
 24
1.000000000000000E+20
 34
1.000000000000000E+20
 15
-1.000000000000000E+20
 25
-1.000000000000000E+20
 35
-1.000000000000000E+20
146
0.0
 13
0.0
 23
0.0
 33
0.0
 16
1.0
 26
0.0
 36
0.0
 17
0.0
 27
1.0
 37
0.0
 76
     0
330
1B
  0
LAYOUT
  5
22
102
{ACAD_REACTORS
330
1A
102
}
330
1A
100
AcDbPlotSettings
  1

  2
HP LaserJet P1007
  4
A4
  6

 40
4.519083499908447
 41
4.349743366241455
 42
4.561416625976558
 43
4.349761962890625
 44
210.0156707763672
 45
297.0106506347656
 46
0.9399999999999998
 47
0.0
 48
539.6520813660868
 49
389.7291651948218
140
673.7347763208747
141
583.9261819808298
142
1.0
143
0.6735674979895184
 70
 15028
 72
     1
 73
     0
 74
     4
  7
monochrome.ctb
 75
     0
147
1.484632205361489
 76
     1
 77
     2
 78
   300
148
-539.6520813660868
149
-389.7291651948218
100
AcDbLayout
  1
Model
 70
     0
 71
     0
 10
0.0
 20
0.0
 11
0.0
 21
0.0
 12
0.0
 22
0.0
 32
0.0
 14
0.0
 24
0.0
 34
0.0
 15
0.0
 25
0.0
 35
0.0
146
0.0
 13
0.0
 23
0.0
 33
0.0
 16
0.0
 26
0.0
 36
0.0
 17
0.0
 27
0.0
 37
0.0
 76
     0
330
1F
331
12D1D
  0
MATERIAL
  5
12D30
102
{ACAD_XDICTIONARY
360
12D31
102
}
102
{ACAD_REACTORS
330
3F1
102
}
330
3F1
100
AcDbMaterial
  1
ByBlock
 72
     0
 43
0.0008202099737533
 43
0.0
 43
0.0
 43
0.0
 43
0.0
 43
0.0008202099737533
 43
0.0
 43
0.0
 43
0.0
 43
0.0
 43
1.0
 43
0.0
 43
0.0
 43
0.0
 43
0.0
 43
1.0
 77
     0
 47
0.0008202099737533
 47
0.0
 47
0.0
 47
0.0
 47
0.0
 47
0.0008202099737533
 47
0.0
 47
0.0
 47
0.0
 47
0.0
 47
1.0
 47
0.0
 47
0.0
 47
0.0
 47
0.0
 47
1.0
171
     0
 49
0.0008202099737533
 49
0.0
 49
0.0
 49
0.0
 49
0.0
 49
0.0008202099737533
 49
0.0
 49
0.0
 49
0.0
 49
0.0
 49
1.0
 49
0.0
 49
0.0
 49
0.0
 49
0.0
 49
1.0
175
     0
142
0.0008202099737533
142
0.0
142
0.0
142
0.0
142
0.0
142
0.0008202099737533
142
0.0
142
0.0
142
0.0
142
0.0
142
1.0
142
0.0
142
0.0
142
0.0
142
0.0
142
1.0
179
     0
144
0.0008202099737533
144
0.0
144
0.0
144
0.0
144
0.0
144
0.0008202099737533
144
0.0
144
0.0
144
0.0
144
0.0
144
1.0
144
0.0
144
0.0
144
0.0
144
0.0
144
1.0
147
0.0008202099737533
147
0.0
147
0.0
147
0.0
147
0.0
147
0.0008202099737533
147
0.0
147
0.0
147
0.0
147
0.0
147
1.0
147
0.0
147
0.0
147
0.0
147
0.0
147
1.0
  0
MATERIAL
  5
12D28
102
{ACAD_XDICTIONARY
360
12D29
102
}
102
{ACAD_REACTORS
330
3F1
102
}
330
3F1
100
AcDbMaterial
  1
ByLayer
 72
     0
 43
0.0008202099737533
 43
0.0
 43
0.0
 43
0.0
 43
0.0
 43
0.0008202099737533
 43
0.0
 43
0.0
 43
0.0
 43
0.0
 43
1.0
 43
0.0
 43
0.0
 43
0.0
 43
0.0
 43
1.0
 77
     0
 47
0.0008202099737533
 47
0.0
 47
0.0
 47
0.0
 47
0.0
 47
0.0008202099737533
 47
0.0
 47
0.0
 47
0.0
 47
0.0
 47
1.0
 47
0.0
 47
0.0
 47
0.0
 47
0.0
 47
1.0
171
     0
 49
0.0008202099737533
 49
0.0
 49
0.0
 49
0.0
 49
0.0
 49
0.0008202099737533
 49
0.0
 49
0.0
 49
0.0
 49
0.0
 49
1.0
 49
0.0
 49
0.0
 49
0.0
 49
0.0
 49
1.0
175
     0
142
0.0008202099737533
142
0.0
142
0.0
142
0.0
142
0.0
142
0.0008202099737533
142
0.0
142
0.0
142
0.0
142
0.0
142
1.0
142
0.0
142
0.0
142
0.0
142
0.0
142
1.0
179
     0
144
0.0008202099737533
144
0.0
144
0.0
144
0.0
144
0.0
144
0.0008202099737533
144
0.0
144
0.0
144
0.0
144
0.0
144
1.0
144
0.0
144
0.0
144
0.0
144
0.0
144
1.0
147
0.0008202099737533
147
0.0
147
0.0
147
0.0
147
0.0
147
0.0008202099737533
147
0.0
147
0.0
147
0.0
147
0.0
147
1.0
147
0.0
147
0.0
147
0.0
147
0.0
147
1.0
  0
MATERIAL
  5
6897
102
{ACAD_XDICTIONARY
360
1E333
102
}
102
{ACAD_REACTORS
330
3F1
102
}
330
3F1
100
AcDbMaterial
  1
Global
 73
     1
 78
     1
172
     1
176
     1
270
     1
274
     1
  0
MLEADERSTYLE
  5
12D6E
102
{ACAD_REACTORS
330
12D6D
102
}
330
12D6D
100
AcDbMLeaderStyle
170
     2
171
     1
172
     0
 90
        2
 40
0.0
 41
0.0
173
     1
 91
-1056964608
340
14
 92
       -2
290
     1
 42
2.0
291
     1
 43
0.36
  3
Standard
 44
4.0
300

342
11
174
     1
178
     6
175
     1
176
     0
 93
-1056964608
 45
4.0
292
     0
297
     0
 46
4.0
 94
-1056964608
 47
1.0
 49
1.0
140
1.0
293
     1
141
0.0
294
     1
177
     0
142
1.0
295
     0
296
     0
143
0.125
1001
ACAD_MLEADERVER
1070
     2
  0
MLINESTYLE
  5
18
102
{ACAD_REACTORS
330
17
102
}
330
17
100
AcDbMlineStyle
  2
STANDARD
 70
     0
  3

 62
   256
 51
90.0
 52
90.0
 71
     2
 49
0.5
 62
   256
  6
BYLAYER
 49
-0.5
 62
   256
  6
BYLAYER
  0
PLOTSETTINGS
  5
176E
102
{ACAD_REACTORS
330
19
102
}
330
19
100
AcDbPlotSettings
  1
ISO A4 标题栏 (纵向) - 无输出设备
  2
None
  4
ISO_A4_(210.00_x_297.00_MM)
  6

 40
7.549999999999998
 41
20.05
 42
7.549999999999998
 43
20.05
 44
210.0
 45
297.0
 46
-7.559999999999996
 47
-20.06
 48
0.0
 49
0.0
140
0.0
141
0.0
142
1.0
143
1.0
 70
   692
 72
     1
 73
     0
 74
     1
  7

 75
    16
147
1.0
 76
     0
 77
     2
 78
   300
148
0.0128164049386896
149
0.0090630292066862
  0
ACDBPLACEHOLDER
  5
F
102
{ACAD_REACTORS
330
E
102
}
330
E
  0
SCALE
  5
12D4C
102
{ACAD_REACTORS
330
12D4B
102
}
330
12D4B
100
AcDbScale
 70
     0
300
1:1
140
1.0
141
1.0
290
     1
  0
SCALE
  5
12D4D
102
{ACAD_REACTORS
330
12D4B
102
}
330
12D4B
100
AcDbScale
 70
     0
300
1:2
140
1.0
141
2.0
290
     0
  0
SCALE
  5
12D4E
102
{ACAD_REACTORS
330
12D4B
102
}
330
12D4B
100
AcDbScale
 70
     0
300
1:4
140
1.0
141
4.0
290
     0
  0
SCALE
  5
12D4F
102
{ACAD_REACTORS
330
12D4B
102
}
330
12D4B
100
AcDbScale
 70
     0
300
1:5
140
1.0
141
5.0
290
     0
  0
SCALE
  5
12D50
102
{ACAD_REACTORS
330
12D4B
102
}
330
12D4B
100
AcDbScale
 70
     0
300
1:8
140
1.0
141
8.0
290
     0
  0
SCALE
  5
12D51
102
{ACAD_REACTORS
330
12D4B
102
}
330
12D4B
100
AcDbScale
 70
     0
300
1:10
140
1.0
141
10.0
290
     0
  0
SCALE
  5
12D52
102
{ACAD_REACTORS
330
12D4B
102
}
330
12D4B
100
AcDbScale
 70
     0
300
1:16
140
1.0
141
16.0
290
     0
  0
SCALE
  5
12D53
102
{ACAD_REACTORS
330
12D4B
102
}
330
12D4B
100
AcDbScale
 70
     0
300
1:20
140
1.0
141
20.0
290
     0
  0
SCALE
  5
12D54
102
{ACAD_REACTORS
330
12D4B
102
}
330
12D4B
100
AcDbScale
 70
     0
300
1:30
140
1.0
141
30.0
290
     0
  0
SCALE
  5
12D55
102
{ACAD_REACTORS
330
12D4B
102
}
330
12D4B
100
AcDbScale
 70
     0
300
1:40
140
1.0
141
40.0
290
     0
  0
SCALE
  5
12D56
102
{ACAD_REACTORS
330
12D4B
102
}
330
12D4B
100
AcDbScale
 70
     0
300
1:50
140
1.0
141
50.0
290
     0
  0
SCALE
  5
12D57
102
{ACAD_REACTORS
330
12D4B
102
}
330
12D4B
100
AcDbScale
 70
     0
300
1:100
140
1.0
141
100.0
290
     0
  0
SCALE
  5
12D58
102
{ACAD_REACTORS
330
12D4B
102
}
330
12D4B
100
AcDbScale
 70
     0
300
2:1
140
2.0
141
1.0
290
     0
  0
SCALE
  5
12D59
102
{ACAD_REACTORS
330
12D4B
102
}
330
12D4B
100
AcDbScale
 70
     0
300
4:1
140
4.0
141
1.0
290
     0
  0
SCALE
  5
12D5A
102
{ACAD_REACTORS
330
12D4B
102
}
330
12D4B
100
AcDbScale
 70
     0
300
8:1
140
8.0
141
1.0
290
     0
  0
SCALE
  5
12D5B
102
{ACAD_REACTORS
330
12D4B
102
}
330
12D4B
100
AcDbScale
 70
     0
300
10:1
140
10.0
141
1.0
290
     0
  0
SCALE
  5
12D5C
102
{ACAD_REACTORS
330
12D4B
102
}
330
12D4B
100
AcDbScale
 70
     0
300
100:1
140
100.0
141
1.0
290
     0
  0
SCALE
  5
12D5D
102
{ACAD_REACTORS
330
12D4B
102
}
330
12D4B
100
AcDbScale
 70
     0
300
1/128" = 1'-0"
140
0.0078125
141
12.0
290
     0
  0
SCALE
  5
12D5E
102
{ACAD_REACTORS
330
12D4B
102
}
330
12D4B
100
AcDbScale
 70
     0
300
1/64" = 1'-0"
140
0.015625
141
12.0
290
     0
  0
SCALE
  5
12D5F
102
{ACAD_REACTORS
330
12D4B
102
}
330
12D4B
100
AcDbScale
 70
     0
300
1/32" = 1'-0"
140
0.03125
141
12.0
290
     0
  0
SCALE
  5
12D60
102
{ACAD_REACTORS
330
12D4B
102
}
330
12D4B
100
AcDbScale
 70
     0
300
1/16" = 1'-0"
140
0.0625
141
12.0
290
     0
  0
SCALE
  5
12D61
102
{ACAD_REACTORS
330
12D4B
102
}
330
12D4B
100
AcDbScale
 70
     0
300
3/32" = 1'-0"
140
0.09375
141
12.0
290
     0
  0
SCALE
  5
12D62
102
{ACAD_REACTORS
330
12D4B
102
}
330
12D4B
100
AcDbScale
 70
     0
300
1/8" = 1'-0"
140
0.125
141
12.0
290
     0
  0
SCALE
  5
12D63
102
{ACAD_REACTORS
330
12D4B
102
}
330
12D4B
100
AcDbScale
 70
     0
300
3/16" = 1'-0"
140
0.1875
141
12.0
290
     0
  0
SCALE
  5
12D64
102
{ACAD_REACTORS
330
12D4B
102
}
330
12D4B
100
AcDbScale
 70
     0
300
1/4" = 1'-0"
140
0.25
141
12.0
290
     0
  0
SCALE
  5
12D65
102
{ACAD_REACTORS
330
12D4B
102
}
330
12D4B
100
AcDbScale
 70
     0
300
3/8" = 1'-0"
140
0.375
141
12.0
290
     0
  0
SCALE
  5
12D66
102
{ACAD_REACTORS
330
12D4B
102
}
330
12D4B
100
AcDbScale
 70
     0
300
1/2" = 1'-0"
140
0.5
141
12.0
290
     0
  0
SCALE
  5
12D67
102
{ACAD_REACTORS
330
12D4B
102
}
330
12D4B
100
AcDbScale
 70
     0
300
3/4" = 1'-0"
140
0.75
141
12.0
290
     0
  0
SCALE
  5
12D68
102
{ACAD_REACTORS
330
12D4B
102
}
330
12D4B
100
AcDbScale
 70
     0
300
1" = 1'-0"
140
1.0
141
12.0
290
     0
  0
SCALE
  5
12D69
102
{ACAD_REACTORS
330
12D4B
102
}
330
12D4B
100
AcDbScale
 70
     0
300
1-1/2" = 1'-0"
140
1.5
141
12.0
290
     0
  0
SCALE
  5
12D6A
102
{ACAD_REACTORS
330
12D4B
102
}
330
12D4B
100
AcDbScale
 70
     0
300
3" = 1'-0"
140
3.0
141
12.0
290
     0
  0
SCALE
  5
12D6B
102
{ACAD_REACTORS
330
12D4B
102
}
330
12D4B
100
AcDbScale
 70
     0
300
6" = 1'-0"
140
6.0
141
12.0
290
     0
  0
SCALE
  5
12D6C
102
{ACAD_REACTORS
330
12D4B
102
}
330
12D4B
100
AcDbScale
 70
     0
300
1'-0" = 1'-0"
140
12.0
141
12.0
290
     0
  0
TABLESTYLE
  5
12D4A
102
{ACAD_XDICTIONARY
360
12DCD
102
}
102
{ACAD_REACTORS
330
12D49
102
}
330
12D49
100
AcDbTableStyle
  3
Standard
 70
     0
 71
     0
 40
1.5
 41
1.5
280
     0
281
     0
  7
STANDARD
140
4.5
170
     2
 62
     0
 63
     7
283
     0
274
    -2
284
     1
 64
     0
275
    -2
285
     1
 65
     0
276
    -2
286
     1
 66
     0
277
    -2
287
     1
 67
     0
278
    -2
288
     1
 68
     0
279
    -2
289
     1
 69
     0
  7
STANDARD
140
6.0
170
     5
 62
     0
 63
     7
283
     0
274
    -2
284
     1
 64
     0
275
    -2
285
     1
 65
     0
276
    -2
286
     1
 66
     0
277
    -2
287
     1
 67
     0
278
    -2
288
     1
 68
     0
279
    -2
289
     1
 69
     0
  7
STANDARD
140
4.5
170
     5
 62
     0
 63
     7
283
     0
274
    -2
284
     1
 64
     0
275
    -2
285
     1
 65
     0
276
    -2
286
     1
 66
     0
277
    -2
287
     1
 67
     0
278
    -2
288
     1
 68
     0
279
    -2
289
     1
 69
     0
  0
VBA_PROJECT
  5
13F36
102
{ACAD_REACTORS
330
13F35
102
}
330
13F35
100
AcDbVbaProject
 90
     9216
310
D0CF11E0A1B11AE1000000000000000000000000000000003E000300FEFF0900060000000000000000000000010000000100000000000000001000000200000001000000FEFFFFFF0000000000000000FFFFFFFFFFFFFFFFFFFFFFFFFFFFFFFFFFFFFFFFFFFFFFFFFFFFFFFFFFFFFFFFFFFFFFFFFFFFFFFFFFFFFFFFFFFFFF
310
FFFFFFFFFFFFFFFFFFFFFFFFFFFFFFFFFFFFFFFFFFFFFFFFFFFFFFFFFFFFFFFFFFFFFFFFFFFFFFFFFFFFFFFFFFFFFFFFFFFFFFFFFFFFFFFFFFFFFFFFFFFFFFFFFFFFFFFFFFFFFFFFFFFFFFFFFFFFFFFFFFFFFFFFFFFFFFFFFFFFFFFFFFFFFFFFFFFFFFFFFFFFFFFFFFFFFFFFFFFFFFFFFFFFFFFFFFFFFFFFFFFFFFFFFFFFFF
310
FFFFFFFFFFFFFFFFFFFFFFFFFFFFFFFFFFFFFFFFFFFFFFFFFFFFFFFFFFFFFFFFFFFFFFFFFFFFFFFFFFFFFFFFFFFFFFFFFFFFFFFFFFFFFFFFFFFFFFFFFFFFFFFFFFFFFFFFFFFFFFFFFFFFFFFFFFFFFFFFFFFFFFFFFFFFFFFFFFFFFFFFFFFFFFFFFFFFFFFFFFFFFFFFFFFFFFFFFFFFFFFFFFFFFFFFFFFFFFFFFFFFFFFFFFFFFF
310
FFFFFFFFFFFFFFFFFFFFFFFFFFFFFFFFFFFFFFFFFFFFFFFFFFFFFFFFFFFFFFFFFFFFFFFFFFFFFFFFFFFFFFFFFFFFFFFFFFFFFFFFFFFFFFFFFFFFFFFFFFFFFFFFFFFFFFFFFFFFFFFFFFFFFFFFFFFFFFFFFFFFFFFFFFFFFFFFFFFFFFFFFFFFFFFFFFFFFFFFFFFFFFFFFFFFFFFFFFFFFFFFFFFFFFFFFFFFFFFFFFFFFFFFFFFFFF
310
FFFFFFFFFDFFFFFF04000000FEFFFFFF0500000008000000060000000700000009000000100000000A0000000B0000000C0000000D0000000E0000000F000000FEFFFFFFFEFFFFFFFFFFFFFFFFFFFFFFFFFFFFFFFFFFFFFFFFFFFFFFFFFFFFFFFFFFFFFFFFFFFFFFFFFFFFFFFFFFFFFFFFFFFFFFFFFFFFFFFFFFFFFFFFFFFF
310
FFFFFFFFFFFFFFFFFFFFFFFFFFFFFFFFFFFFFFFFFFFFFFFFFFFFFFFFFFFFFFFFFFFFFFFFFFFFFFFFFFFFFFFFFFFFFFFFFFFFFFFFFFFFFFFFFFFFFFFFFFFFFFFFFFFFFFFFFFFFFFFFFFFFFFFFFFFFFFFFFFFFFFFFFFFFFFFFFFFFFFFFFFFFFFFFFFFFFFFFFFFFFFFFFFFFFFFFFFFFFFFFFFFFFFFFFFFFFFFFFFFFFFFFFFFFFF
310
FFFFFFFFFFFFFFFFFFFFFFFFFFFFFFFFFFFFFFFFFFFFFFFFFFFFFFFFFFFFFFFFFFFFFFFFFFFFFFFFFFFFFFFFFFFFFFFFFFFFFFFFFFFFFFFFFFFFFFFFFFFFFFFFFFFFFFFFFFFFFFFFFFFFFFFFFFFFFFFFFFFFFFFFFFFFFFFFFFFFFFFFFFFFFFFFFFFFFFFFFFFFFFFFFFFFFFFFFFFFFFFFFFFFFFFFFFFFFFFFFFFFFFFFFFFFFF
310
FFFFFFFFFFFFFFFFFFFFFFFFFFFFFFFFFFFFFFFFFFFFFFFFFFFFFFFFFFFFFFFFFFFFFFFFFFFFFFFFFFFFFFFFFFFFFFFFFFFFFFFFFFFFFFFFFFFFFFFFFFFFFFFFFFFFFFFFFFFFFFFFFFFFFFFFFFFFFFFFFFFFFFFFFFFFFFFFFFFFFFFFFFFFFFFFFFFFFFFFFFFFFFFFFFFFFFFFFFFFFFFFFFFFFFFFFFFFFFFFFFFFFFFFFFFFFF
310
FFFFFFFFFFFFFFFF52006F006F007400200045006E00740072007900000000000000000000000000000000000000000000000000000000000000000000000000000000000000000016000500FFFFFFFFFFFFFFFF0100000000000000000000000000000000000000000000000000000000000000E03CDB59D4EBD201030000
310
0040150000000000005600420041005F00500072006F006A0065006300740000000000000000000000000000000000000000000000000000000000000000000000000000000000000018000101FFFFFFFF0C0000000A0000000000000000000000000000000000000000000000E03CDB59D4EBD201E03CDB59D4EBD2010000
310
000000000000000000005600420041000000000000000000000000000000000000000000000000000000000000000000000000000000000000000000000000000000000000000000000008000100FFFFFFFFFFFFFFFF040000000000000000000000000000000000000000000000E03CDB59D4EBD201E03CDB59D4EBD20100
310
00000000000000000000006400690072000000000000000000000000000000000000000000000000000000000000000000000000000000000000000000000000000000000000000000000008000201FFFFFFFFFFFFFFFFFFFFFFFF000000000000000000000000000000000000000000000000000000000000000000000000
310
000000003C0100000000000001000000020000000300000004000000FEFFFFFF060000000700000008000000090000000A0000000B0000000C0000000D0000000E0000000F00000010000000110000001200000013000000FEFFFFFF15000000FEFFFFFF1700000018000000190000001A000000FEFFFFFF1C000000FEFFFF
310
FF1E0000001F000000200000002100000022000000230000002400000025000000260000002700000028000000290000002A0000002B0000002C0000002D0000002E0000002F000000FEFFFFFF3100000032000000330000003400000035000000360000003700000038000000390000003A0000003B0000003C0000003D00
310
00003E0000003F000000400000004100000042000000430000004400000045000000460000004700000048000000490000004A0000004B0000004C000000FEFFFFFF4E0000004F000000500000005100000052000000FEFFFFFFFEFFFFFFFEFFFFFFFFFFFFFFFFFFFFFFFFFFFFFFFFFFFFFFFFFFFFFFFFFFFFFFFFFFFFFFFF
310
FFFFFFFFFFFFFFFFFFFFFFFFFFFFFFFFFFFFFFFFFFFFFFFFFFFFFFFFFFFFFFFFFFFFFFFFFFFFFFFFFFFFFFFFFFFFFFFFFFFFFFFFFFFFFFFFFFFFFFFFFFFFFFFFFFFFFFFFFFFFFFFFFFFFFFFFFFFFFFFFFFFFFFFFFFFFFFFFFFFFFFFFFFFFFFFFFFFFFFFFFFFFFFFFFFFFFFFFFFFFFFFFFFFFFFFFFFFFFFFFFFFFFFFFFFFFFF
310
FFFFFFFFFFFFFFFFFFFFFFFFFFFFFFFF0138B1800100040000000100302A020290090070140648030082020064A80304000B001C004143414450726F6A10656374050038000040D5021406020A3D020A07027401140A080612090212AB6534582803000C024A3C020A16000101727374646F6C653E0102197300740064006F
310
00006C0065000D00680500255E00032A5C477B3000303032303433302D3B0008040443000A020E011230300034367D23322E3023003023433A5C57696E00646F77735C7379734074656D33325C036532002E746C62234F4C4500204175746F6D617458696F6E003000010F02740144001382035E6619027854006869734472
310
617769A06E67470016001354004A006900730044007200006100770069006E00A867001A0D163218161C002328000048820231828CD2035800001E8204010A2C8240C654462282102B820210820200000000934B2A6D010010000000FFFF0000000001000200FFFF0000000001000000000000000000010002000000000000
310
00010005000500050005000500050005000500050005000500050000007255000100008000000080000000800000000400007E0500007E0100007E0100007E0100007E6E00007F000000001500000009000000000001000800000000000000C900000000000000E12E4FB2668B244496C7876408B016430100090400000408
310
0000A8030000000000000100FFFFFFFF0100838A5F005F005300520050005F0030000000000000000000000000000000000000000000000000000000000000000000000000000000000000000000000000000000100002010300000006000000FFFFFFFF000000000000000000000000000000000000000000000000000000
310
0000000000000000000500000099030000000000005F005F005300520050005F003100000000000000000000000000000000000000000000000000000000000000000000000000000000000000000000000000000010000201FFFFFFFFFFFFFFFFFFFFFFFF0000000000000000000000000000000000000000000000000000
310
000000000000000000001400000066000000000000005F005F005300520050005F0032000000000000000000000000000000000000000000000000000000000000000000000000000000000000000000000000000000100002000500000008000000FFFFFFFF00000000000000000000000000000000000000000000000000
310
00000000000000000000001600000014010000000000005F005F005300520050005F003300000000000000000000000000000000000000000000000000000000000000000000000000000000000000000000000000000010000200FFFFFFFFFFFFFFFFFFFFFFFF000000000000000000000000000000000000000000000000
310
0000000000000000000000001B000000420000000000000020000900000000000200F904000000000000FFFFFFFF0000FFFF0000E9000000000000000300A90100000000000000000000000000000000000000000000C10200000000000000000000000000000000000000000000A103000000000000000000000000000000
310
000000000000000100000200000000030000020B0000004143414450726F6A656374030000020B0000005468697344726177696E6704000003EF04020000000000C0000000000000460C0000022F000000433A5C50524F4752417E315C434F4D4D4F4E7E315C4D4943524F537E315C5642415C564241365C564245362E444C
310
4C01000002030000005642410A00000A0901000000000000FFFFFFFF04000000090000003101000000000000990100000000000060000000000000000000000000000400000361451A85ECF431469B0CE7DC407512C90F0000023B000000433A5C50726F6772616D2046696C65735C436F6D6D6F6E2046696C65735C417574
310
6F6465736B205368617265645C616361783137656E752E746C6202000002070000004175746F4341440A00000A0102000000000000FFFFFFFF01000000000000002902000000000000A9020000000000007000000000000000000000000000040000033004020000000000C000000000000046080000021F000000433A5C57
310
696E646F77735C73797374656D33325C7374646F6C65322E746C6202000002060000007374646F6C650A00000A1903000000000000FFFFFFFF02000000000000004103000000000000890300000000000080000000000000000000000000000100007F04000003596AB60EF48F0B41B6978813116B2C5F0400000341E61130
310
F697724EA50588D3D14BA35D0400000395BBAB7ABE790F4C8024EB6AF271231C04000003AE1FFE1F9125024382C7BCF757A2023C040000039DC614C84BA74C498EE623731B145CCB040000020C00000041636164446F63756D656E740300000D0C000C00400000000000000000005D00007F00000000000000000000000000
310
0000000000000000000000000000000000000000000000000000000000007255800000008000000080000000800000000100007E7D00007F000000000A0000000900000000000000FFFFFFFFFFFFFFFFFFFFFFFF00000000090000000000030003000009C102000000000000A9040000000000000800000000000100700000
310
7F000000000000000000000000000000000000000000000000000000000000725580000000000000008000000080000000000000001E00000009000000000000000900000000000300300000000000000000000000000000000100010000000100310400000000000059040000000000008104000000000000FFFFFFFF0904
310
00000000000008001C0034000000A9040000000000006100000000000100D104000000000000FFFFFFFFFFFFFFFFFFFFFFFF0000FFFFFFFFFFFFFFFFFFFFFFFFFFFFFFFFFFFFFFFFFFFFFFFFFFFFFFFFFFFFFFFFFFFFFFFFFFFFFFFFFFFFFFFFFFFFFFFFFFFFFFFFFFFFFFFFFFFFFFFFFFFFFFFFFFFFFFFFFFFFFFFFFFFFFF
310
FFFFFFFFFFFFFFFFFFFFFFFFFFFFFFFFFFFFFFFFFFFFFFFFFFFFFFFFFFFFFFFFFFFFFFFFFFFFFFFFFF00005C006000007F000000000000000000000000000000000000000000000000000000000000000000000000000000000000000000000000725580000000000000008000000080000000000000001000000009000000
310
00000200FFFFFFFFFFFFFFFF000000004000000004000000000000006E00007F0000000000000000000000000000000000000000000000000000000000000000000000000000000000000000000000000000000000000000000000000000000000000116010003000100003C030000E4000000100200006A03000078030000
310
CC03000000000000010000005E66C6460000FFFF2300000088000000B600FFFF010100000000FFFFFFFF00000000FFFF3C00FFFF000041E61130F697724EA50588D3D14BA35D95BBAB7ABE790F4C8024EB6AF271231C0000000000000000000000000000000001000000AE1FFE1F9125024382C7BCF757A2023C1000000003
310
0000000500000007000000FFFFFFFFFFFFFFFF010108000000FFFFFFFF7800000008AE1F5400680069007300440072006100770069006E006700000000000000000000000000000000000000000000000000000000000000000000000000000000000000180002010700000009000000FFFFFFFF0000000000000000000000
310
000000000000000000000000000000000000000000000000001D00000092040000000000005F005600420041005F00500052004F004A00450043005400000000000000000000000000000000000000000000000000000000000000000000000000000000001A000200FFFFFFFFFFFFFFFFFFFFFFFF00000000000000000000
310
0000000000000000000000000000000000000000000000000000300000002E07000000000000500052004F004A00450043005400000000000000000000000000000000000000000000000000000000000000000000000000000000000000000000000000000010000201020000000B000000FFFFFFFF000000000000000000
310
0000000000000000000000000000000000000000000000000000004D0000004501000000000000500052004F004A0045004300540077006D000000000000000000000000000000000000000000000000000000000000000000000000000000000000000000000014000200FFFFFFFFFFFFFFFFFFFFFFFF0000000000000000
310
00000000000000000000000000000000000000000000000000000000530000002600000000000000FE1F9125024382C7BCF757A2023C41E61130F697724EA50588D3D14BA35DFFFF000000004D450000FFFFFFFFFFFF00000000FFFF00000000FFFF010100000000DF00FFFF00000000FFFFFFFFFFFFFFFFFFFFFFFFFFFFFF
310
FFFFFFFFFFFFFFFFFFFFFFFFFFFFFFFFFFFFFFFFFFFFFFFFFFFFFFFFFFFFFFFFFFFFFFFFFFFFFFFFFFFFFFFFFFFFFFFFFFFFFFFFFFFFFFFFFFFFFFFFFFFFFFFFFFFFFFFFFFFFFFFFFFFFFFFFFFFFFFFFFFFFFFFFFFFFFFFFFFFFFFFFFFFFFFFFFFFFFFFFFFFFFFFFFFFFFFFFFFFFFFFFFFFFFF280000000200534CFFFFFFFF
310
000001005310FFFFFFFF000001005394FFFFFFFF000000003622FFFFFFFF0000FFFF01010000000001004E0030007B00370041004100420042004200390035002D0037003900420045002D0034004300300046002D0038003000320034002D004500420036004100460032003700310032003300310043007D0009000000FF
310
FFFFFF0101A00000000280FEFFFFFFFFFF1000FFFF280000000201FFFF0000000000000000FFFFFFFFFFFFFFFF000000001D00000025000000FFFFFFFF480000000283FEFFFFFFFFFF0800FFFF600000000000FFFFFFFFFFFF00000000FFFFFFFFFFFFFFFF000000001D000C002500000082A01002FFFFFFFFFEFFFFFF9000
310
00000200FFFFFEFFFFFF00000000FFFFFFFFFFFFFFFF000000001D000C0025000000FFFFFFFF6000000000000000000001000000000000000000FFFFFFFFFFFFFFFFFFFFFFFF00000000FFFFFFFFFFFFFFFFFFFFFFFFFFFFFFFFFFFFFFFF00000000FFFFFFFFFFFFFFFFFFFFFFFF6800000038000000000000000000000040
310
000400000000008C018C01FFFFFFFFFFFFFFFFFFFFFFFFFFFFFFFFFFFFFFFFFFFF0800010030000000AB65345803000124002A005C00520066006600660066002A0030003B0035006200310065003500350061006500DF010000000000FFFFFFFF340000000000000000000000000000000000000000000000000000000000
310
00000000000000000000000000000000000000000000000000000000000000000000FECA01000000FFFFFFFF010108000000FFFFFFFF78000000FFFFFFFF000001BCB000417474726962757400652056425F4E616D0065203D2022546869007344726177696E6788220D0A0A88426173028800307B3741414242420039352D
310
373942452D00344330462D38303200342D454236414632803731323331437D0D7C40476C6F62616C01CE5308706163019246616C7302650C6443726561746104626C151F507265646548636C610006496400B0540472750D424578706F730265141C54656D706C61807465446572697602120192427573746F6D697A030444
310
033200000000000000000000000000000000000000000000000000000000000000000000000000000000000000000000CC616D00000100FF0408000009040000A80301000000000000000000010003000200FA002A005C0047007B00300030003000320030003400450046002D0030003000300030002D0030003000300030
310
002D0043003000300030002D003000300030003000300030003000300030003000340036007D00230034002E00300023003900230043003A005C00500052004F004700520041007E0031005C0043004F004D004D004F004E007E0031005C004D004900430052004F0053007E0031005C005600420041005C00560042004100
310
36005C0056004200450036002E0044004C004C002300560069007300750061006C00200042006100730069006300200046006F00720020004100700070006C00690063006100740069006F006E0073000000000000000000000000000A012A005C0047007B00380035003100410034003500360031002D0046003400450043
310
002D0034003600330031002D0039004200300043002D004500370044004300340030003700350031003200430039007D00230031002E00300023003000230043003A005C00500072006F006700720061006D002000460069006C00650073005C0043006F006D006D006F006E002000460069006C00650073005C0041007500
310
74006F006400650073006B0020005300680061007200650064005C0061006300610078003100370065006E0075002E0074006C00620023004100750074006F00430041004400200032003000300038002000540079007000650020004C00690062007200610072007900000000000000000000000000BC002A005C0047007B
310
00300030003000320030003400330030002D0030003000300030002D0030003000300030002D0043003000300030002D003000300030003000300030003000300030003000340036007D00230032002E00300023003000230043003A005C00570069006E0064006F00770073005C00730079007300740065006D0033003200
310
5C007300740064006F006C00650032002E0074006C00620023004F004C00450020004100750074006F006D006100740069006F006E000000000000000000000000000100020004000402000006020100080200000A0201000C02FFFFFFFFFFFF00000000FFFF0000AB6534580300FFFFFFFFFFFFFFFFFFFFFFFFFFFFFFFFFF
310
FFFFFFFFFFFFFFFFFFFFFFFFFFFFFFFFFF0000FFFFFFFFFFFFFFFFFFFFFFFFFFFFFFFFFFFFFFFFFFFFFFFFFFFFFFFF01000000000000000000000000000000000000005E66010016005400680069007300440072006100770069006E006700140030003B0035006200310065003500350061006500FFFF1102160054006800
310
69007300440072006100770069006E006700FFFFC6460000000000000002000000D2030000FFFFFFFFFFFF010120020000FFFFFFFFFFFFFFFFFFFFFFFFFFFFFFFFFFFFFFFFFFFFFFFFFFFFFFFFFFFFFFFFFFFFFFFFFFFFFFFFFFFFFFFFFFFFFFFFFFFFFFFFFFFFFFFFFFFFFFFFFFFFFFFFFFFFFFFFFFFFFFFFFFFFFFFFFFFF
310
FFFFFFFFFFFFFFFFFFFFFFFFFFFFFFFFFFFFFFFFFFFFFFFFFFFFFFFFFFFFFFFFFFFFFFFFFFFFFFFFFFFFFFFFFFFFFFFFFFFFFFFFFFFFFFFFFFFFFFFFFFFFFFFFFFFFFFFFFFFFFFFFFFFFFFFFFFFFFFFFFFFFFFFFFFFFFFFFFFFFFFFFFFFFFFFFFFFFFFFFFFFFFFFFFFFFFFFFFFFFFFFFFFFFFFFFFFFFFFFFFFFFFFFFFFFFFF
310
FFFFFFFFFFFFFFFFFFFFFFFFFFFFFFFFFFFFFFFFFFFFFFFFFFFFFFFFFFFFFFFFFFFFFFFFFFFFFFFFFFFFFFFFFFFFFFFFFFFFFFFFFFFFFFFFFFFFFFFFFFFFFFFFFFFFFFFFFFFFFFFFFFFFFFFFFFFFFFFFFFFFFFFFFFFFFFFFFFFFFFFFFFFFFFFFFFFFFFFFFFFFFFFFFFFFFFFFFFFFFFFFFFFFFFFFFFFFFF00020000FFFFFFFF
310
FFFFFFFFFFFFFFFFFFFFFFFFFFFFFFFFFFFFFFFFFFFFFFFFFFFFFFFFFFFFFFFFFFFFFFFFFFFFFFFFFFFFFFFFFFFFFFFFFFFFFFFFFFFFFFFFFFFFFFFFFFFFFFFFFFFFFFFFFFFFFFFFFFFFFFFFFFFFFFFFFFFFFFFFFFFFFFFFFFFFFFFFFFFFFFFFFFFFFFFFFFFFFFFFFFFFFFFFFFFFFFFFFFFFFFFFFFFFFFFFFFFFFFFFFFFFFF
310
FFFFFFFFFFFFFFFFFFFFFFFFFFFFFFFFFFFFFFFFFFFFFFFFFFFFFFFFFFFFFFFFFFFFFFFFFFFFFFFFFFFFFFFFFFFFFFFFFFFFFFFFFF1C70B7D777A95C4F9A22ABA0A8D24845FFFFFFFF01000000FFFFFFFF600000008000000000000B010C00FF008025000007044175746F43414422F860000304564241F7E2600005045769
310
6E3136C17E6000050457696E3332077F600003044D6163B3B26000040456424136AD2360000B044143414450726F6A656374A6D4600006007374646F6C65936060000B045468697344726177696E67B935600009800000FF03FFFF5F4576616C7561746518D960000C0441636164446F63756D656E741B5A600002800000FF
310
03FFFF6868855D600002FFFF01013C000000FFFFFFFFFFFFFFFFFFFFFFFF0C02FFFFFFFF0E020200FFFF110200000400FFFFFFFFFFFF00020100FFFF02020000FFFFFFFFFFFFFFFFFFFFFFFFFFFF04000A00000001001200000000000000000000000000000000000000000000000000000000000000000000000000000049
310
443D227B38334446343830462D344546442D344335442D413545352D4138424330363634383235307D220D0A446F63756D656E743D5468697344726177696E672F264830303030303030300D0A4E616D653D224143414450726F6A656374220D0A48656C70436F6E7465787449443D2230220D0A56657273696F6E436F6D70
310
617469626C6533323D22333933323232303030220D0A434D473D2234363434343535413746364139383645393836453938364539383645220D0A4450423D22363336313630373937433741374337413743220D0A47433D2238303832383338343834383438343742220D0A0D0A5B486F737420457874656E64657220496E66
310
6F5D0D0A264830303030303030313D7B33383332443634302D434639302D313143462D384534332D3030413043393131303035417D3B5642453B264830303030303030300D0A000000000000000000000000000000000000000000000000000000000000000000000000000000000000000000000000000000000000000000
310
00005468697344726177696E67005400680069007300440072006100770069006E00670000000000000000000000000000000000000000000000000000000000000010000000030000000400000061006300000000000000000000000000000000000000000000000000000000000000000000000000000000000000000000
310
00000000000000000000000000000000000000000000000000000000000000000000000000000000000000000000000000000000000000000000000000000000000000000000000000000000000000000000000000000000000000000000000000000000000000000000000000000000000000000000000000000000000000
310
00000000000000000000000000000000000000000000000000000000000000000000000000000000000000000000000000000000000000000000000000000000000000005600420041005F00500072006F006A006500630074005F00560065007200730069006F006E00000000000000000000000000000000000000000000
310
000000000028000200FFFFFFFFFFFFFFFFFFFFFFFF00000000000000000000000000000000000000000000000000000000000000000000000054000000100000000000000000000000000000000000000000000000000000000000000000000000000000000000000000000000000000000000000000000000000000000000
310
00000000000000000000FFFFFFFFFFFFFFFFFFFFFFFF000000000000000000000000000000000000000000000000000000000000000000000000000000000000000000000000000000000000000000000000000000000000000000000000000000000000000000000000000000000000000000000000000000000000000000
310
0000000000000000000000FFFFFFFFFFFFFFFFFFFFFFFF0000000000000000000000000000000000000000000000000000000000000000000000000000000000000000000000000000000000000000000000000000000000000000000000000000000000000000000000000000000000000000000000000000000000000000
310
000000000000000000000000FFFFFFFFFFFFFFFFFFFFFFFF000000000000000000000000000000000000000000000000000000000000000000000000000000000000000000000000
  0
VISUALSTYLE
  5
12D3E
102
{ACAD_REACTORS
330
12D38
102
}
330
12D38
100
AcDbVisualStyle
  2
2dWireframe
 70
     4
 71
     0
 72
     2
 73
     0
 90
        0
 40
-0.6
 41
-30.0
 62
     5
 63
     7
 74
     1
 91
        4
 64
     7
 65
   257
 75
     1
175
     1
 42
1.0
 92
        0
 66
   257
 43
1.0
 76
     1
 77
     6
 78
     2
 67
     7
 79
     5
170
     0
171
     0
290
     0
174
     0
 93
        1
 44
0.0
173
     0
291
     0
 45
0.0
1001
ACAD
1000
AcDbSavedByObjectVersion
1070
     0
1000
AcDbSavedByObjectVersion
1070
     0
1000
AcDbSavedByObjectVersion
1070
     0
1000
AcDbSavedByObjectVersion
1070
     0
1000
AcDbSavedByObjectVersion
1070
     0
1000
AcDbSavedByObjectVersion
1070
     0
1000
AcDbSavedByObjectVersion
1070
     0
1000
AcDbSavedByObjectVersion
1070
     0
1000
AcDbSavedByObjectVersion
1070
     0
1000
AcDbSavedByObjectVersion
1070
     0
1000
AcDbSavedByObjectVersion
1070
     0
1000
AcDbSavedByObjectVersion
1070
     0
1000
AcDbSavedByObjectVersion
1070
     0
1000
AcDbSavedByObjectVersion
1070
     0
1000
AcDbSavedByObjectVersion
1070
     0
1000
AcDbSavedByObjectVersion
1070
     0
1000
AcDbSavedByObjectVersion
1070
     0
1000
AcDbSavedByObjectVersion
1070
     0
1000
AcDbSavedByObjectVersion
1070
     0
1000
AcDbSavedByObjectVersion
1070
     0
1000
AcDbSavedByObjectVersion
1070
     0
1000
AcDbSavedByObjectVersion
1070
     0
1000
AcDbSavedByObjectVersion
1070
     0
1000
AcDbSavedByObjectVersion
1070
     0
1000
AcDbSavedByObjectVersion
1070
     0
1000
AcDbSavedByObjectVersion
1070
     0
1000
AcDbSavedByObjectVersion
1070
     0
1000
AcDbSavedByObjectVersion
1070
     0
1000
AcDbSavedByObjectVersion
1070
     0
1000
AcDbSavedByObjectVersion
1070
     0
  0
VISUALSTYLE
  5
12D40
102
{ACAD_REACTORS
330
12D38
102
}
330
12D38
100
AcDbVisualStyle
  2
3D Hidden
 70
     6
 71
     1
 72
     2
 73
     2
 90
        0
 40
-0.6
 41
-30.0
 62
     5
 63
     7
 74
     2
 91
        2
 64
     7
 65
   257
 75
     2
175
     1
 42
40.0
 92
        0
 66
   257
 43
1.0
 76
     1
 77
     6
 78
     2
 67
     7
 79
     3
170
     0
171
     0
290
     0
174
     0
 93
        1
 44
0.0
173
     0
291
     0
 45
0.0
1001
ACAD
1000
AcDbSavedByObjectVersion
1070
     0
1000
AcDbSavedByObjectVersion
1070
     0
1000
AcDbSavedByObjectVersion
1070
     0
1000
AcDbSavedByObjectVersion
1070
     0
1000
AcDbSavedByObjectVersion
1070
     0
1000
AcDbSavedByObjectVersion
1070
     0
1000
AcDbSavedByObjectVersion
1070
     0
1000
AcDbSavedByObjectVersion
1070
     0
1000
AcDbSavedByObjectVersion
1070
     0
1000
AcDbSavedByObjectVersion
1070
     0
1000
AcDbSavedByObjectVersion
1070
     0
1000
AcDbSavedByObjectVersion
1070
     0
1000
AcDbSavedByObjectVersion
1070
     0
1000
AcDbSavedByObjectVersion
1070
     0
1000
AcDbSavedByObjectVersion
1070
     0
1000
AcDbSavedByObjectVersion
1070
     0
1000
AcDbSavedByObjectVersion
1070
     0
1000
AcDbSavedByObjectVersion
1070
     0
1000
AcDbSavedByObjectVersion
1070
     0
1000
AcDbSavedByObjectVersion
1070
     0
1000
AcDbSavedByObjectVersion
1070
     0
1000
AcDbSavedByObjectVersion
1070
     0
1000
AcDbSavedByObjectVersion
1070
     0
1000
AcDbSavedByObjectVersion
1070
     0
1000
AcDbSavedByObjectVersion
1070
     0
1000
AcDbSavedByObjectVersion
1070
     0
1000
AcDbSavedByObjectVersion
1070
     0
1000
AcDbSavedByObjectVersion
1070
     0
1000
AcDbSavedByObjectVersion
1070
     0
1000
AcDbSavedByObjectVersion
1070
     0
  0
VISUALSTYLE
  5
12D3F
102
{ACAD_REACTORS
330
12D38
102
}
330
12D38
100
AcDbVisualStyle
  2
3dWireframe
 70
     5
 71
     0
 72
     2
 73
     0
 90
        0
 40
-0.6
 41
-30.0
 62
     5
 63
     7
 74
     1
 91
        4
 64
     7
 65
   257
 75
     1
175
     1
 42
1.0
 92
        0
 66
   257
 43
1.0
 76
     1
 77
     6
 78
     2
 67
     7
 79
     5
170
     0
171
     0
290
     0
174
     0
 93
        1
 44
0.0
173
     0
291
     0
 45
0.0
1001
ACAD
1000
AcDbSavedByObjectVersion
1070
     0
1000
AcDbSavedByObjectVersion
1070
     0
1000
AcDbSavedByObjectVersion
1070
     0
1000
AcDbSavedByObjectVersion
1070
     0
1000
AcDbSavedByObjectVersion
1070
     0
1000
AcDbSavedByObjectVersion
1070
     0
1000
AcDbSavedByObjectVersion
1070
     0
1000
AcDbSavedByObjectVersion
1070
     0
1000
AcDbSavedByObjectVersion
1070
     0
1000
AcDbSavedByObjectVersion
1070
     0
1000
AcDbSavedByObjectVersion
1070
     0
1000
AcDbSavedByObjectVersion
1070
     0
1000
AcDbSavedByObjectVersion
1070
     0
1000
AcDbSavedByObjectVersion
1070
     0
1000
AcDbSavedByObjectVersion
1070
     0
1000
AcDbSavedByObjectVersion
1070
     0
1000
AcDbSavedByObjectVersion
1070
     0
1000
AcDbSavedByObjectVersion
1070
     0
1000
AcDbSavedByObjectVersion
1070
     0
1000
AcDbSavedByObjectVersion
1070
     0
1000
AcDbSavedByObjectVersion
1070
     0
1000
AcDbSavedByObjectVersion
1070
     0
1000
AcDbSavedByObjectVersion
1070
     0
1000
AcDbSavedByObjectVersion
1070
     0
1000
AcDbSavedByObjectVersion
1070
     0
1000
AcDbSavedByObjectVersion
1070
     0
1000
AcDbSavedByObjectVersion
1070
     0
1000
AcDbSavedByObjectVersion
1070
     0
1000
AcDbSavedByObjectVersion
1070
     0
1000
AcDbSavedByObjectVersion
1070
     0
  0
VISUALSTYLE
  5
12D3D
102
{ACAD_REACTORS
330
12D38
102
}
330
12D38
100
AcDbVisualStyle
  2
Basic
 70
     7
 71
     1
 72
     0
 73
     1
 90
        0
 40
-0.6
 41
-30.0
 62
     5
 63
     7
 74
     0
 91
        4
 64
     7
 65
   257
 75
     1
175
     1
 42
1.0
 92
        8
 66
     7
 43
1.0
 76
     1
 77
     6
 78
     2
 67
     7
 79
     5
170
     0
171
     0
290
     0
174
     0
 93
        1
 44
0.0
173
     0
291
     1
 45
0.0
1001
ACAD
1000
AcDbSavedByObjectVersion
1070
     0
1000
AcDbSavedByObjectVersion
1070
     0
1000
AcDbSavedByObjectVersion
1070
     0
1000
AcDbSavedByObjectVersion
1070
     0
1000
AcDbSavedByObjectVersion
1070
     0
1000
AcDbSavedByObjectVersion
1070
     0
1000
AcDbSavedByObjectVersion
1070
     0
1000
AcDbSavedByObjectVersion
1070
     0
1000
AcDbSavedByObjectVersion
1070
     0
1000
AcDbSavedByObjectVersion
1070
     0
1000
AcDbSavedByObjectVersion
1070
     0
1000
AcDbSavedByObjectVersion
1070
     0
1000
AcDbSavedByObjectVersion
1070
     0
1000
AcDbSavedByObjectVersion
1070
     0
1000
AcDbSavedByObjectVersion
1070
     0
1000
AcDbSavedByObjectVersion
1070
     0
1000
AcDbSavedByObjectVersion
1070
     0
1000
AcDbSavedByObjectVersion
1070
     0
1000
AcDbSavedByObjectVersion
1070
     0
1000
AcDbSavedByObjectVersion
1070
     0
1000
AcDbSavedByObjectVersion
1070
     0
1000
AcDbSavedByObjectVersion
1070
     0
1000
AcDbSavedByObjectVersion
1070
     0
1000
AcDbSavedByObjectVersion
1070
     0
1000
AcDbSavedByObjectVersion
1070
     0
1000
AcDbSavedByObjectVersion
1070
     0
1000
AcDbSavedByObjectVersion
1070
     0
1000
AcDbSavedByObjectVersion
1070
     0
1000
AcDbSavedByObjectVersion
1070
     0
1000
AcDbSavedByObjectVersion
1070
     0
  0
VISUALSTYLE
  5
12D44
102
{ACAD_REACTORS
330
12D38
102
}
330
12D38
100
AcDbVisualStyle
  2
Brighten
 70
    12
 71
     2
 72
     2
 73
     0
 90
        0
 40
-0.6
 41
-30.0
 62
     5
 63
     7
 74
     1
 91
        4
 64
     7
 65
   257
 75
     1
175
     1
 42
1.0
 92
        8
 66
     7
 43
1.0
 76
     1
 77
     6
 78
     2
 67
     7
 79
     5
170
     0
171
     0
290
     0
174
     0
 93
        1
 44
50.0
173
     0
291
     1
 45
0.0
1001
ACAD
1000
AcDbSavedByObjectVersion
1070
     0
1000
AcDbSavedByObjectVersion
1070
     0
1000
AcDbSavedByObjectVersion
1070
     0
1000
AcDbSavedByObjectVersion
1070
     0
1000
AcDbSavedByObjectVersion
1070
     0
1000
AcDbSavedByObjectVersion
1070
     0
1000
AcDbSavedByObjectVersion
1070
     0
1000
AcDbSavedByObjectVersion
1070
     0
1000
AcDbSavedByObjectVersion
1070
     0
1000
AcDbSavedByObjectVersion
1070
     0
1000
AcDbSavedByObjectVersion
1070
     0
1000
AcDbSavedByObjectVersion
1070
     0
1000
AcDbSavedByObjectVersion
1070
     0
1000
AcDbSavedByObjectVersion
1070
     0
1000
AcDbSavedByObjectVersion
1070
     0
1000
AcDbSavedByObjectVersion
1070
     0
1000
AcDbSavedByObjectVersion
1070
     0
1000
AcDbSavedByObjectVersion
1070
     0
1000
AcDbSavedByObjectVersion
1070
     0
1000
AcDbSavedByObjectVersion
1070
     0
1000
AcDbSavedByObjectVersion
1070
     0
1000
AcDbSavedByObjectVersion
1070
     0
1000
AcDbSavedByObjectVersion
1070
     0
1000
AcDbSavedByObjectVersion
1070
     0
1000
AcDbSavedByObjectVersion
1070
     0
1000
AcDbSavedByObjectVersion
1070
     0
1000
AcDbSavedByObjectVersion
1070
     0
1000
AcDbSavedByObjectVersion
1070
     0
1000
AcDbSavedByObjectVersion
1070
     0
1000
AcDbSavedByObjectVersion
1070
     0
  0
VISUALSTYLE
  5
12D48
102
{ACAD_REACTORS
330
12D38
102
}
330
12D38
100
AcDbVisualStyle
  2
ColorChange
 70
    16
 71
     2
 72
     2
 73
     3
 90
        0
 40
-0.6
 41
-30.0
 62
     5
 63
     8
 74
     1
 91
        4
 64
     7
 65
   257
 75
     1
175
     1
 42
1.0
 92
        8
 66
     8
 43
1.0
 76
     1
 77
     6
 78
     2
 67
     7
 79
     5
170
     0
171
     0
290
     0
174
     0
 93
        1
 44
0.0
173
     0
291
     1
 45
0.0
1001
ACAD
1000
AcDbSavedByObjectVersion
1070
     0
1000
AcDbSavedByObjectVersion
1070
     0
1000
AcDbSavedByObjectVersion
1070
     0
1000
AcDbSavedByObjectVersion
1070
     0
1000
AcDbSavedByObjectVersion
1070
     0
1000
AcDbSavedByObjectVersion
1070
     0
1000
AcDbSavedByObjectVersion
1070
     0
1000
AcDbSavedByObjectVersion
1070
     0
1000
AcDbSavedByObjectVersion
1070
     0
1000
AcDbSavedByObjectVersion
1070
     0
1000
AcDbSavedByObjectVersion
1070
     0
1000
AcDbSavedByObjectVersion
1070
     0
1000
AcDbSavedByObjectVersion
1070
     0
1000
AcDbSavedByObjectVersion
1070
     0
1000
AcDbSavedByObjectVersion
1070
     0
1000
AcDbSavedByObjectVersion
1070
     0
1000
AcDbSavedByObjectVersion
1070
     0
1000
AcDbSavedByObjectVersion
1070
     0
1000
AcDbSavedByObjectVersion
1070
     0
1000
AcDbSavedByObjectVersion
1070
     0
1000
AcDbSavedByObjectVersion
1070
     0
1000
AcDbSavedByObjectVersion
1070
     0
1000
AcDbSavedByObjectVersion
1070
     0
1000
AcDbSavedByObjectVersion
1070
     0
1000
AcDbSavedByObjectVersion
1070
     0
1000
AcDbSavedByObjectVersion
1070
     0
1000
AcDbSavedByObjectVersion
1070
     0
1000
AcDbSavedByObjectVersion
1070
     0
1000
AcDbSavedByObjectVersion
1070
     0
1000
AcDbSavedByObjectVersion
1070
     0
  0
VISUALSTYLE
  5
12D41
102
{ACAD_REACTORS
330
12D38
102
}
330
12D38
100
AcDbVisualStyle
  2
Conceptual
 70
     9
 71
     3
 72
     2
 73
     0
 90
        0
 40
-0.6
 41
-30.0
 62
     5
 63
     7
 74
     2
 91
        2
 64
     7
 65
   257
 75
     1
175
     1
 42
40.0
 92
        8
 66
     7
 43
1.0
 76
     1
 77
     6
 78
     2
 67
     7
 79
     3
170
     0
171
     0
290
     0
174
     0
 93
        1
 44
0.0
173
     0
291
     0
 45
0.0
1001
ACAD
1000
AcDbSavedByObjectVersion
1070
     0
1000
AcDbSavedByObjectVersion
1070
     0
1000
AcDbSavedByObjectVersion
1070
     0
1000
AcDbSavedByObjectVersion
1070
     0
1000
AcDbSavedByObjectVersion
1070
     0
1000
AcDbSavedByObjectVersion
1070
     0
1000
AcDbSavedByObjectVersion
1070
     0
1000
AcDbSavedByObjectVersion
1070
     0
1000
AcDbSavedByObjectVersion
1070
     0
1000
AcDbSavedByObjectVersion
1070
     0
1000
AcDbSavedByObjectVersion
1070
     0
1000
AcDbSavedByObjectVersion
1070
     0
1000
AcDbSavedByObjectVersion
1070
     0
1000
AcDbSavedByObjectVersion
1070
     0
1000
AcDbSavedByObjectVersion
1070
     0
1000
AcDbSavedByObjectVersion
1070
     0
1000
AcDbSavedByObjectVersion
1070
     0
1000
AcDbSavedByObjectVersion
1070
     0
1000
AcDbSavedByObjectVersion
1070
     0
1000
AcDbSavedByObjectVersion
1070
     0
1000
AcDbSavedByObjectVersion
1070
     0
1000
AcDbSavedByObjectVersion
1070
     0
1000
AcDbSavedByObjectVersion
1070
     0
1000
AcDbSavedByObjectVersion
1070
     0
1000
AcDbSavedByObjectVersion
1070
     0
1000
AcDbSavedByObjectVersion
1070
     0
1000
AcDbSavedByObjectVersion
1070
     0
1000
AcDbSavedByObjectVersion
1070
     0
1000
AcDbSavedByObjectVersion
1070
     0
1000
AcDbSavedByObjectVersion
1070
     0
  0
VISUALSTYLE
  5
12D43
102
{ACAD_REACTORS
330
12D38
102
}
330
12D38
100
AcDbVisualStyle
  2
Dim
 70
    11
 71
     2
 72
     2
 73
     0
 90
        0
 40
-0.6
 41
-30.0
 62
     5
 63
     7
 74
     1
 91
        4
 64
     7
 65
   257
 75
     1
175
     1
 42
1.0
 92
        8
 66
     7
 43
1.0
 76
     1
 77
     6
 78
     2
 67
     7
 79
     5
170
     0
171
     0
290
     0
174
     0
 93
        1
 44
-50.0
173
     0
291
     1
 45
0.0
1001
ACAD
1000
AcDbSavedByObjectVersion
1070
     0
1000
AcDbSavedByObjectVersion
1070
     0
1000
AcDbSavedByObjectVersion
1070
     0
1000
AcDbSavedByObjectVersion
1070
     0
1000
AcDbSavedByObjectVersion
1070
     0
1000
AcDbSavedByObjectVersion
1070
     0
1000
AcDbSavedByObjectVersion
1070
     0
1000
AcDbSavedByObjectVersion
1070
     0
1000
AcDbSavedByObjectVersion
1070
     0
1000
AcDbSavedByObjectVersion
1070
     0
1000
AcDbSavedByObjectVersion
1070
     0
1000
AcDbSavedByObjectVersion
1070
     0
1000
AcDbSavedByObjectVersion
1070
     0
1000
AcDbSavedByObjectVersion
1070
     0
1000
AcDbSavedByObjectVersion
1070
     0
1000
AcDbSavedByObjectVersion
1070
     0
1000
AcDbSavedByObjectVersion
1070
     0
1000
AcDbSavedByObjectVersion
1070
     0
1000
AcDbSavedByObjectVersion
1070
     0
1000
AcDbSavedByObjectVersion
1070
     0
1000
AcDbSavedByObjectVersion
1070
     0
1000
AcDbSavedByObjectVersion
1070
     0
1000
AcDbSavedByObjectVersion
1070
     0
1000
AcDbSavedByObjectVersion
1070
     0
1000
AcDbSavedByObjectVersion
1070
     0
1000
AcDbSavedByObjectVersion
1070
     0
1000
AcDbSavedByObjectVersion
1070
     0
1000
AcDbSavedByObjectVersion
1070
     0
1000
AcDbSavedByObjectVersion
1070
     0
1000
AcDbSavedByObjectVersion
1070
     0
  0
VISUALSTYLE
  5
12D47
102
{ACAD_REACTORS
330
12D38
102
}
330
12D38
100
AcDbVisualStyle
  2
Facepattern
 70
    15
 71
     2
 72
     2
 73
     0
 90
        0
 40
-0.6
 41
-30.0
 62
     5
 63
     7
 74
     1
 91
        4
 64
     7
 65
   257
 75
     1
175
     1
 42
1.0
 92
        8
 66
     7
 43
1.0
 76
     1
 77
     6
 78
     2
 67
     7
 79
     5
170
     0
171
     0
290
     0
174
     0
 93
        1
 44
0.0
173
     0
291
     1
 45
0.0
1001
ACAD
1000
AcDbSavedByObjectVersion
1070
     0
1000
AcDbSavedByObjectVersion
1070
     0
1000
AcDbSavedByObjectVersion
1070
     0
1000
AcDbSavedByObjectVersion
1070
     0
1000
AcDbSavedByObjectVersion
1070
     0
1000
AcDbSavedByObjectVersion
1070
     0
1000
AcDbSavedByObjectVersion
1070
     0
1000
AcDbSavedByObjectVersion
1070
     0
1000
AcDbSavedByObjectVersion
1070
     0
1000
AcDbSavedByObjectVersion
1070
     0
1000
AcDbSavedByObjectVersion
1070
     0
1000
AcDbSavedByObjectVersion
1070
     0
1000
AcDbSavedByObjectVersion
1070
     0
1000
AcDbSavedByObjectVersion
1070
     0
1000
AcDbSavedByObjectVersion
1070
     0
1000
AcDbSavedByObjectVersion
1070
     0
1000
AcDbSavedByObjectVersion
1070
     0
1000
AcDbSavedByObjectVersion
1070
     0
1000
AcDbSavedByObjectVersion
1070
     0
1000
AcDbSavedByObjectVersion
1070
     0
1000
AcDbSavedByObjectVersion
1070
     0
1000
AcDbSavedByObjectVersion
1070
     0
1000
AcDbSavedByObjectVersion
1070
     0
1000
AcDbSavedByObjectVersion
1070
     0
1000
AcDbSavedByObjectVersion
1070
     0
1000
AcDbSavedByObjectVersion
1070
     0
1000
AcDbSavedByObjectVersion
1070
     0
1000
AcDbSavedByObjectVersion
1070
     0
1000
AcDbSavedByObjectVersion
1070
     0
1000
AcDbSavedByObjectVersion
1070
     0
  0
VISUALSTYLE
  5
12D39
102
{ACAD_REACTORS
330
12D38
102
}
330
12D38
100
AcDbVisualStyle
  2
Flat
 70
     0
 71
     2
 72
     1
 73
     1
 90
        2
 40
-0.6
 41
30.0
 62
     5
 63
     7
 74
     0
 91
        4
 64
     7
 65
   257
 75
     1
175
     1
 42
1.0
 92
        8
 66
     7
 43
1.0
 76
     1
 77
     6
 78
     2
 67
     7
 79
     5
170
     0
171
     0
290
     0
174
     0
 93
       13
 44
0.0
173
     0
291
     1
 45
0.0
1001
ACAD
1000
AcDbSavedByObjectVersion
1070
     0
1000
AcDbSavedByObjectVersion
1070
     0
1000
AcDbSavedByObjectVersion
1070
     0
1000
AcDbSavedByObjectVersion
1070
     0
1000
AcDbSavedByObjectVersion
1070
     0
1000
AcDbSavedByObjectVersion
1070
     0
1000
AcDbSavedByObjectVersion
1070
     0
1000
AcDbSavedByObjectVersion
1070
     0
1000
AcDbSavedByObjectVersion
1070
     0
1000
AcDbSavedByObjectVersion
1070
     0
1000
AcDbSavedByObjectVersion
1070
     0
1000
AcDbSavedByObjectVersion
1070
     0
1000
AcDbSavedByObjectVersion
1070
     0
1000
AcDbSavedByObjectVersion
1070
     0
1000
AcDbSavedByObjectVersion
1070
     0
1000
AcDbSavedByObjectVersion
1070
     0
1000
AcDbSavedByObjectVersion
1070
     0
1000
AcDbSavedByObjectVersion
1070
     0
1000
AcDbSavedByObjectVersion
1070
     0
1000
AcDbSavedByObjectVersion
1070
     0
1000
AcDbSavedByObjectVersion
1070
     0
1000
AcDbSavedByObjectVersion
1070
     0
1000
AcDbSavedByObjectVersion
1070
     0
1000
AcDbSavedByObjectVersion
1070
     0
1000
AcDbSavedByObjectVersion
1070
     0
1000
AcDbSavedByObjectVersion
1070
     0
1000
AcDbSavedByObjectVersion
1070
     0
1000
AcDbSavedByObjectVersion
1070
     0
1000
AcDbSavedByObjectVersion
1070
     0
1000
AcDbSavedByObjectVersion
1070
     0
  0
VISUALSTYLE
  5
12D3A
102
{ACAD_REACTORS
330
12D38
102
}
330
12D38
100
AcDbVisualStyle
  2
FlatWithEdges
 70
     1
 71
     2
 72
     1
 73
     1
 90
        2
 40
-0.6
 41
30.0
 62
     5
 63
     7
 74
     1
 91
        4
 64
     7
 65
   257
 75
     1
175
     1
 42
1.0
 92
        0
 66
   257
 43
1.0
 76
     1
 77
     6
 78
     2
 67
     7
 79
     5
170
     0
171
     0
290
     0
174
     0
 93
       13
 44
0.0
173
     0
291
     1
 45
0.0
1001
ACAD
1000
AcDbSavedByObjectVersion
1070
     0
1000
AcDbSavedByObjectVersion
1070
     0
1000
AcDbSavedByObjectVersion
1070
     0
1000
AcDbSavedByObjectVersion
1070
     0
1000
AcDbSavedByObjectVersion
1070
     0
1000
AcDbSavedByObjectVersion
1070
     0
1000
AcDbSavedByObjectVersion
1070
     0
1000
AcDbSavedByObjectVersion
1070
     0
1000
AcDbSavedByObjectVersion
1070
     0
1000
AcDbSavedByObjectVersion
1070
     0
1000
AcDbSavedByObjectVersion
1070
     0
1000
AcDbSavedByObjectVersion
1070
     0
1000
AcDbSavedByObjectVersion
1070
     0
1000
AcDbSavedByObjectVersion
1070
     0
1000
AcDbSavedByObjectVersion
1070
     0
1000
AcDbSavedByObjectVersion
1070
     0
1000
AcDbSavedByObjectVersion
1070
     0
1000
AcDbSavedByObjectVersion
1070
     0
1000
AcDbSavedByObjectVersion
1070
     0
1000
AcDbSavedByObjectVersion
1070
     0
1000
AcDbSavedByObjectVersion
1070
     0
1000
AcDbSavedByObjectVersion
1070
     0
1000
AcDbSavedByObjectVersion
1070
     0
1000
AcDbSavedByObjectVersion
1070
     0
1000
AcDbSavedByObjectVersion
1070
     0
1000
AcDbSavedByObjectVersion
1070
     0
1000
AcDbSavedByObjectVersion
1070
     0
1000
AcDbSavedByObjectVersion
1070
     0
1000
AcDbSavedByObjectVersion
1070
     0
1000
AcDbSavedByObjectVersion
1070
     0
  0
VISUALSTYLE
  5
12D3B
102
{ACAD_REACTORS
330
12D38
102
}
330
12D38
100
AcDbVisualStyle
  2
Gouraud
 70
     2
 71
     2
 72
     2
 73
     1
 90
        2
 40
-0.6
 41
30.0
 62
     5
 63
     7
 74
     0
 91
        4
 64
     7
 65
   257
 75
     1
175
     1
 42
1.0
 92
        0
 66
     7
 43
1.0
 76
     1
 77
     6
 78
     2
 67
     7
 79
     5
170
     0
171
     0
290
     0
174
     0
 93
       13
 44
0.0
173
     0
291
     1
 45
0.0
1001
ACAD
1000
AcDbSavedByObjectVersion
1070
     0
1000
AcDbSavedByObjectVersion
1070
     0
1000
AcDbSavedByObjectVersion
1070
     0
1000
AcDbSavedByObjectVersion
1070
     0
1000
AcDbSavedByObjectVersion
1070
     0
1000
AcDbSavedByObjectVersion
1070
     0
1000
AcDbSavedByObjectVersion
1070
     0
1000
AcDbSavedByObjectVersion
1070
     0
1000
AcDbSavedByObjectVersion
1070
     0
1000
AcDbSavedByObjectVersion
1070
     0
1000
AcDbSavedByObjectVersion
1070
     0
1000
AcDbSavedByObjectVersion
1070
     0
1000
AcDbSavedByObjectVersion
1070
     0
1000
AcDbSavedByObjectVersion
1070
     0
1000
AcDbSavedByObjectVersion
1070
     0
1000
AcDbSavedByObjectVersion
1070
     0
1000
AcDbSavedByObjectVersion
1070
     0
1000
AcDbSavedByObjectVersion
1070
     0
1000
AcDbSavedByObjectVersion
1070
     0
1000
AcDbSavedByObjectVersion
1070
     0
1000
AcDbSavedByObjectVersion
1070
     0
1000
AcDbSavedByObjectVersion
1070
     0
1000
AcDbSavedByObjectVersion
1070
     0
1000
AcDbSavedByObjectVersion
1070
     0
1000
AcDbSavedByObjectVersion
1070
     0
1000
AcDbSavedByObjectVersion
1070
     0
1000
AcDbSavedByObjectVersion
1070
     0
1000
AcDbSavedByObjectVersion
1070
     0
1000
AcDbSavedByObjectVersion
1070
     0
1000
AcDbSavedByObjectVersion
1070
     0
  0
VISUALSTYLE
  5
12D3C
102
{ACAD_REACTORS
330
12D38
102
}
330
12D38
100
AcDbVisualStyle
  2
GouraudWithEdges
 70
     3
 71
     2
 72
     2
 73
     1
 90
        2
 40
-0.6
 41
30.0
 62
     5
 63
     7
 74
     1
 91
        4
 64
     7
 65
   257
 75
     1
175
     1
 42
1.0
 92
        0
 66
   257
 43
1.0
 76
     1
 77
     6
 78
     2
 67
     7
 79
     5
170
     0
171
     0
290
     0
174
     0
 93
       13
 44
0.0
173
     0
291
     1
 45
0.0
1001
ACAD
1000
AcDbSavedByObjectVersion
1070
     0
1000
AcDbSavedByObjectVersion
1070
     0
1000
AcDbSavedByObjectVersion
1070
     0
1000
AcDbSavedByObjectVersion
1070
     0
1000
AcDbSavedByObjectVersion
1070
     0
1000
AcDbSavedByObjectVersion
1070
     0
1000
AcDbSavedByObjectVersion
1070
     0
1000
AcDbSavedByObjectVersion
1070
     0
1000
AcDbSavedByObjectVersion
1070
     0
1000
AcDbSavedByObjectVersion
1070
     0
1000
AcDbSavedByObjectVersion
1070
     0
1000
AcDbSavedByObjectVersion
1070
     0
1000
AcDbSavedByObjectVersion
1070
     0
1000
AcDbSavedByObjectVersion
1070
     0
1000
AcDbSavedByObjectVersion
1070
     0
1000
AcDbSavedByObjectVersion
1070
     0
1000
AcDbSavedByObjectVersion
1070
     0
1000
AcDbSavedByObjectVersion
1070
     0
1000
AcDbSavedByObjectVersion
1070
     0
1000
AcDbSavedByObjectVersion
1070
     0
1000
AcDbSavedByObjectVersion
1070
     0
1000
AcDbSavedByObjectVersion
1070
     0
1000
AcDbSavedByObjectVersion
1070
     0
1000
AcDbSavedByObjectVersion
1070
     0
1000
AcDbSavedByObjectVersion
1070
     0
1000
AcDbSavedByObjectVersion
1070
     0
1000
AcDbSavedByObjectVersion
1070
     0
1000
AcDbSavedByObjectVersion
1070
     0
1000
AcDbSavedByObjectVersion
1070
     0
1000
AcDbSavedByObjectVersion
1070
     0
  0
VISUALSTYLE
  5
12D46
102
{ACAD_REACTORS
330
12D38
102
}
330
12D38
100
AcDbVisualStyle
  2
Linepattern
 70
    14
 71
     2
 72
     2
 73
     0
 90
        0
 40
-0.6
 41
-30.0
 62
     5
 63
     7
 74
     1
 91
        4
 64
     7
 65
   257
 75
     7
175
     7
 42
1.0
 92
        8
 66
     7
 43
1.0
 76
     1
 77
     6
 78
     2
 67
     7
 79
     5
170
     0
171
     0
290
     0
174
     0
 93
        1
 44
0.0
173
     0
291
     1
 45
0.0
1001
ACAD
1000
AcDbSavedByObjectVersion
1070
     0
1000
AcDbSavedByObjectVersion
1070
     0
1000
AcDbSavedByObjectVersion
1070
     0
1000
AcDbSavedByObjectVersion
1070
     0
1000
AcDbSavedByObjectVersion
1070
     0
1000
AcDbSavedByObjectVersion
1070
     0
1000
AcDbSavedByObjectVersion
1070
     0
1000
AcDbSavedByObjectVersion
1070
     0
1000
AcDbSavedByObjectVersion
1070
     0
1000
AcDbSavedByObjectVersion
1070
     0
1000
AcDbSavedByObjectVersion
1070
     0
1000
AcDbSavedByObjectVersion
1070
     0
1000
AcDbSavedByObjectVersion
1070
     0
1000
AcDbSavedByObjectVersion
1070
     0
1000
AcDbSavedByObjectVersion
1070
     0
1000
AcDbSavedByObjectVersion
1070
     0
1000
AcDbSavedByObjectVersion
1070
     0
1000
AcDbSavedByObjectVersion
1070
     0
1000
AcDbSavedByObjectVersion
1070
     0
1000
AcDbSavedByObjectVersion
1070
     0
1000
AcDbSavedByObjectVersion
1070
     0
1000
AcDbSavedByObjectVersion
1070
     0
1000
AcDbSavedByObjectVersion
1070
     0
1000
AcDbSavedByObjectVersion
1070
     0
1000
AcDbSavedByObjectVersion
1070
     0
1000
AcDbSavedByObjectVersion
1070
     0
1000
AcDbSavedByObjectVersion
1070
     0
1000
AcDbSavedByObjectVersion
1070
     0
1000
AcDbSavedByObjectVersion
1070
     0
1000
AcDbSavedByObjectVersion
1070
     0
  0
VISUALSTYLE
  5
12D42
102
{ACAD_REACTORS
330
12D38
102
}
330
12D38
100
AcDbVisualStyle
  2
Realistic
 70
     8
 71
     2
 72
     2
 73
     0
 90
        0
 40
-0.6
 41
-30.0
 62
     5
 63
     7
 74
     1
 91
        0
 64
     7
 65
   257
 75
     1
175
     1
 42
1.0
 92
        8
 66
     8
 43
1.0
 76
     1
 77
     6
 78
     2
 67
     7
 79
     5
170
     0
171
     0
290
     0
174
     0
 93
       13
 44
0.0
173
     0
291
     0
 45
0.0
1001
ACAD
1000
AcDbSavedByObjectVersion
1070
     0
1000
AcDbSavedByObjectVersion
1070
     0
1000
AcDbSavedByObjectVersion
1070
     0
1000
AcDbSavedByObjectVersion
1070
     0
1000
AcDbSavedByObjectVersion
1070
     0
1000
AcDbSavedByObjectVersion
1070
     0
1000
AcDbSavedByObjectVersion
1070
     0
1000
AcDbSavedByObjectVersion
1070
     0
1000
AcDbSavedByObjectVersion
1070
     0
1000
AcDbSavedByObjectVersion
1070
     0
1000
AcDbSavedByObjectVersion
1070
     0
1000
AcDbSavedByObjectVersion
1070
     0
1000
AcDbSavedByObjectVersion
1070
     0
1000
AcDbSavedByObjectVersion
1070
     0
1000
AcDbSavedByObjectVersion
1070
     0
1000
AcDbSavedByObjectVersion
1070
     0
1000
AcDbSavedByObjectVersion
1070
     0
1000
AcDbSavedByObjectVersion
1070
     0
1000
AcDbSavedByObjectVersion
1070
     0
1000
AcDbSavedByObjectVersion
1070
     0
1000
AcDbSavedByObjectVersion
1070
     0
1000
AcDbSavedByObjectVersion
1070
     0
1000
AcDbSavedByObjectVersion
1070
     0
1000
AcDbSavedByObjectVersion
1070
     0
1000
AcDbSavedByObjectVersion
1070
     0
1000
AcDbSavedByObjectVersion
1070
     0
1000
AcDbSavedByObjectVersion
1070
     0
1000
AcDbSavedByObjectVersion
1070
     0
1000
AcDbSavedByObjectVersion
1070
     0
1000
AcDbSavedByObjectVersion
1070
     0
  0
VISUALSTYLE
  5
12D45
102
{ACAD_REACTORS
330
12D38
102
}
330
12D38
100
AcDbVisualStyle
  2
Thicken
 70
    13
 71
     2
 72
     2
 73
     0
 90
        0
 40
-0.6
 41
-30.0
 62
     5
 63
     7
 74
     1
 91
        4
 64
     7
 65
   257
 75
     1
175
     1
 42
1.0
 92
       12
 66
     7
 43
1.0
 76
     1
 77
     6
 78
     2
 67
     7
 79
     5
170
     0
171
     0
290
     0
174
     0
 93
        1
 44
0.0
173
     0
291
     1
 45
0.0
1001
ACAD
1000
AcDbSavedByObjectVersion
1070
     0
1000
AcDbSavedByObjectVersion
1070
     0
1000
AcDbSavedByObjectVersion
1070
     0
1000
AcDbSavedByObjectVersion
1070
     0
1000
AcDbSavedByObjectVersion
1070
     0
1000
AcDbSavedByObjectVersion
1070
     0
1000
AcDbSavedByObjectVersion
1070
     0
1000
AcDbSavedByObjectVersion
1070
     0
1000
AcDbSavedByObjectVersion
1070
     0
1000
AcDbSavedByObjectVersion
1070
     0
1000
AcDbSavedByObjectVersion
1070
     0
1000
AcDbSavedByObjectVersion
1070
     0
1000
AcDbSavedByObjectVersion
1070
     0
1000
AcDbSavedByObjectVersion
1070
     0
1000
AcDbSavedByObjectVersion
1070
     0
1000
AcDbSavedByObjectVersion
1070
     0
1000
AcDbSavedByObjectVersion
1070
     0
1000
AcDbSavedByObjectVersion
1070
     0
1000
AcDbSavedByObjectVersion
1070
     0
1000
AcDbSavedByObjectVersion
1070
     0
1000
AcDbSavedByObjectVersion
1070
     0
1000
AcDbSavedByObjectVersion
1070
     0
1000
AcDbSavedByObjectVersion
1070
     0
1000
AcDbSavedByObjectVersion
1070
     0
1000
AcDbSavedByObjectVersion
1070
     0
1000
AcDbSavedByObjectVersion
1070
     0
1000
AcDbSavedByObjectVersion
1070
     0
1000
AcDbSavedByObjectVersion
1070
     0
1000
AcDbSavedByObjectVersion
1070
     0
1000
AcDbSavedByObjectVersion
1070
     0
  0
VISUALSTYLE
  5
1E3C4
102
{ACAD_XDICTIONARY
360
1E3C5
102
}
102
{ACAD_REACTORS
330
12D38
102
}
330
12D38
100
AcDbVisualStyle
  2
Wireframe
 70
     5
 71
     0
 72
     2
 73
     0
 90
        0
 40
-0.6
 41
-30.0
 62
     5
 63
     7
 74
     1
 91
        4
 64
     7
 65
   257
 75
     1
175
     1
 42
1.0
 92
        0
 66
   257
 43
1.0
 76
     1
 77
     6
 78
     2
 67
     7
 79
     3
170
     0
171
     0
290
     0
174
     0
 93
        1
 44
0.0
173
     0
291
     0
 45
0.0
1001
ACAD
1000
AcDbSavedByObjectVersion
1070
     0
1000
AcDbSavedByObjectVersion
1070
     0
1000
AcDbSavedByObjectVersion
1070
     0
1000
AcDbSavedByObjectVersion
1070
     0
1000
AcDbSavedByObjectVersion
1070
     0
1000
AcDbSavedByObjectVersion
1070
     0
1000
AcDbSavedByObjectVersion
1070
     0
1000
AcDbSavedByObjectVersion
1070
     0
1000
AcDbSavedByObjectVersion
1070
     0
1000
AcDbSavedByObjectVersion
1070
     0
1000
AcDbSavedByObjectVersion
1070
     0
1000
AcDbSavedByObjectVersion
1070
     0
1000
AcDbSavedByObjectVersion
1070
     0
1000
AcDbSavedByObjectVersion
1070
     0
1000
AcDbSavedByObjectVersion
1070
     0
1000
AcDbSavedByObjectVersion
1070
     0
1000
AcDbSavedByObjectVersion
1070
     0
1000
AcDbSavedByObjectVersion
1070
     0
1000
AcDbSavedByObjectVersion
1070
     0
1000
AcDbSavedByObjectVersion
1070
     0
1000
AcDbSavedByObjectVersion
1070
     0
1000
AcDbSavedByObjectVersion
1070
     0
1000
AcDbSavedByObjectVersion
1070
     0
1000
AcDbSavedByObjectVersion
1070
     0
1000
AcDbSavedByObjectVersion
1070
     0
1000
AcDbSavedByObjectVersion
1070
     0
1000
AcDbSavedByObjectVersion
1070
     0
1000
AcDbSavedByObjectVersion
1070
     0
1000
AcDbSavedByObjectVersion
1070
     0
  0
DICTIONARYVAR
  5
12DE7
102
{ACAD_REACTORS
330
125BE
102
}
330
125BE
100
DictionaryVariables
280
     0
  1
1:1
  0
DICTIONARYVAR
  5
12DE6
102
{ACAD_REACTORS
330
125BE
102
}
330
125BE
100
DictionaryVariables
280
     0
  1
STANDARD
  0
DICTIONARYVAR
  5
12DE5
102
{ACAD_REACTORS
330
125BE
102
}
330
125BE
100
DictionaryVariables
280
     0
  1
STANDARD
  0
DICTIONARYVAR
  5
125BF
102
{ACAD_REACTORS
330
125BE
102
}
330
125BE
100
DictionaryVariables
280
     0
  1
2
  0
DICTIONARYVAR
  5
13324
102
{ACAD_REACTORS
330
125BE
102
}
330
125BE
100
DictionaryVariables
280
     0
  1
0
  0
DICTIONARYVAR
  5
12EB5
102
{ACAD_REACTORS
330
125BE
102
}
330
125BE
100
DictionaryVariables
280
     0
  1
0
  0
DICTIONARYVAR
  5
12EB4
102
{ACAD_REACTORS
330
125BE
102
}
330
125BE
100
DictionaryVariables
280
     0
  1
0
  0
DICTIONARYVAR
  5
125C0
102
{ACAD_REACTORS
330
125BE
102
}
330
125BE
100
DictionaryVariables
280
     0
  1

  0
DICTIONARYVAR
  5
13323
102
{ACAD_REACTORS
330
125BE
102
}
330
125BE
100
DictionaryVariables
280
     0
  1
127
  0
XRECORD
  5
47849
102
{ACAD_REACTORS
330
47848
102
}
330
47848
100
AcDbXrecord
280
     1
330
8AE2
330
8AE3
330
8AE4
330
8AE5
330
8AE6
330
8AE7
330
8AE8
330
8AE9
330
8AEA
330
4750A
  0
VLO-VL
  5
E29
102
{ACAD_REACTORS
330
E28
102
}
330
E28
100
vlo_VL
 90
   -64512
 91
       12
 92
        1
 40
2.5
300
(&VLO-R . 0)
  0
DICTIONARY
  5
12D31
330
12D30
100
AcDbDictionary
280
     1
281
     1
  3
ACAD_XREC_ROUNDTRIP
360
1E336
  3
BUMPTILE
360
12D33
  3
DIFFUSETILE
360
12D32
  3
OPACITYTILE
360
12D36
  3
REFLECTIONTILE
360
12D35
  3
REFRACTIONTILE
360
12D37
  3
SPECULARTILE
360
12D34
  0
DICTIONARY
  5
12D29
330
12D28
100
AcDbDictionary
280
     1
281
     1
  3
ACAD_XREC_ROUNDTRIP
360
1E335
  3
BUMPTILE
360
12D2B
  3
DIFFUSETILE
360
12D2A
  3
OPACITYTILE
360
12D2E
  3
REFLECTIONTILE
360
12D2D
  3
REFRACTIONTILE
360
12D2F
  3
SPECULARTILE
360
12D2C
  0
DICTIONARY
  5
1E333
330
6897
100
AcDbDictionary
280
     1
281
     1
  3
ACAD_XREC_ROUNDTRIP
360
1E334
  0
DICTIONARY
  5
12DCD
330
12D4A
100
AcDbDictionary
280
     1
281
     1
  3
ACAD_ROUNDTRIP_2008_TABLESTYLE_CELLSTYLEMAP
360
4A3D9
  3
ACAD_XREC_ROUNDTRIP
360
4A3F6
  0
DICTIONARY
  5
1E3C5
330
1E3C4
100
AcDbDictionary
280
     1
281
     1
  3
ACAD_XREC_ROUNDTRIP
360
1E3C6
  0
XRECORD
  5
1E336
102
{ACAD_REACTORS
330
12D31
102
}
330
12D31
100
AcDbXrecord
280
     1
102
MATERIAL
148
0.0
149
0.0
149
0.0
 93
        0
 94
      127
282
     0
 72
     0
 77
     0
171
     0
175
     0
179
     0
273
     0
  0
XRECORD
  5
12D33
102
{ACAD_REACTORS
330
12D31
102
}
330
12D31
100
AcDbXrecord
280
     1
270
     1
271
     1
  0
XRECORD
  5
12D32
102
{ACAD_REACTORS
330
12D31
102
}
330
12D31
100
AcDbXrecord
280
     1
270
     1
271
     1
  0
XRECORD
  5
12D36
102
{ACAD_REACTORS
330
12D31
102
}
330
12D31
100
AcDbXrecord
280
     1
270
     1
271
     1
  0
XRECORD
  5
12D35
102
{ACAD_REACTORS
330
12D31
102
}
330
12D31
100
AcDbXrecord
280
     1
270
     1
271
     1
  0
XRECORD
  5
12D37
102
{ACAD_REACTORS
330
12D31
102
}
330
12D31
100
AcDbXrecord
280
     1
270
     1
271
     1
  0
XRECORD
  5
12D34
102
{ACAD_REACTORS
330
12D31
102
}
330
12D31
100
AcDbXrecord
280
     1
270
     1
271
     1
  0
XRECORD
  5
1E335
102
{ACAD_REACTORS
330
12D29
102
}
330
12D29
100
AcDbXrecord
280
     1
102
MATERIAL
148
0.0
149
0.0
149
0.0
 93
        0
 94
      127
282
     0
 72
     0
 77
     0
171
     0
175
     0
179
     0
273
     0
  0
XRECORD
  5
12D2B
102
{ACAD_REACTORS
330
12D29
102
}
330
12D29
100
AcDbXrecord
280
     1
270
     1
271
     1
  0
XRECORD
  5
12D2A
102
{ACAD_REACTORS
330
12D29
102
}
330
12D29
100
AcDbXrecord
280
     1
270
     1
271
     1
  0
XRECORD
  5
12D2E
102
{ACAD_REACTORS
330
12D29
102
}
330
12D29
100
AcDbXrecord
280
     1
270
     1
271
     1
  0
XRECORD
  5
12D2D
102
{ACAD_REACTORS
330
12D29
102
}
330
12D29
100
AcDbXrecord
280
     1
270
     1
271
     1
  0
XRECORD
  5
12D2F
102
{ACAD_REACTORS
330
12D29
102
}
330
12D29
100
AcDbXrecord
280
     1
270
     1
271
     1
  0
XRECORD
  5
12D2C
102
{ACAD_REACTORS
330
12D29
102
}
330
12D29
100
AcDbXrecord
280
     1
270
     1
271
     1
  0
XRECORD
  5
1E334
102
{ACAD_REACTORS
330
1E333
102
}
330
1E333
100
AcDbXrecord
280
     1
102
MATERIAL
148
0.0
149
0.0
149
0.0
 93
        0
 94
      127
282
     0
 72
     1
 77
     1
171
     1
175
     1
179
     1
273
     0
  0
CELLSTYLEMAP
  5
4A3D9
102
{ACAD_REACTORS
330
12DCD
102
}
330
12DCD
100
AcDbCellStyleMap
 90
        3
300
CELLSTYLE
  1
TABLEFORMAT_BEGIN
 90
        5
170
     1
 91
        0
 92
    32768
 62
   257
 93
        1
300
CONTENTFORMAT
  1
CONTENTFORMAT_BEGIN
 90
        0
 91
        0
 92
      512
 93
        0
300

 40
0.0
140
1.0
 94
        5
 62
     0
340
11
144
6.0
309
CONTENTFORMAT_END
171
     1
301
MARGIN
  1
CELLMARGIN_BEGIN
 40
1.5
 40
1.5
 40
1.5
 40
1.5
 40
0.18
 40
0.18
309
CELLMARGIN_END
 94
        6
 95
        1
302
GRIDFORMAT
  1
GRIDFORMAT_BEGIN
 90
        0
 91
        1
 62
     0
 92
       -2
340
0
 93
        0
 40
1.125
309
GRIDFORMAT_END
 95
        2
302
GRIDFORMAT
  1
GRIDFORMAT_BEGIN
 90
        0
 91
        1
 62
     0
 92
       -2
340
0
 93
        0
 40
1.125
309
GRIDFORMAT_END
 95
        4
302
GRIDFORMAT
  1
GRIDFORMAT_BEGIN
 90
        0
 91
        1
 62
     0
 92
       -2
340
0
 93
        0
 40
1.125
309
GRIDFORMAT_END
 95
        8
302
GRIDFORMAT
  1
GRIDFORMAT_BEGIN
 90
        0
 91
        1
 62
     0
 92
       -2
340
0
 93
        0
 40
1.125
309
GRIDFORMAT_END
 95
       16
302
GRIDFORMAT
  1
GRIDFORMAT_BEGIN
 90
        0
 91
        1
 62
     0
 92
       -2
340
0
 93
        0
 40
1.125
309
GRIDFORMAT_END
 95
       32
302
GRIDFORMAT
  1
GRIDFORMAT_BEGIN
 90
        0
 91
        1
 62
     0
 92
       -2
340
0
 93
        0
 40
1.125
309
GRIDFORMAT_END
309
TABLEFORMAT_END
  1
CELLSTYLE_BEGIN
 90
        1
 91
        1
300
_TITLE
309
CELLSTYLE_END
300
CELLSTYLE
  1
TABLEFORMAT_BEGIN
 90
        5
170
     1
 91
        0
 92
        0
 62
   257
 93
        1
300
CONTENTFORMAT
  1
CONTENTFORMAT_BEGIN
 90
        0
 91
        0
 92
      512
 93
        0
300

 40
0.0
140
1.0
 94
        5
 62
     0
340
11
144
4.5
309
CONTENTFORMAT_END
171
     1
301
MARGIN
  1
CELLMARGIN_BEGIN
 40
1.5
 40
1.5
 40
1.5
 40
1.5
 40
0.18
 40
0.18
309
CELLMARGIN_END
 94
        6
 95
        1
302
GRIDFORMAT
  1
GRIDFORMAT_BEGIN
 90
        0
 91
        1
 62
     0
 92
       -2
340
0
 93
        0
 40
1.125
309
GRIDFORMAT_END
 95
        2
302
GRIDFORMAT
  1
GRIDFORMAT_BEGIN
 90
        0
 91
        1
 62
     0
 92
       -2
340
0
 93
        0
 40
1.125
309
GRIDFORMAT_END
 95
        4
302
GRIDFORMAT
  1
GRIDFORMAT_BEGIN
 90
        0
 91
        1
 62
     0
 92
       -2
340
0
 93
        0
 40
1.125
309
GRIDFORMAT_END
 95
        8
302
GRIDFORMAT
  1
GRIDFORMAT_BEGIN
 90
        0
 91
        1
 62
     0
 92
       -2
340
0
 93
        0
 40
1.125
309
GRIDFORMAT_END
 95
       16
302
GRIDFORMAT
  1
GRIDFORMAT_BEGIN
 90
        0
 91
        1
 62
     0
 92
       -2
340
0
 93
        0
 40
1.125
309
GRIDFORMAT_END
 95
       32
302
GRIDFORMAT
  1
GRIDFORMAT_BEGIN
 90
        0
 91
        1
 62
     0
 92
       -2
340
0
 93
        0
 40
1.125
309
GRIDFORMAT_END
309
TABLEFORMAT_END
  1
CELLSTYLE_BEGIN
 90
        2
 91
        1
300
_HEADER
309
CELLSTYLE_END
300
CELLSTYLE
  1
TABLEFORMAT_BEGIN
 90
        5
170
     1
 91
        0
 92
        0
 62
   257
 93
        1
300
CONTENTFORMAT
  1
CONTENTFORMAT_BEGIN
 90
        0
 91
        0
 92
      512
 93
        0
300

 40
0.0
140
1.0
 94
        2
 62
     0
340
11
144
4.5
309
CONTENTFORMAT_END
171
     1
301
MARGIN
  1
CELLMARGIN_BEGIN
 40
1.5
 40
1.5
 40
1.5
 40
1.5
 40
0.18
 40
0.18
309
CELLMARGIN_END
 94
        6
 95
        1
302
GRIDFORMAT
  1
GRIDFORMAT_BEGIN
 90
        0
 91
        1
 62
     0
 92
       -2
340
0
 93
        0
 40
1.125
309
GRIDFORMAT_END
 95
        2
302
GRIDFORMAT
  1
GRIDFORMAT_BEGIN
 90
        0
 91
        1
 62
     0
 92
       -2
340
0
 93
        0
 40
1.125
309
GRIDFORMAT_END
 95
        4
302
GRIDFORMAT
  1
GRIDFORMAT_BEGIN
 90
        0
 91
        1
 62
     0
 92
       -2
340
0
 93
        0
 40
1.125
309
GRIDFORMAT_END
 95
        8
302
GRIDFORMAT
  1
GRIDFORMAT_BEGIN
 90
        0
 91
        1
 62
     0
 92
       -2
340
0
 93
        0
 40
1.125
309
GRIDFORMAT_END
 95
       16
302
GRIDFORMAT
  1
GRIDFORMAT_BEGIN
 90
        0
 91
        1
 62
     0
 92
       -2
340
0
 93
        0
 40
1.125
309
GRIDFORMAT_END
 95
       32
302
GRIDFORMAT
  1
GRIDFORMAT_BEGIN
 90
        0
 91
        1
 62
     0
 92
       -2
340
0
 93
        0
 40
1.125
309
GRIDFORMAT_END
309
TABLEFORMAT_END
  1
CELLSTYLE_BEGIN
 90
        3
 91
        2
300
_DATA
309
CELLSTYLE_END
  0
XRECORD
  5
4A3F6
102
{ACAD_REACTORS
330
12DCD
102
}
330
12DCD
100
AcDbXrecord
280
     1
102
ACAD_ROUNDTRIP_PRE2007_TABLESTYLE
 90
      512
 91
        0
  1

 92
      512
 93
        0
  2

 94
      512
 95
        0
  3

  0
XRECORD
  5
1E3C6
102
{ACAD_REACTORS
330
1E3C5
102
}
330
1E3C5
100
AcDbXrecord
280
     1
102
RTVSPropertyOp0
 70
     1
102
RTVSPropertyOp1
 70
     1
102
RTVSPropertyOp2
 70
     1
102
RTVSPropertyOp3
 70
     1
102
RTVSPropertyOp4
 70
     1
102
RTVSPropertyOp5
 70
     1
102
RTVSPropertyOp6
 70
     1
102
RTVSPropertyOp7
 70
     1
102
RTVSPropertyOp8
 70
     1
102
RTVSPropertyOp9
 70
     1
102
RTVSPropertyOp10
 70
     1
102
RTVSPropertyOp11
 70
     1
102
RTVSPropertyOp12
 70
     1
102
RTVSPropertyOp13
 70
     1
102
RTVSPropertyOp14
 70
     1
102
RTVSPropertyOp15
 70
     1
102
RTVSPropertyOp16
 70
     1
102
RTVSPropertyOp17
 70
     1
102
RTVSPropertyOp18
 70
     1
102
RTVSPropertyOp19
 70
     1
102
RTVSPropertyOp20
 70
     1
102
RTVSPropertyOp21
 70
     1
102
RTVSPropertyOp22
 70
     1
102
RTVSPropertyOp23
 70
     1
102
RTVSPropertyOp24
 70
     1
102
RTVSPropertyOp25
 70
     1
102
RTVSPropertyOp26
 70
     1
102
RTVSPropertyOp27
 70
     1
102
RTVSPropertyOp28
 70
     1
102
RTVSPropertyOp29
 70
     1
102
RTVSPropertyOp30
 70
     1
102
RTVSPropertyOp31
 70
     1
102
RTVSPropertyOp32
 70
     1
  0
ENDSEC
  0
EOF
