  0
SECTION
  2
HEADER
  9
$ACADVER
  1
AC1015
  9
$ACADMAINTVER
 70
    20
  9
$DWGCODEPAGE
  3
ANSI_936
  9
$INSBASE
 10
0.0
 20
0.0
 30
0.0
  9
$EXTMIN
 10
375.5652825548511
 20
184.55853673495
 30
-0.0000000349181948
  9
$EXTMAX
 10
672.6367724454669
 20
394.5975054449829
 30
0.0000000814935747
  9
$LIMMIN
 10
0.0
 20
0.0
  9
$LIMMAX
 10
12.0
 20
9.0
  9
$ORTHOMODE
 70
     0
  9
$REGENMODE
 70
     1
  9
$FILLMODE
 70
     1
  9
$QTEXTMODE
 70
     0
  9
$MIRRTEXT
 70
     1
  9
$LTSCALE
 40
1.0
  9
$ATTMODE
 70
     1
  9
$TEXTSIZE
 40
0.2
  9
$TRACEWID
 40
0.05
  9
$TEXTSTYLE
  7
Standard
  9
$CLAYER
  8
0
  9
$CELTYPE
  6
ByLayer
  9
$CECOLOR
 62
   256
  9
$CELTSCALE
 40
1.0
  9
$DISPSILH
 70
     0
  9
$DIMSCALE
 40
1.0
  9
$DIMASZ
 40
3.0
  9
$DIMEXO
 40
0.2
  9
$DIMDLI
 40
0.2
  9
$DIMRND
 40
0.0
  9
$DIMDLE
 40
0.0
  9
$DIMEXE
 40
1.199999999999999
  9
$DIMTP
 40
0.0
  9
$DIMTM
 40
0.0
  9
$DIMTXT
 40
3.5
  9
$DIMCEN
 40
0.0
  9
$DIMTSZ
 40
0.0
  9
$DIMTOL
 70
     0
  9
$DIMLIM
 70
     0
  9
$DIMTIH
 70
     0
  9
$DIMTOH
 70
     0
  9
$DIMSE1
 70
     0
  9
$DIMSE2
 70
     0
  9
$DIMTAD
 70
     1
  9
$DIMZIN
 70
     8
  9
$DIMBLK
  1

  9
$DIMASO
 70
     1
  9
$DIMSHO
 70
     1
  9
$DIMPOST
  1

  9
$DIMAPOST
  1

  9
$DIMALT
 70
     0
  9
$DIMALTD
 70
     2
  9
$DIMALTF
 40
25.4
  9
$DIMLFAC
 40
1.0
  9
$DIMTOFL
 70
     0
  9
$DIMTVP
 40
0.0
  9
$DIMTIX
 70
     0
  9
$DIMSOXD
 70
     0
  9
$DIMSAH
 70
     0
  9
$DIMBLK1
  1

  9
$DIMBLK2
  1

  9
$DIMSTYLE
  2
01
  9
$DIMCLRD
 70
     1
  9
$DIMCLRE
 70
     6
  9
$DIMCLRT
 70
     4
  9
$DIMTFAC
 40
1.0
  9
$DIMGAP
 40
0.8
  9
$DIMJUST
 70
     0
  9
$DIMSD1
 70
     0
  9
$DIMSD2
 70
     0
  9
$DIMTOLJ
 70
     1
  9
$DIMTZIN
 70
     0
  9
$DIMALTZ
 70
     0
  9
$DIMALTTZ
 70
     0
  9
$DIMUPT
 70
     0
  9
$DIMDEC
 70
     1
  9
$DIMTDEC
 70
     1
  9
$DIMALTU
 70
     2
  9
$DIMALTTD
 70
     2
  9
$DIMTXSTY
  7
Romans字体
  9
$DIMAUNIT
 70
     0
  9
$DIMADEC
 70
     2
  9
$DIMALTRND
 40
0.0
  9
$DIMAZIN
 70
     2
  9
$DIMDSEP
 70
    46
  9
$DIMATFIT
 70
     3
  9
$DIMFRAC
 70
     0
  9
$DIMLDRBLK
  1

  9
$DIMLUNIT
 70
     2
  9
$DIMLWD
 70
    -2
  9
$DIMLWE
 70
    -2
  9
$DIMTMOVE
 70
     0
  9
$LUNITS
 70
     2
  9
$LUPREC
 70
     4
  9
$SKETCHINC
 40
0.1
  9
$FILLETRAD
 40
0.5
  9
$AUNITS
 70
     0
  9
$AUPREC
 70
     0
  9
$MENU
  1
.
  9
$ELEVATION
 40
0.0
  9
$PELEVATION
 40
0.0
  9
$THICKNESS
 40
0.0
  9
$LIMCHECK
 70
     0
  9
$CHAMFERA
 40
0.5
  9
$CHAMFERB
 40
0.5
  9
$CHAMFERC
 40
1.0
  9
$CHAMFERD
 40
0.0
  9
$SKPOLY
 70
     0
  9
$TDCREATE
 40
2456524.383632987
  9
$TDUCREATE
 40
2456524.050299653
  9
$TDUPDATE
 40
2460291.621811528
  9
$TDUUPDATE
 40
2460291.288478194
  9
$TDINDWG
 40
0.9564345370
  9
$TDUSRTIMER
 40
0.9564154282
  9
$USRTIMER
 70
     1
  9
$ANGBASE
 50
0.0
  9
$ANGDIR
 70
     0
  9
$PDMODE
 70
     0
  9
$PDSIZE
 40
0.0
  9
$PLINEWID
 40
0.0
  9
$SPLFRAME
 70
     0
  9
$SPLINETYPE
 70
     6
  9
$SPLINESEGS
 70
     8
  9
$HANDSEED
  5
1F8BE
  9
$SURFTAB1
 70
     6
  9
$SURFTAB2
 70
     6
  9
$SURFTYPE
 70
     6
  9
$SURFU
 70
     6
  9
$SURFV
 70
     6
  9
$UCSBASE
  2

  9
$UCSNAME
  2

  9
$UCSORG
 10
0.0
 20
0.0
 30
0.0
  9
$UCSXDIR
 10
1.0
 20
0.0
 30
0.0
  9
$UCSYDIR
 10
0.0
 20
1.0
 30
0.0
  9
$UCSORTHOREF
  2

  9
$UCSORTHOVIEW
 70
     0
  9
$UCSORGTOP
 10
0.0
 20
0.0
 30
0.0
  9
$UCSORGBOTTOM
 10
0.0
 20
0.0
 30
0.0
  9
$UCSORGLEFT
 10
0.0
 20
0.0
 30
0.0
  9
$UCSORGRIGHT
 10
0.0
 20
0.0
 30
0.0
  9
$UCSORGFRONT
 10
0.0
 20
0.0
 30
0.0
  9
$UCSORGBACK
 10
0.0
 20
0.0
 30
0.0
  9
$PUCSBASE
  2

  9
$PUCSNAME
  2

  9
$PUCSORG
 10
0.0
 20
0.0
 30
0.0
  9
$PUCSXDIR
 10
1.0
 20
0.0
 30
0.0
  9
$PUCSYDIR
 10
0.0
 20
1.0
 30
0.0
  9
$PUCSORTHOREF
  2

  9
$PUCSORTHOVIEW
 70
     0
  9
$PUCSORGTOP
 10
0.0
 20
0.0
 30
0.0
  9
$PUCSORGBOTTOM
 10
0.0
 20
0.0
 30
0.0
  9
$PUCSORGLEFT
 10
0.0
 20
0.0
 30
0.0
  9
$PUCSORGRIGHT
 10
0.0
 20
0.0
 30
0.0
  9
$PUCSORGFRONT
 10
0.0
 20
0.0
 30
0.0
  9
$PUCSORGBACK
 10
0.0
 20
0.0
 30
0.0
  9
$USERI1
 70
     0
  9
$USERI2
 70
     0
  9
$USERI3
 70
     0
  9
$USERI4
 70
     0
  9
$USERI5
 70
     0
  9
$USERR1
 40
0.0
  9
$USERR2
 40
0.0
  9
$USERR3
 40
0.0
  9
$USERR4
 40
0.0
  9
$USERR5
 40
2.5
  9
$WORLDVIEW
 70
     1
  9
$SHADEDGE
 70
     3
  9
$SHADEDIF
 70
    70
  9
$TILEMODE
 70
     1
  9
$MAXACTVP
 70
    64
  9
$PINSBASE
 10
0.0
 20
0.0
 30
0.0
  9
$PLIMCHECK
 70
     0
  9
$PEXTMIN
 10
1.000000000000000E+20
 20
1.000000000000000E+20
 30
1.000000000000000E+20
  9
$PEXTMAX
 10
-1.000000000000000E+20
 20
-1.000000000000000E+20
 30
-1.000000000000000E+20
  9
$PLIMMIN
 10
0.0
 20
0.0
  9
$PLIMMAX
 10
12.0
 20
9.0
  9
$UNITMODE
 70
     0
  9
$VISRETAIN
 70
     1
  9
$PLINEGEN
 70
     0
  9
$PSLTSCALE
 70
     1
  9
$TREEDEPTH
 70
  3020
  9
$CMLSTYLE
  2
Standard
  9
$CMLJUST
 70
     0
  9
$CMLSCALE
 40
1.0
  9
$PROXYGRAPHICS
 70
     1
  9
$MEASUREMENT
 70
     0
  9
$CELWEIGHT
370
    -1
  9
$ENDCAPS
280
     0
  9
$JOINSTYLE
280
     0
  9
$LWDISPLAY
290
     0
  9
$INSUNITS
 70
     4
  9
$HYPERLINKBASE
  1

  9
$STYLESHEET
  1
monochrome.ctb
  9
$XEDIT
290
     1
  9
$CEPSNTYPE
380
     0
  9
$PSTYLEMODE
290
     1
  9
$FINGERPRINTGUID
  2
{4A02065B-8BB3-4A96-9036-502DC906C165}
  9
$VERSIONGUID
  2
{1CE29D34-E33F-4475-B2AA-4D3A049BA401}
  9
$EXTNAMES
290
     1
  9
$PSVPSCALE
 40
0.0
  9
$OLESTARTUP
290
     0
  0
ENDSEC
  0
SECTION
  2
CLASSES
  0
CLASS
  1
ACDBDICTIONARYWDFLT
  2
AcDbDictionaryWithDefault
  3
ObjectDBX Classes
 90
        0
280
     0
281
     0
  0
CLASS
  1
VISUALSTYLE
  2
AcDbVisualStyle
  3
ObjectDBX Classes
 90
     4095
280
     0
281
     0
  0
CLASS
  1
MATERIAL
  2
AcDbMaterial
  3
ObjectDBX Classes
 90
     1153
280
     0
281
     0
  0
CLASS
  1
TABLESTYLE
  2
AcDbTableStyle
  3
ObjectDBX Classes
 90
     4095
280
     0
281
     0
  0
CLASS
  1
SCALE
  2
AcDbScale
  3
ObjectDBX Classes
 90
     1153
280
     0
281
     0
  0
CLASS
  1
MLEADERSTYLE
  2
AcDbMLeaderStyle
  3
ACDB_MLEADERSTYLE_CLASS
 90
     4095
280
     0
281
     0
  0
CLASS
  1
CELLSTYLEMAP
  2
AcDbCellStyleMap
  3
ObjectDBX Classes
 90
     1152
280
     0
281
     0
  0
CLASS
  1
DICTIONARYVAR
  2
AcDbDictionaryVar
  3
ObjectDBX Classes
 90
        0
280
     0
281
     0
  0
CLASS
  1
SORTENTSTABLE
  2
AcDbSortentsTable
  3
ObjectDBX Classes
 90
        0
280
     0
281
     0
  0
CLASS
  1
ACAD_EVALUATION_GRAPH
  2
AcDbEvalGraph
  3
ObjectDBX Classes
 90
    33921
280
     0
281
     0
  0
CLASS
  1
ACAECUSTOBJ
  2
AcAeEditorObj
  3
AcAeEditorObj
 90
    33792
280
     0
281
     0
  0
CLASS
  1
ACDB_DYNAMICBLOCKPURGEPREVENTER_VERSION
  2
AcDbDynamicBlockPurgePreventer
  3
ObjectDBX Classes
 90
    33921
280
     0
281
     0
  0
CLASS
  1
MENTALRAYRENDERSETTINGS
  2
AcDbMentalRayRenderSettings
  3
SCENEOE
 90
     1024
280
     0
281
     0
  0
CLASS
  1
ACDB_BLOCKREPRESENTATION_DATA
  2
AcDbBlockRepresentationData
  3
ObjectDBX Classes
 90
    33921
280
     0
281
     0
  0
CLASS
  1
DIMASSOC
  2
AcDbDimAssoc
  3
"AcDbDimAssoc|Product Desc:     AcDim ARX App For Dimension|Company:          Autodesk, Inc.|WEB Address:      www.autodesk.com"
 90
    32768
280
     0
281
     0
  0
CLASS
  1
VLO-VL
  2
vlo_VL
  3
VL|AutoLISP based application
 90
      129
280
     0
281
     0
  0
CLASS
  1
ACDBPLACEHOLDER
  2
AcDbPlaceHolder
  3
ObjectDBX Classes
 90
        0
280
     0
281
     0
  0
CLASS
  1
LAYOUT
  2
AcDbLayout
  3
ObjectDBX Classes
 90
        0
280
     0
281
     0
  0
ENDSEC
  0
SECTION
  2
TABLES
  0
TABLE
  2
VPORT
  5
8
102
{ACAD_XDICTIONARY
360
50EE
102
}
330
0
100
AcDbSymbolTable
 70
     1
  0
VPORT
  5
29
330
8
100
AcDbSymbolTableRecord
100
AcDbViewportTableRecord
  2
*Active
 70
     0
 10
0.0
 20
0.0
 11
1.0
 21
1.0
 12
388.5672585595249
 22
158.323326809807
 13
0.0
 23
0.0
 14
0.5
 24
0.5
 15
0.5
 25
0.5
 16
0.0
 26
0.0
 36
1.0
 17
104.9654968719086
 27
148.5022307685978
 37
0.0
 40
273.744917306744
 41
2.262390670553935
 42
50.0
 43
0.0
 44
0.0
 50
0.0
 51
0.0
 71
     0
 72
  2000
 73
     1
 74
     3
 75
     0
 76
     0
 77
     0
 78
     0
281
     0
 65
     1
110
0.0
120
0.0
130
0.0
111
1.0
121
0.0
131
0.0
112
0.0
122
1.0
132
0.0
 79
     0
146
0.0
  0
ENDTAB
  0
TABLE
  2
LTYPE
  5
5
330
0
100
AcDbSymbolTable
 70
     1
  0
LTYPE
  5
14
330
5
100
AcDbSymbolTableRecord
100
AcDbLinetypeTableRecord
  2
ByBlock
 70
     0
  3

 72
    65
 73
     0
 40
0.0
  0
LTYPE
  5
15
330
5
100
AcDbSymbolTableRecord
100
AcDbLinetypeTableRecord
  2
ByLayer
 70
     0
  3

 72
    65
 73
     0
 40
0.0
  0
LTYPE
  5
16
330
5
100
AcDbSymbolTableRecord
100
AcDbLinetypeTableRecord
  2
Continuous
 70
     0
  3
Solid line
 72
    65
 73
     0
 40
0.0
  0
ENDTAB
  0
TABLE
  2
LAYER
  5
2
102
{ACAD_XDICTIONARY
360
50B8
102
}
330
0
100
AcDbSymbolTable
 70
     6
  0
LAYER
  5
10
102
{ACAD_XDICTIONARY
360
50D0
102
}
330
2
100
AcDbSymbolTableRecord
100
AcDbLayerTableRecord
  2
0
 70
     0
 62
     7
  6
Continuous
370
    30
390
F
  0
LAYER
  5
3B
102
{ACAD_XDICTIONARY
360
50D2
102
}
330
2
100
AcDbSymbolTableRecord
100
AcDbLayerTableRecord
  2
图层 1
 70
     0
 62
     7
  6
Continuous
370
    -3
390
F
  0
LAYER
  5
50AE
102
{ACAD_XDICTIONARY
360
50AF
102
}
330
2
100
AcDbSymbolTableRecord
100
AcDbLayerTableRecord
  2
图框
 70
     0
 62
     7
  6
Continuous
370
    20
390
F
  0
LAYER
  5
5141
330
2
100
AcDbSymbolTableRecord
100
AcDbLayerTableRecord
  2
Defpoints
 70
     0
 62
     7
  6
Continuous
290
     0
370
    -3
390
F
  0
LAYER
  5
5144
330
2
100
AcDbSymbolTableRecord
100
AcDbLayerTableRecord
  2
DIM
 70
     0
 62
     3
  6
Continuous
370
    15
390
F
1001
AcAecLayerStandard
1000

1000

  0
LAYER
  5
52F3
330
2
100
AcDbSymbolTableRecord
100
AcDbLayerTableRecord
  2
打标文字
 70
     0
 62
     3
  6
Continuous
370
    20
390
F
  0
ENDTAB
  0
TABLE
  2
STYLE
  5
3
330
0
100
AcDbSymbolTable
 70
     6
  0
STYLE
  5
11
330
3
100
AcDbSymbolTableRecord
100
AcDbTextStyleTableRecord
  2
Standard
 70
     0
 40
0.0
 41
0.75
 50
0.0
 71
     0
 42
0.2
  3

  4

1001
ACAD
1000
仿宋_GB2312
1071
    34353
  0
STYLE
  5
FD48
330
3
100
AcDbSymbolTableRecord
100
AcDbTextStyleTableRecord
  2
Romans字体
 70
     0
 40
0.0
 41
0.75
 50
0.0
 71
     0
 42
0.2
  3
romans.shx
  4

  0
STYLE
  5
11080
330
3
100
AcDbSymbolTableRecord
100
AcDbTextStyleTableRecord
  2
工程字
 70
     0
 40
0.0
 41
1.0
 50
0.0
 71
     0
 42
3.5
  3
gbenor.shx
  4
gbcbig.shx
  0
STYLE
  5
11081
330
3
100
AcDbSymbolTableRecord
100
AcDbTextStyleTableRecord
  2
Chinese
 70
     0
 40
0.0
 41
1.0
 50
0.0
 71
     0
 42
2.5
  3

  4

1001
ACAD
1000
PMingLiU
1071
    34834
  0
STYLE
  5
1DD07
330
3
100
AcDbSymbolTableRecord
100
AcDbTextStyleTableRecord
  2
数字
 70
     0
 40
1.199999999999999
 41
0.75
 50
0.0
 71
     0
 42
0.2
  3
romans.shx
  4

  0
ENDTAB
  0
TABLE
  2
VIEW
  5
6
330
0
100
AcDbSymbolTable
 70
     0
  0
ENDTAB
  0
TABLE
  2
UCS
  5
7
330
0
100
AcDbSymbolTable
 70
     0
  0
ENDTAB
  0
TABLE
  2
APPID
  5
9
330
0
100
AcDbSymbolTable
 70
    17
  0
APPID
  5
12
330
9
100
AcDbSymbolTableRecord
100
AcDbRegAppTableRecord
  2
ACAD
 70
     0
  0
APPID
  5
5024
330
9
100
AcDbSymbolTableRecord
100
AcDbRegAppTableRecord
  2
ACAD_MLEADERVER
 70
     0
  0
APPID
  5
50B5
330
9
100
AcDbSymbolTableRecord
100
AcDbRegAppTableRecord
  2
AcDbDynamicBlockGUID
 70
     0
  0
APPID
  5
50B6
330
9
100
AcDbSymbolTableRecord
100
AcDbRegAppTableRecord
  2
AcDbBlockRepETag
 70
     0
  0
APPID
  5
50B7
330
9
100
AcDbSymbolTableRecord
100
AcDbRegAppTableRecord
  2
ACAD_PSEXT
 70
     0
  0
APPID
  5
50CF
330
9
100
AcDbSymbolTableRecord
100
AcDbRegAppTableRecord
  2
AcadAnnoPO
 70
     0
  0
APPID
  5
5146
330
9
100
AcDbSymbolTableRecord
100
AcDbRegAppTableRecord
  2
AcAecLayerStandard
 70
     0
  0
APPID
  5
5147
330
9
100
AcDbSymbolTableRecord
100
AcDbRegAppTableRecord
  2
ACAD_DSTYLE_DIMJAG
 70
     0
  0
APPID
  5
5148
330
9
100
AcDbSymbolTableRecord
100
AcDbRegAppTableRecord
  2
ACAD_DSTYLE_DIMTALN
 70
     0
  0
APPID
  5
52AD
330
9
100
AcDbSymbolTableRecord
100
AcDbRegAppTableRecord
  2
ACAUTHENVIRON
 70
     0
  0
APPID
  5
52B0
330
9
100
AcDbSymbolTableRecord
100
AcDbRegAppTableRecord
  2
AcDbDynamicBlockTrueName
 70
     0
  0
APPID
  5
67C6
330
9
100
AcDbSymbolTableRecord
100
AcDbRegAppTableRecord
  2
ACAD_EXEMPT_FROM_CAD_STANDARDS
 70
     0
  0
APPID
  5
6838
330
9
100
AcDbSymbolTableRecord
100
AcDbRegAppTableRecord
  2
ACAD_NAV_VCDISPLAY
 70
     0
  0
APPID
  5
70A9
330
9
100
AcDbSymbolTableRecord
100
AcDbRegAppTableRecord
  2
DCO15
 70
     0
  0
APPID
  5
8725
330
9
100
AcDbSymbolTableRecord
100
AcDbRegAppTableRecord
  2
AcDbBlockRepBTag
 70
     0
  0
APPID
  5
FE64
330
9
100
AcDbSymbolTableRecord
100
AcDbRegAppTableRecord
  2
ACAD_DSTYLE_DIMRADIAL_EXTENSION
 70
     0
  0
APPID
  5
FF93
330
9
100
AcDbSymbolTableRecord
100
AcDbRegAppTableRecord
  2
ACAD_DSTYLE_DIMBREAK
 70
     0
  0
ENDTAB
  0
TABLE
  2
DIMSTYLE
  5
A
330
0
100
AcDbSymbolTable
 70
     3
100
AcDbDimStyleTable
 71
     2
340
5145
340
27
  0
DIMSTYLE
105
27
330
A
100
AcDbSymbolTableRecord
100
AcDbDimStyleTableRecord
  2
Standard
 70
     0
340
11
  0
DIMSTYLE
105
5145
102
{ACAD_REACTORS
330
1F1A5
330
1F1A6
102
}
330
A
100
AcDbSymbolTableRecord
100
AcDbDimStyleTableRecord
  2
01
 70
     0
 41
3.0
 42
0.2
 43
0.2
 44
1.199999999999999
 73
     0
 74
     0
 77
     1
 78
     8
 79
     2
140
3.5
141
0.0
147
0.8
176
     1
177
     6
178
     4
179
     2
271
     1
272
     1
340
FD48
1001
ACAD_DSTYLE_DIMJAG
1070
   388
1040
1.5
1001
ACAD_DSTYLE_DIMTALN
1070
   392
1070
     0
  0
ENDTAB
  0
TABLE
  2
BLOCK_RECORD
  5
1
330
0
100
AcDbSymbolTable
 70
     5
  0
BLOCK_RECORD
  5
1F
102
{ACAD_XDICTIONARY
360
67C0
102
}
330
1
100
AcDbSymbolTableRecord
100
AcDbBlockTableRecord
  2
*Model_Space
340
22
  0
BLOCK_RECORD
  5
1B
330
1
100
AcDbSymbolTableRecord
100
AcDbBlockTableRecord
  2
*Paper_Space
340
1E
  0
BLOCK_RECORD
  5
23
330
1
100
AcDbSymbolTableRecord
100
AcDbBlockTableRecord
  2
*Paper_Space0
340
26
  0
BLOCK_RECORD
  5
10FE8
102
{ACAD_XDICTIONARY
360
1F6D5
102
}
330
1
100
AcDbSymbolTableRecord
100
AcDbBlockTableRecord
  2
A4图框-NEW
340
0
310
2800000020000000200000000100080000000000000400000000000000000000000000000000000000000000000080000080000000808000800000008000800080800000C0C0C000C0DCC000F0CAA6000020400000206000002080000020A0000020C0000020E00000400000004020000040400000406000004080000040A0
310
000040C0000040E00000600000006020000060400000606000006080000060A0000060C0000060E00000800000008020000080400000806000008080000080A0000080C0000080E00000A0000000A0200000A0400000A0600000A0800000A0A00000A0C00000A0E00000C0000000C0200000C0400000C0600000C0800000C0
310
A00000C0C00000C0E00000E0000000E0200000E0400000E0600000E0800000E0A00000E0C00000E0E00040000000400020004000400040006000400080004000A0004000C0004000E00040200000402020004020400040206000402080004020A0004020C0004020E000404000004040200040404000404060004040800040
310
40A0004040C0004040E00040600000406020004060400040606000406080004060A0004060C0004060E00040800000408020004080400040806000408080004080A0004080C0004080E00040A0000040A0200040A0400040A0600040A0800040A0A00040A0C00040A0E00040C0000040C0200040C0400040C0600040C08000
310
40C0A00040C0C00040C0E00040E0000040E0200040E0400040E0600040E0800040E0A00040E0C00040E0E00080000000800020008000400080006000800080008000A0008000C0008000E00080200000802020008020400080206000802080008020A0008020C0008020E00080400000804020008040400080406000804080
310
008040A0008040C0008040E00080600000806020008060400080606000806080008060A0008060C0008060E00080800000808020008080400080806000808080008080A0008080C0008080E00080A0000080A0200080A0400080A0600080A0800080A0A00080A0C00080A0E00080C0000080C0200080C0400080C0600080C0
310
800080C0A00080C0C00080C0E00080E0000080E0200080E0400080E0600080E0800080E0A00080E0C00080E0E000C0000000C0002000C0004000C0006000C0008000C000A000C000C000C000E000C0200000C0202000C0204000C0206000C0208000C020A000C020C000C020E000C0400000C0402000C0404000C0406000C0
310
408000C040A000C040C000C040E000C0600000C0602000C0604000C0606000C0608000C060A000C060C000C060E000C0800000C0802000C0804000C0806000C0808000C080A000C080C000C080E000C0A00000C0A02000C0A04000C0A06000C0A08000C0A0A000C0A0C000C0A0E000C0C00000C0C02000C0C04000C0C06000
310
C0C08000C0C0A000F0FBFF00A4A0A000808080000000FF0000FF000000FFFF00FF000000FF00FF00FFFF0000FFFFFF0000000000000000000000000000000000000000000000000000000000000000000000000000000000000000000000000000000000000000000000000000000000000000000000000000000000000000
310
000000000000000000000000000000000000000000000000000000000000000000000000000000000000000000000000000000000000000000000000000000000000000000000000000000000000000000000000000000000000000000000000000000000000000000000000000000000000F9F9F9F9F9F9F9F9F9F9F9F9F9
310
F9F9F9F9F9F9F9F9F9F9F9F9F9F9FF00000000F9FF000000000000000000FFFFFFFFFFFFFFFFFFFFFFFFF9FAFAFAFF00000000F9FF000000000000000000FFFFFFFFFFFFFFFFFFFFFFFFFFFFFFFFFF00000000F9FD000000000000000000FFFFFFFFFFFFFFFFFFFFFFFFFFFFFFFFFF00000000F9FF000000000000000000FF
310
FFFFFFFFFFFFFFFFFFFFFFFFFFFFFFFF00000000F9FD000000000000000000FFFFFFFFFFFFFFFFFFFFFFFFFFFFFFFFFF00000000F9FF00000000000000000000000000000000000000000000000000FF00000000F9FD00000000000000000000000000000000000000000000000000FF00000000F9FF000000000000000000
310
00000000000000000000000000000000FF00000000F9FD00000000000000000000000000000000000000000000000000FF00000000F9FF00000000000000000000000000000000000000000000000000FF00000000F9FD00000000000000000000000000000000000000000000000000FF00000000F9FD0000000000000000
310
0000000000000000000000000000000000FF00000000F9FF00000000000000000000000000000000000000000000000000FF00000000F9FD00000000000000000000000000000000000000000000000000FF00000000F9FF00000000000000000000000000000000000000000000000000FF00000000F9FD00000000000000
310
000000000000000000000000000000000000FF00000000F9FF00000000000000000000000000000000000000000000000000FF00000000F9FFFFFFFFFFFFFFFFFFFFFFFFFFFFFFFFFFFFFFFFFFFFFFFFFFFFFF00000000F9FFFFFFF9F9F9F9F9F9F9F9F9F9F9F9F9F9F9F9F9F9F9F9F9F9F9F9000000000000000000000000
310
00000000000000000000000000000000000000000000000000000000000000000000000000000000000000000000000000000000000000000000000000000000000000000000000000000000000000000000000000000000000000000000000000000000000000000000000000000000000000000000000000000000000000
310
0000000000000000000000000000000000000000000000000000000000000000000000000000000000000000000000000000000000000000
102
{BLKREFS
331
11089
102
}
1001
AcDbDynamicBlockGUID
1000
{757222DA-F38D-4818-B073-6A24A01BDD13}
1001
AcDbBlockRepETag
1070
     1
1071
      149
1001
ACAD
1000
DesignCenter Data
1002
{
1070
     1
1070
     4
1002
}
  0
BLOCK_RECORD
  5
1F1A7
330
1
100
AcDbSymbolTableRecord
100
AcDbBlockTableRecord
  2
*D2
340
0
  0
BLOCK_RECORD
  5
1F1B3
330
1
100
AcDbSymbolTableRecord
100
AcDbBlockTableRecord
  2
*D3
340
0
  0
ENDTAB
  0
ENDSEC
  0
SECTION
  2
BLOCKS
  0
BLOCK
  5
20
330
1F
100
AcDbEntity
  8
0
100
AcDbBlockBegin
  2
*Model_Space
 70
     0
 10
0.0
 20
0.0
 30
0.0
  3
*Model_Space
  1

  0
ENDBLK
  5
21
330
1F
100
AcDbEntity
  8
0
100
AcDbBlockEnd
  0
BLOCK
  5
1C
330
1B
100
AcDbEntity
 67
     1
  8
0
100
AcDbBlockBegin
  2
*Paper_Space
 70
     0
 10
0.0
 20
0.0
 30
0.0
  3
*Paper_Space
  1

  0
ENDBLK
  5
1D
330
1B
100
AcDbEntity
 67
     1
  8
0
100
AcDbBlockEnd
  0
BLOCK
  5
24
330
23
100
AcDbEntity
 67
     1
  8
0
100
AcDbBlockBegin
  2
*Paper_Space0
 70
     0
 10
0.0
 20
0.0
 30
0.0
  3
*Paper_Space0
  1

  0
ENDBLK
  5
25
330
23
100
AcDbEntity
 67
     1
  8
0
100
AcDbBlockEnd
  0
BLOCK
  5
10FEA
330
10FE8
100
AcDbEntity
  8
0
100
AcDbBlockBegin
  2
A4图框-NEW
 70
     0
 10
0.0
 20
0.0
 30
0.0
  3
A4图框-NEW
  1

  0
MTEXT
  5
1F641
102
{ACAD_XDICTIONARY
360
1F890
102
}
330
10FE8
100
AcDbEntity
  8
图框
 62
     3
100
AcDbMText
 10
967.6594956750133
 20
499.7664151964293
 30
0.0
 40
2.985513575034151
 41
15.50176341157864
 71
     5
 72
     5
  1
GQ.WU
  7
Romans字体
 73
     1
 44
1.0
1001
AcDbBlockRepETag
1070
     1
1071
        0
1005
1F641
1001
ACAD
1000
MTEXTBEGIN
1070
    73
1070
     1
1070
    44
1040
1.0
1070
    74
1070
     0
1000
MTEXTEND
1000
ACAD_MTEXT_DEFINED_HEIGHT_BEGIN
1070
    46
1040
6.292658374511018
1000
ACAD_MTEXT_DEFINED_HEIGHT_END
  0
MTEXT
  5
1F642
330
10FE8
100
AcDbEntity
  8
图框
 62
     3
100
AcDbMText
 10
983.041569333247
 20
499.7664151964293
 30
0.0
 40
2.487927979195124
 41
15.26238390489051
 71
     5
 72
     5
  1
{\W0.7;18.04.2022}
  7
Romans字体
 73
     1
 44
1.0
1001
AcDbBlockRepETag
1070
     1
1071
        1
1005
1F642
1001
ACAD
1000
MTEXTBEGIN
1070
    73
1070
     1
1070
    44
1040
1.0
1070
    74
1070
     0
1000
MTEXTEND
1000
ACAD_MTEXT_DEFINED_HEIGHT_BEGIN
1070
    46
1040
6.292658374511042
1000
ACAD_MTEXT_DEFINED_HEIGHT_END
  0
MTEXT
  5
1F643
330
10FE8
100
AcDbEntity
  8
图框
 62
     3
100
AcDbMText
 10
1012.477254728976
 20
487.1810984474071
 30
0.0
 40
2.985513575034151
 41
17.64876416884615
 71
     5
 72
     5
  1
HX.K
  7
Romans字体
 73
     1
 44
1.0
1001
AcDbBlockRepETag
1070
     1
1071
        2
1005
1F643
1001
ACAD
1000
MTEXTBEGIN
1070
    73
1070
     1
1070
    44
1040
1.0
1070
    74
1070
     0
1000
MTEXTEND
1000
ACAD_MTEXT_DEFINED_HEIGHT_BEGIN
1070
    46
1040
6.292658374511455
1000
ACAD_MTEXT_DEFINED_HEIGHT_END
  0
MTEXT
  5
1F644
330
10FE8
100
AcDbEntity
  8
图框
 62
     3
100
AcDbMText
 10
1028.977802139886
 20
487.1810984474071
 30
0.0
 40
2.487927979195124
 41
15.35233065297276
 71
     5
 72
     5
  1
{\W0.7;18.04.2022}
  7
Romans字体
 73
     1
 44
1.0
1001
AcDbBlockRepETag
1070
     1
1071
        3
1005
1F644
1001
ACAD
1000
MTEXTBEGIN
1070
    73
1070
     1
1070
    44
1040
1.0
1070
    74
1070
     0
1000
MTEXTEND
1000
ACAD_MTEXT_DEFINED_HEIGHT_BEGIN
1070
    46
1040
6.292658374511495
1000
ACAD_MTEXT_DEFINED_HEIGHT_END
  0
MTEXT
  5
1F645
330
10FE8
100
AcDbEntity
  8
图框
 62
     3
100
AcDbMText
 10
1063.722665487208
 20
525.4145966538831
 30
0.0
 40
2.985513575034151
 41
32.4973914334545
 71
     5
 72
     5
  1
-
  7
Romans字体
 73
     1
 44
1.0
1001
AcDbBlockRepETag
1070
     1
1071
        4
1005
1F645
1001
ACAD
1000
MTEXTBEGIN
1070
    73
1070
     1
1070
    44
1040
1.0
1070
    74
1070
     0
1000
MTEXTEND
1000
ACAD_MTEXT_DEFINED_HEIGHT_BEGIN
1070
    46
1040
11.82914190181707
1000
ACAD_MTEXT_DEFINED_HEIGHT_END
  0
MTEXT
  5
1F646
330
10FE8
100
AcDbEntity
  8
图框
 62
     3
100
AcDbMText
 10
1063.727338552349
 20
513.5854547520641
 30
0.0
 40
2.985513575034151
 41
32.48804530317308
 71
     5
 72
     5
  1
-
  7
Romans字体
 73
     1
 44
1.0
1001
AcDbBlockRepETag
1070
     1
1071
        5
1005
1F646
1001
ACAD
1000
MTEXTBEGIN
1070
    73
1070
     1
1070
    44
1040
1.0
1070
    74
1070
     0
1000
MTEXTEND
1000
ACAD_MTEXT_DEFINED_HEIGHT_BEGIN
1070
    46
1040
11.82914190182139
1000
ACAD_MTEXT_DEFINED_HEIGHT_END
  0
MTEXT
  5
1F647
330
10FE8
100
AcDbEntity
  8
图框
 62
     3
100
AcDbMText
 10
1110.122306614152
 20
526.8006839312707
 30
0.0
 40
2.985513575034151
 41
33.61239199242139
 71
     5
 72
     5
  1
-
  7
Romans字体
 73
     1
 44
1.0
1001
AcDbBlockRepETag
1070
     1
1071
        6
1005
1F647
1001
ACAD
1000
MTEXTBEGIN
1070
    73
1070
     1
1070
    44
1040
1.0
1070
    74
1070
     0
1000
MTEXTEND
1000
ACAD_MTEXT_DEFINED_HEIGHT_BEGIN
1070
    46
1040
9.05696734704178
1000
ACAD_MTEXT_DEFINED_HEIGHT_END
  0
MTEXT
  5
1F648
330
10FE8
100
AcDbEntity
  8
图框
 62
     3
100
AcDbMText
 10
1110.122306614152
 20
500.2775205517162
 30
0.0
 40
2.985513575034151
 41
33.61239199242139
 71
     5
 72
     5
  1
-
  7
Romans字体
 73
     1
 44
1.0
1001
AcDbBlockRepETag
1070
     1
1071
        7
1005
1F648
1001
ACAD
1000
MTEXTBEGIN
1070
    73
1070
     1
1070
    44
1040
1.0
1070
    74
1070
     0
1000
MTEXTEND
1000
ACAD_MTEXT_DEFINED_HEIGHT_BEGIN
1070
    46
1040
8.871557304763419
1000
ACAD_MTEXT_DEFINED_HEIGHT_END
  0
MTEXT
  5
1F649
330
10FE8
100
AcDbEntity
  8
图框
 62
     3
100
AcDbMText
 10
967.6594956750133
 20
493.4737568219182
 30
0.0
 40
2.985513575034151
 41
15.50176341157864
 71
     5
 72
     5
  1
P RAO
  7
Romans字体
 73
     1
 44
1.0
1001
AcDbBlockRepETag
1070
     1
1071
        8
1005
1F649
1001
ACAD
1000
MTEXTBEGIN
1070
    73
1070
     1
1070
    44
1040
1.0
1070
    74
1070
     0
1000
MTEXTEND
1000
ACAD_MTEXT_DEFINED_HEIGHT_BEGIN
1070
    46
1040
6.292658374510335
1000
ACAD_MTEXT_DEFINED_HEIGHT_END
  0
MTEXT
  5
1F64A
330
10FE8
100
AcDbEntity
  8
图框
 62
     3
100
AcDbMText
 10
983.041569333247
 20
493.2441970450405
 30
0.0
 40
2.487927979195124
 41
15.26238390489051
 71
     5
 72
     5
  1
{\W0.7;18.04.2022}
  7
Romans字体
 73
     1
 44
1.0
1001
AcDbBlockRepETag
1070
     1
1071
        9
1005
1F64A
1001
ACAD
1000
MTEXTBEGIN
1070
    73
1070
     1
1070
    44
1040
1.0
1070
    74
1070
     0
1000
MTEXTEND
1000
ACAD_MTEXT_DEFINED_HEIGHT_BEGIN
1070
    46
1040
6.751777928266487
1000
ACAD_MTEXT_DEFINED_HEIGHT_END
  0
MTEXT
  5
1F64B
330
10FE8
100
AcDbEntity
  8
图框
 62
     3
100
AcDbMText
 10
1012.477254728976
 20
499.7664151964291
 30
0.0
 40
2.985513575034151
 41
17.64876416884615
 71
     5
 72
     5
  1
-
  7
Romans字体
 73
     1
 44
1.0
1001
AcDbBlockRepETag
1070
     1
1071
       10
1005
1F64B
1001
ACAD
1000
MTEXTBEGIN
1070
    73
1070
     1
1070
    44
1040
1.0
1070
    74
1070
     0
1000
MTEXTEND
1000
ACAD_MTEXT_DEFINED_HEIGHT_BEGIN
1070
    46
1040
6.292658374511397
1000
ACAD_MTEXT_DEFINED_HEIGHT_END
  0
MTEXT
  5
1F64C
330
10FE8
100
AcDbEntity
  8
图框
 62
     3
100
AcDbMText
 10
1028.977802139886
 20
499.7664151964289
 30
0.0
 40
2.487927979195124
 41
15.35233065297265
 71
     5
 72
     5
  1
-
  7
Romans字体
 73
     1
 44
1.0
1001
AcDbBlockRepETag
1070
     1
1071
       11
1005
1F64C
1001
ACAD
1000
MTEXTBEGIN
1070
    73
1070
     1
1070
    44
1040
1.0
1070
    74
1070
     0
1000
MTEXTEND
1000
ACAD_MTEXT_DEFINED_HEIGHT_BEGIN
1070
    46
1040
6.292658374511382
1000
ACAD_MTEXT_DEFINED_HEIGHT_END
  0
MTEXT
  5
1F64D
330
10FE8
100
AcDbEntity
  8
图框
 62
     3
100
AcDbMText
 10
967.6594956750133
 20
487.1810984474071
 30
0.0
 40
2.985513575034151
 41
15.50176341157863
 71
     5
 72
     5
  1
-
  7
Romans字体
 73
     1
 44
1.0
1001
AcDbBlockRepETag
1070
     1
1071
       12
1005
1F64D
1001
ACAD
1000
MTEXTBEGIN
1070
    73
1070
     1
1070
    44
1040
1.0
1070
    74
1070
     0
1000
MTEXTEND
1000
ACAD_MTEXT_DEFINED_HEIGHT_BEGIN
1070
    46
1040
6.292658374511478
1000
ACAD_MTEXT_DEFINED_HEIGHT_END
  0
MTEXT
  5
1F64E
330
10FE8
100
AcDbEntity
  8
图框
 62
     3
100
AcDbMText
 10
983.041569333247
 20
487.1810984474071
 30
0.0
 40
2.487927979195124
 41
15.26238390489062
 71
     5
 72
     5
  1
-
  7
Romans字体
 73
     1
 44
1.0
1001
AcDbBlockRepETag
1070
     1
1071
       13
1005
1F64E
1001
ACAD
1000
MTEXTBEGIN
1070
    73
1070
     1
1070
    44
1040
1.0
1070
    74
1070
     0
1000
MTEXTEND
1000
ACAD_MTEXT_DEFINED_HEIGHT_BEGIN
1070
    46
1040
6.292658374511495
1000
ACAD_MTEXT_DEFINED_HEIGHT_END
  0
MTEXT
  5
1F64F
330
10FE8
100
AcDbEntity
  8
图框
 62
     3
100
AcDbMText
 10
1074.556686986741
 20
495.8417418993361
 30
0.0
 40
2.985513575034151
 41
10.82934843438978
 71
     5
 72
     5
  1
-
  7
Romans字体
 73
     1
 44
1.0
1001
AcDbBlockRepETag
1070
     1
1071
       14
1005
1F64F
1001
ACAD
1000
MTEXTBEGIN
1070
    73
1070
     1
1070
    44
1040
1.0
1070
    74
1070
     0
1000
MTEXTEND
1000
ACAD_MTEXT_DEFINED_HEIGHT_BEGIN
1070
    46
1040
7.886094601210427
1000
ACAD_MTEXT_DEFINED_HEIGHT_END
  0
LINE
  5
1F650
330
10FE8
100
AcDbEntity
  8
图框
370
    -3
100
AcDbLine
 10
1036.653967466372
 20
499.7847891999413
 30
0.0
 11
1079.971361203936
 21
499.7847891999413
 31
0.0
1001
AcDbBlockRepETag
1070
     1
1071
       15
1005
1F650
  0
MTEXT
  5
1F651
330
10FE8
100
AcDbEntity
  8
图框
 62
     1
370
    20
100
AcDbMText
 10
1108.26336443907
 20
491.5162596080882
 30
0.0
 40
2.699054613030988
 41
82.30831305643079
 71
     5
 72
     5
  1
{\fSimHei|b0|i0|c134|p2;厦门唯恩电气有限公司}
 73
     1
 44
1.0
1001
AcDbBlockRepETag
1070
     1
1071
       16
1005
1F651
1001
ACAD
1000
MTEXTBEGIN
1070
    73
1070
     1
1070
    44
1040
1.0
1070
    74
1070
     0
1000
MTEXTEND
  0
MTEXT
  5
1F652
330
10FE8
100
AcDbEntity
  8
图框
 62
     3
370
    20
100
AcDbMText
 10
1108.435451459908
 20
487.298967726064
 30
0.0
 40
1.652482416141417
 41
68.08558693693567
 71
     5
 72
     5
  1
{\fArial Narrow|b0|i0|c0|p34;XIAMEN WAIN ELECTRICAL CO.LTD}
  7
工程字
 73
     1
 44
1.0
1001
AcDbBlockRepETag
1070
     1
1071
       17
1005
1F652
1001
ACAD
1000
MTEXTBEGIN
1070
    73
1070
     1
1070
    44
1040
1.0
1070
    74
1070
     0
1000
MTEXTEND
  0
MTEXT
  5
1F653
330
10FE8
100
AcDbEntity
  8
图框
 62
     1
370
    20
100
AcDbMText
 10
1085.711816899387
 20
491.0944802995856
 30
0.0
 40
2.005930044038334
 41
5.047240019334847
 71
     1
 72
     5
  1
{\fArial|b0|i0|c0|p34;A}
  7
Chinese
 73
     1
 44
1.0
1001
AcDbBlockRepETag
1070
     1
1071
       18
1005
1F653
1001
ACAD
1000
MTEXTBEGIN
1070
    73
1070
     1
1070
    44
1040
1.0
1070
    74
1070
     0
1000
MTEXTEND
  0
MTEXT
  5
1F654
330
10FE8
100
AcDbEntity
  8
图框
 62
     1
370
    20
100
AcDbMText
 10
1088.213485935716
 20
491.0944802995856
 30
0.0
 40
2.005930044038334
 41
5.047240019334847
 71
     1
 72
     5
  1
{\fArial|b0|i0|c0|p34;I}
  7
Chinese
 73
     1
 44
1.0
1001
AcDbBlockRepETag
1070
     1
1071
       19
1005
1F654
1001
ACAD
1000
MTEXTBEGIN
1070
    73
1070
     1
1070
    44
1040
1.0
1070
    74
1070
     0
1000
MTEXTEND
  0
MTEXT
  5
1F655
330
10FE8
100
AcDbEntity
  8
图框
 62
     1
370
    20
100
AcDbMText
 10
1089.142375222864
 20
491.0822866326808
 30
0.0
 40
2.005930044038334
 41
5.047240019334847
 71
     1
 72
     5
  1
{\fArial|b0|i0|c0|p34;N}
  7
Chinese
 73
     1
 44
1.0
1001
AcDbBlockRepETag
1070
     1
1071
       20
1005
1F655
1001
ACAD
1000
MTEXTBEGIN
1070
    73
1070
     1
1070
    44
1040
1.0
1070
    74
1070
     0
1000
MTEXTEND
  0
MTEXT
  5
1F656
330
10FE8
100
AcDbEntity
  8
图框
100
AcDbMText
 10
1069.142012769545
 20
487.9667319294409
 30
0.0
 40
2.252848170144607
 41
21.65869686878327
 71
     5
 72
     5
  1
{\W0.5;\C1;All Dimensions in mm\POriginal Size DIN A 4}
  7
Romans字体
 73
     1
 44
1.0
1001
AcDbBlockRepETag
1070
     1
1071
       21
1005
1F656
1001
ACAD
1000
MTEXTBEGIN
1070
    73
1070
     1
1070
    44
1040
1.0
1070
    74
1070
     0
1000
MTEXTEND
1000
ACAD_MTEXT_DEFINED_HEIGHT_BEGIN
1070
    46
1040
7.863925338579296
1000
ACAD_MTEXT_DEFINED_HEIGHT_END
  0
MTEXT
  5
1F657
330
10FE8
100
AcDbEntity
  8
图框
  6
ByBlock
 62
     6
370
    18
100
AcDbMText
 10
1127.40434942308
 20
508.7896535755975
 30
0.0
 40
2.651776162684904
 41
2.557913877927211
 71
     1
 72
     5
  1
A
  7
Romans字体
 11
0.0000000000000001
 21
1.0
 31
0.0
 73
     1
 44
1.0
1001
AcDbBlockRepETag
1070
     1
1071
       22
1005
1F657
1001
ACAD
1000
MTEXTBEGIN
1070
    73
1070
     1
1070
    44
1040
1.0
1070
    74
1070
     0
1000
MTEXTEND
  0
MTEXT
  5
1F658
330
10FE8
100
AcDbEntity
  8
图框
 62
     6
100
AcDbMText
 10
1127.40434942308
 20
556.3746573232886
 30
0.0
 40
2.651776162684904
 41
2.557913877927211
 71
     1
 72
     5
  1
B
  7
Romans字体
 11
0.0000000000000001
 21
1.0
 31
0.0
 73
     1
 44
1.0
1001
AcDbBlockRepETag
1070
     1
1071
       23
1005
1F658
1001
ACAD
1000
MTEXTBEGIN
1070
    73
1070
     1
1070
    44
1040
1.0
1070
    74
1070
     0
1000
MTEXTEND
  0
MTEXT
  5
1F659
330
10FE8
100
AcDbEntity
  8
图框
 62
     6
100
AcDbMText
 10
1127.40434942308
 20
607.5539372630998
 30
0.0
 40
2.651776162684904
 41
2.557913877927211
 71
     1
 72
     5
  1
C
  7
Romans字体
 11
0.0000000000000001
 21
1.0
 31
0.0
 73
     1
 44
1.0
1001
AcDbBlockRepETag
1070
     1
1071
       24
1005
1F659
1001
ACAD
1000
MTEXTBEGIN
1070
    73
1070
     1
1070
    44
1040
1.0
1070
    74
1070
     0
1000
MTEXTEND
  0
MTEXT
  5
1F65A
330
10FE8
100
AcDbEntity
  8
图框
 62
     6
100
AcDbMText
 10
1127.40434942308
 20
658.7332172029115
 30
0.0
 40
2.651776162684904
 41
2.557913877927211
 71
     1
 72
     5
  1
D
  7
Romans字体
 11
0.0000000000000001
 21
1.0
 31
0.0
 73
     1
 44
1.0
1001
AcDbBlockRepETag
1070
     1
1071
       25
1005
1F65A
1001
ACAD
1000
MTEXTBEGIN
1070
    73
1070
     1
1070
    44
1040
1.0
1070
    74
1070
     0
1000
MTEXTEND
  0
LINE
  5
1F65B
330
10FE8
100
AcDbEntity
  8
图框
 62
     6
100
AcDbLine
 10
1130.411601781241
 20
634.0726090796082
 30
0.0
 11
1126.928502610363
 21
634.0726090796082
 31
0.0
1001
AcDbBlockRepETag
1070
     1
1071
       26
1005
1F65B
  0
LINE
  5
1F65C
330
10FE8
100
AcDbEntity
  8
图框
 62
     6
100
AcDbLine
 10
1130.411601781241
 20
582.89332913979
 30
0.0
 11
1126.928502610363
 21
582.89332913979
 31
0.0
1001
AcDbBlockRepETag
1070
     1
1071
       27
1005
1F65C
  0
MTEXT
  5
1F65D
330
10FE8
100
AcDbEntity
  8
图框
 62
     6
100
AcDbMText
 10
1105.329704038389
 20
483.6164543011163
 30
0.0
 40
2.651776162684904
 41
2.557913877927211
 71
     1
 72
     5
  1
6
  7
Romans字体
 73
     1
 44
1.0
1001
AcDbBlockRepETag
1070
     1
1071
       28
1005
1F65D
1001
ACAD
1000
MTEXTBEGIN
1070
    73
1070
     1
1070
    44
1040
1.0
1070
    74
1070
     0
1000
MTEXTEND
  0
LINE
  5
1F65E
330
10FE8
100
AcDbEntity
  8
图框
 62
     6
100
AcDbLine
 10
1081.088565155284
 20
484.0347692601515
 30
0.0
 11
1081.088565155284
 21
480.5347692601475
 31
0.0
1001
AcDbBlockRepETag
1070
     1
1071
       29
1005
1F65E
  0
MTEXT
  5
1F65F
330
10FE8
100
AcDbEntity
  8
图框
 62
     6
100
AcDbMText
 10
1055.900596365941
 20
483.520053108993
 30
0.0
 40
2.651776162684904
 41
2.557913877927211
 71
     1
 72
     5
  1
5
  7
Romans字体
 73
     1
 44
1.0
1001
AcDbBlockRepETag
1070
     1
1071
       30
1005
1F65F
1001
ACAD
1000
MTEXTBEGIN
1070
    73
1070
     1
1070
    44
1040
1.0
1070
    74
1070
     0
1000
MTEXTEND
  0
LINE
  5
1F660
330
10FE8
100
AcDbEntity
  8
图框
 62
     6
100
AcDbLine
 10
1031.553386436349
 20
484.0347692601515
 30
0.0
 11
1031.553386436349
 21
480.5347692601475
 31
0.0
1001
AcDbBlockRepETag
1070
     1
1071
       31
1005
1F660
  0
MTEXT
  5
1F661
330
10FE8
100
AcDbEntity
  8
图框
 62
     6
100
AcDbMText
 10
1006.383180575197
 20
483.5687958215896
 30
0.0
 40
2.651776162684904
 41
2.557913877927211
 71
     1
 72
     5
  1
4
  7
Romans字体
 73
     1
 44
1.0
1001
AcDbBlockRepETag
1070
     1
1071
       32
1005
1F661
1001
ACAD
1000
MTEXTBEGIN
1070
    73
1070
     1
1070
    44
1040
1.0
1070
    74
1070
     0
1000
MTEXTEND
  0
LINE
  5
1F662
330
10FE8
100
AcDbEntity
  8
图框
 62
     6
100
AcDbLine
 10
982.0182077173887
 20
484.0347692601515
 30
0.0
 11
982.0182077173887
 21
480.5347692601475
 31
0.0
1001
AcDbBlockRepETag
1070
     1
1071
       33
1005
1F662
  0
MTEXT
  5
1F663
330
10FE8
100
AcDbEntity
  8
图框
 62
     6
100
AcDbMText
 10
956.8302389280352
 20
483.5989680297948
 30
0.0
 40
2.651776162684904
 41
2.557913877927211
 71
     1
 72
     5
  1
3
  7
Romans字体
 73
     1
 44
1.0
1001
AcDbBlockRepETag
1070
     1
1071
       34
1005
1F663
1001
ACAD
1000
MTEXTBEGIN
1070
    73
1070
     1
1070
    44
1040
1.0
1070
    74
1070
     0
1000
MTEXTEND
  0
LINE
  5
1F664
330
10FE8
100
AcDbEntity
  8
图框
 62
     6
100
AcDbLine
 10
932.4830289984245
 20
484.0347692601515
 30
0.0
 11
932.4830289984245
 21
480.5347692601475
 31
0.0
1001
AcDbBlockRepETag
1070
     1
1071
       35
1005
1F664
  0
MTEXT
  5
1F665
330
10FE8
100
AcDbEntity
  8
图框
 62
     6
100
AcDbMText
 10
906.0252349826365
 20
483.6475250013156
 30
0.0
 40
2.651776162684904
 41
2.557913877927211
 71
     1
 72
     5
  1
2
  7
Romans字体
 73
     1
 44
1.0
1001
AcDbBlockRepETag
1070
     1
1071
       36
1005
1F665
1001
ACAD
1000
MTEXTBEGIN
1070
    73
1070
     1
1070
    44
1040
1.0
1070
    74
1070
     0
1000
MTEXTEND
  0
LINE
  5
1F666
330
10FE8
100
AcDbEntity
  8
图框
 62
     6
100
AcDbLine
 10
882.9478502794648
 20
484.0347692601515
 30
0.0
 11
882.9478502794648
 21
480.5347692601475
 31
0.0
1001
AcDbBlockRepETag
1070
     1
1071
       37
1005
1F666
  0
MTEXT
  5
1F667
330
10FE8
100
AcDbEntity
  8
图框
 62
     6
100
AcDbMText
 10
857.7598814901191
 20
483.651829494754
 30
0.0
 40
2.651776162684904
 41
2.557913877927211
 71
     1
 72
     5
  1
1
  7
Romans字体
 73
     1
 44
1.0
1001
AcDbBlockRepETag
1070
     1
1071
       38
1005
1F667
1001
ACAD
1000
MTEXTBEGIN
1070
    73
1070
     1
1070
    44
1040
1.0
1070
    74
1070
     0
1000
MTEXTEND
  0
LINE
  5
1F668
330
10FE8
100
AcDbEntity
  8
图框
370
    50
100
AcDbLine
 10
836.8548209370597
 20
484.0347692601515
 30
0.0
 11
1126.928502610363
 21
484.0347692601515
 31
0.0
1001
AcDbBlockRepETag
1070
     1
1071
       39
1005
1F668
  0
LINE
  5
1F669
330
10FE8
100
AcDbEntity
  8
图框
370
    50
100
AcDbLine
 10
836.9128518455362
 20
484.0178684310246
 30
0.0
 11
836.9128518455394
 21
675.0207195125422
 31
0.0
1001
AcDbBlockRepETag
1070
     1
1071
       40
1005
1F669
  0
MTEXT
  5
1F66A
330
10FE8
100
AcDbEntity
  8
图框
 62
     6
100
AcDbMText
 10
833.8475685789031
 20
658.7332172029115
 30
0.0
 40
2.651776162684904
 41
2.557913877927211
 71
     1
 72
     5
  1
D
  7
Romans字体
 11
0.0000000000000001
 21
1.0
 31
0.0
 73
     1
 44
1.0
1001
AcDbBlockRepETag
1070
     1
1071
       41
1005
1F66A
1001
ACAD
1000
MTEXTBEGIN
1070
    73
1070
     1
1070
    44
1040
1.0
1070
    74
1070
     0
1000
MTEXTEND
  0
LINE
  5
1F66B
330
10FE8
100
AcDbEntity
  8
图框
 62
     6
100
AcDbLine
 10
836.9128518455386
 20
634.0726090796082
 30
0.0
 11
833.4128518455365
 21
634.0726090796082
 31
0.0
1001
AcDbBlockRepETag
1070
     1
1071
       42
1005
1F66B
  0
MTEXT
  5
1F66C
330
10FE8
100
AcDbEntity
  8
图框
 62
     6
100
AcDbMText
 10
833.9039177480142
 20
607.5539372630998
 30
0.0
 40
2.651776162684904
 41
2.557913877927211
 71
     1
 72
     5
  1
C
  7
Romans字体
 11
0.0000000000000001
 21
1.0
 31
0.0
 73
     1
 44
1.0
1001
AcDbBlockRepETag
1070
     1
1071
       43
1005
1F66C
1001
ACAD
1000
MTEXTBEGIN
1070
    73
1070
     1
1070
    44
1040
1.0
1070
    74
1070
     0
1000
MTEXTEND
  0
LINE
  5
1F66D
330
10FE8
100
AcDbEntity
  8
图框
 62
     6
100
AcDbLine
 10
836.9128518455378
 20
582.89332913979
 30
0.0
 11
833.4128518455365
 21
582.89332913979
 31
0.0
1001
AcDbBlockRepETag
1070
     1
1071
       44
1005
1F66D
  0
MTEXT
  5
1F66E
330
10FE8
100
AcDbEntity
  8
图框
 62
     6
100
AcDbMText
 10
833.9039177480142
 20
556.3746573232886
 30
0.0
 40
2.651776162684904
 41
2.557913877927211
 71
     1
 72
     5
  1
B
  7
Romans字体
 11
0.0000000000000001
 21
1.0
 31
0.0
 73
     1
 44
1.0
1001
AcDbBlockRepETag
1070
     1
1071
       45
1005
1F66E
1001
ACAD
1000
MTEXTBEGIN
1070
    73
1070
     1
1070
    44
1040
1.0
1070
    74
1070
     0
1000
MTEXTEND
  0
LINE
  5
1F66F
330
10FE8
100
AcDbEntity
  8
图框
 62
     6
100
AcDbLine
 10
836.9128518455367
 20
531.714049199969
 30
0.0
 11
833.4128518455365
 21
531.714049199969
 31
0.0
1001
AcDbBlockRepETag
1070
     1
1071
       46
1005
1F66F
  0
MTEXT
  5
1F670
330
10FE8
100
AcDbEntity
  8
图框
 62
     6
100
AcDbMText
 10
833.9039177480142
 20
508.7896535755975
 30
0.0
 40
2.651776162684904
 41
2.557913877927211
 71
     1
 72
     5
  1
A
  7
Romans字体
 11
0.0000000000000001
 21
1.0
 31
0.0
 73
     1
 44
1.0
1001
AcDbBlockRepETag
1070
     1
1071
       47
1005
1F670
1001
ACAD
1000
MTEXTBEGIN
1070
    73
1070
     1
1070
    44
1040
1.0
1070
    74
1070
     0
1000
MTEXTEND
  0
LINE
  5
1F671
330
10FE8
100
AcDbEntity
  8
图框
370
    -3
100
AcDbLine
 10
836.9128518455394
 20
675.0207195125422
 30
0.0
 11
836.9128518455394
 21
684.5021384922564
 31
0.0
1001
AcDbBlockRepETag
1070
     1
1071
       48
1005
1F671
  0
LINE
  5
1F672
330
10FE8
100
AcDbEntity
  8
图框
370
    -3
100
AcDbLine
 10
842.6237321475781
 20
675.5347692601515
 30
0.0
 11
842.6237321475781
 21
685.0161882398658
 31
0.0
1001
AcDbBlockRepETag
1070
     1
1071
       49
1005
1F672
  0
LINE
  5
1F673
330
10FE8
100
AcDbEntity
  8
图框
370
    -3
100
AcDbLine
 10
848.3346124496179
 20
675.5347692601515
 30
0.0
 11
848.3346124496179
 21
685.0161882398658
 31
0.0
1001
AcDbBlockRepETag
1070
     1
1071
       50
1005
1F673
  0
LINE
  5
1F674
330
10FE8
100
AcDbEntity
  8
图框
370
    -3
100
AcDbLine
 10
854.0454927516588
 20
675.5347692601515
 30
0.0
 11
854.0454927516588
 21
685.0161882398658
 31
0.0
1001
AcDbBlockRepETag
1070
     1
1071
       51
1005
1F674
  0
LINE
  5
1F675
330
10FE8
100
AcDbEntity
  8
图框
370
    -3
100
AcDbLine
 10
861.5351874539182
 20
675.5347692601515
 30
0.0
 11
861.5351874539182
 21
686.7901958362482
 31
0.0
1001
AcDbBlockRepETag
1070
     1
1071
       52
1005
1F675
  0
MTEXT
  5
1F676
330
10FE8
100
AcDbEntity
  8
图框
 62
     6
100
AcDbMText
 10
1105.329704038389
 20
678.859919059449
 30
0.0
 40
2.651776162684904
 41
2.557913877927211
 71
     1
 72
     5
  1
6
  7
Romans字体
 73
     1
 44
1.0
1001
AcDbBlockRepETag
1070
     1
1071
       53
1005
1F676
1001
ACAD
1000
MTEXTBEGIN
1070
    73
1070
     1
1070
    44
1040
1.0
1070
    74
1070
     0
1000
MTEXTEND
  0
LINE
  5
1F677
330
10FE8
100
AcDbEntity
  8
图框
 62
     6
100
AcDbLine
 10
1081.088565155284
 20
679.0347692601516
 30
0.0
 11
1081.088565155284
 21
675.5347692601515
 31
0.0
1001
AcDbBlockRepETag
1070
     1
1071
       54
1005
1F677
  0
MTEXT
  5
1F678
330
10FE8
100
AcDbEntity
  8
图框
 62
     6
100
AcDbMText
 10
1055.900596365941
 20
678.859919059449
 30
0.0
 40
2.651776162684904
 41
2.557913877927211
 71
     1
 72
     5
  1
5
  7
Romans字体
 73
     1
 44
1.0
1001
AcDbBlockRepETag
1070
     1
1071
       55
1005
1F678
1001
ACAD
1000
MTEXTBEGIN
1070
    73
1070
     1
1070
    44
1040
1.0
1070
    74
1070
     0
1000
MTEXTEND
  0
LINE
  5
1F679
330
10FE8
100
AcDbEntity
  8
图框
 62
     6
100
AcDbLine
 10
1031.553386436349
 20
679.0347692601516
 30
0.0
 11
1031.553386436349
 21
675.5347692601515
 31
0.0
1001
AcDbBlockRepETag
1070
     1
1071
       56
1005
1F679
  0
MTEXT
  5
1F67A
330
10FE8
100
AcDbEntity
  8
图框
 62
     6
100
AcDbMText
 10
1006.36541764698
 20
678.7312083656147
 30
0.0
 40
2.651776162684904
 41
2.557913877927211
 71
     1
 72
     5
  1
4
  7
Romans字体
 73
     1
 44
1.0
1001
AcDbBlockRepETag
1070
     1
1071
       57
1005
1F67A
1001
ACAD
1000
MTEXTBEGIN
1070
    73
1070
     1
1070
    44
1040
1.0
1070
    74
1070
     0
1000
MTEXTEND
  0
LINE
  5
1F67B
330
10FE8
100
AcDbEntity
  8
图框
 62
     6
100
AcDbLine
 10
982.0182077173887
 20
679.0347692601516
 30
0.0
 11
982.0182077173887
 21
675.5347692601515
 31
0.0
1001
AcDbBlockRepETag
1070
     1
1071
       58
1005
1F67B
  0
MTEXT
  5
1F67C
330
10FE8
100
AcDbEntity
  8
图框
 62
     6
100
AcDbMText
 10
956.8302389280352
 20
678.859919059449
 30
0.0
 40
2.651776162684904
 41
2.557913877927211
 71
     1
 72
     5
  1
3
  7
Romans字体
 73
     1
 44
1.0
1001
AcDbBlockRepETag
1070
     1
1071
       59
1005
1F67C
1001
ACAD
1000
MTEXTBEGIN
1070
    73
1070
     1
1070
    44
1040
1.0
1070
    74
1070
     0
1000
MTEXTEND
  0
LINE
  5
1F67D
330
10FE8
100
AcDbEntity
  8
图框
 62
     6
100
AcDbLine
 10
932.4830289984245
 20
679.0347692601516
 30
0.0
 11
932.4830289984245
 21
675.5347692601515
 31
0.0
1001
AcDbBlockRepETag
1070
     1
1071
       60
1005
1F67D
  0
MTEXT
  5
1F67E
330
10FE8
100
AcDbEntity
  8
图框
 62
     6
100
AcDbMText
 10
907.295060209082
 20
678.859919059449
 30
0.0
 40
2.651776162684904
 41
2.557913877927211
 71
     1
 72
     5
  1
2
  7
Romans字体
 73
     1
 44
1.0
1001
AcDbBlockRepETag
1070
     1
1071
       61
1005
1F67E
1001
ACAD
1000
MTEXTBEGIN
1070
    73
1070
     1
1070
    44
1040
1.0
1070
    74
1070
     0
1000
MTEXTEND
  0
LINE
  5
1F67F
330
10FE8
100
AcDbEntity
  8
图框
 62
     6
100
AcDbLine
 10
882.9478502794648
 20
678.7962435131815
 30
0.0
 11
882.9478502794648
 21
675.5347692601515
 31
0.0
1001
AcDbBlockRepETag
1070
     1
1071
       62
1005
1F67F
  0
MTEXT
  5
1F680
330
10FE8
100
AcDbEntity
  8
图框
 62
     6
100
AcDbMText
 10
862.6286629643733
 20
678.859919059449
 30
0.0
 40
2.651776162684904
 41
2.557913877927211
 71
     1
 72
     5
  1
1
  7
Romans字体
 73
     1
 44
1.0
1001
AcDbBlockRepETag
1070
     1
1071
       63
1005
1F680
1001
ACAD
1000
MTEXTBEGIN
1070
    73
1070
     1
1070
    44
1040
1.0
1070
    74
1070
     0
1000
MTEXTEND
  0
LINE
  5
1F681
330
10FE8
100
AcDbEntity
  8
图框
370
    -3
100
AcDbLine
 10
836.9128518455394
 20
675.0207195125422
 30
0.0
 11
836.9128518455394
 21
686.7901958362482
 31
0.0
1001
AcDbBlockRepETag
1070
     1
1071
       64
1005
1F681
  0
LINE
  5
1F682
330
10FE8
100
AcDbEntity
  8
图框
370
    50
100
AcDbLine
 10
836.9128518455394
 20
675.5347692601515
 30
0.0
 11
1126.928502610363
 21
675.5347692601515
 31
0.0
1001
AcDbBlockRepETag
1070
     1
1071
       65
1005
1F682
  0
LINE
  5
1F683
330
10FE8
100
AcDbEntity
  8
图框
370
    -3
100
AcDbLine
 10
842.6237321475781
 20
675.5347692601515
 30
0.0
 11
842.6237321475781
 21
686.7901958362482
 31
0.0
1001
AcDbBlockRepETag
1070
     1
1071
       66
1005
1F683
  0
LINE
  5
1F684
330
10FE8
100
AcDbEntity
  8
图框
370
    -3
100
AcDbLine
 10
848.3346124496179
 20
675.5347692601515
 30
0.0
 11
848.3346124496179
 21
686.7901958362482
 31
0.0
1001
AcDbBlockRepETag
1070
     1
1071
       67
1005
1F684
  0
MTEXT
  5
1F685
102
{ACAD_XDICTIONARY
360
1F892
102
}
330
10FE8
100
AcDbEntity
  8
图框
100
AcDbMText
 10
857.7903401027889
 20
686.7901958362482
 30
0.0
 40
1.958998408821398
 41
11.25542657609672
 71
     4
 72
     5
  1
{\W2.08073; }档案员{\H0.7x;\P\Fromans|c134;\W1.0325; \W0.75;Filing Clerk\fFangSong_GB2312|b0|i0|c134|p49; }
 11
-0.0000000000000002
 21
-1.0
 31
0.0
 73
     1
 44
1.0
1001
AcDbBlockRepETag
1070
     1
1071
       68
1005
1F685
1001
ACAD
1000
MTEXTBEGIN
1070
    73
1070
     1
1070
    44
1040
1.0
1070
    74
1070
     0
1000
MTEXTEND
1000
ACAD_MTEXT_DEFINED_HEIGHT_BEGIN
1070
    46
1040
7.489694702258906
1000
ACAD_MTEXT_DEFINED_HEIGHT_END
  0
MTEXT
  5
1F686
102
{ACAD_XDICTIONARY
360
1F894
102
}
330
10FE8
100
AcDbEntity
  8
图框
100
AcDbMText
 10
845.479172298598
 20
686.7901958362482
 30
0.0
 40
1.958998408821398
 41
11.25542657609672
 71
     4
 72
     5
  1
{\W0.524929; }日期{\Fromans|c134;/Date}
 11
-0.0000000000000002
 21
-1.0
 31
0.0
 73
     1
 44
1.0
1001
AcDbBlockRepETag
1070
     1
1071
       69
1005
1F686
1001
ACAD
1000
MTEXTBEGIN
1070
    73
1070
     1
1070
    44
1040
1.0
1070
    74
1070
     0
1000
MTEXTEND
1000
ACAD_MTEXT_DEFINED_HEIGHT_BEGIN
1070
    46
1040
5.710880302039671
1000
ACAD_MTEXT_DEFINED_HEIGHT_END
  0
LINE
  5
1F687
330
10FE8
100
AcDbEntity
  8
图框
370
    -3
100
AcDbLine
 10
854.0454927516588
 20
675.5347692601515
 30
0.0
 11
854.0454927516588
 21
686.7901958362482
 31
0.0
1001
AcDbBlockRepETag
1070
     1
1071
       70
1005
1F687
  0
LINE
  5
1F688
330
10FE8
100
AcDbEntity
  8
图框
370
    -3
100
AcDbLine
 10
1036.653967466372
 20
531.3291676047914
 30
0.0
 11
1036.653967466372
 21
484.0126019753161
 31
0.0
1001
AcDbBlockRepETag
1070
     1
1071
       71
1005
1F688
  0
LINE
  5
1F689
330
10FE8
100
AcDbEntity
  8
图框
370
    -3
100
AcDbLine
 10
1047.483315900763
 20
507.6708838011533
 30
0.0
 11
1047.483315900763
 21
491.8986945987308
 31
0.0
1001
AcDbBlockRepETag
1070
     1
1071
       72
1005
1F689
  0
LINE
  5
1F68A
330
10FE8
100
AcDbEntity
  8
图框
370
    -3
100
AcDbLine
 10
1058.312664335153
 20
507.6708838011533
 30
0.0
 11
1058.312664335153
 21
484.0347692601515
 31
0.0
1001
AcDbBlockRepETag
1070
     1
1071
       73
1005
1F68A
  0
LINE
  5
1F68B
330
10FE8
100
AcDbEntity
  8
图框
370
    25
100
AcDbLine
 10
1048.474135214456
 20
488.1095628329926
 30
0.0
 11
1054.946420288459
 21
488.1095628329926
 31
0.0
1001
AcDbBlockRepETag
1070
     1
1071
       74
1005
1F68B
  0
LINE
  5
1F68C
330
10FE8
100
AcDbEntity
  8
图框
370
    25
100
AcDbLine
 10
1054.232527365989
 20
487.0761716842634
 30
0.0
 11
1049.156490914508
 21
486.4576273751
 31
0.0
1001
AcDbBlockRepETag
1070
     1
1071
       75
1005
1F68C
  0
LINE
  5
1F68D
330
10FE8
100
AcDbEntity
  8
图框
370
    25
100
AcDbLine
 10
1054.232527365989
 20
489.1429539817209
 30
0.0
 11
1049.156490914508
 21
489.7614982908846
 31
0.0
1001
AcDbBlockRepETag
1070
     1
1071
       76
1005
1F68D
  0
LINE
  5
1F68E
330
10FE8
100
AcDbEntity
  8
图框
370
    25
100
AcDbLine
 10
1049.156490914508
 20
489.7614982908846
 30
0.0
 11
1049.156490914508
 21
486.4576273751
 31
0.0
1001
AcDbBlockRepETag
1070
     1
1071
       77
1005
1F68E
  0
LINE
  5
1F68F
330
10FE8
100
AcDbEntity
  8
图框
370
    25
100
AcDbLine
 10
1054.232527365989
 20
489.1429539817209
 30
0.0
 11
1054.232527365989
 21
487.0761716842634
 31
0.0
1001
AcDbBlockRepETag
1070
     1
1071
       78
1005
1F68F
  0
CIRCLE
  5
1F690
330
10FE8
100
AcDbEntity
  8
图框
370
    25
100
AcDbCircle
 10
1042.502700458579
 20
488.1095628329926
 30
0.0
 40
1.651935457891863
1001
AcDbBlockRepETag
1070
     1
1071
       79
1005
1F690
  0
CIRCLE
  5
1F691
330
10FE8
100
AcDbEntity
  8
图框
370
    25
100
AcDbCircle
 10
1042.502700458579
 20
488.1095628329926
 30
0.0
 40
1.033391148728775
1001
AcDbBlockRepETag
1070
     1
1071
       80
1005
1F691
  0
LINE
  5
1F692
330
10FE8
100
AcDbEntity
  8
图框
370
    25
100
AcDbLine
 10
1040.136872078216
 20
488.1095628329926
 30
0.0
 11
1044.868528838943
 21
488.1095628329926
 31
0.0
1001
AcDbBlockRepETag
1070
     1
1071
       81
1005
1F692
  0
LINE
  5
1F693
330
10FE8
100
AcDbEntity
  8
图框
370
    25
100
AcDbLine
 10
1042.502700458579
 20
490.475391213355
 30
0.0
 11
1042.502700458579
 21
485.743734452629
 31
0.0
1001
AcDbBlockRepETag
1070
     1
1071
       82
1005
1F693
  0
LINE
  5
1F694
330
10FE8
100
AcDbEntity
  8
图框
370
    -3
100
AcDbLine
 10
1069.142012769546
 20
507.6708838011533
 30
0.0
 11
1069.142012769546
 21
491.8986945987308
 31
0.0
1001
AcDbBlockRepETag
1070
     1
1071
       83
1005
1F694
  0
MTEXT
  5
1F695
330
10FE8
100
AcDbEntity
  8
图框
100
AcDbMText
 10
1086.643735910939
 20
526.8006839312707
 30
0.0
 40
2.154898249703542
 41
13.34474941400573
 71
     5
 72
     5
  1
图号{\Ftxt|c134;\P\Fromans|c134;\W0.65;Drawing No.}
 73
     1
 44
1.0
1001
AcDbBlockRepETag
1070
     1
1071
       84
1005
1F695
1001
ACAD
1000
MTEXTBEGIN
1070
    73
1070
     1
1070
    44
1040
1.0
1070
    74
1070
     0
1000
MTEXTEND
1000
ACAD_MTEXT_DEFINED_HEIGHT_BEGIN
1070
    46
1040
9.056967347041775
1000
ACAD_MTEXT_DEFINED_HEIGHT_END
  0
LINE
  5
1F696
330
10FE8
100
AcDbEntity
  8
图框
370
    -3
100
AcDbLine
 10
1093.316110617942
 20
531.3291676047914
 30
0.0
 11
1093.316110617942
 21
495.8417418993347
 31
0.0
1001
AcDbBlockRepETag
1070
     1
1071
       85
1005
1F696
  0
LINE
  5
1F697
330
10FE8
100
AcDbEntity
  8
图框
370
    -3
100
AcDbLine
 10
1047.473969770481
 20
531.3291676047914
 30
0.0
 11
1047.473969770481
 21
507.6708838011533
 31
0.0
1001
AcDbBlockRepETag
1070
     1
1071
       86
1005
1F697
  0
MTEXT
  5
1F698
330
10FE8
100
AcDbEntity
  8
图框
100
AcDbMText
 10
1063.72733855235
 20
503.7278365005473
 30
0.0
 40
2.252848170144607
 41
10.82934843439208
 71
     5
 72
     5
  1
重量\P{\Fromans|c134;Weight}
 73
     1
 44
1.0
1001
AcDbBlockRepETag
1070
     1
1071
       87
1005
1F698
1001
ACAD
1000
MTEXTBEGIN
1070
    73
1070
     1
1070
    44
1040
1.0
1070
    74
1070
     0
1000
MTEXTEND
1000
ACAD_MTEXT_DEFINED_HEIGHT_BEGIN
1070
    46
1040
7.886094601212128
1000
ACAD_MTEXT_DEFINED_HEIGHT_END
  0
LINE
  5
1F699
330
10FE8
100
AcDbEntity
  8
图框
370
    -3
100
AcDbLine
 10
1036.653967466372
 20
519.5000257029746
 30
0.0
 11
1079.971361203936
 21
519.5000257029746
 31
0.0
1001
AcDbBlockRepETag
1070
     1
1071
       88
1005
1F699
  0
MTEXT
  5
1F69A
330
10FE8
100
AcDbEntity
  8
图框
100
AcDbMText
 10
1074.556686986741
 20
503.7278365005473
 30
0.0
 40
2.252848170144607
 41
10.82934843438984
 71
     5
 72
     5
  1
数量\P{\Fromans|c134;Qty.}
 73
     1
 44
1.0
1001
AcDbBlockRepETag
1070
     1
1071
       89
1005
1F69A
1001
ACAD
1000
MTEXTBEGIN
1070
    73
1070
     1
1070
    44
1040
1.0
1070
    74
1070
     0
1000
MTEXTEND
1000
ACAD_MTEXT_DEFINED_HEIGHT_BEGIN
1070
    46
1040
7.886094601212141
1000
ACAD_MTEXT_DEFINED_HEIGHT_END
  0
LINE
  5
1F69B
330
10FE8
100
AcDbEntity
  8
图框
370
    -3
100
AcDbLine
 10
1079.971361203936
 20
495.8417418993347
 30
0.0
 11
1126.928502610363
 21
495.8417418993342
 31
0.0
1001
AcDbBlockRepETag
1070
     1
1071
       90
1005
1F69B
  0
LINE
  5
1F69C
330
10FE8
100
AcDbEntity
  8
图框
370
    -3
100
AcDbLine
 10
1079.971361203936
 20
504.7132992040975
 30
0.0
 11
1126.928502610363
 21
504.7132992040975
 31
0.0
1001
AcDbBlockRepETag
1070
     1
1071
       91
1005
1F69C
  0
MTEXT
  5
1F69D
330
10FE8
100
AcDbEntity
  8
图框
100
AcDbMText
 10
1052.893317052817
 20
503.7278365005473
 30
0.0
 40
2.252848170144607
 41
10.83869456467139
 71
     5
 72
     5
  1
版本\P{\Fromans|c134;REV.}
 73
     1
 44
1.0
1001
AcDbBlockRepETag
1070
     1
1071
       92
1005
1F69D
1001
ACAD
1000
MTEXTBEGIN
1070
    73
1070
     1
1070
    44
1040
1.0
1070
    74
1070
     0
1000
MTEXTEND
1000
ACAD_MTEXT_DEFINED_HEIGHT_BEGIN
1070
    46
1040
7.886094601212101
1000
ACAD_MTEXT_DEFINED_HEIGHT_END
  0
MTEXT
  5
1F69E
330
10FE8
100
AcDbEntity
  8
图框
100
AcDbMText
 10
1042.068641683568
 20
503.7278365005473
 30
0.0
 40
2.252848170144607
 41
10.8293484343908
 71
     5
 72
     5
  1
比例\P{\Fromans|c134;Scale}
 73
     1
 44
1.0
1001
AcDbBlockRepETag
1070
     1
1071
       93
1005
1F69E
1001
ACAD
1000
MTEXTBEGIN
1070
    73
1070
     1
1070
    44
1040
1.0
1070
    74
1070
     0
1000
MTEXTEND
1000
ACAD_MTEXT_DEFINED_HEIGHT_BEGIN
1070
    46
1040
7.886094601212136
1000
ACAD_MTEXT_DEFINED_HEIGHT_END
  0
LINE
  5
1F69F
330
10FE8
100
AcDbEntity
  8
图框
370
    -3
100
AcDbLine
 10
1036.653967466372
 20
507.6708838011533
 30
0.0
 11
1079.971361203936
 21
507.6708838011533
 31
0.0
1001
AcDbBlockRepETag
1070
     1
1071
       94
1005
1F69F
  0
LINE
  5
1F6A0
330
10FE8
100
AcDbEntity
  8
图框
370
    -3
100
AcDbLine
 10
1036.653967466372
 20
491.8986945987308
 30
0.0
 11
1079.971361203936
 21
491.8986945987308
 31
0.0
1001
AcDbBlockRepETag
1070
     1
1071
       95
1005
1F6A0
  0
LINE
  5
1F6A1
330
10FE8
100
AcDbEntity
  8
图框
370
    -3
100
AcDbLine
 10
1079.971361203936
 20
531.3291676047914
 30
0.0
 11
1079.971361203936
 21
484.0125999975168
 31
0.0
1001
AcDbBlockRepETag
1070
     1
1071
       96
1005
1F6A1
  0
MTEXT
  5
1F6A2
330
10FE8
100
AcDbEntity
  8
图框
100
AcDbMText
 10
1042.063968618426
 20
525.4145966538832
 30
0.0
 40
2.252848170144607
 41
10.82000230410933
 71
     5
 72
     5
  1
表面处理\P{\Fromans|c134;Finish}
 73
     1
 44
1.0
1001
AcDbBlockRepETag
1070
     1
1071
       97
1005
1F6A2
1001
ACAD
1000
MTEXTBEGIN
1070
    73
1070
     1
1070
    44
1040
1.0
1070
    74
1070
     0
1000
MTEXTEND
1000
ACAD_MTEXT_DEFINED_HEIGHT_BEGIN
1070
    46
1040
11.82914190181708
1000
ACAD_MTEXT_DEFINED_HEIGHT_END
  0
MTEXT
  5
1F6A3
330
10FE8
100
AcDbEntity
  8
图框
100
AcDbMText
 10
1042.063968618426
 20
513.5854547520639
 30
0.0
 40
2.252848170144607
 41
10.82000230410933
 71
     5
 72
     5
  1
材料\P{\Fromans|c134;Material}
 73
     1
 44
1.0
1001
AcDbBlockRepETag
1070
     1
1071
       98
1005
1F6A3
1001
ACAD
1000
MTEXTBEGIN
1070
    73
1070
     1
1070
    44
1040
1.0
1070
    74
1070
     0
1000
MTEXTEND
1000
ACAD_MTEXT_DEFINED_HEIGHT_BEGIN
1070
    46
1040
11.8291419018212
1000
ACAD_MTEXT_DEFINED_HEIGHT_END
  0
LINE
  5
1F6A4
330
10FE8
100
AcDbEntity
  8
图框
370
    -3
100
AcDbLine
 10
1079.971361203936
 20
522.27220025775
 30
0.0
 11
1126.928502610363
 21
522.27220025775
 31
0.0
1001
AcDbBlockRepETag
1070
     1
1071
       99
1005
1F6A4
  0
LINE
  5
1F6A5
330
10FE8
100
AcDbEntity
  8
图框
370
    -3
100
AcDbLine
 10
1079.971361203936
 20
513.5854547520641
 30
0.0
 11
1126.928502610363
 21
513.5854547520639
 31
0.0
1001
AcDbBlockRepETag
1070
     1
1071
      100
1005
1F6A5
  0
MTEXT
  5
1F6A6
330
10FE8
100
AcDbEntity
  8
图框
100
AcDbMText
 10
1086.643735910939
 20
517.9288275049072
 30
0.0
 40
1.958998408821398
 41
13.34474941400573
 71
     5
 72
     5
  1
产品代号\P{\Fromans|c134;Part Code}
 73
     1
 44
1.0
1001
AcDbBlockRepETag
1070
     1
1071
      101
1005
1F6A6
1001
ACAD
1000
MTEXTBEGIN
1070
    73
1070
     1
1070
    44
1040
1.0
1070
    74
1070
     0
1000
MTEXTEND
1000
ACAD_MTEXT_DEFINED_HEIGHT_BEGIN
1070
    46
1040
8.686745505685811
1000
ACAD_MTEXT_DEFINED_HEIGHT_END
  0
LINE
  5
1F6A7
330
10FE8
100
AcDbEntity
  8
图框
370
    -3
100
AcDbLine
 10
946.9285026103634
 20
525.7982263931411
 30
0.0
 11
1036.653967466372
 21
525.7982263931411
 31
0.0
1001
AcDbBlockRepETag
1070
     1
1071
      102
1005
1F6A7
  0
LINE
  5
1F6A8
330
10FE8
100
AcDbEntity
  8
图框
370
    -3
100
AcDbLine
 10
946.9285026103634
 20
520.2672851814959
 30
0.0
 11
1036.653967466372
 21
520.2672851814959
 31
0.0
1001
AcDbBlockRepETag
1070
     1
1071
      103
1005
1F6A8
  0
LINE
  5
1F6A9
330
10FE8
100
AcDbEntity
  8
图框
370
    35
100
AcDbLine
 10
946.9285026103634
 20
531.3291676047914
 30
0.0
 11
1126.928502610363
 21
531.3291676047914
 31
0.0
1001
AcDbBlockRepETag
1070
     1
1071
      104
1005
1F6A9
  0
LINE
  5
1F6AA
330
10FE8
100
AcDbEntity
  8
图框
370
    -3
100
AcDbLine
 10
990.6727612856927
 20
509.2054027581959
 30
0.0
 11
990.6727612856927
 21
484.0347692601515
 31
0.0
1001
AcDbBlockRepETag
1070
     1
1071
      105
1005
1F6AA
  0
MTEXT
  5
1F6AB
102
{ACAD_XDICTIONARY
360
1F896
102
}
330
10FE8
100
AcDbEntity
  8
图框
100
AcDbMText
 10
997.1628169651232
 20
499.816589978722
 30
0.0
 40
2.252848170144607
 41
12.98011135886052
 71
     5
 72
     5
  1
{\f仿宋_GB2312|b0|i0|c134|p49;标准化}\PStand.
  7
Romans字体
 73
     1
 44
1.0
1001
AcDbBlockRepETag
1070
     1
1071
      106
1005
1F6AB
1001
ACAD
1000
MTEXTBEGIN
1070
    73
1070
     1
1070
    44
1040
1.0
1070
    74
1070
     0
1000
MTEXTEND
1000
ACAD_MTEXT_DEFINED_HEIGHT_BEGIN
1070
    46
1040
6.19230880992475
1000
ACAD_MTEXT_DEFINED_HEIGHT_END
  0
LINE
  5
1F6AC
330
10FE8
100
AcDbEntity
  8
图框
370
    -3
100
AcDbLine
 10
975.4103773808022
 20
509.2054027581959
 30
0.0
 11
975.4103773808022
 21
484.0347692601515
 31
0.0
1001
AcDbBlockRepETag
1070
     1
1071
      107
1005
1F6AC
  0
MTEXT
  5
1F6AD
330
10FE8
100
AcDbEntity
  8
图框
100
AcDbMText
 10
984.5089229802068
 20
511.9708733640202
 30
0.0
 40
2.448748011026752
 41
38.287899328693
 71
     5
 72
     5
  1
  变更描述{\Fromans|c134;/Description}
 73
     1
 44
1.0
1001
AcDbBlockRepETag
1070
     1
1071
      108
1005
1F6AD
1001
ACAD
1000
MTEXTBEGIN
1070
    73
1070
     1
1070
    44
1040
1.0
1070
    74
1070
     0
1000
MTEXTEND
1000
ACAD_MTEXT_DEFINED_HEIGHT_BEGIN
1070
    46
1040
5.530941211648832
1000
ACAD_MTEXT_DEFINED_HEIGHT_END
  0
MTEXT
  5
1F6AE
102
{ACAD_XDICTIONARY
360
1F898
102
}
330
10FE8
100
AcDbEntity
  8
图框
100
AcDbMText
 10
1012.466086049227
 20
511.9708733640202
 30
0.0
 40
1.958998408821398
 41
17.6264268093469
 71
     5
 72
     5
  1
签名\P{\Fromans|c134;Signature} 
 73
     1
 44
1.0
1001
AcDbBlockRepETag
1070
     1
1071
      109
1005
1F6AE
1001
ACAD
1000
MTEXTBEGIN
1070
    73
1070
     1
1070
    44
1040
1.0
1070
    74
1070
     0
1000
MTEXTEND
1000
ACAD_MTEXT_DEFINED_HEIGHT_BEGIN
1070
    46
1040
5.530941211648825
1000
ACAD_MTEXT_DEFINED_HEIGHT_END
  0
MTEXT
  5
1F6AF
102
{ACAD_XDICTIONARY
360
1F89A
102
}
330
10FE8
100
AcDbEntity
  8
图框
100
AcDbMText
 10
960.7558556394856
 20
511.9708733640202
 30
0.0
 40
1.958998408821398
 41
9.218235352749283
 71
     5
 72
     5
  1
处数\P{\Fromans|c134;Number }
 73
     1
 44
1.0
1001
AcDbBlockRepETag
1070
     1
1071
      110
1005
1F6AF
1001
ACAD
1000
MTEXTBEGIN
1070
    73
1070
     1
1070
    44
1040
1.0
1070
    74
1070
     0
1000
MTEXTEND
1000
ACAD_MTEXT_DEFINED_HEIGHT_BEGIN
1070
    46
1040
5.530941211648841
1000
ACAD_MTEXT_DEFINED_HEIGHT_END
  0
LINE
  5
1F6B0
330
10FE8
100
AcDbEntity
  8
图框
370
    -3
100
AcDbLine
 10
946.9285026103634
 20
514.7363439698449
 30
0.0
 11
1036.653967466372
 21
514.7363439698449
 31
0.0
1001
AcDbBlockRepETag
1070
     1
1071
      111
1005
1F6B0
  0
LINE
  5
1F6B1
330
10FE8
100
AcDbEntity
  8
图框
370
    -3
100
AcDbLine
 10
946.9285026103634
 20
509.2054027581959
 30
0.0
 11
1036.653967466372
 21
509.2054027581959
 31
0.0
1001
AcDbBlockRepETag
1070
     1
1071
      112
1005
1F6B1
  0
LINE
  5
1F6B2
330
10FE8
100
AcDbEntity
  8
图框
370
    -3
100
AcDbLine
 10
946.9285026103634
 20
502.9127443836848
 30
0.0
 11
1036.653967466372
 21
502.9127443836848
 31
0.0
1001
AcDbBlockRepETag
1070
     1
1071
      113
1005
1F6B2
  0
LINE
  5
1F6B3
330
10FE8
100
AcDbEntity
  8
图框
370
    -3
100
AcDbLine
 10
946.9285026103634
 20
496.620086009173
 30
0.0
 11
1036.653967466372
 21
496.620086009173
 31
0.0
1001
AcDbBlockRepETag
1070
     1
1071
      114
1005
1F6B3
  0
LINE
  5
1F6B4
330
10FE8
100
AcDbEntity
  8
图框
370
    35
380
     1
100
AcDbLine
 10
946.9285026103634
 20
531.3291676047914
 30
0.0
 11
946.9285026103634
 21
484.0347692601515
 31
0.0
1001
AcDbBlockRepETag
1070
     1
1071
      115
1005
1F6B4
  0
LINE
  5
1F6B5
330
10FE8
100
AcDbEntity
  8
图框
370
    -3
100
AcDbLine
 10
1021.301636813399
 20
531.3291676047914
 30
0.0
 11
1021.301636813399
 21
484.0347692601515
 31
0.0
1001
AcDbBlockRepETag
1070
     1
1071
      116
1005
1F6B5
  0
LINE
  5
1F6B6
330
10FE8
100
AcDbEntity
  8
图框
370
    -3
100
AcDbLine
 10
1003.652872644553
 20
531.3291676047914
 30
0.0
 11
1003.652872644553
 21
484.0347692601515
 31
0.0
1001
AcDbBlockRepETag
1070
     1
1071
      117
1005
1F6B6
  0
LINE
  5
1F6B7
330
10FE8
100
AcDbEntity
  8
图框
370
    -3
100
AcDbLine
 10
965.3649733158603
 20
531.3291676047914
 30
0.0
 11
965.3649733158603
 21
509.2054027581959
 31
0.0
1001
AcDbBlockRepETag
1070
     1
1071
      118
1005
1F6B7
  0
LINE
  5
1F6B8
330
10FE8
100
AcDbEntity
  8
图框
370
    -3
100
AcDbLine
 10
956.1467379631109
 20
531.3291676047914
 30
0.0
 11
956.1467379631109
 21
509.2054027581959
 31
0.0
1001
AcDbBlockRepETag
1070
     1
1071
      119
1005
1F6B8
  0
MTEXT
  5
1F6B9
102
{ACAD_XDICTIONARY
360
1F89C
102
}
330
10FE8
100
AcDbEntity
  8
图框
100
AcDbMText
 10
951.537620286737
 20
511.9708733640202
 30
0.0
 40
1.958998408821398
 41
9.218235352747692
 71
     5
 72
     5
  1
标记\P{\Fromans|c134;Mark}
 73
     1
 44
1.0
1001
AcDbBlockRepETag
1070
     1
1071
      120
1005
1F6B9
1001
ACAD
1000
MTEXTBEGIN
1070
    73
1070
     1
1070
    44
1040
1.0
1070
    74
1070
     0
1000
MTEXTEND
1000
ACAD_MTEXT_DEFINED_HEIGHT_BEGIN
1070
    46
1040
5.530941211648832
1000
ACAD_MTEXT_DEFINED_HEIGHT_END
  0
MTEXT
  5
1F6BA
102
{ACAD_XDICTIONARY
360
1F89E
102
}
330
10FE8
100
AcDbEntity
  8
图框
100
AcDbMText
 10
953.4185582897936
 20
493.4737568219182
 30
0.0
 40
2.252848170144607
 41
12.98011135886041
 71
     5
 72
     5
  1
审核\P{\Fromans|c134;Checked}
 73
     1
 44
1.0
1001
AcDbBlockRepETag
1070
     1
1071
      121
1005
1F6BA
1001
ACAD
1000
MTEXTBEGIN
1070
    73
1070
     1
1070
    44
1040
1.0
1070
    74
1070
     0
1000
MTEXTEND
1000
ACAD_MTEXT_DEFINED_HEIGHT_BEGIN
1070
    46
1040
6.292658374510382
1000
ACAD_MTEXT_DEFINED_HEIGHT_END
  0
MTEXT
  5
1F6BB
102
{ACAD_XDICTIONARY
360
1F8A0
102
}
330
10FE8
100
AcDbEntity
  8
图框
100
AcDbMText
 10
953.4185582897936
 20
499.8775635376777
 30
0.0
 40
2.252848170144607
 41
12.98011135886041
 71
     5
 72
     5
  1
绘图\P{\Fromans|c134;Drawn\Ftxt|c134; }
 73
     1
 44
1.0
1001
AcDbBlockRepETag
1070
     1
1071
      122
1005
1F6BB
1001
ACAD
1000
MTEXTBEGIN
1070
    73
1070
     1
1070
    44
1040
1.0
1070
    74
1070
     0
1000
MTEXTEND
1000
ACAD_MTEXT_DEFINED_HEIGHT_BEGIN
1070
    46
1040
6.070361692014189
1000
ACAD_MTEXT_DEFINED_HEIGHT_END
  0
ARC
  5
1F6BC
330
10FE8
100
AcDbEntity
  8
图框
 62
     4
370
    35
100
AcDbCircle
 10
1086.900627017421
 20
490.0179944151195
 30
0.0
 40
4.063310408393665
100
AcDbArc
 50
18.95237904564806
 51
161.0476209543519
1001
AcDbBlockRepETag
1070
     1
1071
      123
1005
1F6BC
  0
ARC
  5
1F6BD
330
10FE8
100
AcDbEntity
  8
图框
 62
     4
370
    35
100
AcDbCircle
 10
1086.900627017421
 20
490.0179944151195
 30
0.0
 40
4.063310408393665
100
AcDbArc
 50
198.952379045648
 51
341.0476209543519
1001
AcDbBlockRepETag
1070
     1
1071
      124
1005
1F6BD
  0
LINE
  5
1F6BE
330
10FE8
100
AcDbEntity
  8
图框
 62
     4
370
    35
100
AcDbLine
 10
1083.057593369548
 20
488.6983035966752
 30
0.0
 11
1090.74366066529
 21
488.6983035966752
 31
0.0
1001
AcDbBlockRepETag
1070
     1
1071
      125
1005
1F6BE
  0
LINE
  5
1F6BF
330
10FE8
100
AcDbEntity
  8
图框
 62
     4
370
    35
100
AcDbLine
 10
1083.057593369548
 20
491.3376852335652
 30
0.0
 11
1090.74366066529
 21
491.3376852335652
 31
0.0
1001
AcDbBlockRepETag
1070
     1
1071
      126
1005
1F6BF
  0
MTEXT
  5
1F6C0
330
10FE8
100
AcDbEntity
  8
图框
 62
     1
370
    20
100
AcDbMText
 10
1083.034582879669
 20
491.0506288081688
 30
0.0
 40
2.005930044038334
 41
5.047240019334847
 71
     1
 72
     5
  1
{\fArial|b0|i0|c0|p34;W}
  7
Chinese
 73
     1
 44
1.0
1001
AcDbBlockRepETag
1070
     1
1071
      127
1005
1F6C0
1001
ACAD
1000
MTEXTBEGIN
1070
    73
1070
     1
1070
    44
1040
1.0
1070
    74
1070
     0
1000
MTEXTEND
  0
LINE
  5
1F6C1
330
10FE8
100
AcDbEntity
  8
图框
370
    -3
100
AcDbLine
 10
946.9285026103634
 20
490.327427634663
 30
0.0
 11
1036.653967466372
 21
490.327427634663
 31
0.0
1001
AcDbBlockRepETag
1070
     1
1071
      128
1005
1F6C1
  0
LINE
  5
1F6C2
330
10FE8
100
AcDbEntity
  8
图框
370
    -3
100
AcDbLine
 10
959.9086139692238
 20
509.2054027581959
 30
0.0
 11
959.9086139692238
 21
484.0347692601515
 31
0.0
1001
AcDbBlockRepETag
1070
     1
1071
      129
1005
1F6C2
  0
MTEXT
  5
1F6C3
330
10FE8
100
AcDbEntity
  8
图框
100
AcDbMText
 10
967.6594956750129
 20
506.0590735709403
 30
0.0
 40
2.252848170144607
 41
15.50176341157869
 71
     5
 72
     5
  1
姓名{\Fromans|c134;/Name\Ftxt|c134; }
 73
     1
 44
1.0
1001
AcDbBlockRepETag
1070
     1
1071
      130
1005
1F6C3
1001
ACAD
1000
MTEXTBEGIN
1070
    73
1070
     1
1070
    44
1040
1.0
1070
    74
1070
     0
1000
MTEXTEND
1000
ACAD_MTEXT_DEFINED_HEIGHT_BEGIN
1070
    46
1040
6.292658374511246
1000
ACAD_MTEXT_DEFINED_HEIGHT_END
  0
MTEXT
  5
1F6C4
330
10FE8
100
AcDbEntity
  8
图框
100
AcDbMText
 10
983.0415693332477
 20
506.0590735709403
 30
0.0
 40
2.252848170144607
 41
15.26238390489042
 71
     5
 72
     5
  1
日期{\Fromans|c134;/Date}
 73
     1
 44
1.0
1001
AcDbBlockRepETag
1070
     1
1071
      131
1005
1F6C4
1001
ACAD
1000
MTEXTBEGIN
1070
    73
1070
     1
1070
    44
1040
1.0
1070
    74
1070
     0
1000
MTEXTEND
1000
ACAD_MTEXT_DEFINED_HEIGHT_BEGIN
1070
    46
1040
6.2926583745112
1000
ACAD_MTEXT_DEFINED_HEIGHT_END
  0
LINE
  5
1F6C5
330
10FE8
100
AcDbEntity
  8
图框
370
    -3
100
AcDbLine
 10
946.9285026103634
 20
509.2054027581959
 30
0.0
 11
959.9086139692238
 21
502.9127443836848
 31
0.0
1001
AcDbBlockRepETag
1070
     1
1071
      132
1005
1F6C5
  0
MTEXT
  5
1F6C6
330
10FE8
100
AcDbEntity
  8
图框
100
AcDbMText
 10
1012.931405110086
 20
506.0185715840725
 30
0.0
 40
2.252848170144607
 41
16.93492221063566
 71
     5
 72
     5
  1
姓名{\Fromans|c134;/Name}
 73
     1
 44
1.0
1001
AcDbBlockRepETag
1070
     1
1071
      133
1005
1F6C6
1001
ACAD
1000
MTEXTBEGIN
1070
    73
1070
     1
1070
    44
1040
1.0
1070
    74
1070
     0
1000
MTEXTEND
  0
MTEXT
  5
1F6C7
330
10FE8
100
AcDbEntity
  8
图框
100
AcDbMText
 10
1028.977802139886
 20
506.0590735709403
 30
0.0
 40
2.252848170144607
 41
15.35233065297283
 71
     5
 72
     5
  1
日期{\Fromans|c134;/Date}
 73
     1
 44
1.0
1001
AcDbBlockRepETag
1070
     1
1071
      134
1005
1F6C7
1001
ACAD
1000
MTEXTBEGIN
1070
    73
1070
     1
1070
    44
1040
1.0
1070
    74
1070
     0
1000
MTEXTEND
1000
ACAD_MTEXT_DEFINED_HEIGHT_BEGIN
1070
    46
1040
6.292658374511256
1000
ACAD_MTEXT_DEFINED_HEIGHT_END
  0
LINE
  5
1F6C8
330
10FE8
100
AcDbEntity
  8
图框
370
    -3
100
AcDbLine
 10
1003.652872644553
 20
502.9127443836848
 30
0.0
 11
990.6727612856927
 21
509.2054027581959
 31
0.0
1001
AcDbBlockRepETag
1070
     1
1071
      135
1005
1F6C8
  0
MTEXT
  5
1F6C9
102
{ACAD_XDICTIONARY
360
1F8A2
102
}
330
10FE8
100
AcDbEntity
  8
图框
100
AcDbMText
 10
997.1628169651232
 20
487.1810984474071
 30
0.0
 40
2.252848170144607
 41
12.98011135886052
 71
     5
 72
     5
  1
批准\P{\Fromans|c134;Approved}
 73
     1
 44
1.0
1001
AcDbBlockRepETag
1070
     1
1071
      136
1005
1F6C9
1001
ACAD
1000
MTEXTBEGIN
1070
    73
1070
     1
1070
    44
1040
1.0
1070
    74
1070
     0
1000
MTEXTEND
1000
ACAD_MTEXT_DEFINED_HEIGHT_BEGIN
1070
    46
1040
6.292658374511517
1000
ACAD_MTEXT_DEFINED_HEIGHT_END
  0
MTEXT
  5
1F6CA
102
{ACAD_XDICTIONARY
360
1F8A4
102
}
330
10FE8
100
AcDbEntity
  8
图框
100
AcDbMText
 10
953.4185582897936
 20
487.1810984474071
 30
0.0
 40
2.252848170144607
 41
12.98011135886041
 71
     5
 72
     5
  1
工艺\P{\Fromans|c134;Process}
 73
     1
 44
1.0
1001
AcDbBlockRepETag
1070
     1
1071
      137
1005
1F6CA
1001
ACAD
1000
MTEXTBEGIN
1070
    73
1070
     1
1070
    44
1040
1.0
1070
    74
1070
     0
1000
MTEXTEND
1000
ACAD_MTEXT_DEFINED_HEIGHT_BEGIN
1070
    46
1040
6.292658374511495
1000
ACAD_MTEXT_DEFINED_HEIGHT_END
  0
MTEXT
  5
1F6CB
102
{ACAD_XDICTIONARY
360
1F8A6
102
}
330
10FE8
100
AcDbEntity
  8
图框
100
AcDbMText
 10
1028.977802139886
 20
511.8287965307664
 30
0.0
 40
1.958998408821398
 41
15.3523306529728
 71
     5
 72
     5
  1
日期\P{\Fromans|c134;Date}
 73
     1
 44
1.0
1001
AcDbBlockRepETag
1070
     1
1071
      138
1005
1F6CB
1001
ACAD
1000
MTEXTBEGIN
1070
    73
1070
     1
1070
    44
1040
1.0
1070
    74
1070
     0
1000
MTEXTEND
1000
ACAD_MTEXT_DEFINED_HEIGHT_BEGIN
1070
    46
1040
5.246787545140668
1000
ACAD_MTEXT_DEFINED_HEIGHT_END
  0
MTEXT
  5
1F6CC
330
10FE8
100
AcDbEntity
  8
图框
100
AcDbMText
 10
1086.643735910939
 20
509.1493769780809
 30
0.0
 40
2.154898249703542
 41
13.34474941400573
 71
     5
 72
     5
  1
产品料号\P{\Fromans|c134;Part No.}
 73
     1
 44
1.0
1001
AcDbBlockRepETag
1070
     1
1071
      139
1005
1F6CC
1001
ACAD
1000
MTEXTBEGIN
1070
    73
1070
     1
1070
    44
1040
1.0
1070
    74
1070
     0
1000
MTEXTEND
1000
ACAD_MTEXT_DEFINED_HEIGHT_BEGIN
1070
    46
1040
8.87215554796615
1000
ACAD_MTEXT_DEFINED_HEIGHT_END
  0
MTEXT
  5
1F6CD
330
10FE8
100
AcDbEntity
  8
图框
100
AcDbMText
 10
1086.643735910939
 20
500.2775205517163
 30
0.0
 40
1.958998408821398
 41
13.34474941400573
 71
     5
 72
     5
  1
产品名称\P{\Fromans|c134;Part Name}
 73
     1
 44
1.0
1001
AcDbBlockRepETag
1070
     1
1071
      140
1005
1F6CD
1001
ACAD
1000
MTEXTBEGIN
1070
    73
1070
     1
1070
    44
1040
1.0
1070
    74
1070
     0
1000
MTEXTEND
1000
ACAD_MTEXT_DEFINED_HEIGHT_BEGIN
1070
    46
1040
8.871557304763321
1000
ACAD_MTEXT_DEFINED_HEIGHT_END
  0
LINE
  5
1F6CE
330
10FE8
100
AcDbEntity
  8
图框
 62
     1
370
    18
100
AcDbLine
 10
833.4128518455365
 20
690.5347692601515
 30
0.0
 11
833.4128518455365
 21
480.5347692601515
 31
0.0
1001
AcDbBlockRepETag
1070
     1
1071
      141
1005
1F6CE
  0
LINE
  5
1F6CF
330
10FE8
100
AcDbEntity
  8
图框
 62
     1
370
    18
100
AcDbLine
 10
833.4128518455365
 20
480.5347692601515
 30
0.0
 11
1130.411601781236
 21
480.5347692601515
 31
0.0
1001
AcDbBlockRepETag
1070
     1
1071
      142
1005
1F6CF
  0
LINE
  5
1F6D0
330
10FE8
100
AcDbEntity
  8
图框
 62
     1
370
    18
100
AcDbLine
 10
833.4128518455365
 20
690.5347692601515
 30
0.0
 11
1130.411601781236
 21
690.5347692601515
 31
0.0
1001
AcDbBlockRepETag
1070
     1
1071
      143
1005
1F6D0
  0
LINE
  5
1F6D1
330
10FE8
100
AcDbEntity
  8
图框
 62
     1
370
    18
100
AcDbLine
 10
1130.411601781236
 20
480.5347692601515
 30
0.0
 11
1130.411601781236
 21
690.5347692601515
 31
0.0
1001
AcDbBlockRepETag
1070
     1
1071
      144
1005
1F6D1
  0
LINE
  5
1F6D2
330
10FE8
100
AcDbEntity
  8
图框
370
    18
100
AcDbLine
 10
836.9128518455394
 20
686.7901958362482
 30
0.0
 11
861.5351874539182
 21
686.7901958362482
 31
0.0
1001
AcDbBlockRepETag
1070
     1
1071
      145
1005
1F6D2
  0
LINE
  5
1F6D3
330
10FE8
100
AcDbEntity
  8
图框
370
    50
100
AcDbLine
 10
1126.928502610363
 20
484.3410054693078
 30
0.0
 11
1126.928502610363
 21
675.5347692601515
 31
0.0
1001
AcDbBlockRepETag
1070
     1
1071
      146
1005
1F6D3
  0
LINE
  5
1F6D4
330
10FE8
100
AcDbEntity
  8
图框
 62
     6
100
AcDbLine
 10
1126.911601781236
 20
531.714049199969
 30
0.0
 11
1130.411601781236
 21
531.714049199969
 31
0.0
1001
AcDbBlockRepETag
1070
     1
1071
      148
1005
1F6D4
  0
ENDBLK
  5
1107F
330
10FE8
100
AcDbEntity
  8
0
100
AcDbBlockEnd
  0
BLOCK
  5
1F1A8
330
1F1A7
100
AcDbEntity
  8
0
100
AcDbBlockBegin
  2
*D2
 70
     1
 10
0.0
 20
0.0
 30
0.0
  3
*D2
  1

  0
LINE
  5
1F262
330
1F1A7
100
AcDbEntity
  8
0
 62
     6
370
    -2
100
AcDbLine
 10
483.2132543884738
 20
298.4559615503378
 30
0.0
 11
483.2132543884738
 21
316.2918992126731
 31
0.0
  0
LINE
  5
1F263
330
1F1A7
100
AcDbEntity
  8
0
 62
     6
370
    -2
100
AcDbLine
 10
449.813254389014
 20
298.4559615503378
 30
0.0
 11
449.813254389014
 21
316.2918992126731
 31
0.0
  0
LINE
  5
1F264
330
1F1A7
100
AcDbEntity
  8
0
 62
     1
370
    -2
100
AcDbLine
 10
480.2132543884739
 20
315.0918992126731
 30
0.0
 11
452.813254389014
 21
315.0918992126731
 31
0.0
  0
SOLID
  5
1F265
330
1F1A7
100
AcDbEntity
  8
0
 62
     1
100
AcDbTrace
 10
480.2132543884739
 20
315.5918992126731
 30
0.0
 11
480.2132543884739
 21
314.5918992126731
 31
0.0
 12
483.2132543884738
 22
315.0918992126731
 32
0.0
 13
483.2132543884738
 23
315.0918992126731
 33
0.0
  0
SOLID
  5
1F266
330
1F1A7
100
AcDbEntity
  8
0
 62
     1
100
AcDbTrace
 10
452.813254389014
 20
315.5918992126731
 30
0.0
 11
452.813254389014
 21
314.5918992126731
 31
0.0
 12
449.813254389014
 22
315.0918992126731
 32
0.0
 13
449.813254389014
 23
315.0918992126731
 33
0.0
  0
MTEXT
  5
1F267
330
1F1A7
100
AcDbEntity
  8
0
 62
     4
100
AcDbMText
 10
466.1719469530932
 20
317.6418992126731
 30
0.0
 40
3.5
 41
0.0
 71
     5
 72
     1
  1
\A1;33.4
  7
Romans字体
 73
     1
 44
1.0
1001
ACAD
1000
MTEXTBEGIN
1070
    73
1070
     1
1070
    44
1040
1.0
1070
    74
1070
     0
1000
MTEXTEND
  0
POINT
  5
1F268
330
1F1A7
100
AcDbEntity
  8
Defpoints
 62
     0
100
AcDbPoint
 10
483.2132543884738
 20
298.2559615503379
 30
0.0
  0
POINT
  5
1F269
330
1F1A7
100
AcDbEntity
  8
Defpoints
 62
     0
100
AcDbPoint
 10
449.813254389014
 20
298.2559615503379
 30
0.0
  0
POINT
  5
1F26A
330
1F1A7
100
AcDbEntity
  8
Defpoints
 62
     0
100
AcDbPoint
 10
449.813254389014
 20
315.0918992126731
 30
0.0
  0
ENDBLK
  5
1F1A9
330
1F1A7
100
AcDbEntity
  8
0
100
AcDbBlockEnd
  0
BLOCK
  5
1F1B4
330
1F1B3
100
AcDbEntity
  8
0
100
AcDbBlockBegin
  2
*D3
 70
     1
 10
0.0
 20
0.0
 30
0.0
  3
*D3
  1

  0
LINE
  5
1F259
330
1F1B3
100
AcDbEntity
  8
0
 62
     6
370
    -2
100
AcDbLine
 10
518.6725110681017
 20
306.8625487109029
 30
0.0
 11
531.3326805898753
 21
306.8625487109029
 31
0.0
  0
LINE
  5
1F25A
330
1F1B3
100
AcDbEntity
  8
0
 62
     6
370
    -2
100
AcDbLine
 10
518.6725110681017
 20
285.8625487120018
 30
0.0
 11
531.3326805898753
 21
285.8625487120018
 31
0.0
  0
LINE
  5
1F25B
330
1F1B3
100
AcDbEntity
  8
0
 62
     1
370
    -2
100
AcDbLine
 10
530.1326805898752
 20
303.8625487109028
 30
0.0
 11
530.1326805898752
 21
288.8625487120019
 31
0.0
  0
SOLID
  5
1F25C
330
1F1B3
100
AcDbEntity
  8
0
 62
     1
100
AcDbTrace
 10
529.6326805898752
 20
303.8625487109028
 30
0.0
 11
530.6326805898752
 21
303.8625487109028
 31
0.0
 12
530.1326805898752
 22
306.8625487109029
 32
0.0
 13
530.1326805898752
 23
306.8625487109029
 33
0.0
  0
SOLID
  5
1F25D
330
1F1B3
100
AcDbEntity
  8
0
 62
     1
100
AcDbTrace
 10
529.6326805898752
 20
288.8625487120019
 30
0.0
 11
530.6326805898752
 21
288.8625487120019
 31
0.0
 12
530.1326805898752
 22
285.8625487120018
 32
0.0
 13
530.1326805898752
 23
285.8625487120018
 33
0.0
  0
MTEXT
  5
1F25E
330
1F1B3
100
AcDbEntity
  8
0
 62
     4
100
AcDbMText
 10
527.4271250343196
 20
295.8918638637996
 30
0.0
 40
3.5
 41
0.0
 71
     5
 72
     1
  1
\A1;{\fSimSun|b0|i0|c134|p2;□}21
  7
Romans字体
 11
0.0000000000000001
 21
1.0
 31
0.0
 73
     1
 44
1.0
1001
ACAD
1000
MTEXTBEGIN
1070
    73
1070
     1
1070
    44
1040
1.0
1070
    74
1070
     0
1000
MTEXTEND
  0
POINT
  5
1F25F
330
1F1B3
100
AcDbEntity
  8
Defpoints
 62
     0
100
AcDbPoint
 10
518.4725110681016
 20
306.8625487109029
 30
0.0
  0
POINT
  5
1F260
330
1F1B3
100
AcDbEntity
  8
Defpoints
 62
     0
100
AcDbPoint
 10
518.4725110681016
 20
285.8625487120018
 30
0.0
  0
POINT
  5
1F261
330
1F1B3
100
AcDbEntity
  8
Defpoints
 62
     0
100
AcDbPoint
 10
530.1326805898752
 20
285.8625487120018
 30
0.0
  0
ENDBLK
  5
1F1B5
330
1F1B3
100
AcDbEntity
  8
0
100
AcDbBlockEnd
  0
ENDSEC
  0
SECTION
  2
ENTITIES
  0
HATCH
  5
28AE
330
1F
100
AcDbEntity
  8
图层 1
 62
     7
100
AcDbHatch
 10
0.0
 20
0.0
 30
0.0
210
0.0
220
0.0
230
1.0
  2
SOLID
 70
     1
 71
     0
 91
        1
 92
        1
 93
        2
 72
     4
 94
        3
 73
     0
 74
     0
 95
       17
 96
       13
 40
0.0
 40
0.0
 40
0.0
 40
0.0
 40
0.3527780104152769
 40
0.3527780104152769
 40
0.3527780104152769
 40
0.7055560208305538
 40
0.7055560208305538
 40
0.7055560208305538
 40
1.058334031245828
 40
1.058334031245828
 40
1.058334031245828
 40
1.411112041661104
 40
1.411112041661104
 40
1.411112041661104
 40
1.411112041661104
 10
11.07013262565829
 20
29.50312817963231
 10
11.07013262565829
 20
29.50312817963231
 10
10.9431807732774
 20
29.50312817963231
 10
10.9431807732774
 20
29.50312817963231
 10
10.9431807732774
 20
29.50312817963231
 10
10.85843136843155
 20
29.22786486877117
 10
10.85843136843155
 20
29.22786486877117
 10
10.85843136843155
 20
29.22786486877117
 10
10.90080607085448
 20
29.2068497724476
 10
10.90080607085448
 20
29.2068497724476
 10
10.94455881238059
 20
29.31571486159919
 10
11.00346998404173
 20
29.40907701083995
 10
11.07013262565829
 20
29.50312817963231
 72
     1
 10
11.07013262565829
 20
29.50312817963231
 11
11.07013262565829
 21
29.50312817963231
 97
        0
 75
     0
 76
     1
 98
        0
  0
HATCH
  5
2C65
330
1F
100
AcDbEntity
  8
图层 1
 62
     7
100
AcDbHatch
 10
0.0
 20
0.0
 30
0.0
210
0.0
220
0.0
230
1.0
  2
SOLID
 70
     1
 71
     0
 91
        1
 92
        1
 93
        2
 72
     4
 94
        3
 73
     0
 74
     0
 95
       47
 96
       43
 40
0.0
 40
0.0
 40
0.0
 40
0.0
 40
0.3527780104152769
 40
0.3527780104152769
 40
0.3527780104152769
 40
0.7055560208305538
 40
0.7055560208305538
 40
0.7055560208305538
 40
1.058334031245828
 40
1.058334031245828
 40
1.058334031245828
 40
1.411112041661104
 40
1.411112041661104
 40
1.411112041661104
 40
1.763890052076384
 40
1.763890052076384
 40
1.763890052076384
 40
2.116668062491659
 40
2.116668062491659
 40
2.116668062491659
 40
2.469446072906936
 40
2.469446072906936
 40
2.469446072906936
 40
2.822224083322215
 40
2.822224083322215
 40
2.822224083322215
 40
3.175002093737492
 40
3.175002093737492
 40
3.175002093737492
 40
3.527780104152768
 40
3.527780104152768
 40
3.527780104152768
 40
3.880558114568044
 40
3.880558114568044
 40
3.880558114568044
 40
4.233336124983321
 40
4.233336124983321
 40
4.233336124983321
 40
4.586114135398599
 40
4.586114135398599
 40
4.586114135398599
 40
4.938892145813873
 40
4.938892145813873
 40
4.938892145813873
 40
4.938892145813873
 10
162.8986914070121
 20
257.4895347631509
 10
162.8986914070121
 20
257.4895347631509
 10
162.9200510131114
 20
257.4471600607279
 10
162.9200510131114
 20
257.4471600607279
 10
162.9200510131114
 20
257.4471600607279
 10
162.9200510131114
 20
257.404785358305
 10
162.9200510131114
 20
257.404785358305
 10
162.9200510131114
 20
257.404785358305
 10
162.8986914070121
 20
257.36258291077
 10
162.8986914070121
 20
257.36258291077
 10
162.8986914070121
 20
257.36258291077
 10
162.8986914070121
 20
257.320208208347
 10
162.8986914070121
 20
257.320208208347
 10
162.8986914070121
 20
257.320208208347
 10
162.8563167045891
 20
257.2990208571356
 10
162.8563167045891
 20
257.2990208571356
 10
162.8563167045891
 20
257.2990208571356
 10
162.8139420021662
 20
257.2563016449369
 10
162.8139420021662
 20
257.2563016449369
 10
162.8139420021662
 20
257.2563016449369
 10
162.7295371070961
 20
257.2563016449369
 10
162.7295371070961
 20
257.2563016449369
 10
162.7295371070961
 20
257.2563016449369
 10
162.6658027985738
 20
257.2778335059241
 10
162.6658027985738
 20
257.2778335059241
 10
162.6658027985738
 20
257.2778335059241
 10
162.6237726059267
 20
257.2990208571356
 10
162.6237726059267
 20
257.2990208571356
 10
162.6237726059267
 20
257.2990208571356
 10
162.5813979035038
 20
257.3413955595585
 10
162.5813979035038
 20
257.3413955595585
 10
162.5813979035038
 20
257.3413955595585
 10
162.5813979035038
 20
257.4895347631509
 10
162.5813979035038
 20
257.4895347631509
 10
162.5813979035038
 20
257.4895347631509
 10
162.6447877022503
 20
257.5525800521216
 10
162.6447877022503
 20
257.5525800521216
 10
162.6447877022503
 20
257.5525800521216
 10
162.7081775009967
 20
257.5525800521216
 10
162.7081775009967
 20
257.5525800521216
 10
162.8749202324821
 20
257.5424170137356
 10
162.7918933765152
 20
257.5939212252171
 10
162.8986914070121
 20
257.4895347631509
 72
     1
 10
162.8986914070121
 20
257.4895347631509
 11
162.8986914070121
 21
257.4895347631509
 97
        0
 75
     0
 76
     1
 98
        0
  0
HATCH
  5
2EE7
330
1F
100
AcDbEntity
  8
图层 1
 62
     7
100
AcDbHatch
 10
0.0
 20
0.0
 30
0.0
210
0.0
220
0.0
230
1.0
  2
SOLID
 70
     1
 71
     0
 91
        1
 92
        1
 93
        2
 72
     4
 94
        3
 73
     0
 74
     0
 95
       56
 96
       52
 40
0.0
 40
0.0
 40
0.0
 40
0.0
 40
0.3527780104152769
 40
0.3527780104152769
 40
0.3527780104152769
 40
0.7055560208305538
 40
0.7055560208305538
 40
0.7055560208305538
 40
1.058334031245828
 40
1.058334031245828
 40
1.058334031245828
 40
1.411112041661104
 40
1.411112041661104
 40
1.411112041661104
 40
1.763890052076384
 40
1.763890052076384
 40
1.763890052076384
 40
2.116668062491659
 40
2.116668062491659
 40
2.116668062491659
 40
2.469446072906936
 40
2.469446072906936
 40
2.469446072906936
 40
2.822224083322215
 40
2.822224083322215
 40
2.822224083322215
 40
3.175002093737492
 40
3.175002093737492
 40
3.175002093737492
 40
3.527780104152768
 40
3.527780104152768
 40
3.527780104152768
 40
3.880558114568044
 40
3.880558114568044
 40
3.880558114568044
 40
4.233336124983321
 40
4.233336124983321
 40
4.233336124983321
 40
4.586114135398599
 40
4.586114135398599
 40
4.586114135398599
 40
4.938892145813873
 40
4.938892145813873
 40
4.938892145813873
 40
5.291670156229153
 40
5.291670156229153
 40
5.291670156229153
 40
5.64444816664443
 40
5.64444816664443
 40
5.64444816664443
 40
5.997226177059705
 40
5.997226177059705
 40
5.997226177059705
 40
5.997226177059705
 10
185.4837187788815
 20
241.4451977396596
 10
185.4837187788815
 20
241.4451977396596
 10
185.4837187788815
 20
241.4028230372367
 10
185.4837187788815
 20
241.4028230372367
 10
185.4837187788815
 20
241.4028230372367
 10
185.5047338752051
 20
241.3604483348137
 10
185.5047338752051
 20
241.3604483348137
 10
185.4520238795082
 20
241.2782827532863
 10
185.4671823096433
 20
241.1897437409066
 10
185.335579575289
 20
241.2119646214456
 10
185.335579575289
 20
241.2119646214456
 10
185.2932048728662
 20
241.2119646214456
 10
185.2932048728662
 20
241.2119646214456
 10
185.2932048728662
 20
241.2119646214456
 10
185.2294705643439
 20
241.2334964824328
 10
185.2294705643439
 20
241.2334964824328
 10
185.2294705643439
 20
241.2334964824328
 10
185.1660807655974
 20
241.2543393238685
 10
185.1660807655974
 20
241.2543393238685
 10
185.1660807655974
 20
241.2543393238685
 10
185.1450656692739
 20
241.2758711848558
 10
185.1450656692739
 20
241.2758711848558
 10
185.1450656692739
 20
241.2758711848558
 10
185.1450656692739
 20
241.2967140262914
 10
185.1450656692739
 20
241.2967140262914
 10
185.1450656692739
 20
241.2967140262914
 10
185.1237060631745
 20
241.3604483348137
 10
185.1237060631745
 20
241.3604483348137
 10
185.1237060631745
 20
241.3604483348137
 10
185.1237060631745
 20
241.4028230372367
 10
185.1237060631745
 20
241.4028230372367
 10
185.1237060631745
 20
241.4028230372367
 10
185.1660807655974
 20
241.4875724420825
 10
185.1660807655974
 20
241.4875724420825
 10
185.1660807655974
 20
241.4875724420825
 10
185.2084554680203
 20
241.5085875384061
 10
185.2084554680203
 20
241.5085875384061
 10
185.2084554680203
 20
241.5085875384061
 10
185.2718452667668
 20
241.5297748896175
 10
185.2718452667668
 20
241.5297748896175
 10
185.2718452667668
 20
241.5297748896175
 10
185.3565946716127
 20
241.5297748896175
 10
185.3565946716127
 20
241.5297748896175
 10
185.3565946716127
 20
241.5297748896175
 10
185.4199844703592
 20
241.5085875384061
 10
185.4199844703592
 20
241.5085875384061
 10
185.4199844703592
 20
241.5085875384061
 10
185.4623591727821
 20
241.4875724420825
 10
185.4623591727821
 20
241.4875724420825
 10
185.4623591727821
 20
241.4875724420825
 10
185.4837187788815
 20
241.4451977396596
 10
185.4837187788815
 20
241.4451977396596
 72
     1
 10
185.4837187788815
 20
241.4451977396596
 11
185.4837187788815
 21
241.4451977396596
 97
        0
 75
     0
 76
     1
 98
        0
  0
HATCH
  5
2F93
330
1F
100
AcDbEntity
  8
图层 1
 62
     7
100
AcDbHatch
 10
0.0
 20
0.0
 30
0.0
210
0.0
220
0.0
230
1.0
  2
SOLID
 70
     1
 71
     0
 91
        1
 92
        1
 93
        2
 72
     4
 94
        3
 73
     0
 74
     0
 95
       38
 96
       34
 40
0.0
 40
0.0
 40
0.0
 40
0.0
 40
0.3527780104152769
 40
0.3527780104152769
 40
0.3527780104152769
 40
0.7055560208305538
 40
0.7055560208305538
 40
0.7055560208305538
 40
1.058334031245828
 40
1.058334031245828
 40
1.058334031245828
 40
1.411112041661104
 40
1.411112041661104
 40
1.411112041661104
 40
1.763890052076384
 40
1.763890052076384
 40
1.763890052076384
 40
2.116668062491659
 40
2.116668062491659
 40
2.116668062491659
 40
2.469446072906936
 40
2.469446072906936
 40
2.469446072906936
 40
2.822224083322215
 40
2.822224083322215
 40
2.822224083322215
 40
3.175002093737492
 40
3.175002093737492
 40
3.175002093737492
 40
3.527780104152768
 40
3.527780104152768
 40
3.527780104152768
 40
3.880558114568044
 40
3.880558114568044
 40
3.880558114568044
 40
3.880558114568044
 10
185.907121293335
 20
220.1937677098971
 10
185.9005756075949
 20
220.0449394867532
 10
185.9329595265197
 20
220.1136691870245
 10
185.864746590912
 20
219.9817219428946
 10
185.864746590912
 20
219.9817219428946
 10
185.822371888489
 20
219.9605345916831
 10
185.822371888489
 20
219.9605345916831
 10
185.822371888489
 20
219.9605345916831
 10
185.6528730787974
 20
219.9605345916831
 10
185.6528730787974
 20
219.9605345916831
 10
185.6528730787974
 20
219.9605345916831
 10
185.5894832800509
 20
220.002909294106
 10
185.5894832800509
 20
220.002909294106
 10
185.5894832800509
 20
220.002909294106
 10
185.5681236739515
 20
220.0240966453175
 10
185.5681236739515
 20
220.0240966453175
 10
185.5681236739515
 20
220.0240966453175
 10
185.5681236739515
 20
220.045283996529
 10
185.5681236739515
 20
220.045283996529
 10
185.5681236739515
 20
220.045283996529
 10
185.547108577628
 20
220.0876586989519
 10
185.547108577628
 20
220.0876586989519
 10
185.547108577628
 20
220.0876586989519
 10
185.547108577628
 20
220.1513930074742
 10
185.547108577628
 20
220.1513930074742
 10
185.547108577628
 20
220.1513930074742
 10
185.5894832800509
 20
220.23614241232
 10
185.5894832800509
 20
220.23614241232
 10
185.5894832800509
 20
220.23614241232
 10
185.6318579824738
 20
220.2573297635315
 10
185.6318579824738
 20
220.2573297635315
 10
185.7055830744942
 20
220.2566407439799
 10
185.8416644359337
 20
220.3310548555519
 10
185.907121293335
 20
220.1937677098971
 72
     1
 10
185.907121293335
 20
220.1937677098971
 11
185.907121293335
 21
220.1937677098971
 97
        0
 75
     0
 76
     1
 98
        0
  0
HATCH
  5
2FDE
330
1F
100
AcDbEntity
  8
图层 1
 62
     7
100
AcDbHatch
 10
0.0
 20
0.0
 30
0.0
210
0.0
220
0.0
230
1.0
  2
SOLID
 70
     1
 71
     0
 91
        1
 92
        1
 93
        2
 72
     4
 94
        3
 73
     0
 74
     0
 95
       50
 96
       46
 40
0.0
 40
0.0
 40
0.0
 40
0.0
 40
0.3527780104152769
 40
0.3527780104152769
 40
0.3527780104152769
 40
0.7055560208305538
 40
0.7055560208305538
 40
0.7055560208305538
 40
1.058334031245828
 40
1.058334031245828
 40
1.058334031245828
 40
1.411112041661104
 40
1.411112041661104
 40
1.411112041661104
 40
1.763890052076384
 40
1.763890052076384
 40
1.763890052076384
 40
2.116668062491659
 40
2.116668062491659
 40
2.116668062491659
 40
2.469446072906936
 40
2.469446072906936
 40
2.469446072906936
 40
2.822224083322215
 40
2.822224083322215
 40
2.822224083322215
 40
3.175002093737492
 40
3.175002093737492
 40
3.175002093737492
 40
3.527780104152768
 40
3.527780104152768
 40
3.527780104152768
 40
3.880558114568044
 40
3.880558114568044
 40
3.880558114568044
 40
4.233336124983321
 40
4.233336124983321
 40
4.233336124983321
 40
4.586114135398599
 40
4.586114135398599
 40
4.586114135398599
 40
4.938892145813873
 40
4.938892145813873
 40
4.938892145813873
 40
5.291670156229153
 40
5.291670156229153
 40
5.291670156229153
 40
5.291670156229153
 10
180.9117295442905
 20
208.9327766684477
 10
180.9117295442905
 20
208.9327766684477
 10
180.9117295442905
 20
208.7637946234197
 10
180.9117295442905
 20
208.7637946234197
 10
181.2273004989198
 20
208.6749111012643
 10
181.3833634273555
 20
208.6776671794706
 10
181.6948002646751
 20
208.5097186637701
 10
181.9542161258496
 20
208.4294478860095
 10
182.1388733656765
 20
208.2134402565853
 10
182.3297317814676
 20
208.02292635057
 10
182.3297317814676
 20
208.02292635057
 10
182.435496282637
 20
208.065301052993
 10
182.435496282637
 20
208.065301052993
 10
182.288390608372
 20
208.2733849575739
 10
182.3752070718726
 20
208.2134402565853
 10
182.1605774815516
 20
208.3824223016133
 10
182.1605774815516
 20
208.3824223016133
 10
182.1182027791287
 20
208.4247970040363
 10
182.1182027791287
 20
208.4247970040363
 10
182.1182027791287
 20
208.4247970040363
 10
182.0968431730294
 20
208.467516216235
 10
182.0968431730294
 20
208.467516216235
 10
182.0968431730294
 20
208.467516216235
 10
182.0544684706064
 20
208.4883590576707
 10
182.0544684706064
 20
208.4883590576707
 10
182.0544684706064
 20
208.4883590576707
 10
181.9910786718599
 20
208.5305615052057
 10
181.9910786718599
 20
208.5305615052057
 10
181.9910786718599
 20
208.5305615052057
 10
181.948703969437
 20
208.552093366193
 10
181.948703969437
 20
208.552093366193
 10
181.948703969437
 20
208.552093366193
 10
181.9063292670141
 20
208.5729362076286
 10
181.9063292670141
 20
208.5729362076286
 10
181.9063292670141
 20
208.5729362076286
 10
181.8639545645911
 20
208.6156554198274
 10
181.8639545645911
 20
208.6156554198274
 10
181.8639545645911
 20
208.6156554198274
 10
181.821924371944
 20
208.6368427710388
 10
181.821924371944
 20
208.6368427710388
 10
181.6637943848536
 20
208.6742220817127
 10
181.5452830219797
 20
208.8092699138248
 10
181.3771622513911
 20
208.8061693258427
 10
181.2803550043924
 20
208.8573290275484
 10
181.0126709085988
 20
208.8971199066528
 10
180.9117295442905
 20
208.9327766684477
 72
     1
 10
180.9117295442905
 20
208.9327766684477
 11
180.9117295442905
 21
208.9327766684477
 97
        0
 75
     0
 76
     1
 98
        0
  0
HATCH
  5
35C8
330
1F
100
AcDbEntity
  8
图层 1
 62
     7
100
AcDbHatch
 10
0.0
 20
0.0
 30
0.0
210
0.0
220
0.0
230
1.0
  2
SOLID
 70
     1
 71
     0
 91
        1
 92
        1
 93
        2
 72
     4
 94
        3
 73
     0
 74
     0
 95
       38
 96
       34
 40
0.0
 40
0.0
 40
0.0
 40
0.0
 40
0.3527780104152769
 40
0.3527780104152769
 40
0.3527780104152769
 40
0.7055560208305538
 40
0.7055560208305538
 40
0.7055560208305538
 40
1.058334031245828
 40
1.058334031245828
 40
1.058334031245828
 40
1.411112041661104
 40
1.411112041661104
 40
1.411112041661104
 40
1.763890052076384
 40
1.763890052076384
 40
1.763890052076384
 40
2.116668062491659
 40
2.116668062491659
 40
2.116668062491659
 40
2.469446072906936
 40
2.469446072906936
 40
2.469446072906936
 40
2.822224083322215
 40
2.822224083322215
 40
2.822224083322215
 40
3.175002093737492
 40
3.175002093737492
 40
3.175002093737492
 40
3.527780104152768
 40
3.527780104152768
 40
3.527780104152768
 40
3.880558114568044
 40
3.880558114568044
 40
3.880558114568044
 40
3.880558114568044
 10
189.145513185819
 20
166.8326485368285
 10
189.207869455238
 20
166.740492171803
 10
189.1317327947871
 20
166.6833035490209
 10
189.103138483396
 20
166.6209472796017
 10
189.103138483396
 20
166.6209472796017
 10
189.0607637809731
 20
166.5997599283903
 10
189.0607637809731
 20
166.5997599283903
 10
189.0607637809731
 20
166.5997599283903
 10
188.9973739822266
 20
166.5785725771788
 10
188.9973739822266
 20
166.5785725771788
 10
188.9973739822266
 20
166.5785725771788
 10
188.9549992798037
 20
166.5997599283903
 10
188.9549992798037
 20
166.5997599283903
 10
188.9549992798037
 20
166.5997599283903
 10
188.8916094810572
 20
166.5997599283903
 10
188.8916094810572
 20
166.5997599283903
 10
188.8916094810572
 20
166.5997599283903
 10
188.8492347786343
 20
166.6209472796017
 10
188.8492347786343
 20
166.6209472796017
 10
188.8492347786343
 20
166.6209472796017
 10
188.8278751725349
 20
166.6633219820247
 10
188.8278751725349
 20
166.6633219820247
 10
188.8278751725349
 20
166.6633219820247
 10
188.8068600762114
 20
166.6845093332361
 10
188.8068600762114
 20
166.6845093332361
 10
188.8068600762114
 20
166.6845093332361
 10
188.8068600762114
 20
166.8326485368285
 10
188.8068600762114
 20
166.8326485368285
 10
188.8068600762114
 20
166.8326485368285
 10
188.8702498749578
 20
166.896038335575
 10
188.8702498749578
 20
166.896038335575
 10
189.0228677056355
 20
166.8819134347673
 10
189.0686875058164
 20
166.9411691162043
 10
189.145513185819
 20
166.8326485368285
 72
     1
 10
189.145513185819
 20
166.8326485368285
 11
189.145513185819
 21
166.8326485368285
 97
        0
 75
     0
 76
     1
 98
        0
  0
HATCH
  5
35D8
330
1F
100
AcDbEntity
  8
图层 1
 62
     7
100
AcDbHatch
 10
0.0
 20
0.0
 30
0.0
210
0.0
220
0.0
230
1.0
  2
SOLID
 70
     1
 71
     0
 91
        1
 92
        1
 93
        2
 72
     4
 94
        3
 73
     0
 74
     0
 95
       68
 96
       64
 40
0.0
 40
0.0
 40
0.0
 40
0.0
 40
0.3527780104152769
 40
0.3527780104152769
 40
0.3527780104152769
 40
0.7055560208305538
 40
0.7055560208305538
 40
0.7055560208305538
 40
1.058334031245828
 40
1.058334031245828
 40
1.058334031245828
 40
1.411112041661104
 40
1.411112041661104
 40
1.411112041661104
 40
1.763890052076384
 40
1.763890052076384
 40
1.763890052076384
 40
2.116668062491659
 40
2.116668062491659
 40
2.116668062491659
 40
2.469446072906936
 40
2.469446072906936
 40
2.469446072906936
 40
2.822224083322215
 40
2.822224083322215
 40
2.822224083322215
 40
3.175002093737492
 40
3.175002093737492
 40
3.175002093737492
 40
3.527780104152768
 40
3.527780104152768
 40
3.527780104152768
 40
3.880558114568044
 40
3.880558114568044
 40
3.880558114568044
 40
4.233336124983321
 40
4.233336124983321
 40
4.233336124983321
 40
4.586114135398599
 40
4.586114135398599
 40
4.586114135398599
 40
4.938892145813873
 40
4.938892145813873
 40
4.938892145813873
 40
5.291670156229153
 40
5.291670156229153
 40
5.291670156229153
 40
5.64444816664443
 40
5.64444816664443
 40
5.64444816664443
 40
5.997226177059705
 40
5.997226177059705
 40
5.997226177059705
 40
6.350004187474984
 40
6.350004187474984
 40
6.350004187474984
 40
6.702782197890257
 40
6.702782197890257
 40
6.702782197890257
 40
7.055560208305537
 40
7.055560208305537
 40
7.055560208305537
 40
7.408338218720808
 40
7.408338218720808
 40
7.408338218720808
 40
7.408338218720808
 10
174.7732543591544
 20
135.4846705078077
 10
174.7732543591544
 20
135.4846705078077
 10
174.7732543591544
 20
135.3789060066383
 10
174.7732543591544
 20
135.3789060066383
 10
174.7732543591544
 20
135.3789060066383
 10
174.8156290615773
 20
135.3789060066383
 10
174.8156290615773
 20
135.3789060066383
 10
174.8156290615773
 20
135.3789060066383
 10
174.8580037640002
 20
135.3578909103147
 10
174.8580037640002
 20
135.3578909103147
 10
174.8580037640002
 20
135.3578909103147
 10
174.9213935627468
 20
135.3578909103147
 10
174.9213935627468
 20
135.3578909103147
 10
174.9213935627468
 20
135.3578909103147
 10
174.9637682651697
 20
135.3365313042154
 10
174.9637682651697
 20
135.3365313042154
 10
174.9637682651697
 20
135.3365313042154
 10
174.9847833614933
 20
135.3365313042154
 10
174.9847833614933
 20
135.3365313042154
 10
174.9847833614933
 20
135.3365313042154
 10
175.0271580639162
 20
135.3155162078918
 10
175.0271580639162
 20
135.3155162078918
 10
175.0271580639162
 20
135.3155162078918
 10
175.0485176700155
 20
135.2941566017924
 10
175.0485176700155
 20
135.2941566017924
 10
175.0485176700155
 20
135.2941566017924
 10
175.0695327663391
 20
135.2941566017924
 10
175.0695327663391
 20
135.2941566017924
 10
175.0695327663391
 20
135.2941566017924
 10
175.0908923724385
 20
135.2731415054689
 10
175.0908923724385
 20
135.2731415054689
 10
175.0908923724385
 20
135.2731415054689
 10
175.1332670748614
 20
135.2731415054689
 10
175.1332670748614
 20
135.2731415054689
 10
175.1332670748614
 20
135.2731415054689
 10
175.154282171185
 20
135.2517818993695
 10
175.154282171185
 20
135.2517818993695
 10
175.154282171185
 20
135.2517818993695
 10
175.154282171185
 20
135.3578909103147
 10
175.154282171185
 20
135.3578909103147
 10
175.154282171185
 20
135.3578909103147
 10
175.1332670748614
 20
135.3789060066383
 10
175.1332670748614
 20
135.3789060066383
 10
175.1332670748614
 20
135.3789060066383
 10
175.0908923724385
 20
135.3789060066383
 10
175.0908923724385
 20
135.3789060066383
 10
175.0908923724385
 20
135.3789060066383
 10
175.0908923724385
 20
135.3999211029619
 10
175.0908923724385
 20
135.3999211029619
 10
175.0908923724385
 20
135.3999211029619
 10
175.0695327663391
 20
135.3999211029619
 10
175.0695327663391
 20
135.3999211029619
 10
175.0695327663391
 20
135.3999211029619
 10
175.0271580639162
 20
135.4212807090612
 10
175.0271580639162
 20
135.4212807090612
 10
175.0271580639162
 20
135.4212807090612
 10
175.0061429675926
 20
135.4212807090612
 10
175.0061429675926
 20
135.4212807090612
 10
175.0061429675926
 20
135.4212807090612
 10
174.9637682651697
 20
135.4422958053848
 10
174.9637682651697
 20
135.4422958053848
 10
174.8996894468716
 20
135.4498750204523
 10
174.8394002361073
 20
135.4860485469109
 10
174.7732543591544
 20
135.4846705078077
 72
     1
 10
174.7732543591544
 20
135.4846705078077
 11
174.7732543591544
 21
135.4846705078077
 97
        0
 75
     0
 76
     1
 98
        0
  0
HATCH
  5
3807
330
1F
100
AcDbEntity
  8
图层 1
 62
     7
100
AcDbHatch
 10
0.0
 20
0.0
 30
0.0
210
0.0
220
0.0
230
1.0
  2
SOLID
 70
     1
 71
     0
 91
        1
 92
        1
 93
        2
 72
     4
 94
        3
 73
     0
 74
     0
 95
       29
 96
       25
 40
0.0
 40
0.0
 40
0.0
 40
0.0
 40
0.3527780104152769
 40
0.3527780104152769
 40
0.3527780104152769
 40
0.7055560208305538
 40
0.7055560208305538
 40
0.7055560208305538
 40
1.058334031245828
 40
1.058334031245828
 40
1.058334031245828
 40
1.411112041661104
 40
1.411112041661104
 40
1.411112041661104
 40
1.763890052076384
 40
1.763890052076384
 40
1.763890052076384
 40
2.116668062491659
 40
2.116668062491659
 40
2.116668062491659
 40
2.469446072906936
 40
2.469446072906936
 40
2.469446072906936
 40
2.822224083322215
 40
2.822224083322215
 40
2.822224083322215
 40
2.822224083322215
 10
175.4929352807925
 20
164.0174869039101
 10
175.4929352807925
 20
164.0174869039101
 10
175.5139503771161
 20
163.9751122014871
 10
175.5139503771161
 20
163.9751122014871
 10
175.5139503771161
 20
163.9751122014871
 10
175.5139503771161
 20
163.9327374990642
 10
175.5139503771161
 20
163.9327374990642
 10
175.5139503771161
 20
163.9327374990642
 10
175.4929352807925
 20
163.8903627966413
 10
175.4929352807925
 20
163.8903627966413
 10
175.4929352807925
 20
163.8903627966413
 10
175.471920184469
 20
163.8691754454298
 10
175.471920184469
 20
163.8691754454298
 10
175.471920184469
 20
163.8691754454298
 10
175.4505605783696
 20
163.8269729978948
 10
175.4505605783696
 20
163.8269729978948
 10
175.3571984291289
 20
163.7715069239916
 10
175.272449024283
 20
163.8195660377152
 10
175.1966568736079
 20
163.8691754454298
 10
175.208370205985
 20
163.9930267098286
 10
175.1563492298397
 20
164.0216210212197
 10
175.2600466723544
 20
164.0596893514451
 10
175.3330827448232
 20
164.1094710140476
 10
175.4357466580104
 20
164.0753645462439
 10
175.4929352807925
 20
164.0174869039101
 72
     1
 10
175.4929352807925
 20
164.0174869039101
 11
175.4929352807925
 21
164.0174869039101
 97
        0
 75
     0
 76
     1
 98
        0
  0
HATCH
  5
3895
330
1F
100
AcDbEntity
  8
图层 1
 62
     7
100
AcDbHatch
 10
0.0
 20
0.0
 30
0.0
210
0.0
220
0.0
230
1.0
  2
SOLID
 70
     1
 71
     0
 91
        1
 92
        1
 93
        2
 72
     4
 94
        3
 73
     0
 74
     0
 95
       11
 96
        7
 40
0.0
 40
0.0
 40
0.0
 40
0.0
 40
0.3527780104152769
 40
0.3527780104152769
 40
0.3527780104152769
 40
0.7055560208305538
 40
0.7055560208305538
 40
0.7055560208305538
 40
0.7055560208305538
 10
174.9213935627468
 20
174.5369206529582
 10
174.9213935627468
 20
174.5369206529582
 10
174.9213935627468
 20
174.3043765542958
 10
174.9213935627468
 20
174.3043765542958
 10
174.9213935627468
 20
174.3043765542958
 10
174.9213935627468
 20
174.5369206529582
 10
174.9213935627468
 20
174.5369206529582
 72
     1
 10
174.9213935627468
 20
174.5369206529582
 11
174.9213935627468
 21
174.5369206529582
 97
        0
 75
     0
 76
     1
 98
        0
  0
HATCH
  5
3943
330
1F
100
AcDbEntity
  8
图层 1
 62
     7
100
AcDbHatch
 10
0.0
 20
0.0
 30
0.0
210
0.0
220
0.0
230
1.0
  2
SOLID
 70
     1
 71
     0
 91
        1
 92
        1
 93
        2
 72
     4
 94
        3
 73
     0
 74
     0
 95
      131
 96
      127
 40
0.0
 40
0.0
 40
0.0
 40
0.0
 40
0.3527780104152769
 40
0.3527780104152769
 40
0.3527780104152769
 40
0.7055560208305538
 40
0.7055560208305538
 40
0.7055560208305538
 40
1.058334031245828
 40
1.058334031245828
 40
1.058334031245828
 40
1.411112041661104
 40
1.411112041661104
 40
1.411112041661104
 40
1.763890052076384
 40
1.763890052076384
 40
1.763890052076384
 40
2.116668062491659
 40
2.116668062491659
 40
2.116668062491659
 40
2.469446072906936
 40
2.469446072906936
 40
2.469446072906936
 40
2.822224083322215
 40
2.822224083322215
 40
2.822224083322215
 40
3.175002093737492
 40
3.175002093737492
 40
3.175002093737492
 40
3.527780104152768
 40
3.527780104152768
 40
3.527780104152768
 40
3.880558114568044
 40
3.880558114568044
 40
3.880558114568044
 40
4.233336124983321
 40
4.233336124983321
 40
4.233336124983321
 40
4.586114135398599
 40
4.586114135398599
 40
4.586114135398599
 40
4.938892145813873
 40
4.938892145813873
 40
4.938892145813873
 40
5.291670156229153
 40
5.291670156229153
 40
5.291670156229153
 40
5.64444816664443
 40
5.64444816664443
 40
5.64444816664443
 40
5.997226177059705
 40
5.997226177059705
 40
5.997226177059705
 40
6.350004187474984
 40
6.350004187474984
 40
6.350004187474984
 40
6.702782197890257
 40
6.702782197890257
 40
6.702782197890257
 40
7.055560208305537
 40
7.055560208305537
 40
7.055560208305537
 40
7.408338218720808
 40
7.408338218720808
 40
7.408338218720808
 40
7.76111622913609
 40
7.76111622913609
 40
7.76111622913609
 40
8.113894239551369
 40
8.113894239551369
 40
8.113894239551369
 40
8.466672249966642
 40
8.466672249966642
 40
8.466672249966642
 40
8.819450260381922
 40
8.819450260381922
 40
8.819450260381922
 40
9.172228270797198
 40
9.172228270797198
 40
9.172228270797198
 40
9.525006281212476
 40
9.525006281212476
 40
9.525006281212476
 40
9.877784291627751
 40
9.877784291627751
 40
9.877784291627751
 40
10.23056230204303
 40
10.23056230204303
 40
10.23056230204303
 40
10.58334031245831
 40
10.58334031245831
 40
10.58334031245831
 40
10.93611832287358
 40
10.93611832287358
 40
10.93611832287358
 40
11.28889633328886
 40
11.28889633328886
 40
11.28889633328886
 40
11.64167434370414
 40
11.64167434370414
 40
11.64167434370414
 40
11.99445235411941
 40
11.99445235411941
 40
11.99445235411941
 40
12.34723036453469
 40
12.34723036453469
 40
12.34723036453469
 40
12.70000837494997
 40
12.70000837494997
 40
12.70000837494997
 40
13.05278638536524
 40
13.05278638536524
 40
13.05278638536524
 40
13.40556439578052
 40
13.40556439578052
 40
13.40556439578052
 40
13.7583424061958
 40
13.7583424061958
 40
13.7583424061958
 40
14.11112041661107
 40
14.11112041661107
 40
14.11112041661107
 40
14.46389842702635
 40
14.46389842702635
 40
14.46389842702635
 40
14.81667643744163
 40
14.81667643744163
 40
14.81667643744163
 40
14.81667643744163
 10
173.3972823146245
 20
126.8274843518258
 10
173.3972823146245
 20
126.8274843518258
 10
173.3972823146245
 20
126.7217198506564
 10
173.3972823146245
 20
126.7217198506564
 10
173.3972823146245
 20
126.7217198506564
 10
173.4186419207238
 20
126.7217198506564
 10
173.4186419207238
 20
126.7217198506564
 10
173.4186419207238
 20
126.7217198506564
 10
173.4820317194703
 20
126.7007047543328
 10
173.4820317194703
 20
126.7007047543328
 10
173.4820317194703
 20
126.7007047543328
 10
173.5244064218933
 20
126.6793451482334
 10
173.5244064218933
 20
126.6793451482334
 10
173.5244064218933
 20
126.6793451482334
 10
173.5877962206398
 20
126.6793451482334
 10
173.5877962206398
 20
126.6793451482334
 10
173.5877962206398
 20
126.6793451482334
 10
173.6301709230627
 20
126.6583300519099
 10
173.6301709230627
 20
126.6583300519099
 10
173.7955356154449
 20
126.5911506456296
 10
173.759706598762
 20
126.6380039751379
 10
173.9478089363468
 20
126.5525655507404
 10
173.9478089363468
 20
126.5525655507404
 10
173.9688240326703
 20
126.4464565397952
 10
173.9688240326703
 20
126.4464565397952
 10
173.9688240326703
 20
126.4464565397952
 10
174.0325583411926
 20
126.5101908483175
 10
174.0325583411926
 20
126.5101908483175
 10
174.0325583411926
 20
126.5101908483175
 10
174.0749330436156
 20
126.5101908483175
 10
174.0749330436156
 20
126.5101908483175
 10
174.0749330436156
 20
126.5101908483175
 10
174.1593379386856
 20
126.4678161458946
 10
174.1593379386856
 20
126.4678161458946
 10
174.1593379386856
 20
126.4678161458946
 10
174.180697544785
 20
126.4464565397952
 10
174.180697544785
 20
126.4464565397952
 10
174.2464989119621
 20
126.3982251711837
 10
174.3298702777047
 20
126.3716979184474
 10
174.3922265471239
 20
126.3196769423022
 10
174.608234176548
 20
126.2059887162895
 10
174.7749769080334
 20
126.0278771622029
 10
174.9637682651697
 20
125.8749148217494
 10
174.9637682651697
 20
125.8749148217494
 10
175.0061429675926
 20
125.9172895241723
 10
175.0061429675926
 20
125.9172895241723
 10
174.961356696739
 20
125.9631093243532
 10
174.782211613325
 20
126.1246844092016
 10
174.7308796567315
 20
126.1501781326105
 10
174.7308796567315
 20
126.1501781326105
 10
174.6885049543085
 20
126.1925528350335
 10
174.6885049543085
 20
126.1925528350335
 10
174.6885049543085
 20
126.1925528350335
 10
174.667489857985
 20
126.2349275374564
 10
174.667489857985
 20
126.2349275374564
 10
174.667489857985
 20
126.2349275374564
 10
174.625115155562
 20
126.2559426337799
 10
174.625115155562
 20
126.2559426337799
 10
174.625115155562
 20
126.2559426337799
 10
174.5827404531391
 20
126.2983173362029
 10
174.5827404531391
 20
126.2983173362029
 10
174.5827404531391
 20
126.2983173362029
 10
174.5403657507162
 20
126.3196769423022
 10
174.5403657507162
 20
126.3196769423022
 10
174.5403657507162
 20
126.3196769423022
 10
174.4979910482932
 20
126.3620516447252
 10
174.4979910482932
 20
126.3620516447252
 10
174.4735308542117
 20
126.3875453681341
 10
174.3247026310678
 20
126.4695386947736
 10
174.2864620459544
 20
126.4888312422181
 10
174.2864620459544
 20
126.4888312422181
 10
174.2654469496308
 20
126.5101908483175
 10
174.2654469496308
 20
126.5101908483175
 10
174.2654469496308
 20
126.5101908483175
 10
174.2230722472079
 20
126.5312059446411
 10
174.2230722472079
 20
126.5312059446411
 10
174.2230722472079
 20
126.5312059446411
 10
174.2017126411085
 20
126.5525655507404
 10
174.2017126411085
 20
126.5525655507404
 10
174.2017126411085
 20
126.5525655507404
 10
174.1383228423621
 20
126.573580647064
 10
174.1383228423621
 20
126.573580647064
 10
174.1383228423621
 20
126.573580647064
 10
174.1169632362627
 20
126.5945957433876
 10
174.1169632362627
 20
126.5945957433876
 10
174.1169632362627
 20
126.5945957433876
 10
174.0959481399391
 20
126.7007047543328
 10
174.0959481399391
 20
126.7007047543328
 10
174.0959481399391
 20
126.7007047543328
 10
174.0325583411926
 20
126.6369704458105
 10
174.0325583411926
 20
126.6369704458105
 10
174.0325583411926
 20
126.6369704458105
 10
173.9901836387697
 20
126.6369704458105
 10
173.9901836387697
 20
126.6369704458105
 10
173.9901836387697
 20
126.6369704458105
 10
173.9054342339239
 20
126.6793451482334
 10
173.9054342339239
 20
126.6793451482334
 10
173.9054342339239
 20
126.6793451482334
 10
173.8420444351773
 20
126.7007047543328
 10
173.8420444351773
 20
126.7007047543328
 10
173.8420444351773
 20
126.7007047543328
 10
173.7996697327544
 20
126.7217198506564
 10
173.7996697327544
 20
126.7217198506564
 10
173.7996697327544
 20
126.7217198506564
 10
173.7572950303315
 20
126.7217198506564
 10
173.7572950303315
 20
126.7217198506564
 10
173.7572950303315
 20
126.7217198506564
 10
173.6725456254856
 20
126.7640945530793
 10
173.6725456254856
 20
126.7640945530793
 10
173.6725456254856
 20
126.7640945530793
 10
173.6515305291621
 20
126.7640945530793
 10
173.6515305291621
 20
126.7640945530793
 10
173.6515305291621
 20
126.7640945530793
 10
173.5667811243162
 20
126.7851096494029
 10
173.5667811243162
 20
126.7851096494029
 10
173.5667811243162
 20
126.7851096494029
 10
173.5033913255697
 20
126.8064692555022
 10
173.5033913255697
 20
126.8064692555022
 10
173.5033913255697
 20
126.8064692555022
 10
173.4396570170474
 20
126.8064692555022
 10
173.4396570170474
 20
126.8064692555022
 10
173.4396570170474
 20
126.8064692555022
 10
173.4186419207238
 20
126.8274843518258
 10
173.4186419207238
 20
126.8274843518258
 10
173.4186419207238
 20
126.8274843518258
 10
173.3972823146245
 20
126.8274843518258
 10
173.3972823146245
 20
126.8274843518258
 72
     1
 10
173.3972823146245
 20
126.8274843518258
 11
173.3972823146245
 21
126.8274843518258
 97
        0
 75
     0
 76
     1
 98
        0
  0
HATCH
  5
4842
330
1F
100
AcDbEntity
  8
图层 1
 62
     7
100
AcDbHatch
 10
0.0
 20
0.0
 30
0.0
210
0.0
220
0.0
230
1.0
  2
SOLID
 70
     1
 71
     0
 91
        1
 92
        1
 93
        2
 72
     4
 94
        3
 73
     0
 74
     0
 95
       47
 96
       43
 40
0.0
 40
0.0
 40
0.0
 40
0.0
 40
0.3527780104152769
 40
0.3527780104152769
 40
0.3527780104152769
 40
0.7055560208305538
 40
0.7055560208305538
 40
0.7055560208305538
 40
1.058334031245828
 40
1.058334031245828
 40
1.058334031245828
 40
1.411112041661104
 40
1.411112041661104
 40
1.411112041661104
 40
1.763890052076384
 40
1.763890052076384
 40
1.763890052076384
 40
2.116668062491659
 40
2.116668062491659
 40
2.116668062491659
 40
2.469446072906936
 40
2.469446072906936
 40
2.469446072906936
 40
2.822224083322215
 40
2.822224083322215
 40
2.822224083322215
 40
3.175002093737492
 40
3.175002093737492
 40
3.175002093737492
 40
3.527780104152768
 40
3.527780104152768
 40
3.527780104152768
 40
3.880558114568044
 40
3.880558114568044
 40
3.880558114568044
 40
4.233336124983321
 40
4.233336124983321
 40
4.233336124983321
 40
4.586114135398599
 40
4.586114135398599
 40
4.586114135398599
 40
4.938892145813873
 40
4.938892145813873
 40
4.938892145813873
 40
4.938892145813873
 10
180.1920486226523
 20
255.6479577566324
 10
180.1920486226523
 20
255.6479577566324
 10
180.2130637189759
 20
255.6055830542095
 10
180.2130637189759
 20
255.6055830542095
 10
180.2130637189759
 20
255.6055830542095
 10
180.2130637189759
 20
255.5210059042515
 10
180.2130637189759
 20
255.5210059042515
 10
180.2130637189759
 20
255.5210059042515
 10
180.1920486226523
 20
255.4786312018286
 10
180.1920486226523
 20
255.4786312018286
 10
180.1920486226523
 20
255.4786312018286
 10
180.1496739202294
 20
255.4359119896299
 10
180.1496739202294
 20
255.4359119896299
 10
180.1496739202294
 20
255.4359119896299
 10
180.1283143141301
 20
255.4147246384184
 10
180.1283143141301
 20
255.4147246384184
 10
180.1283143141301
 20
255.4147246384184
 10
180.0225498129606
 20
255.4147246384184
 10
180.0225498129606
 20
255.4147246384184
 10
180.0225498129606
 20
255.4147246384184
 10
179.9591600142141
 20
255.4359119896299
 10
179.9591600142141
 20
255.4359119896299
 10
179.9591600142141
 20
255.4359119896299
 10
179.9167853117912
 20
255.4570993408414
 10
179.9167853117912
 20
255.4570993408414
 10
179.9167853117912
 20
255.4570993408414
 10
179.8957702154676
 20
255.4786312018286
 10
179.8957702154676
 20
255.4786312018286
 10
179.8957702154676
 20
255.4786312018286
 10
179.8744106093683
 20
255.4994740432643
 10
179.8744106093683
 20
255.4994740432643
 10
179.8744106093683
 20
255.4994740432643
 10
179.8744106093683
 20
255.6479577566324
 10
179.8744106093683
 20
255.6479577566324
 10
179.9608825630931
 20
255.7323626517025
 10
180.045631967939
 20
255.7085914771726
 10
180.1496739202294
 20
255.7115198102668
 10
180.1496739202294
 20
255.7115198102668
 10
180.170689016553
 20
255.6688005980681
 10
180.170689016553
 20
255.6688005980681
 10
180.170689016553
 20
255.6688005980681
 10
180.1920486226523
 20
255.6479577566324
 10
180.1920486226523
 20
255.6479577566324
 72
     1
 10
180.1920486226523
 20
255.6479577566324
 11
180.1920486226523
 21
255.6479577566324
 97
        0
 75
     0
 76
     1
 98
        0
  0
MTEXT
  5
65A0
330
1F
100
AcDbEntity
  8
图框
 62
     3
100
AcDbMText
 10
652.3064215351515
 20
221.9674786344378
 30
0.0
 40
2.985513575034151
 41
33.61239199242137
 71
     5
 72
     5
  1
HD-008-FC
  7
Romans字体
 73
     1
 44
1.0
1001
ACAD
1000
MTEXTBEGIN
1070
    73
1070
     1
1070
    44
1040
1.0
1070
    74
1070
     0
1000
MTEXTEND
1000
ACAD_MTEXT_DEFINED_HEIGHT_BEGIN
1070
    46
1040
8.686745505685866
1000
ACAD_MTEXT_DEFINED_HEIGHT_END
  0
MTEXT
  5
65A1
330
1F
100
AcDbEntity
  8
图框
 62
     3
100
AcDbMText
 10
652.3064215351515
 20
213.1880281076118
 30
0.0
 40
2.985513575034151
 41
33.61239199242137
 71
     5
 72
     5
  1
1250080200001
  7
Romans字体
 73
     1
 44
1.0
1001
ACAD
1000
MTEXTBEGIN
1070
    73
1070
     1
1070
    44
1040
1.0
1070
    74
1070
     0
1000
MTEXTEND
1000
ACAD_MTEXT_DEFINED_HEIGHT_BEGIN
1070
    46
1040
8.872155547966105
1000
ACAD_MTEXT_DEFINED_HEIGHT_END
  0
MTEXT
  5
65A3
330
1F
100
AcDbEntity
  8
图框
 62
     3
100
AcDbMText
 10
584.2527566045665
 20
199.8803930288668
 30
0.0
 40
2.985513575034151
 41
10.82934843439047
 71
     5
 72
     5
  1
1:1 
  7
Romans字体
 73
     1
 44
1.0
1001
ACAD
1000
MTEXTBEGIN
1070
    73
1070
     1
1070
    44
1040
1.0
1070
    74
1070
     0
1000
MTEXTEND
1000
ACAD_MTEXT_DEFINED_HEIGHT_BEGIN
1070
    46
1040
7.886094601210496
1000
ACAD_MTEXT_DEFINED_HEIGHT_END
  0
MTEXT
  5
65A4
330
1F
100
AcDbEntity
  8
图框
 62
     3
100
AcDbMText
 10
595.0821050389572
 20
199.8803930288669
 30
0.0
 40
2.985513575034151
 41
10.82934843439126
 71
     5
 72
     5
  1
V1.2
  7
Romans字体
 73
     1
 44
1.0
1001
ACAD
1000
MTEXTBEGIN
1070
    73
1070
     1
1070
    44
1040
1.0
1070
    74
1070
     0
1000
MTEXTEND
1000
ACAD_MTEXT_DEFINED_HEIGHT_BEGIN
1070
    46
1040
7.886094601210459
1000
ACAD_MTEXT_DEFINED_HEIGHT_END
  0
MTEXT
  5
65B2
330
1F
100
AcDbEntity
  8
图框
 62
     3
100
AcDbMText
 10
605.9114534733492
 20
199.8803930288669
 30
0.0
 40
2.985513575034151
 41
10.82934843439217
 71
     5
 72
     5
  1
8g
  7
Romans字体
 73
     1
 44
1.0
1001
ACAD
1000
MTEXTBEGIN
1070
    73
1070
     1
1070
    44
1040
1.0
1070
    74
1070
     0
1000
MTEXTEND
1000
ACAD_MTEXT_DEFINED_HEIGHT_BEGIN
1070
    46
1040
7.886094601210402
1000
ACAD_MTEXT_DEFINED_HEIGHT_END
  0
MTEXT
  5
6E00
102
{ACAD_XDICTIONARY
360
1F88C
102
}
330
1F
100
AcDbEntity
  8
打标文字
 62
     3
100
AcDbMText
 10
569.7875236196565
 20
331.5235317590027
 30
0.0
 40
1.912985285738284
 41
55.18345123699972
 71
     1
 72
     5
  3
\A1;{\f仿宋_GB2312|b0|i0|c134|p49;技术参数}:\P{\f仿宋_GB2312|b0|i0|c134|p49;插芯：}\P- {\f仿宋_GB2312|b0|i0|c134|p49;插针数}: 8\P- {\f仿宋_GB2312|b0|i0|c134|p49;额定电流}: 10A\P- {\f仿宋_GB2312|b0|i0|c134|p49;额定电压}: -120V/{\f仿宋_GB2312|b0|i0|c134|p49;～}50V\P- {\f仿宋_GB2312|b0
  3
|i0|c134|p49;额定脉冲电压}: 0.8kV\P- {\f仿宋_GB2312|b0|i0|c134|p49;污染等级}: 3\P- {\f仿宋_GB2312|b0|i0|c134|p49;依据}UL/CSA{\f仿宋_GB2312|b0|i0|c134|p49;的额定电压}: 50V\P- {\f仿宋_GB2312|b0|i0|c134|p49;额定电压（直流电压）}: 120V\P- {\f仿宋_GB2312|b0|i0|c134|p49;绝缘阻抗}: {\f仿宋_GB2312|b0
  3
|i0|c134|p49;≥}10{\H0.7x;\S10^ ;}\U+03A9\P- {\f仿宋_GB2312|b0|i0|c134|p49;材料}: {\f仿宋_GB2312|b0|i0|c134|p49;聚碳酸酯}\P- {\f仿宋_GB2312|b0|i0|c134|p49;颜色}: RAL 7032{\f仿宋_GB2312|b0|i0|c134|p49;（浅灰色）}\P- {\f仿宋_GB2312|b0|i0|c134|p49;温度范围}: -40{\f仿宋_GB2312|b0|i0|c
  3
134|p49;℃} - +125{\f仿宋_GB2312|b0|i0|c134|p49;℃}\P- {\f仿宋_GB2312|b0|i0|c134|p49;依据}UL 94{\f仿宋_GB2312|b0|i0|c134|p49;的阻燃等级}: V0\P- {\f仿宋_GB2312|b0|i0|c134|p49;可插拔次数}: {\f仿宋_GB2312|b0|i0|c134|p49;≥}500\P{\f仿宋_GB2312|b0|i0|c134|p49;插针：}\P- {\f仿宋_GB2312|b
  3
0|i0|c134|p49;接线方式}: {\f仿宋_GB2312|b0|i0|c134|p49;冷压连接}\P- {\f仿宋_GB2312|b0|i0|c134|p49;材料}: {\f仿宋_GB2312|b0|i0|c134|p49;铜合金}\P- {\f仿宋_GB2312|b0|i0|c134|p49;表面处理：}\P   {\f仿宋_GB2312|b0|i0|c134|p49;·} {\f仿宋_GB2312|b0|i0|c134|p49;镀银}\P   {\f仿宋_GB2312|b0|i
  3
0|c134|p49;·} {\f仿宋_GB2312|b0|i0|c134|p49;银金}\P- {\f仿宋_GB2312|b0|i0|c134|p49;接触电阻}: \U+22643m\U+03A9\P- {\f仿宋_GB2312|b0|i0|c134|p49;线径范围}: 0.14-2.5mm{\H0.7x;\S2^ ;}(26-14 AWG)\P- {\f仿宋_GB2312|b0|i0|c134|p49;工具：}\P   {\f仿宋_GB2312|b0|i0|c134|p49;·} {\f仿
  1
宋_GB2312|b0|i0|c134|p49;冷压钳}: TL02G\P   {\f仿宋_GB2312|b0|i0|c134|p49;·} {\f仿宋_GB2312|b0|i0|c134|p49;退针器}: TL00
  7
Romans字体
 73
     1
 44
1.0
1001
ACAD
1000
MTEXTBEGIN
1070
    73
1070
     1
1070
    44
1040
1.0
1070
    74
1070
     0
1000
MTEXTEND
1000
ACAD_MTEXT_DEFINED_HEIGHT_BEGIN
1070
    46
1040
8.294818561909686
1000
ACAD_MTEXT_DEFINED_HEIGHT_END
  0
MTEXT
  5
7228
102
{ACAD_XDICTIONARY
360
1F88E
102
}
330
1F
100
AcDbEntity
  8
打标文字
 62
     3
100
AcDbMText
 10
615.4785658800781
 20
331.6985169148231
 30
0.0
 40
1.912985285738284
 41
67.09538717665188
 71
     1
 72
     5
  3
\A1;Technical specification:\PInsters:\P- No. of contact: 8\P- Rated current: 10A\P- Rated voltage: {\f仿宋_GB2312|b0|i0|c134|p49;-120V/～50V}\P- Rated impulse voltage: 0.8kV\P- Pollution degree: 3\P- Rated voltage acc.to UL/CSA: 50V\P- Rated voltage(di
  3
rect voltage): 120V\P- Insulation resistance: {\f仿宋_GB2312|b0|i0|c134|p49;≥}10{\H0.7x;\S10^ ;}\U+03A9\P- Material: polycarbonate\P- Colour: RAL 7032(light grey) \P- Temperature range: -40{\f仿宋_GB2312|b0|i0|c134|p49;℃} - +125{\f仿宋_GB2312|b0|i0|c134|p49
  3
;℃}\P- Flammability acc.to UL 94: V0\P- Mating cycles: {\f仿宋_GB2312|b0|i0|c134|p49;≥}500\PContacts:\P- Terminal: crimp terminal\P- Material: copper alloy\P- Surface:\P   {\fArial|b0|i0|c0|p34;\U+00B7} Hard-silver plated\P   {\fArial|b0|i0|c0|p34;\U+0
  3
0B7} Hard-gold plated\P- Contact resistance: {\fFangSong_GB2312|b0|i0|c134|p49;≤}3m\U+03A9\P- Wire gauge: 0.14-2.5mm{\H0.7x;\S2^ ;}(26-14 AWG)\P- Tools:\P   {\fISOCPEUR|b0|i0|c0|p34;\U+00B7} Crimp contact tool: TL02G\P   {\fISOCPEUR|b0|i0|c0|p34;\U+00
  1
B7} Contact removal tool: TL00
  7
Romans字体
 73
     1
 44
1.0
1001
ACAD
1000
MTEXTBEGIN
1070
    73
1070
     1
1070
    44
1040
1.0
1070
    74
1070
     0
1000
MTEXTEND
1000
ACAD_MTEXT_DEFINED_HEIGHT_BEGIN
1070
    46
1040
8.294818561909686
1000
ACAD_MTEXT_DEFINED_HEIGHT_END
  0
INSERT
  5
11089
330
1F
100
AcDbEntity
  8
DIM
100
AcDbBlockReference
  2
A4图框-NEW
 10
-457.8158850790006
 20
-295.9613488704692
 30
0.0
  0
MTEXT
  5
1F023
330
1F
100
AcDbEntity
  8
DIM
100
AcDbMText
 10
515.9849647867936
 20
288.6133091682053
 30
0.0
 40
1.5
 41
13.65362491127166
 71
     1
 72
     5
  1
5
  7
数字
 11
0.0000000000000012
 21
1.0
 31
0.0
 73
     1
 44
1.0
1001
ACAD
1000
MTEXTBEGIN
1070
    73
1070
     1
1070
    44
1040
1.0
1070
    74
1070
     0
1000
MTEXTEND
  0
MTEXT
  5
1F024
330
1F
100
AcDbEntity
  8
DIM
100
AcDbMText
 10
509.4485089507519
 20
288.7002522059979
 30
0.0
 40
1.5
 41
13.65362491127166
 71
     1
 72
     5
  1
6
  7
数字
 11
0.0000000000000012
 21
1.0
 31
0.0
 73
     1
 44
1.0
1001
ACAD
1000
MTEXTBEGIN
1070
    73
1070
     1
1070
    44
1040
1.0
1070
    74
1070
     0
1000
MTEXTEND
  0
MTEXT
  5
1F025
330
1F
100
AcDbEntity
  8
DIM
100
AcDbMText
 10
509.4485089507519
 20
292.9039054566137
 30
0.0
 40
1.5
 41
13.65362491127166
 71
     1
 72
     5
  1
7
  7
数字
 11
0.0000000000000012
 21
1.0
 31
0.0
 73
     1
 44
1.0
1001
ACAD
1000
MTEXTBEGIN
1070
    73
1070
     1
1070
    44
1040
1.0
1070
    74
1070
     0
1000
MTEXTEND
  0
MTEXT
  5
1F026
330
1F
100
AcDbEntity
  8
DIM
100
AcDbMText
 10
509.4043133243176
 20
299.1506307580729
 30
0.0
 40
1.5
 41
13.65362491127166
 71
     1
 72
     5
  1
8
  7
数字
 11
0.0000000000000012
 21
1.0
 31
0.0
 73
     1
 44
1.0
1001
ACAD
1000
MTEXTBEGIN
1070
    73
1070
     1
1070
    44
1040
1.0
1070
    74
1070
     0
1000
MTEXTEND
  0
MTEXT
  5
1F027
330
1F
100
AcDbEntity
  8
DIM
100
AcDbMText
 10
514.1906339097737
 20
298.0026178530774
 30
0.0
 40
1.5
 41
13.65362491127166
 71
     1
 72
     5
  1
1
  7
数字
 11
0.0000000000000019
 21
1.0
 31
0.0
 73
     1
 44
1.0
1001
ACAD
1000
MTEXTBEGIN
1070
    73
1070
     1
1070
    44
1040
1.0
1070
    74
1070
     0
1000
MTEXTEND
  0
MTEXT
  5
1F028
330
1F
100
AcDbEntity
  8
DIM
100
AcDbMText
 10
515.9114986270623
 20
303.156421082597
 30
0.0
 40
1.5
 41
13.65362491127166
 71
     1
 72
     5
  1
2
  7
数字
 11
0.0000000000000019
 21
1.0
 31
0.0
 73
     1
 44
1.0
1001
ACAD
1000
MTEXTBEGIN
1070
    73
1070
     1
1070
    44
1040
1.0
1070
    74
1070
     0
1000
MTEXTEND
  0
LINE
  5
1F02E
330
1F
100
AcDbEntity
  8
0
100
AcDbLine
 10
483.2132543884738
 20
288.4125487123237
 30
0.0
 11
483.2132543884738
 21
304.3125487105844
 31
0.0
  0
LINE
  5
1F02F
330
1F
100
AcDbEntity
  8
0
100
AcDbLine
 10
474.7132543882541
 20
285.862548712002
 30
0.0
 11
476.2132543879936
 21
285.862548712002
 31
0.0
  0
LINE
  5
1F030
330
1F
100
AcDbEntity
  8
0
100
AcDbLine
 10
465.2132543890536
 20
285.862548712002
 30
0.0
 11
463.7132543893141
 21
285.862548712002
 31
0.0
  0
LINE
  5
1F031
330
1F
100
AcDbEntity
  8
0
100
AcDbLine
 10
476.2132543879941
 20
306.8625487109029
 30
0.0
 11
476.2132543879941
 21
304.2617011313041
 31
0.0
  0
LINE
  5
1F032
330
1F
100
AcDbEntity
  8
0
100
AcDbLine
 10
476.2132543879936
 20
285.862548712002
 30
0.0
 11
476.2132543879936
 21
288.4633962916041
 31
0.0
  0
LINE
  5
1F033
330
1F
100
AcDbEntity
  8
0
100
AcDbLine
 10
450.3132543872339
 20
287.9125487115643
 30
0.0
 11
463.7132543893141
 21
287.9125487115643
 31
0.0
  0
LINE
  5
1F034
330
1F
100
AcDbEntity
  8
0
100
AcDbLine
 10
483.2132543884738
 20
288.4125487123237
 30
0.0
 11
476.2132543879936
 21
288.4125487123237
 31
0.0
  0
LINE
  5
1F035
330
1F
100
AcDbEntity
  8
0
100
AcDbLine
 10
474.7132543882541
 20
288.4125487123237
 30
0.0
 11
465.2132543890536
 21
288.4125487123237
 31
0.0
  0
LINE
  5
1F036
330
1F
100
AcDbEntity
  8
0
100
AcDbLine
 10
476.2132543879936
 20
288.4633962916041
 30
0.0
 11
474.7132543882541
 21
288.4633962916041
 31
0.0
  0
LINE
  5
1F037
330
1F
100
AcDbEntity
  8
0
100
AcDbLine
 10
474.7132543882541
 20
306.8625487109029
 30
0.0
 11
474.7132543882541
 21
304.2617011313041
 31
0.0
  0
LINE
  5
1F038
330
1F
100
AcDbEntity
  8
0
100
AcDbLine
 10
474.7132543882541
 20
285.862548712002
 30
0.0
 11
474.7132543882541
 21
288.4633962916041
 31
0.0
  0
LINE
  5
1F039
330
1F
100
AcDbEntity
  8
0
100
AcDbLine
 10
463.7132543893141
 20
288.8625487114845
 30
0.0
 11
465.2132543890536
 21
288.8625487114845
 31
0.0
  0
LINE
  5
1F03A
330
1F
100
AcDbEntity
  8
0
100
AcDbLine
 10
472.7132543877541
 20
291.3625487127428
 30
0.0
 11
472.7132543877541
 21
301.3625487127033
 31
0.0
  0
LINE
  5
1F03B
330
1F
100
AcDbEntity
  8
0
100
AcDbLine
 10
472.7132543877541
 20
291.3625487127428
 30
0.0
 11
465.2132543890536
 21
291.3625487127428
 31
0.0
  0
LINE
  5
1F03C
330
1F
100
AcDbEntity
  8
0
100
AcDbLine
 10
449.813254389014
 20
291.412548711803
 30
0.0
 11
463.7132543893141
 21
291.412548711803
 31
0.0
  0
LINE
  5
1F03D
330
1F
100
AcDbEntity
  8
0
100
AcDbLine
 10
472.7132543877541
 20
291.412548711803
 30
0.0
 11
483.2132543884738
 21
291.412548711803
 31
0.0
  0
LINE
  5
1F03E
330
1F
100
AcDbEntity
  8
0
100
AcDbLine
 10
467.1876491931141
 20
292.2625487110622
 30
0.0
 11
472.7132543877541
 21
292.2625487110622
 31
0.0
  0
LINE
  5
1F03F
330
1F
100
AcDbEntity
  8
0
100
AcDbLine
 10
463.7132543893141
 20
293.7125487117418
 30
0.0
 11
449.813254389014
 21
293.7125487117418
 31
0.0
  0
LINE
  5
1F040
330
1F
100
AcDbEntity
  8
0
100
AcDbLine
 10
469.8762769095739
 20
293.762548710802
 30
0.0
 11
472.7132543877541
 21
293.762548710802
 31
0.0
  0
LINE
  5
1F041
330
1F
100
AcDbEntity
  8
0
100
AcDbLine
 10
470.2632543880937
 20
295.8625487119625
 30
0.0
 11
470.2632543880937
 21
296.8625487109429
 31
0.0
  0
LINE
  5
1F042
330
1F
100
AcDbEntity
  8
0
100
AcDbLine
 10
469.2132543875142
 20
297.9125487115243
 30
0.0
 11
469.2132543875142
 21
297.1225487116434
 31
0.0
  0
LINE
  5
1F043
330
1F
100
AcDbEntity
  8
0
100
AcDbLine
 10
469.2132543875142
 20
295.6025487112647
 30
0.0
 11
469.2132543875142
 21
294.8125487113834
 31
0.0
  0
LINE
  5
1F044
330
1F
100
AcDbEntity
  8
0
100
AcDbLine
 10
469.1882543892538
 20
296.2025487126825
 30
0.0
 11
469.1882543892538
 21
296.5225487127636
 31
0.0
  0
LINE
  5
1F045
330
1F
100
AcDbEntity
  8
0
100
AcDbLine
 10
449.813254389014
 20
294.212548712504
 30
0.0
 11
451.813254389514
 21
294.212548712504
 31
0.0
  0
LINE
  5
1F046
330
1F
100
AcDbEntity
  8
0
100
AcDbLine
 10
472.7132543877541
 20
294.3625487122226
 30
0.0
 11
483.2132543884738
 21
294.3625487122226
 31
0.0
  0
LINE
  5
1F047
330
1F
100
AcDbEntity
  8
0
100
AcDbLine
 10
468.2132543885336
 20
294.8125487113834
 30
0.0
 11
469.2132543875142
 21
294.8125487113834
 31
0.0
  0
LINE
  5
1F048
330
1F
100
AcDbEntity
  8
0
100
AcDbLine
 10
468.873254389334
 20
295.8875487127643
 30
0.0
 11
468.873254389334
 21
295.9425487119819
 31
0.0
  0
LINE
  5
1F049
330
1F
100
AcDbEntity
  8
0
100
AcDbLine
 10
468.873254389334
 20
296.782548710923
 30
0.0
 11
468.873254389334
 21
296.8375487126818
 31
0.0
  0
LINE
  5
1F04A
330
1F
100
AcDbEntity
  8
0
100
AcDbLine
 10
468.553254389254
 20
296.8375487126818
 30
0.0
 11
468.553254389254
 21
296.782548710923
 31
0.0
  0
LINE
  5
1F04B
330
1F
100
AcDbEntity
  8
0
100
AcDbLine
 10
468.553254389254
 20
295.9425487119819
 30
0.0
 11
468.553254389254
 21
295.8875487127643
 31
0.0
  0
LINE
  5
1F04C
330
1F
100
AcDbEntity
  8
0
100
AcDbLine
 10
468.2382543893337
 20
296.5225487127636
 30
0.0
 11
468.2382543893337
 21
296.2025487126825
 31
0.0
  0
LINE
  5
1F04D
330
1F
100
AcDbEntity
  8
0
100
AcDbLine
 10
468.2132543885336
 20
294.8125487113834
 30
0.0
 11
468.2132543885341
 21
295.6025487112647
 31
0.0
  0
LINE
  5
1F04E
330
1F
100
AcDbEntity
  8
0
100
AcDbLine
 10
468.2132543885341
 20
297.1225487116434
 30
0.0
 11
468.2132543885341
 21
297.9125487115243
 31
0.0
  0
LINE
  5
1F04F
330
1F
100
AcDbEntity
  8
0
100
AcDbLine
 10
469.2132543875142
 20
297.9125487115243
 30
0.0
 11
468.873254389334
 21
296.8375487126818
 31
0.0
  0
LINE
  5
1F050
330
1F
100
AcDbEntity
  8
0
100
AcDbLine
 10
468.2132543885336
 20
294.8125487113834
 30
0.0
 11
468.553254389254
 21
295.8875487127643
 31
0.0
  0
LINE
  5
1F051
330
1F
100
AcDbEntity
  8
0
100
AcDbLine
 10
468.5532547473941
 20
295.9425490726634
 30
0.0
 11
468.213252991534
 21
295.6025473142621
 31
0.0
  0
LINE
  5
1F052
330
1F
100
AcDbEntity
  8
0
100
AcDbLine
 10
469.1332543874938
 20
296.5225487127636
 30
0.0
 11
469.473254388214
 21
296.8625487109429
 31
0.0
  0
LINE
  5
1F053
330
1F
100
AcDbEntity
  8
0
100
AcDbLine
 10
468.2932543885541
 20
296.2025487126825
 30
0.0
 11
467.9532543878337
 21
295.8625487119625
 31
0.0
  0
LINE
  5
1F054
330
1F
100
AcDbEntity
  8
0
100
AcDbLine
 10
468.8732540286538
 20
296.7825483502447
 30
0.0
 11
469.2132557845138
 21
297.1225501086428
 31
0.0
  0
LINE
  5
1F055
330
1F
100
AcDbEntity
  8
0
100
AcDbLine
 10
483.2132543884738
 20
295.4232088845228
 30
0.0
 11
472.7132543877541
 21
295.4232088845228
 31
0.0
  0
LINE
  5
1F056
330
1F
100
AcDbEntity
  8
0
100
AcDbLine
 10
470.2632543880937
 20
295.8625487119625
 30
0.0
 11
469.473254388214
 21
295.8625487119625
 31
0.0
  0
LINE
  5
1F057
330
1F
100
AcDbEntity
  8
0
100
AcDbLine
 10
467.9532543878337
 20
295.8625487119625
 30
0.0
 11
467.163254387954
 21
295.8625487119625
 31
0.0
  0
LINE
  5
1F058
330
1F
100
AcDbEntity
  8
0
100
AcDbLine
 10
468.553254389254
 20
295.8875487127643
 30
0.0
 11
468.873254389334
 21
295.8875487127643
 31
0.0
  0
LINE
  5
1F059
330
1F
100
AcDbEntity
  8
0
100
AcDbLine
 10
468.2382543893337
 20
296.2025487126825
 30
0.0
 11
468.2932543885541
 21
296.2025487126825
 31
0.0
  0
LINE
  5
1F05A
330
1F
100
AcDbEntity
  8
0
100
AcDbLine
 10
469.1332543874938
 20
296.2025487126825
 30
0.0
 11
469.1882543892538
 21
296.2025487126825
 31
0.0
  0
LINE
  5
1F05B
330
1F
100
AcDbEntity
  8
0
100
AcDbLine
 10
463.7132543893141
 20
296.2125487104653
 30
0.0
 11
451.813254389514
 21
296.2125487104653
 31
0.0
  0
LINE
  5
1F05C
330
1F
100
AcDbEntity
  8
0
100
AcDbLine
 10
469.1882543892538
 20
296.5225487127636
 30
0.0
 11
469.1332543874938
 21
296.5225487127636
 31
0.0
  0
LINE
  5
1F05D
330
1F
100
AcDbEntity
  8
0
100
AcDbLine
 10
468.2932543885541
 20
296.5225487127636
 30
0.0
 11
468.2382543893337
 21
296.5225487127636
 31
0.0
  0
LINE
  5
1F05E
330
1F
100
AcDbEntity
  8
0
100
AcDbLine
 10
467.163254387954
 20
296.8625487109429
 30
0.0
 11
467.163254387954
 21
295.8625487119625
 31
0.0
  0
LINE
  5
1F05F
330
1F
100
AcDbEntity
  8
0
100
AcDbLine
 10
468.2382543893337
 20
296.2025487126825
 30
0.0
 11
467.163254387954
 21
295.8625487119625
 31
0.0
  0
LINE
  5
1F060
330
1F
100
AcDbEntity
  8
0
100
AcDbLine
 10
469.1882543892538
 20
296.5225487127636
 30
0.0
 11
470.2632543880937
 21
296.8625487109429
 31
0.0
  0
LINE
  5
1F061
330
1F
100
AcDbEntity
  8
0
100
AcDbLine
 10
468.873254389334
 20
296.8375487126818
 30
0.0
 11
468.553254389254
 21
296.8375487126818
 31
0.0
  0
LINE
  5
1F062
330
1F
100
AcDbEntity
  8
0
100
AcDbLine
 10
467.163254387954
 20
296.8625487109429
 30
0.0
 11
467.9532543878337
 21
296.8625487109429
 31
0.0
  0
LINE
  5
1F063
330
1F
100
AcDbEntity
  8
0
100
AcDbLine
 10
469.473254388214
 20
296.8625487109429
 30
0.0
 11
470.2632543880937
 21
296.8625487109429
 31
0.0
  0
LINE
  5
1F064
330
1F
100
AcDbEntity
  8
0
100
AcDbLine
 10
483.2132543884738
 20
297.3018885409232
 30
0.0
 11
472.7132543877541
 21
297.3018885409232
 31
0.0
  0
LINE
  5
1F065
330
1F
100
AcDbEntity
  8
0
100
AcDbLine
 10
470.2632543880937
 20
295.8625487119625
 30
0.0
 11
469.1882543892538
 21
296.2025487126825
 31
0.0
  0
LINE
  5
1F066
330
1F
100
AcDbEntity
  8
0
100
AcDbLine
 10
467.163254387954
 20
296.8625487109429
 30
0.0
 11
468.2382543893337
 21
296.5225487127636
 31
0.0
  0
LINE
  5
1F067
330
1F
100
AcDbEntity
  8
0
100
AcDbLine
 10
468.873254389334
 20
295.9425487119819
 30
0.0
 11
469.2132543875142
 21
295.6025487112647
 31
0.0
  0
LINE
  5
1F068
330
1F
100
AcDbEntity
  8
0
100
AcDbLine
 10
468.293254749234
 20
296.5225483520825
 30
0.0
 11
467.9532529908341
 21
296.8625501079422
 31
0.0
  0
LINE
  5
1F069
330
1F
100
AcDbEntity
  8
0
100
AcDbLine
 10
465.2132543890536
 20
285.862548712002
 30
0.0
 11
465.2132543890536
 21
291.3625487127428
 31
0.0
  0
LINE
  5
1F06A
330
1F
100
AcDbEntity
  8
0
100
AcDbLine
 10
465.2132543890536
 20
301.3625487127033
 30
0.0
 11
465.2132543890536
 21
306.8625487109029
 31
0.0
  0
LINE
  5
1F06B
330
1F
100
AcDbEntity
  8
0
100
AcDbLine
 10
469.2132543875142
 20
297.9125487115243
 30
0.0
 11
468.2132543885341
 21
297.9125487115243
 31
0.0
  0
LINE
  5
1F06C
330
1F
100
AcDbEntity
  8
0
100
AcDbLine
 10
472.7132543877541
 20
298.3625487106824
 30
0.0
 11
483.2132543884738
 21
298.3625487106824
 31
0.0
  0
LINE
  5
1F06D
330
1F
100
AcDbEntity
  8
0
100
AcDbLine
 10
463.7132543893141
 20
298.5125487104037
 30
0.0
 11
449.813254389014
 21
298.5125487104037
 31
0.0
  0
LINE
  5
1F06E
330
1F
100
AcDbEntity
  8
0
100
AcDbLine
 10
472.7132543877541
 20
298.9625487121033
 30
0.0
 11
469.8768015541941
 21
298.9625487121033
 31
0.0
  0
LINE
  5
1F06F
330
1F
100
AcDbEntity
  8
0
100
AcDbLine
 10
463.7132543893141
 20
299.0125487111632
 30
0.0
 11
449.813254389014
 21
299.0125487111632
 31
0.0
  0
LINE
  5
1F070
330
1F
100
AcDbEntity
  8
0
100
AcDbLine
 10
469.133254029354
 20
296.2025490708228
 30
0.0
 11
469.4732557852137
 21
295.8625473149627
 31
0.0
  0
LINE
  5
1F071
330
1F
100
AcDbEntity
  8
0
100
AcDbLine
 10
468.553254389254
 20
296.782548710923
 30
0.0
 11
468.2132543885341
 21
297.1225487116434
 31
0.0
  0
LINE
  5
1F072
330
1F
100
AcDbEntity
  8
0
100
AcDbLine
 10
468.553254389254
 20
296.8375487126818
 30
0.0
 11
468.2132543885341
 21
297.9125487115243
 31
0.0
  0
LINE
  5
1F073
330
1F
100
AcDbEntity
  8
0
100
AcDbLine
 10
468.873254389334
 20
295.8875487127643
 30
0.0
 11
469.2132543875142
 21
294.8125487113834
 31
0.0
  0
LINE
  5
1F074
330
1F
100
AcDbEntity
  8
0
100
AcDbLine
 10
463.7132543893141
 20
285.862548712002
 30
0.0
 11
463.7132543893141
 21
306.8625487109029
 31
0.0
  0
LINE
  5
1F075
330
1F
100
AcDbEntity
  8
0
100
AcDbLine
 10
472.7132543877541
 20
300.4625487118428
 30
0.0
 11
467.1876491931142
 21
300.4625487118428
 31
0.0
  0
LINE
  5
1F076
330
1F
100
AcDbEntity
  8
0
100
AcDbLine
 10
483.2132543884738
 20
301.3125487111019
 30
0.0
 11
472.7132543877541
 21
301.3125487111019
 31
0.0
  0
LINE
  5
1F077
330
1F
100
AcDbEntity
  8
0
100
AcDbLine
 10
463.7132543893141
 20
301.3125487111019
 30
0.0
 11
449.813254389014
 21
301.3125487111019
 31
0.0
  0
LINE
  5
1F078
330
1F
100
AcDbEntity
  8
0
100
AcDbLine
 10
472.7132543877541
 20
301.3625487127033
 30
0.0
 11
465.2132543890536
 21
301.3625487127033
 31
0.0
  0
LINE
  5
1F079
330
1F
100
AcDbEntity
  8
0
100
AcDbLine
 10
465.2132543890536
 20
303.8625487114236
 30
0.0
 11
463.7132543893141
 21
303.8625487114236
 31
0.0
  0
LINE
  5
1F07A
330
1F
100
AcDbEntity
  8
0
100
AcDbLine
 10
474.7132543882541
 20
304.2617011313041
 30
0.0
 11
476.2132543879941
 21
304.2617011313041
 31
0.0
  0
LINE
  5
1F07B
330
1F
100
AcDbEntity
  8
0
100
AcDbLine
 10
465.2132543890536
 20
304.3125487105844
 30
0.0
 11
474.7132543882541
 21
304.3125487105844
 31
0.0
  0
LINE
  5
1F07C
330
1F
100
AcDbEntity
  8
0
100
AcDbLine
 10
476.2132543879941
 20
304.3125487105844
 30
0.0
 11
483.2132543884738
 21
304.3125487105844
 31
0.0
  0
LINE
  5
1F07D
330
1F
100
AcDbEntity
  8
0
100
AcDbLine
 10
450.3132543872339
 20
304.8125487113438
 30
0.0
 11
463.7132543893141
 21
304.8125487113438
 31
0.0
  0
LINE
  5
1F07E
330
1F
100
AcDbEntity
  8
0
100
AcDbLine
 10
463.7132543893141
 20
306.8625487109029
 30
0.0
 11
465.2132543890536
 21
306.8625487109029
 31
0.0
  0
LINE
  5
1F07F
330
1F
100
AcDbEntity
  8
0
100
AcDbLine
 10
474.7132543882541
 20
306.8625487109029
 30
0.0
 11
476.2132543879941
 21
306.8625487109029
 31
0.0
  0
LINE
  5
1F080
330
1F
100
AcDbEntity
  8
0
100
AcDbLine
 10
451.813254389514
 20
296.2125487104653
 30
0.0
 11
451.813254389514
 21
293.712548711745
 31
0.0
  0
LINE
  5
1F081
330
1F
100
AcDbEntity
  8
0
100
AcDbLine
 10
450.3132543872339
 20
304.8125487113438
 30
0.0
 11
450.3132543872339
 21
299.0125487111632
 31
0.0
  0
LINE
  5
1F082
330
1F
100
AcDbEntity
  8
0
100
AcDbLine
 10
450.3132543872339
 20
293.7125487117418
 30
0.0
 11
450.3132543872339
 21
287.9125487115643
 31
0.0
  0
LINE
  5
1F083
330
1F
100
AcDbEntity
  8
0
100
AcDbLine
 10
449.813254389014
 20
288.4125487123237
 30
0.0
 11
449.813254389014
 21
304.3125487105844
 31
0.0
  0
LINE
  5
1F084
330
1F
100
AcDbEntity
  8
0
100
AcDbLine
 10
505.9628628296263
 20
285.862548712002
 30
0.0
 11
520.9628628295662
 21
285.8625487120018
 31
0.0
  0
LINE
  5
1F085
330
1F
100
AcDbEntity
  8
0
100
AcDbLine
 10
524.8628628299061
 20
293.5125487104222
 30
0.0
 11
524.8628628299061
 21
299.2125487124825
 31
0.0
  0
LINE
  5
1F086
330
1F
100
AcDbEntity
  8
0
100
AcDbLine
 10
524.5628628304663
 20
299.2125487124825
 30
0.0
 11
524.5628628304663
 21
293.5125487104222
 31
0.0
  0
LINE
  5
1F087
330
1F
100
AcDbEntity
  8
0
100
AcDbLine
 10
523.9628628290461
 20
288.8625487114843
 30
0.0
 11
523.9628628290461
 21
303.8625487114235
 31
0.0
  0
LINE
  5
1F088
330
1F
100
AcDbEntity
  8
0
100
AcDbLine
 10
518.4628628283062
 20
287.9125487115642
 30
0.0
 11
508.4628628308861
 21
287.9125487115643
 31
0.0
  0
LINE
  5
1F089
330
1F
100
AcDbEntity
  8
0
100
AcDbLine
 10
521.9628628310862
 20
301.3125487111018
 30
0.0
 11
521.9628628310862
 21
299.012548711163
 31
0.0
  0
LINE
  5
1F08A
330
1F
100
AcDbEntity
  8
0
100
AcDbLine
 10
521.9628628310862
 20
293.7125487117417
 30
0.0
 11
521.9628628310862
 21
291.4125487118028
 31
0.0
  0
LINE
  5
1F08B
330
1F
100
AcDbEntity
  8
0
100
AcDbLine
 10
508.4628628308861
 20
288.4125487123237
 30
0.0
 11
518.4628628308461
 21
288.4125487123236
 31
0.0
  0
LINE
  5
1F08C
330
1F
100
AcDbEntity
  8
0
100
AcDbLine
 10
521.4628628303261
 20
291.4125487118028
 30
0.0
 11
521.4628628303261
 21
293.7125487117417
 31
0.0
  0
LINE
  5
1F08D
330
1F
100
AcDbEntity
  8
0
100
AcDbLine
 10
521.4628628303263
 20
299.012548711163
 30
0.0
 11
521.4628628303263
 21
301.3125487111018
 31
0.0
  0
LINE
  5
1F08E
330
1F
100
AcDbEntity
  8
0
100
AcDbLine
 10
521.4628628303261
 20
291.4125487118028
 30
0.0
 11
521.9628628310862
 21
291.4125487118028
 31
0.0
  0
LINE
  5
1F08F
330
1F
100
AcDbEntity
  8
0
100
AcDbLine
 10
506.8628628304862
 20
293.6125487110834
 30
0.0
 11
504.9628628306463
 21
294.4625487128837
 31
0.0
  0
LINE
  5
1F090
330
1F
100
AcDbEntity
  8
0
100
AcDbLine
 10
519.6628628311461
 20
296.2125487104645
 30
0.0
 11
519.6628628311461
 21
293.7125487117442
 31
0.0
  0
LINE
  5
1F091
330
1F
100
AcDbEntity
  8
0
100
AcDbLine
 10
523.9628628290461
 20
298.6125487110618
 30
0.0
 11
524.5628628304663
 21
299.2125487124825
 31
0.0
  0
LINE
  5
1F092
330
1F
100
AcDbEntity
  8
0
100
AcDbLine
 10
518.4628628308461
 20
287.9125487115642
 30
0.0
 11
518.4628628308461
 21
288.4125487123236
 31
0.0
  0
LINE
  5
1F093
330
1F
100
AcDbEntity
  8
0
100
AcDbLine
 10
518.4628628308461
 20
304.3125487105843
 30
0.0
 11
518.4628628308461
 21
304.8125487113437
 31
0.0
  0
LINE
  5
1F094
330
1F
100
AcDbEntity
  8
0
100
AcDbLine
 10
517.6628628306461
 20
296.2125487104645
 30
0.0
 11
517.6628628306461
 21
293.7125487117442
 31
0.0
  0
LINE
  5
1F095
330
1F
100
AcDbEntity
  8
0
100
AcDbLine
 10
524.5628628304663
 20
293.5125487104222
 30
0.0
 11
524.8628628299061
 21
293.5125487104222
 31
0.0
  0
LINE
  5
1F096
330
1F
100
AcDbEntity
  8
0
100
AcDbLine
 10
521.9628628310862
 20
293.7125487117417
 30
0.0
 11
516.3628628296861
 21
293.7125487117417
 31
0.0
  0
LINE
  5
1F097
330
1F
100
AcDbEntity
  8
0
100
AcDbLine
 10
515.8628628289261
 20
294.2125487125039
 30
0.0
 11
515.8628628289261
 21
298.5125487104036
 31
0.0
  0
LINE
  5
1F098
330
1F
100
AcDbEntity
  8
0
100
AcDbLine
 10
506.8628628304862
 20
292.112548711344
 30
0.0
 11
504.9653610044662
 21
291.2636663171642
 31
0.0
  0
LINE
  5
1F099
330
1F
100
AcDbEntity
  8
0
100
AcDbLine
 10
517.6628628306461
 20
296.2125487104645
 30
0.0
 11
519.6628628311461
 21
296.2125487104645
 31
0.0
  0
LINE
  5
1F09A
330
1F
100
AcDbEntity
  8
0
100
AcDbLine
 10
506.8628628304862
 20
300.6125487115641
 30
0.0
 11
504.9653607149061
 21
301.4614312378221
 31
0.0
  0
LINE
  5
1F09B
330
1F
100
AcDbEntity
  8
0
100
AcDbLine
 10
521.9628628310862
 20
299.012548711163
 30
0.0
 11
516.3628628296861
 21
299.012548711163
 31
0.0
  0
LINE
  5
1F09C
330
1F
100
AcDbEntity
  8
0
100
AcDbLine
 10
524.5628628304663
 20
299.2125487124825
 30
0.0
 11
524.8628628299061
 21
299.2125487124825
 31
0.0
  0
LINE
  5
1F09D
330
1F
100
AcDbEntity
  8
0
100
AcDbLine
 10
521.9628628310862
 20
301.3125487111018
 30
0.0
 11
521.4628628303263
 21
301.3125487111018
 31
0.0
  0
LINE
  5
1F09E
330
1F
100
AcDbEntity
  8
0
100
AcDbLine
 10
523.9628628290461
 20
294.1125487118427
 30
0.0
 11
524.5628628304663
 21
293.5125487104222
 31
0.0
  0
LINE
  5
1F09F
330
1F
100
AcDbEntity
  8
0
100
AcDbLine
 10
508.4628628308861
 20
304.8125487113438
 30
0.0
 11
508.4628628308861
 21
304.3125487105844
 31
0.0
  0
LINE
  5
1F0A0
330
1F
100
AcDbEntity
  8
0
100
AcDbLine
 10
508.4628628308861
 20
288.4125487123237
 30
0.0
 11
508.4628628308861
 21
287.9125487115643
 31
0.0
  0
LINE
  5
1F0A1
330
1F
100
AcDbEntity
  8
0
100
AcDbLine
 10
504.9628628306463
 20
298.2625487125623
 30
0.0
 11
506.8628628304862
 21
299.1125487118241
 31
0.0
  0
LINE
  5
1F0A2
330
1F
100
AcDbEntity
  8
0
100
AcDbLine
 10
506.8628628304862
 20
292.112548711344
 30
0.0
 11
506.8628628304862
 21
293.6125487110834
 31
0.0
  0
LINE
  5
1F0A3
330
1F
100
AcDbEntity
  8
0
100
AcDbLine
 10
506.8628628304862
 20
299.1125487118241
 30
0.0
 11
506.8628628304862
 21
300.6125487115641
 31
0.0
  0
LINE
  5
1F0A4
330
1F
100
AcDbEntity
  8
0
100
AcDbLine
 10
518.4628628308461
 20
304.3125487105843
 30
0.0
 11
508.4628628308861
 21
304.3125487105844
 31
0.0
  0
LINE
  5
1F0A5
330
1F
100
AcDbEntity
  8
0
100
AcDbLine
 10
508.4628628308861
 20
304.8125487113438
 30
0.0
 11
518.4628628308461
 21
304.8125487113437
 31
0.0
  0
LINE
  5
1F0A6
330
1F
100
AcDbEntity
  8
0
100
AcDbLine
 10
504.9628628306463
 20
298.2625487125623
 30
0.0
 11
504.9628628306463
 21
294.4625487128837
 31
0.0
  0
LINE
  5
1F0A7
330
1F
100
AcDbEntity
  8
0
100
AcDbLine
 10
520.9628628295662
 20
306.8625487109029
 30
0.0
 11
505.9628628296263
 21
306.8625487109029
 31
0.0
  0
LINE
  5
1F0A8
330
1F
100
AcDbEntity
  8
0
100
AcDbLine
 10
502.9628628301463
 20
303.8625487114236
 30
0.0
 11
502.9628628301463
 21
288.8625487114845
 31
0.0
  0
LINE
  5
1F0A9
330
1F
100
AcDbEntity
  8
0
100
AcDbLine
 10
401.3730138423428
 20
216.8136464083544
 30
0.0
 11
401.3730138423428
 21
214.9356908500745
 31
0.0
  0
LINE
  5
1F0AA
330
1F
100
AcDbEntity
  8
0
100
AcDbLine
 10
401.3730138423428
 20
210.6082280394344
 30
0.0
 11
401.3730138423428
 21
208.7302724786145
 31
0.0
  0
LINE
  5
1F0AB
330
1F
100
AcDbEntity
  8
0
100
AcDbLine
 10
401.519461923841
 20
216.6095243324745
 30
0.0
 11
401.519461923841
 21
214.7315687741945
 31
0.0
  0
LINE
  5
1F0AC
330
1F
100
AcDbEntity
  8
0
100
AcDbLine
 10
401.519461923841
 20
210.4041059635545
 30
0.0
 11
401.519461923841
 21
208.5261504027344
 31
0.0
  0
LINE
  5
1F0AD
330
1F
100
AcDbEntity
  8
0
100
AcDbLine
 10
403.7443472607026
 20
204.6230278152944
 30
0.0
 11
410.8154445129428
 21
200.5406202676544
 31
0.0
  0
LINE
  5
1F0AE
330
1F
100
AcDbEntity
  8
0
100
AcDbLine
 10
403.6407911000229
 20
204.8519208881144
 30
0.0
 11
410.7118883522629
 21
200.7695133430145
 31
0.0
  0
LINE
  5
1F0AF
330
1F
100
AcDbEntity
  8
0
100
AcDbLine
 10
404.2064671035424
 20
213.1802607047383
 30
0.0
 11
404.2064671035423
 21
211.7118947062294
 31
0.0
  0
LINE
  5
1F0B0
330
1F
100
AcDbEntity
  8
0
100
AcDbLine
 10
405.479276386722
 20
212.0371693395345
 30
0.0
 11
405.479276386722
 21
208.5262089446546
 31
0.0
  0
LINE
  5
1F0B1
330
1F
100
AcDbEntity
  8
0
100
AcDbLine
 10
410.2017668401208
 20
226.7601589460745
 30
0.0
 11
411.2624225953626
 21
227.3725251762545
 31
0.0
  0
LINE
  5
1F0B2
330
1F
100
AcDbEntity
  8
0
100
AcDbLine
 10
412.7624158793428
 20
227.2239523390345
 30
0.0
 11
411.7017601241006
 21
226.6115861088545
 31
0.0
  0
LINE
  5
1F0B3
330
1F
100
AcDbEntity
  8
0
100
AcDbLine
 10
401.519461923841
 20
210.4041059635545
 30
0.0
 11
405.1257215236017
 21
208.3220781133945
 31
0.0
  0
LINE
  5
1F0B4
330
1F
100
AcDbEntity
  8
0
100
AcDbLine
 10
411.8710942507627
 20
203.1069430445745
 30
0.0
 11
412.8325704380415
 21
202.0551695270945
 31
0.0
  0
LINE
  5
1F0B5
330
1F
100
AcDbEntity
  8
0
100
AcDbLine
 10
420.8941217850615
 20
230.2857902920544
 30
0.0
 11
421.9547775403036
 21
230.8981565222345
 31
0.0
  0
LINE
  5
1F0B6
330
1F
100
AcDbEntity
  8
0
100
AcDbLine
 10
415.9443654844412
 20
227.0197424629746
 30
0.0
 11
414.5302573982625
 21
226.2033116523545
 31
0.0
  0
LINE
  5
1F0B7
330
1F
100
AcDbEntity
  8
0
100
AcDbLine
 10
413.1867723890214
 20
204.2805103265944
 30
0.0
 11
411.8432639127211
 21
204.3621407043545
 31
0.0
  0
LINE
  5
1F0B8
330
1F
100
AcDbEntity
  8
0
100
AcDbLine
 10
404.2064671035423
 20
211.7118947062294
 30
0.0
 11
405.479276386722
 21
210.9770545503093
 31
0.0
  0
LINE
  5
1F0B9
330
1F
100
AcDbEntity
  8
0
100
AcDbLine
 10
409.5804309504628
 20
225.3868011212944
 30
0.0
 11
409.5804309504628
 21
222.8554801184146
 31
0.0
  0
LINE
  5
1F0BA
330
1F
100
AcDbEntity
  8
0
100
AcDbLine
 10
402.2443508525213
 20
218.6200175835145
 30
0.0
 11
411.7195422729405
 21
224.0904892435144
 31
0.0
  0
LINE
  5
1F0BB
330
1F
100
AcDbEntity
  8
0
100
AcDbLine
 10
425.7934214657427
 20
231.5978248587345
 30
0.0
 11
423.2681762698619
 21
230.1398825676145
 31
0.0
  0
LINE
  5
1F0BC
330
1F
100
AcDbEntity
  8
0
100
AcDbLine
 10
420.8941217850615
 20
228.7692297539344
 30
0.0
 11
415.4900340588417
 21
225.6491968753945
 31
0.0
  0
LINE
  5
1F0BD
330
1F
100
AcDbEntity
  8
0
100
AcDbLine
 10
413.4695344371623
 20
223.9171542663345
 30
0.0
 11
403.9943430192811
 21
218.4466826063345
 31
0.0
  0
LINE
  5
1F0BE
330
1F
100
AcDbEntity
  8
0
100
AcDbLine
 10
401.519461923841
 20
214.7315687741945
 30
0.0
 11
405.1257215236017
 21
212.6495409240346
 31
0.0
  0
LINE
  5
1F0BF
330
1F
100
AcDbEntity
  8
0
100
AcDbLine
 10
420.1161497113428
 20
204.6070951572945
 30
0.0
 11
422.3084060024635
 21
203.3414240310346
 31
0.0
  0
LINE
  5
1F0C0
330
1F
100
AcDbEntity
  8
0
100
AcDbLine
 10
411.8432639127211
 20
208.8529039986545
 30
0.0
 11
413.1867723890214
 21
207.3832195110545
 31
0.0
  0
LINE
  5
1F0C1
330
1F
100
AcDbEntity
  8
0
100
AcDbLine
 10
427.2934147497228
 20
231.4492520215144
 30
0.0
 11
424.1468488483021
 21
229.6325921953545
 31
0.0
  0
LINE
  5
1F0C2
330
1F
100
AcDbEntity
  8
0
100
AcDbLine
 10
421.2830321324608
 20
227.9791767137744
 30
0.0
 11
416.3687066372824
 21
225.1419065031345
 31
0.0
  0
LINE
  5
1F0C3
330
1F
100
AcDbEntity
  8
0
100
AcDbLine
 10
411.8432639127211
 20
203.1793457293344
 30
0.0
 11
411.8432639127211
 21
204.3621407043545
 31
0.0
  0
LINE
  5
1F0C4
330
1F
100
AcDbEntity
  8
0
100
AcDbLine
 10
411.8432639127211
 20
208.8529039986545
 30
0.0
 11
411.8432639127211
 21
210.0357008558145
 31
0.0
  0
LINE
  5
1F0C5
330
1F
100
AcDbEntity
  8
0
100
AcDbLine
 10
412.8325704380415
 20
210.0175482403545
 30
0.0
 11
411.8710942507627
 21
210.0759666782546
 31
0.0
  0
LINE
  5
1F0C6
330
1F
100
AcDbEntity
  8
0
100
AcDbLine
 10
413.186762387377
 20
204.2805109342854
 30
0.0
 11
413.1867723890214
 21
207.3832195110545
 31
0.0
  0
LINE
  5
1F0C7
330
1F
100
AcDbEntity
  8
0
100
AcDbLine
 10
410.7118883522629
 20
213.7519017749346
 30
0.0
 11
403.6407911000229
 21
217.8343093200346
 31
0.0
  0
LINE
  5
1F0C8
330
1F
100
AcDbEntity
  8
0
100
AcDbLine
 10
403.9943430192811
 20
218.4466826063345
 30
0.0
 11
411.0654402689828
 21
214.3642750612345
 31
0.0
  0
LINE
  5
1F0C9
330
1F
100
AcDbEntity
  8
0
100
AcDbLine
 10
404.2064671035423
 20
212.3636840205145
 30
0.0
 11
401.5194589799817
 21
210.8123484160545
 31
0.0
  0
LINE
  5
1F0CA
330
1F
100
AcDbEntity
  8
0
100
AcDbLine
 10
429.7329845162431
 20
226.4075082238945
 30
0.0
 11
428.6723287610014
 21
225.7951419937145
 31
0.0
  0
LINE
  5
1F0CB
330
1F
100
AcDbEntity
  8
0
100
AcDbLine
 10
411.0654402689828
 20
214.3642750612345
 30
0.0
 11
420.540631689402
 21
219.8347467237745
 31
0.0
  0
LINE
  5
1F0CC
330
1F
100
AcDbEntity
  8
0
100
AcDbLine
 10
422.3084060024635
 20
220.4879747924745
 30
0.0
 11
428.2834184110636
 21
223.9375932450144
 31
0.0
  0
LINE
  5
1F0CD
330
1F
100
AcDbEntity
  8
0
100
AcDbLine
 10
429.7329845162431
 20
224.7744956301345
 30
0.0
 11
434.2938010283221
 21
227.4076685527544
 31
0.0
  0
LINE
  5
1F0CE
330
1F
100
AcDbEntity
  8
0
100
AcDbLine
 10
428.6723287610014
 20
223.6715436577344
 30
0.0
 11
429.7329845162431
 21
224.2839098879144
 31
0.0
  0
LINE
  5
1F0CF
330
1F
100
AcDbEntity
  8
0
100
AcDbLine
 10
428.6723287610014
 20
208.6485912322744
 30
0.0
 11
427.3589300314431
 21
209.4068651894345
 31
0.0
  0
LINE
  5
1F0D0
330
1F
100
AcDbEntity
  8
0
100
AcDbLine
 10
411.7395883491829
 20
209.9258337374746
 30
0.0
 11
411.8432639127211
 21
210.0356993470545
 31
0.0
  0
LINE
  5
1F0D1
330
1F
100
AcDbEntity
  8
0
100
AcDbLine
 10
405.1257215236017
 20
208.3220781133945
 30
0.0
 11
405.479279439801
 21
208.5262036538345
 31
0.0
  0
LINE
  5
1F0D2
330
1F
100
AcDbEntity
  8
0
100
AcDbLine
 10
429.7330139573821
 20
209.2610450086346
 30
0.0
 11
427.8939293399032
 21
210.3228169846545
 31
0.0
  0
LINE
  5
1F0D3
330
1F
100
AcDbEntity
  8
0
100
AcDbLine
 10
428.9545850951423
 20
219.9167098059744
 30
0.0
 11
427.8939293399032
 21
219.3043435732544
 31
0.0
  0
LINE
  5
1F0D4
330
1F
100
AcDbEntity
  8
0
100
AcDbLine
 10
420.8941217850615
 20
230.2857902920544
 30
0.0
 11
420.8941217850615
 21
228.1621919586145
 31
0.0
  0
LINE
  5
1F0D5
330
1F
100
AcDbEntity
  8
0
100
AcDbLine
 10
436.4151302045009
 20
223.7334390381344
 30
0.0
 11
429.3794569835223
 21
219.6714154553144
 31
0.0
  0
LINE
  5
1F0D6
330
1F
100
AcDbEntity
  8
0
100
AcDbLine
 10
427.9298841575033
 20
218.8345091916144
 30
0.0
 11
424.4297351761018
 21
216.8137452753145
 31
0.0
  0
LINE
  5
1F0D7
330
1F
100
AcDbEntity
  8
0
100
AcDbLine
 10
421.6720072473251
 20
214.5274977349784
 30
0.0
 11
411.8432639127211
 21
208.8529039986545
 31
0.0
  0
LINE
  5
1F0D8
330
1F
100
AcDbEntity
  8
0
100
AcDbLine
 10
413.5380930275018
 20
210.2002848929145
 30
0.0
 11
414.5285031980608
 21
210.7717984666745
 31
0.0
  0
LINE
  5
1F0D9
330
1F
100
AcDbEntity
  8
0
100
AcDbLine
 10
423.0155157261633
 20
207.4647716923745
 30
0.0
 11
423.0155157261633
 21
215.5481456221144
 31
0.0
  0
LINE
  5
1F0DA
330
1F
100
AcDbEntity
  8
0
100
AcDbLine
 10
429.7330139573821
 20
218.2425715972344
 30
0.0
 11
430.7936697126213
 21
218.8549378274144
 31
0.0
  0
LINE
  5
1F0DB
330
1F
100
AcDbEntity
  8
0
100
AcDbLine
 10
423.0155157261633
 20
213.0578132381232
 30
0.0
 11
413.1867723890214
 21
207.3832195110545
 31
0.0
  0
LINE
  5
1F0DC
330
1F
100
AcDbEntity
  8
0
100
AcDbLine
 10
420.540631689402
 20
219.8347467212345
 30
0.0
 11
413.4695344371623
 21
223.9171542688745
 31
0.0
  0
LINE
  5
1F0DD
330
1F
100
AcDbEntity
  8
0
100
AcDbLine
 10
424.4297351761018
 20
204.5662090185944
 30
0.0
 11
424.4297351761018
 21
216.8137452753145
 31
0.0
  0
LINE
  5
1F0DE
330
1F
100
AcDbEntity
  8
0
100
AcDbLine
 10
422.3084060024635
 20
220.4879747924745
 30
0.0
 11
411.7017601241006
 21
226.6115861088545
 31
0.0
  0
LINE
  5
1F0DF
330
1F
100
AcDbEntity
  8
0
100
AcDbLine
 10
425.4903909338816
 20
205.1785752513145
 30
0.0
 11
425.4903909338816
 21
217.4261115080345
 31
0.0
  0
LINE
  5
1F0E0
330
1F
100
AcDbEntity
  8
0
100
AcDbLine
 10
423.0155157261633
 20
209.9551040536644
 30
0.0
 11
413.1867723890214
 21
204.2805103265944
 31
0.0
  0
LINE
  5
1F0E1
330
1F
100
AcDbEntity
  8
0
100
AcDbLine
 10
421.7446104235851
 20
208.8538980171721
 30
0.0
 11
411.9735316913015
 21
203.2125967677344
 31
0.0
  0
LINE
  5
1F0E2
330
1F
100
AcDbEntity
  8
0
100
AcDbLine
 10
423.3690617577027
 20
221.1003410226545
 30
0.0
 11
412.7624158793428
 21
227.2239523390345
 31
0.0
  0
LINE
  5
1F0E3
330
1F
100
AcDbEntity
  8
0
100
AcDbLine
 10
429.7330139573821
 20
218.2425715972344
 30
0.0
 11
427.8939293399032
 21
219.3043435732544
 31
0.0
  0
LINE
  5
1F0E4
330
1F
100
AcDbEntity
  8
0
100
AcDbLine
 10
427.9298841575033
 20
218.8345091916144
 30
0.0
 11
427.9298841575033
 21
210.7511352618745
 31
0.0
  0
LINE
  5
1F0E5
330
1F
100
AcDbEntity
  8
0
100
AcDbLine
 10
425.4903909338816
 20
209.3427015991945
 30
0.0
 11
427.9298841575033
 21
210.7511352618745
 31
0.0
  0
LINE
  5
1F0E6
330
1F
100
AcDbEntity
  8
0
100
AcDbLine
 10
430.7936697126213
 20
212.4045327526344
 30
0.0
 11
436.4151302045009
 21
215.6500651083945
 31
0.0
  0
LINE
  5
1F0E7
330
1F
100
AcDbEntity
  8
0
100
AcDbLine
 10
420.1866665959621
 20
205.8309669132544
 30
0.0
 11
423.0155157261633
 21
207.4636162489144
 31
0.0
  0
LINE
  5
1F0E8
330
1F
100
AcDbEntity
  8
0
100
AcDbLine
 10
413.5380930275018
 20
201.8742654997745
 30
0.0
 11
414.5285034012617
 21
202.4452986426944
 31
0.0
  0
LINE
  5
1F0E9
330
1F
100
AcDbEntity
  8
0
100
AcDbLine
 10
415.9443654844412
 20
227.0197424629746
 30
0.0
 11
416.9041421450206
 21
226.4656276860144
 31
0.0
  0
LINE
  5
1F0EA
330
1F
100
AcDbEntity
  8
0
100
AcDbLine
 10
430.7936697126213
 20
218.8549378274144
 30
0.0
 11
428.9545850951423
 21
219.9167098059744
 31
0.0
  0
LINE
  5
1F0EB
330
1F
100
AcDbEntity
  8
0
100
AcDbLine
 10
428.6723287610014
 20
225.7951419937145
 30
0.0
 11
428.6723287610014
 21
223.6715436577344
 31
0.0
  0
LINE
  5
1F0EC
330
1F
100
AcDbEntity
  8
0
100
AcDbLine
 10
428.6723287610014
 20
208.6485912322744
 30
0.0
 11
428.6723287610014
 21
209.8734180358544
 31
0.0
  0
LINE
  5
1F0ED
330
1F
100
AcDbEntity
  8
0
100
AcDbLine
 10
429.7329845162431
 20
226.4075082238945
 30
0.0
 11
429.7329845162431
 21
224.2839098879144
 31
0.0
  0
LINE
  5
1F0EE
330
1F
100
AcDbEntity
  8
0
100
AcDbLine
 10
429.7330139573821
 20
209.2610450086346
 30
0.0
 11
429.7330139573821
 21
218.2425715972344
 31
0.0
  0
LINE
  5
1F0EF
330
1F
100
AcDbEntity
  8
0
100
AcDbLine
 10
435.7937943123017
 20
214.2767072836145
 30
0.0
 11
430.7936697126213
 21
211.3899012309745
 31
0.0
  0
LINE
  5
1F0F0
330
1F
100
AcDbEntity
  8
0
100
AcDbLine
 10
428.4196763224423
 20
210.0192836902745
 30
0.0
 11
425.4903909338816
 21
208.3280700775345
 31
0.0
  0
LINE
  5
1F0F1
330
1F
100
AcDbEntity
  8
0
100
AcDbLine
 10
412.8154324357426
 20
200.3920492338344
 30
0.0
 11
422.2906238536237
 21
205.8625208963745
 31
0.0
  0
LINE
  5
1F0F2
330
1F
100
AcDbEntity
  8
0
100
AcDbLine
 10
430.7936697126213
 20
218.8549378274144
 30
0.0
 11
430.7936697126213
 21
209.8734112388144
 31
0.0
  0
LINE
  5
1F0F3
330
1F
100
AcDbEntity
  8
0
100
AcDbLine
 10
430.7936697126213
 20
209.8734112388144
 30
0.0
 11
428.6723287610014
 21
208.6485912322744
 31
0.0
  0
LINE
  5
1F0F4
330
1F
100
AcDbEntity
  8
0
100
AcDbLine
 10
424.4297351761018
 20
204.5662090185944
 30
0.0
 11
425.4903909338816
 21
205.1785752513145
 31
0.0
  0
LINE
  5
1F0F5
330
1F
100
AcDbEntity
  8
0
100
AcDbLine
 10
421.2830321324608
 20
227.9791767137744
 30
0.0
 11
428.2834184110636
 21
223.9375932450144
 31
0.0
  0
LINE
  5
1F0F6
330
1F
100
AcDbEntity
  8
0
100
AcDbLine
 10
423.8083992864431
 20
203.1928511938145
 30
0.0
 11
424.8690550416823
 21
203.8052174265344
 31
0.0
  0
LINE
  5
1F0F7
330
1F
100
AcDbEntity
  8
0
100
AcDbLine
 10
428.6723287610014
 20
225.7951419937145
 30
0.0
 11
420.8941217850615
 21
230.2857902920544
 31
0.0
  0
LINE
  5
1F0F8
330
1F
100
AcDbEntity
  8
0
100
AcDbLine
 10
421.9547775403036
 20
230.8981565222345
 30
0.0
 11
429.7329845162431
 21
226.4075082238945
 31
0.0
  0
LINE
  5
1F0F9
330
1F
100
AcDbEntity
  8
0
100
AcDbLine
 10
436.4151302045009
 20
223.7334390381344
 30
0.0
 11
436.4151302045009
 21
215.6500651083945
 31
0.0
  0
LINE
  5
1F0FA
330
1F
100
AcDbEntity
  8
0
100
AcDbLine
 10
427.2934147497228
 20
231.4492520215144
 30
0.0
 11
434.2938010283221
 21
227.4076685527544
 31
0.0
  0
ARC
  5
1F0FB
330
1F
100
AcDbEntity
  8
0
100
AcDbCircle
 10
468.8132543874139
 20
296.3625487127246
 30
0.0
 40
4.70000000054
100
AcDbArc
 50
129.9599358811004
 51
230.0400615447009
  0
ARC
  5
1F0FC
330
1F
100
AcDbEntity
  8
0
100
AcDbCircle
 10
468.8132543874139
 20
296.3625487127246
 30
0.0
 40
3.10000000014
100
AcDbArc
 50
150.8615208597021
 51
209.1381564021018
  0
CIRCLE
  5
1F0FD
330
1F
100
AcDbEntity
  8
0
100
AcDbCircle
 10
468.7132543892941
 20
296.3625487127246
 30
0.0
 40
2.849999999759998
  0
ARC
  5
1F0FE
330
1F
100
AcDbEntity
  8
0
100
AcDbCircle
 10
450.3132543872339
 20
304.3125487105844
 30
0.0
 40
0.5000000007600001
100
AcDbArc
 50
90.0
 51
180.0
  0
ARC
  5
1F0FF
330
1F
100
AcDbEntity
  8
0
100
AcDbCircle
 10
450.3132543872339
 20
288.4125487123237
 30
0.0
 40
0.5000000007600001
100
AcDbArc
 50
180.0
 51
270.0
  0
ARC
  5
1F100
330
1F
100
AcDbEntity
  8
0
100
AcDbCircle
 10
467.9532421882141
 20
297.1225609138032
 30
0.0
 40
0.26003071692
100
AcDbArc
 50
270.0026887147976
 51
359.9973114764925
  0
ARC
  5
1F101
330
1F
100
AcDbEntity
  8
0
100
AcDbCircle
 10
467.9532421882141
 20
295.6025365116433
 30
0.0
 40
0.26003071692
100
AcDbArc
 50
0.0026887268024554
 51
89.99731146450065
  0
ARC
  5
1F102
330
1F
100
AcDbEntity
  8
0
100
AcDbCircle
 10
469.473266590374
 20
295.6025365116433
 30
0.0
 40
0.26003071692
100
AcDbArc
 50
90.00268871769618
 51
179.9973114734961
  0
ARC
  5
1F103
330
1F
100
AcDbEntity
  8
0
100
AcDbCircle
 10
469.473266590374
 20
297.1225609138032
 30
0.0
 40
0.26003071692
100
AcDbArc
 50
180.0026887179958
 51
269.9973114733008
  0
ARC
  5
1F104
330
1F
100
AcDbEntity
  8
0
100
AcDbCircle
 10
468.293254749234
 20
296.7825483502447
 30
0.0
 40
0.2600000007
100
AcDbArc
 50
269.9999206318999
 51
0.0000793680936153
  0
ARC
  5
1F105
330
1F
100
AcDbEntity
  8
0
100
AcDbCircle
 10
469.133254029354
 20
296.7825483502447
 30
0.0
 40
0.2600000007
100
AcDbArc
 50
179.9999206318933
 51
270.0000793679959
  0
ARC
  5
1F106
330
1F
100
AcDbEntity
  8
0
100
AcDbCircle
 10
469.133254029354
 20
295.9425490726634
 30
0.0
 40
0.2600000007
100
AcDbArc
 50
89.99992063189987
 51
180.0000793680936
  0
ARC
  5
1F107
330
1F
100
AcDbEntity
  8
0
100
AcDbCircle
 10
468.293254749234
 20
295.9425490726634
 30
0.0
 40
0.2600000007
100
AcDbArc
 50
359.9999206318934
 51
90.00007936799592
  0
ARC
  5
1F108
330
1F
100
AcDbEntity
  8
0
100
AcDbCircle
 10
518.4628628308461
 20
291.4125487118028
 30
0.0
 40
3.50000000024
100
AcDbArc
 50
269.9999999918968
 51
0.0
  0
ARC
  5
1F109
330
1F
100
AcDbEntity
  8
0
100
AcDbCircle
 10
520.9628628295662
 20
288.8625487114843
 30
0.0
 40
2.999999999479997
100
AcDbArc
 50
270.0
 51
0.0
  0
ARC
  5
1F10A
330
1F
100
AcDbEntity
  8
0
100
AcDbCircle
 10
518.4628628308461
 20
291.4125487118028
 30
0.0
 40
2.999999999479997
100
AcDbArc
 50
270.0
 51
0.0
  0
CIRCLE
  5
1F10B
330
1F
100
AcDbEntity
  8
0
100
AcDbCircle
 10
518.5628628289663
 20
291.2625487120848
 30
0.0
 40
1.75000000012
  0
CIRCLE
  5
1F10C
330
1F
100
AcDbEntity
  8
0
100
AcDbCircle
 10
518.5628628289663
 20
291.2625487120848
 30
0.0
 40
1.525000000539999
  0
CIRCLE
  5
1F10D
330
1F
100
AcDbEntity
  8
0
100
AcDbCircle
 10
518.5628628289663
 20
291.2625487120848
 30
0.0
 40
1.324999999219999
  0
ARC
  5
1F10E
330
1F
100
AcDbEntity
  8
0
100
AcDbCircle
 10
516.3628628296861
 20
294.2125487125039
 30
0.0
 40
0.5000000007600001
100
AcDbArc
 50
180.0
 51
270.0
  0
ARC
  5
1F10F
330
1F
100
AcDbEntity
  8
0
100
AcDbCircle
 10
508.4628628308861
 20
291.412548711803
 30
0.0
 40
3.50000000024
100
AcDbArc
 50
182.4328812637068
 51
270.0
  0
ARC
  5
1F110
330
1F
100
AcDbEntity
  8
0
100
AcDbCircle
 10
505.9628628296263
 20
288.8625487114845
 30
0.0
 40
2.999999999479997
100
AcDbArc
 50
180.0
 51
270.0
  0
ARC
  5
1F111
330
1F
100
AcDbEntity
  8
0
100
AcDbCircle
 10
508.4628628308861
 20
291.412548711803
 30
0.0
 40
2.999999999479997
100
AcDbArc
 50
178.584772482594
 51
270.0
  0
CIRCLE
  5
1F112
330
1F
100
AcDbEntity
  8
0
100
AcDbCircle
 10
513.4628628308661
 20
291.2625487120848
 30
0.0
 40
2.725000000839999
  0
CIRCLE
  5
1F113
330
1F
100
AcDbEntity
  8
0
100
AcDbCircle
 10
513.4628628308661
 20
291.2625487120848
 30
0.0
 40
1.75000000012
  0
ARC
  5
1F114
330
1F
100
AcDbEntity
  8
0
100
AcDbCircle
 10
508.3628628302261
 20
291.2625487120849
 30
0.0
 40
1.75000000012
100
AcDbArc
 50
151.5981329603081
 51
148.9972808660966
  0
CIRCLE
  5
1F115
330
1F
100
AcDbEntity
  8
0
100
AcDbCircle
 10
513.4628628308661
 20
291.2625487120848
 30
0.0
 40
1.525000000539999
  0
CIRCLE
  5
1F116
330
1F
100
AcDbEntity
  8
0
100
AcDbCircle
 10
508.3628628302261
 20
291.2625487120849
 30
0.0
 40
1.525000000539999
  0
CIRCLE
  5
1F117
330
1F
100
AcDbEntity
  8
0
100
AcDbCircle
 10
513.4628628308661
 20
291.2625487120848
 30
0.0
 40
1.324999999219999
  0
CIRCLE
  5
1F118
330
1F
100
AcDbEntity
  8
0
100
AcDbCircle
 10
508.3628628302261
 20
291.2625487120849
 30
0.0
 40
1.324999999219999
  0
ARC
  5
1F119
330
1F
100
AcDbEntity
  8
0
100
AcDbCircle
 10
518.4628628308461
 20
301.3125487111018
 30
0.0
 40
3.50000000024
100
AcDbArc
 50
359.9999999918968
 51
90.0
  0
ARC
  5
1F11A
330
1F
100
AcDbEntity
  8
0
100
AcDbCircle
 10
520.9628628295662
 20
303.8625487114235
 30
0.0
 40
2.999999999479997
100
AcDbArc
 50
0.0
 51
90.0
  0
ARC
  5
1F11B
330
1F
100
AcDbEntity
  8
0
100
AcDbCircle
 10
518.4628628308461
 20
301.3125487111018
 30
0.0
 40
2.999999999479997
100
AcDbArc
 50
0.0
 51
90.0
  0
CIRCLE
  5
1F11C
330
1F
100
AcDbEntity
  8
0
100
AcDbCircle
 10
518.5628628289663
 20
301.4625487108231
 30
0.0
 40
1.75000000012
  0
CIRCLE
  5
1F11D
330
1F
100
AcDbEntity
  8
0
100
AcDbCircle
 10
518.5628628289663
 20
301.4625487108231
 30
0.0
 40
1.525000000539999
  0
CIRCLE
  5
1F11E
330
1F
100
AcDbEntity
  8
0
100
AcDbCircle
 10
518.5628628289663
 20
301.4625487108231
 30
0.0
 40
1.324999999219999
  0
ARC
  5
1F11F
330
1F
100
AcDbEntity
  8
0
100
AcDbCircle
 10
516.3628628296861
 20
298.5125487104036
 30
0.0
 40
0.5000000007600001
100
AcDbArc
 50
90.0
 51
180.0
  0
ARC
  5
1F120
330
1F
100
AcDbEntity
  8
0
100
AcDbCircle
 10
508.4628628308861
 20
301.3125487111019
 30
0.0
 40
3.50000000024
100
AcDbArc
 50
90.0
 51
177.5671123727994
  0
ARC
  5
1F121
330
1F
100
AcDbEntity
  8
0
100
AcDbCircle
 10
505.9628628296263
 20
303.8625487114236
 30
0.0
 40
2.999999999479997
100
AcDbArc
 50
90.0
 51
180.0
  0
ARC
  5
1F122
330
1F
100
AcDbEntity
  8
0
100
AcDbCircle
 10
508.4628628308861
 20
301.3125487111019
 30
0.0
 40
2.999999999479997
100
AcDbArc
 50
90.0
 51
181.415227517406
  0
CIRCLE
  5
1F123
330
1F
100
AcDbEntity
  8
0
100
AcDbCircle
 10
508.3628628302261
 20
296.3625487127246
 30
0.0
 40
2.725000000839999
  0
CIRCLE
  5
1F124
330
1F
100
AcDbEntity
  8
0
100
AcDbCircle
 10
513.4628628308663
 20
301.4625487108231
 30
0.0
 40
2.725000000839999
  0
CIRCLE
  5
1F125
330
1F
100
AcDbEntity
  8
0
100
AcDbCircle
 10
513.4628628308663
 20
296.3625487127245
 30
0.0
 40
1.75000000012
  0
ARC
  5
1F126
330
1F
100
AcDbEntity
  8
0
100
AcDbCircle
 10
508.3628628302261
 20
301.4625487108232
 30
0.0
 40
1.75000000012
100
AcDbArc
 50
211.0027191339032
 51
208.4018670396919
  0
CIRCLE
  5
1F127
330
1F
100
AcDbEntity
  8
0
100
AcDbCircle
 10
508.3628628302261
 20
296.3625487127246
 30
0.0
 40
1.75000000012
  0
CIRCLE
  5
1F128
330
1F
100
AcDbEntity
  8
0
100
AcDbCircle
 10
513.4628628308663
 20
301.4625487108231
 30
0.0
 40
1.75000000012
  0
CIRCLE
  5
1F129
330
1F
100
AcDbEntity
  8
0
100
AcDbCircle
 10
508.3628628302261
 20
296.3625487127246
 30
0.0
 40
1.525000000539999
  0
CIRCLE
  5
1F12A
330
1F
100
AcDbEntity
  8
0
100
AcDbCircle
 10
513.4628628308663
 20
301.4625487108231
 30
0.0
 40
1.525000000539999
  0
CIRCLE
  5
1F12B
330
1F
100
AcDbEntity
  8
0
100
AcDbCircle
 10
508.3628628302261
 20
301.4625487108232
 30
0.0
 40
1.525000000539999
  0
CIRCLE
  5
1F12C
330
1F
100
AcDbEntity
  8
0
100
AcDbCircle
 10
513.4628628308663
 20
296.3625487127245
 30
0.0
 40
1.525000000539999
  0
CIRCLE
  5
1F12D
330
1F
100
AcDbEntity
  8
0
100
AcDbCircle
 10
508.3628628302261
 20
296.3625487127246
 30
0.0
 40
1.324999999219999
  0
CIRCLE
  5
1F12E
330
1F
100
AcDbEntity
  8
0
100
AcDbCircle
 10
513.4628628308663
 20
301.4625487108231
 30
0.0
 40
1.324999999219999
  0
CIRCLE
  5
1F12F
330
1F
100
AcDbEntity
  8
0
100
AcDbCircle
 10
508.3628628302261
 20
301.4625487108232
 30
0.0
 40
1.324999999219999
  0
CIRCLE
  5
1F130
330
1F
100
AcDbEntity
  8
0
100
AcDbCircle
 10
513.4628628308663
 20
296.3625487127245
 30
0.0
 40
1.324999999219999
  0
ARC
  5
1F131
330
1F
100
AcDbEntity
  8
0
100
AcDbCircle
 10
469.076387012921
 20
117.0158597609945
 30
0.0
 40
101.36859171758
100
AcDbArc
 50
119.9787449482026
 51
120.6773588848937
  0
ARC
  5
1F132
330
1F
100
AcDbEntity
  8
0
100
AcDbCircle
 10
397.624482548463
 20
217.0221613431145
 30
0.0
 40
19.91479901207999
100
AcDbArc
 50
315.6741951776978
 51
316.0975663391995
  0
ARC
  5
1F133
330
1F
100
AcDbEntity
  8
0
100
AcDbCircle
 10
414.4182493774216
 20
193.3631114146745
 30
0.0
 40
10.14834992932
100
AcDbArc
 50
103.9395499181007
 51
104.6986052609
  0
ARC
  5
1F134
330
1F
100
AcDbEntity
  8
0
100
AcDbCircle
 10
405.4705552129028
 20
207.6112200583545
 30
0.0
 40
3.450954474759998
100
AcDbArc
 50
236.4842429199963
 51
239.9859902280986
  0
ARC
  5
1F135
330
1F
100
AcDbEntity
  8
0
100
AcDbCircle
 10
408.5519857632637
 20
210.5794889071746
 30
0.0
 40
1.322623481239999
100
AcDbArc
 50
175.2042124001993
 51
180.0788324438005
  0
ARC
  5
1F136
330
1F
100
AcDbEntity
  8
0
100
AcDbCircle
 10
412.1582453630209
 20
212.6616233865346
 30
0.0
 40
1.322623481239999
100
AcDbArc
 50
175.2042124002992
 51
180.0788324436995
  0
ARC
  5
1F137
330
1F
100
AcDbEntity
  8
0
100
AcDbCircle
 10
404.945726166041
 20
216.8256790817745
 30
0.0
 40
1.322623481239999
100
AcDbArc
 50
175.2042124002992
 51
180.0788324436002
  0
ARC
  5
1F138
330
1F
100
AcDbEntity
  8
0
100
AcDbCircle
 10
404.945726166041
 20
208.4973544278146
 30
0.0
 40
1.322623481239999
100
AcDbArc
 50
175.2042124002992
 51
180.0788324436995
  0
SPLINE
  5
1F139
330
1F
100
AcDbEntity
  8
0
100
AcDbSpline
210
0.0
220
0.0
230
1.0
 70
     8
 71
     3
 72
    11
 73
     7
 74
     0
 42
0.0000000001
 43
0.0000000001
 40
0.0
 40
0.0
 40
0.0
 40
0.0
 40
0.2499708597
 40
0.4999585061
 40
0.7499734799
 40
1.0
 40
1.0
 40
1.0
 40
1.0
 10
467.3674333445941
 20
293.8461943347233
 30
0.0
 10
467.234517491554
 20
293.8831559905429
 30
0.0
 10
466.975000962074
 20
293.9831754120423
 30
0.0
 10
466.625254046634
 20
294.2099073131648
 30
0.0
 10
466.3288910655738
 20
294.502770750802
 30
0.0
 10
466.172753394614
 20
294.7325774921041
 30
0.0
 10
466.105562307254
 20
294.8531039312629
 30
0.0
  0
SPLINE
  5
1F13A
330
1F
100
AcDbEntity
  8
0
100
AcDbSpline
210
0.0
220
0.0
230
1.0
 70
     8
 71
     3
 72
    11
 73
     7
 74
     0
 42
0.0000000001
 43
0.0000000001
 40
0.0
 40
0.0
 40
0.0
 40
0.0
 40
0.2500231914
 40
0.5000467321000001
 40
0.7500330920999999
 40
1.0
 40
1.0
 40
1.0
 40
1.0
 10
466.1055725993341
 20
297.8720077461239
 30
0.0
 10
466.172706424934
 20
297.9924316048437
 30
0.0
 10
466.3287110227542
 20
298.2220425553223
 30
0.0
 10
466.6247143601341
 20
298.5147761405437
 30
0.0
 10
466.9741219366541
 20
298.7413841633237
 30
0.0
 10
467.233333790594
 20
298.8415120580634
 30
0.0
 10
467.3661089606538
 20
298.8785397970623
 30
0.0
  0
SPLINE
  5
1F13B
330
1F
100
AcDbEntity
  8
0
100
AcDbSpline
210
0.0
220
0.0
230
1.0
 70
     8
 71
     3
 72
    10
 73
     6
 74
     0
 42
0.0000000001
 43
0.0000000001
 40
0.0
 40
0.0
 40
0.0
 40
0.0
 40
0.4962040545000001
 40
0.7466573451000002
 40
1.0
 40
1.0
 40
1.0
 40
1.0
 10
467.1876491931141
 20
292.2625487110622
 30
0.0
 10
467.2965866384338
 20
292.4940140698222
 30
0.0
 10
467.4652957218937
 20
292.8401872687627
 30
0.0
 10
467.7098350905739
 20
293.2941215272635
 30
0.0
 10
467.8424398266342
 20
293.5176426880438
 30
0.0
 10
467.9129147606139
 20
293.627609303262
 30
0.0
  0
SPLINE
  5
1F13C
330
1F
100
AcDbEntity
  8
0
100
AcDbSpline
210
0.0
220
0.0
230
1.0
 70
     8
 71
     3
 72
    11
 73
     7
 74
     0
 42
0.0000000001
 43
0.0000000001
 40
0.0
 40
0.0
 40
0.0
 40
0.0
 40
0.2499899592
 40
0.4999840121
 40
0.7499822492
 40
1.0
 40
1.0
 40
1.0
 40
1.0
 10
465.794670734474
 20
292.7600282723642
 30
0.0
 10
465.8910150502939
 20
292.6793005623421
 30
0.0
 10
466.098148197114
 20
292.5341265270644
 30
0.0
 10
466.442731457654
 20
292.3760459974027
 30
0.0
 10
466.8099817975742
 20
292.2822781051837
 30
0.0
 10
467.0619403894142
 20
292.2625487872642
 30
0.0
 10
467.1876491931141
 20
292.2625487110622
 30
0.0
  0
SPLINE
  5
1F13D
330
1F
100
AcDbEntity
  8
0
100
AcDbSpline
210
0.0
220
0.0
230
1.0
 70
     8
 71
     3
 72
    11
 73
     7
 74
     0
 42
0.0000000001
 43
0.0000000001
 40
0.0
 40
0.0
 40
0.0
 40
0.0
 40
0.2500180965
 40
0.5000165845000001
 40
0.7500109799
 40
1.0
 40
1.0
 40
1.0
 40
1.0
 10
467.1876491931142
 20
300.4625487118428
 30
0.0
 10
467.061940254794
 20
300.4625486483437
 30
0.0
 10
466.8099816985137
 20
300.4428182636242
 30
0.0
 10
466.4427299971538
 20
300.349053134922
 30
0.0
 10
466.0981495001339
 20
300.1909674820831
 30
0.0
 10
465.8910148597938
 20
300.0457966218036
 30
0.0
 10
465.7946709478339
 20
299.9650692242044
 30
0.0
  0
SPLINE
  5
1F13E
330
1F
100
AcDbEntity
  8
0
100
AcDbSpline
210
0.0
220
0.0
230
1.0
 70
     8
 71
     3
 72
    11
 73
     7
 74
     0
 42
0.0000000001
 43
0.0000000001
 40
0.0
 40
0.0
 40
0.0
 40
0.0
 40
0.2357407352
 40
0.4780014198
 40
0.7309807936000004
 40
1.0
 40
1.0
 40
1.0
 40
1.0
 10
465.7946709325938
 20
299.9650692064223
 30
0.0
 10
465.8351855912139
 20
299.8034725242846
 30
0.0
 10
465.912254865574
 20
299.4744920976622
 30
0.0
 10
466.008039073294
 20
298.9666376498239
 30
0.0
 10
466.076145998294
 20
298.4304401268436
 30
0.0
 10
466.0979387385538
 20
298.0619588114823
 30
0.0
 10
466.105567344074
 20
297.8719959198837
 30
0.0
  0
SPLINE
  5
1F13F
330
1F
100
AcDbEntity
  8
0
100
AcDbSpline
210
0.0
220
0.0
230
1.0
 70
     8
 71
     3
 72
    11
 73
     7
 74
     0
 42
0.0000000001
 43
0.0000000001
 40
0.0
 40
0.0
 40
0.0
 40
0.0
 40
0.2690179662
 40
0.5219983998
 40
0.7642588153000001
 40
1.0
 40
1.0
 40
1.0
 40
1.0
 10
466.1055662112341
 20
294.8531035375641
 30
0.0
 10
466.097952733954
 20
294.6631408263018
 30
0.0
 10
466.076123209414
 20
294.2946615277041
 30
0.0
 10
466.0080446054139
 20
293.7584615079035
 30
0.0
 10
465.9122513095739
 20
293.2506066765226
 30
0.0
 10
465.8351762871939
 20
292.9216278043831
 30
0.0
 10
465.794670650654
 20
292.7600284527038
 30
0.0
  0
SPLINE
  5
1F140
330
1F
100
AcDbEntity
  8
0
100
AcDbSpline
210
0.0
220
0.0
230
1.0
 70
     8
 71
     3
 72
    10
 73
     6
 74
     0
 42
0.0000000001
 43
0.0000000001
 40
0.0
 40
0.0
 40
0.0
 40
0.0
 40
0.2533455776
 40
0.5037977236
 40
1.0
 40
1.0
 40
1.0
 40
1.0
 10
467.913001031714
 20
299.0973485593431
 30
0.0
 10
467.8425138955738
 20
299.2073256088842
 30
0.0
 10
467.709889507534
 20
299.4308684892043
 30
0.0
 10
467.4653288358737
 20
299.8848534054627
 30
0.0
 10
467.296596422514
 20
300.2310589614635
 30
0.0
 10
467.1876491931142
 20
300.4625487118428
 30
0.0
  0
SPLINE
  5
1F141
330
1F
100
AcDbEntity
  8
0
100
AcDbSpline
210
0.0
220
0.0
230
1.0
 70
     8
 71
     3
 72
    15
 73
    11
 74
     0
 42
0.0000000001
 43
0.0000000001
 40
0.0
 40
0.0
 40
0.0
 40
0.0
 40
0.1141555516
 40
0.2373276756
 40
0.3669773296
 40
0.5000011
 40
0.6330247168
 40
0.7626739247
 40
0.885845342
 40
1.0
 40
1.0
 40
1.0
 40
1.0
 10
425.4903909338816
 20
217.4261115080345
 30
0.0
 10
425.4903909338816
 20
217.5937997324744
 30
0.0
 10
425.4596764487033
 20
217.9427466545946
 30
0.0
 10
425.3372337751235
 20
218.4691709763945
 30
0.0
 10
425.1410876751622
 20
219.0023965977744
 30
0.0
 10
424.8785685202407
 20
219.5223725275945
 30
0.0
 10
424.5595137659218
 20
220.0097066837345
 30
0.0
 10
424.1957987935818
 20
220.4461836136744
 30
0.0
 10
423.8011231262419
 20
220.8154296925545
 30
0.0
 10
423.5142837050021
 20
221.0164989881544
 30
0.0
 10
423.3690617577027
 20
221.1003410226545
 30
0.0
  0
SPLINE
  5
1F142
330
1F
100
AcDbEntity
  8
0
100
AcDbSpline
210
0.0
220
0.0
230
1.0
 70
     8
 71
     3
 72
    12
 73
     8
 74
     0
 42
0.0000000001
 43
0.0000000001
 40
0.0
 40
0.0
 40
0.0
 40
0.0
 40
0.2895802218
 40
0.5486333650999999
 40
0.7816359177
 40
0.8918377598999999
 40
1.0
 40
1.0
 40
1.0
 40
1.0
 10
412.7624158793428
 20
227.2239523390345
 30
0.0
 10
412.6307331810616
 20
227.2999776606945
 30
0.0
 10
412.3688363007434
 20
227.4245787424545
 30
0.0
 10
411.966584077561
 20
227.5218278367545
 30
0.0
 10
411.6453730283419
 20
227.5133137973944
 30
0.0
 10
411.4160594788421
 20
227.4497944095744
 30
0.0
 10
411.3116101068423
 20
227.4009175223144
 30
0.0
 10
411.2624249956606
 20
227.3725206474345
 30
0.0
  0
SPLINE
  5
1F143
330
1F
100
AcDbEntity
  8
0
100
AcDbSpline
210
0.0
220
0.0
230
1.0
 70
     8
 71
     3
 72
    19
 73
    15
 74
     0
 42
0.0000000001
 43
0.0000000001
 40
0.0
 40
0.0
 40
0.0
 40
0.0
 40
0.0428408021
 40
0.0874513635
 40
0.1352658523
 40
0.1872095798
 40
0.2436916508
 40
0.3046870345
 40
0.3698262743
 40
0.4384764424
 40
0.5827575082000001
 40
0.7298449583
 40
0.8713685882
 40
1.0
 40
1.0
 40
1.0
 40
1.0
 10
412.1451897858809
 20
204.8600274733746
 30
0.0
 10
412.2123690495424
 20
204.8988156482744
 30
0.0
 10
412.3396897372407
 20
204.9963282345545
 30
0.0
 10
412.4929445082009
 20
205.1901171662544
 30
0.0
 10
412.6074435324426
 20
205.4271359581546
 30
0.0
 10
412.6815638490213
 20
205.7015672584145
 30
0.0
 10
412.7145706765813
 20
206.0076241494745
 30
0.0
 10
412.7061308687225
 20
206.3390173703544
 30
0.0
 10
412.6565853137615
 20
206.6889339933545
 30
0.0
 10
412.5351995468824
 20
207.1783240966145
 30
0.0
 10
412.2894499240818
 20
207.7861320885144
 30
0.0
 10
411.8770221027611
 20
208.4569410999545
 30
0.0
 10
411.3758500520233
 20
209.0271028882545
 30
0.0
 10
410.9843120644626
 20
209.3283962988745
 30
0.0
 10
410.7825993233623
 20
209.4448525709144
 30
0.0
  0
SPLINE
  5
1F144
330
1F
100
AcDbEntity
  8
0
100
AcDbSpline
210
0.0
220
0.0
230
1.0
 70
     8
 71
     3
 72
    11
 73
     7
 74
     0
 42
0.0000000001
 43
0.0000000001
 40
0.0
 40
0.0
 40
0.0
 40
0.0
 40
0.2185192741
 40
0.454316649
 40
0.7140755673000001
 40
1.0
 40
1.0
 40
1.0
 40
1.0
 10
404.5277647337432
 20
214.0903180170745
 30
0.0
 10
404.5735393539021
 20
214.1284849841745
 30
0.0
 10
404.6569838936425
 20
214.2226683238746
 30
0.0
 10
404.744684066223
 20
214.3985120082545
 30
0.0
 10
404.7970352340635
 20
214.6065020850345
 30
0.0
 10
404.8075221473014
 20
214.7556971689145
 30
0.0
 10
404.8075221473014
 20
214.8336801854144
 30
0.0
  0
SPLINE
  5
1F145
330
1F
100
AcDbEntity
  8
0
100
AcDbSpline
210
0.0
220
0.0
230
1.0
 70
     8
 71
     3
 72
    11
 73
     7
 74
     0
 42
0.0000000001
 43
0.0000000001
 40
0.0
 40
0.0
 40
0.0
 40
0.0
 40
0.2185192741
 40
0.454316649
 40
0.7140755673000001
 40
1.0
 40
1.0
 40
1.0
 40
1.0
 10
404.5277647337432
 20
205.7619933631146
 30
0.0
 10
404.5735393539021
 20
205.8001603302145
 30
0.0
 10
404.6569838936425
 20
205.8943436699145
 30
0.0
 10
404.744684066223
 20
206.0701873517546
 30
0.0
 10
404.7970352340635
 20
206.2781774285345
 30
0.0
 10
404.8075221473014
 20
206.4273725149544
 30
0.0
 10
404.8075221473014
 20
206.5053555314545
 30
0.0
  0
SPLINE
  5
1F146
330
1F
100
AcDbEntity
  8
0
100
AcDbSpline
210
0.0
220
0.0
230
1.0
 70
     8
 71
     3
 72
    15
 73
    11
 74
     0
 42
0.0000000001
 43
0.0000000001
 40
0.0
 40
0.0
 40
0.0
 40
0.0
 40
0.1141555516
 40
0.2373276756
 40
0.3669773296
 40
0.5000011
 40
0.6330247168
 40
0.7626739247
 40
0.885845342
 40
1.0
 40
1.0
 40
1.0
 40
1.0
 10
436.4151302045009
 20
223.7334390381344
 30
0.0
 10
436.4151302045009
 20
223.9011272625745
 30
0.0
 10
436.3844157193226
 20
224.2500741846945
 30
0.0
 10
436.2619730457429
 20
224.7764985064946
 30
0.0
 10
436.0658269457814
 20
225.3097241278746
 30
0.0
 10
435.8033077908634
 20
225.8297000576944
 30
0.0
 10
435.4842530365409
 20
226.3170342138344
 30
0.0
 10
435.1205380642011
 20
226.7535111437745
 30
0.0
 10
434.7258623968611
 20
227.1227572226544
 30
0.0
 10
434.4390229756213
 20
227.3238265182545
 30
0.0
 10
434.2938010283221
 20
227.4076685527544
 30
0.0
  0
SPLINE
  5
1F147
330
1F
100
AcDbEntity
  8
0
100
AcDbSpline
210
0.0
220
0.0
230
1.0
 70
     8
 71
     3
 72
    12
 73
     8
 74
     0
 42
0.0000000001
 43
0.0000000001
 40
0.0
 40
0.0
 40
0.0
 40
0.0
 40
0.2895802218
 40
0.5486333650999999
 40
0.7816359177
 40
0.8918377598999999
 40
1.0
 40
1.0
 40
1.0
 40
1.0
 10
427.2934147497228
 20
231.4492520215144
 30
0.0
 10
427.1617320514416
 20
231.5252773431745
 30
0.0
 10
426.8998351685818
 20
231.6498784249346
 30
0.0
 10
426.497582947941
 20
231.7471275192344
 30
0.0
 10
426.1763718961836
 20
231.7386134798745
 30
0.0
 10
425.9470583492221
 20
231.6750940895146
 30
0.0
 10
425.8426089772221
 20
231.6262172047944
 30
0.0
 10
425.7934238635023
 20
231.5978203299145
 30
0.0
  0
SPLINE
  5
1F148
330
1F
100
AcDbEntity
  8
0
100
AcDbSpline
210
0.0
220
0.0
230
1.0
 70
     8
 71
     3
 72
    19
 73
    15
 74
     0
 42
0.0000000001
 43
0.0000000001
 40
0.0
 40
0.0
 40
0.0
 40
0.0
 40
0.0428408021
 40
0.0874513635
 40
0.1352658523
 40
0.1872095798
 40
0.2436916508
 40
0.3046870345
 40
0.3698262743
 40
0.4384764424
 40
0.5827575082000001
 40
0.7298449583
 40
0.8713685882
 40
1.0
 40
1.0
 40
1.0
 40
1.0
 10
408.5389301861232
 20
202.7778929940146
 30
0.0
 10
408.6061094523231
 20
202.8166811689144
 30
0.0
 10
408.7334301400217
 20
202.9141937551945
 30
0.0
 10
408.8866849109813
 20
203.1079826868944
 30
0.0
 10
409.0011839352231
 20
203.3450014787946
 30
0.0
 10
409.0753042492607
 20
203.6194327790544
 30
0.0
 10
409.1083110793618
 20
203.9254896701145
 30
0.0
 10
409.0998712715031
 20
204.2568828909944
 30
0.0
 10
409.0503257140011
 20
204.6067995139945
 30
0.0
 10
408.9289399496632
 20
205.0961896172545
 30
0.0
 10
408.6831903243212
 20
205.7039976091544
 30
0.0
 10
408.2707625030034
 20
206.3748066205945
 30
0.0
 10
407.7695904548013
 20
206.9449684088945
 30
0.0
 10
407.3780524672433
 20
207.2462618195145
 30
0.0
 10
407.1763397261426
 20
207.3627180915545
 30
0.0
  0
SPLINE
  5
1F149
330
1F
100
AcDbEntity
  8
0
100
AcDbSpline
210
0.0
220
0.0
230
1.0
 70
     8
 71
     3
 72
    19
 73
    15
 74
     0
 42
0.0000000001
 43
0.0000000001
 40
0.0
 40
0.0
 40
0.0
 40
0.0
 40
0.0428408021
 40
0.0874513635
 40
0.1352658523
 40
0.1872095798
 40
0.2436916508
 40
0.3046870345
 40
0.3698262743
 40
0.4384764424
 40
0.5827575082000001
 40
0.7298449583
 40
0.8713685882
 40
1.0
 40
1.0
 40
1.0
 40
1.0
 10
408.5389301861232
 20
211.1062176505146
 30
0.0
 10
408.6061094523231
 20
211.1450058254145
 30
0.0
 10
408.7334301400217
 20
211.2425184116945
 30
0.0
 10
408.8866849109813
 20
211.4363073433945
 30
0.0
 10
409.0011839352231
 20
211.6733261327545
 30
0.0
 10
409.0753042492607
 20
211.9477574330146
 30
0.0
 10
409.1083110793618
 20
212.2538143240746
 30
0.0
 10
409.0998712715031
 20
212.5852075474944
 30
0.0
 10
409.0503257140011
 20
212.9351241679544
 30
0.0
 10
408.9289399496632
 20
213.4245142712144
 30
0.0
 10
408.6831903243212
 20
214.0323222656544
 30
0.0
 10
408.2707625030034
 20
214.7031312745545
 30
0.0
 10
407.7695904548013
 20
215.2732930628545
 30
0.0
 10
407.3780524672433
 20
215.5745864760145
 30
0.0
 10
407.1763397261426
 20
215.6910427455144
 30
0.0
  0
SPLINE
  5
1F14A
330
1F
100
AcDbEntity
  8
0
100
AcDbSpline
210
0.0
220
0.0
230
1.0
 70
     8
 71
     3
 72
    11
 73
     7
 74
     0
 42
0.0000000001
 43
0.0000000001
 40
0.0
 40
0.0
 40
0.0
 40
0.0
 40
0.2185192741
 40
0.454316649
 40
0.7140755673000001
 40
1.0
 40
1.0
 40
1.0
 40
1.0
 10
411.7402839307231
 20
201.5979376653346
 30
0.0
 10
411.786058550882
 20
201.6361046324346
 30
0.0
 10
411.8695030880813
 20
201.7302879746745
 30
0.0
 10
411.9572032632028
 20
201.9061316565144
 30
0.0
 10
412.0095544310434
 20
202.1141217332946
 30
0.0
 10
412.0200413442811
 20
202.2633168171744
 30
0.0
 10
412.0200413442811
 20
202.3412998362145
 30
0.0
  0
SPLINE
  5
1F14B
330
1F
100
AcDbEntity
  8
0
100
AcDbSpline
210
0.0
220
0.0
230
1.0
 70
     8
 71
     3
 72
    13
 73
     9
 74
     0
 42
0.0000000001
 43
0.0000000001
 40
0.0
 40
0.0
 40
0.0
 40
0.0
 40
0.2688994723
 40
0.5211905912
 40
0.6430632931
 40
0.7630527611
 40
0.8816892959
 40
1.0
 40
1.0
 40
1.0
 40
1.0
 10
401.3730138423428
 20
216.8136464083544
 30
0.0
 10
401.3730138423428
 20
217.0017916480146
 30
0.0
 10
401.4036470957814
 20
217.3676268802745
 30
0.0
 10
401.5374573971216
 20
217.8021676977546
 30
0.0
 10
401.7035570903228
 20
218.1065999997345
 30
0.0
 10
401.8557865013831
 20
218.3089492876945
 30
0.0
 10
402.0356977671609
 20
218.4836206172946
 30
0.0
 10
402.1726608511235
 20
218.5786275875545
 30
0.0
 10
402.2443508525213
 20
218.6200175835145
 30
0.0
  0
SPLINE
  5
1F14C
330
1F
100
AcDbEntity
  8
0
100
AcDbSpline
210
0.0
220
0.0
230
1.0
 70
     8
 71
     3
 72
    12
 73
     8
 74
     0
 42
0.0000000001
 43
0.0000000001
 40
0.0
 40
0.0
 40
0.0
 40
0.0
 40
0.1081617383
 40
0.2183631586
 40
0.4513653189
 40
0.7104188102000001
 40
1.0
 40
1.0
 40
1.0
 40
1.0
 10
424.8690526413818
 20
203.8052219528145
 30
0.0
 10
424.9182388320631
 20
203.8336194499946
 30
0.0
 10
425.0127944570214
 20
203.8996380428744
 30
0.0
 10
425.1824645698026
 20
204.0664737772744
 30
0.0
 10
425.3504464106216
 20
204.3404017790745
 30
0.0
 10
425.4673522829823
 20
204.7373989911745
 30
0.0
 10
425.4903909338816
 20
205.0265174858346
 30
0.0
 10
425.4903909338816
 20
205.1785752513145
 30
0.0
  0
SPLINE
  5
1F14D
330
1F
100
AcDbEntity
  8
0
100
AcDbSpline
210
0.0
220
0.0
230
1.0
 70
     8
 71
     3
 72
    12
 73
     8
 74
     0
 42
0.0000000001
 43
0.0000000001
 40
0.0
 40
0.0
 40
0.0
 40
0.0
 40
0.108162245
 40
0.2183640921
 40
0.4513666551
 40
0.7104197902000001
 40
1.0
 40
1.0
 40
1.0
 40
1.0
 10
423.8083967312034
 20
203.1928556337346
 30
0.0
 10
423.7592116200215
 20
203.1644587639345
 30
0.0
 10
423.6547622429423
 20
203.1155819071545
 30
0.0
 10
423.4254487036015
 20
203.0520625523545
 30
0.0
 10
423.1042376848613
 20
203.0435485536346
 30
0.0
 10
422.7019855175638
 20
203.1407976530145
 30
0.0
 10
422.4400886804212
 20
203.2653987220744
 30
0.0
 10
422.3084060024635
 20
203.3414240310346
 30
0.0
  0
SPLINE
  5
1F14E
330
1F
100
AcDbEntity
  8
0
100
AcDbSpline
210
0.0
220
0.0
230
1.0
 70
     8
 71
     3
 72
    13
 73
     9
 74
     0
 42
0.0000000001
 43
0.0000000001
 40
0.0
 40
0.0
 40
0.0
 40
0.0
 40
0.1183101431
 40
0.2369458892
 40
0.3569364893
 40
0.4788097578000003
 40
0.7311012576
 40
1.0
 40
1.0
 40
1.0
 40
1.0
 10
412.8154324357426
 20
200.3920492338344
 30
0.0
 10
412.7437444663431
 20
200.3506604138945
 30
0.0
 10
412.5929891696811
 20
200.2795517854744
 30
0.0
 10
412.3517690679232
 20
200.2110834895944
 30
0.0
 10
412.1004205586809
 20
200.1804209143946
 30
0.0
 10
411.7537312190411
 20
200.1887894879546
 30
0.0
 10
411.3105122375623
 20
200.2901698389146
 30
0.0
 10
410.9783796938009
 20
200.4465517257945
 30
0.0
 10
410.8154445129428
 20
200.5406202676544
 30
0.0
  0
SPLINE
  5
1F14F
330
1F
100
AcDbEntity
  8
0
100
AcDbSpline
210
0.0
220
0.0
230
1.0
 70
     8
 71
     3
 72
    15
 73
    11
 74
     0
 42
0.0000000001
 43
0.0000000001
 40
0.0
 40
0.0
 40
0.0
 40
0.0
 40
0.1186993949
 40
0.2433704577
 40
0.3723926983
 40
0.5034469163000001
 40
0.6340000866
 40
0.7615635014
 40
0.8840452339
 40
1.0
 40
1.0
 40
1.0
 40
1.0
 10
403.5650544696808
 20
204.7340419798545
 30
0.0
 10
403.4092875498218
 20
204.8370409407346
 30
0.0
 10
403.1057385049016
 20
205.0727969233745
 30
0.0
 10
402.6920981358416
 20
205.4895554269145
 30
0.0
 10
402.3173913439816
 20
205.9665734594144
 30
0.0
 10
401.9922449076611
 20
206.4894694341944
 30
0.0
 10
401.7263244235033
 20
207.0422988466944
 30
0.0
 10
401.5279150184421
 20
207.6086737820145
 30
0.0
 10
401.4037159526425
 20
208.1723665408344
 30
0.0
 10
401.3730138423428
 20
208.5478496151145
 30
0.0
 10
401.3730138423428
 20
208.7302724786145
 30
0.0
  0
SPLINE
  5
1F150
330
1F
100
AcDbEntity
  8
0
100
AcDbSpline
210
0.0
220
0.0
230
1.0
 70
     8
 71
     3
 72
    11
 73
     7
 74
     0
 42
0.0000000001
 43
0.0000000001
 40
0.0
 40
0.0
 40
0.0
 40
0.0
 40
0.2177438656
 40
0.4508812127000001
 40
0.7104583254000004
 40
1.0
 40
1.0
 40
1.0
 40
1.0
 10
401.3730418204415
 20
210.6082282959745
 30
0.0
 10
401.3730418534617
 20
210.6272685576144
 30
0.0
 10
401.3800338384625
 20
210.6669656867544
 30
0.0
 10
401.4101472072423
 20
210.7222853246546
 30
0.0
 10
401.4577431191626
 20
210.7722531368345
 30
0.0
 10
401.4975324782413
 20
210.7996892186144
 30
0.0
 10
401.5194589799817
 20
210.8123484160545
 30
0.0
  0
SPLINE
  5
1F151
330
1F
100
AcDbEntity
  8
0
100
AcDbSpline
210
0.0
220
0.0
230
1.0
 70
     8
 71
     3
 72
    11
 73
     7
 74
     0
 42
0.0000000001
 43
0.0000000001
 40
0.0
 40
0.0
 40
0.0
 40
0.0
 40
0.2177450702
 40
0.4508830301
 40
0.710459793
 40
1.0
 40
1.0
 40
1.0
 40
1.0
 10
405.3757066116418
 20
208.2973403167946
 30
0.0
 10
405.3921966574026
 20
208.3068608286146
 30
0.0
 10
405.423080730763
 20
208.3327655164546
 30
0.0
 10
405.455933870543
 20
208.3865060998546
 30
0.0
 10
405.4754103975025
 20
208.4527114462344
 30
0.0
 10
405.479276386722
 20
208.5008896556944
 30
0.0
 10
405.479276386722
 20
208.5262089446546
 30
0.0
  0
SPLINE
  5
1F152
330
1F
100
AcDbEntity
  8
0
100
AcDbSpline
210
0.0
220
0.0
230
1.0
 70
     8
 71
     3
 72
    11
 73
     7
 74
     0
 42
0.0000000001
 43
0.0000000001
 40
0.0
 40
0.0
 40
0.0
 40
0.0
 40
0.217743409
 40
0.4508805574000001
 40
0.7104578398000001
 40
1.0
 40
1.0
 40
1.0
 40
1.0
 10
401.3730418204415
 20
214.9356906113145
 30
0.0
 10
401.3730418534617
 20
214.9166501439345
 30
0.0
 10
401.3800339959431
 20
214.8769525550546
 30
0.0
 10
401.4101480124216
 20
214.8216323735945
 30
0.0
 10
401.4577448920817
 20
214.7716641854946
 30
0.0
 10
401.4975350106229
 20
214.7442279970344
 30
0.0
 10
401.519461923841
 20
214.7315687741945
 30
0.0
  0
SPLINE
  5
1F153
330
1F
100
AcDbEntity
  8
0
100
AcDbSpline
210
0.0
220
0.0
230
1.0
 70
     8
 71
     3
 72
    11
 73
     7
 74
     0
 42
0.0000000001
 43
0.0000000001
 40
0.0
 40
0.0
 40
0.0
 40
0.0
 40
0.2185192741
 40
0.454316649
 40
0.7140755673000001
 40
1.0
 40
1.0
 40
1.0
 40
1.0
 10
408.1340243309623
 20
207.8441278424746
 30
0.0
 10
408.1797989536623
 20
207.8822948095746
 30
0.0
 10
408.2632434908618
 20
207.9764781492744
 30
0.0
 10
408.3509436634424
 20
208.1523218311146
 30
0.0
 10
408.4032948312827
 20
208.3603119078945
 30
0.0
 10
408.4137817445207
 20
208.5095069943144
 30
0.0
 10
408.4137817445207
 20
208.5874900108144
 30
0.0
  0
LINE
  5
1F154
330
1F
100
AcDbEntity
  8
0
100
AcDbLine
 10
411.8710942507627
 20
210.0759666782546
 30
0.0
 11
411.924617801322
 21
210.1745136668345
 31
0.0
  0
SPLINE
  5
1F155
330
1F
100
AcDbEntity
  8
0
100
AcDbSpline
210
0.0
220
0.0
230
1.0
 70
     8
 71
     3
 72
     9
 73
     5
 74
     0
 42
0.0000000001
 43
0.0000000001
 40
0.0
 40
0.0
 40
0.0
 40
0.0
 40
0.2300177092
 40
1.0
 40
1.0
 40
1.0
 40
1.0
 10
411.924617801322
 20
210.1745136668345
 30
0.0
 10
411.9407479824208
 20
210.2098389251144
 30
0.0
 10
412.0003920211209
 20
210.3682243639944
 30
0.0
 10
412.0200413442811
 20
210.5396290021344
 30
0.0
 10
412.0200413442811
 20
210.6696244901745
 30
0.0
  0
SPLINE
  5
1F156
330
1F
100
AcDbEntity
  8
0
100
AcDbSpline
210
0.0
220
0.0
230
1.0
 70
     8
 71
     3
 72
    17
 73
    13
 74
     0
 42
0.0000000001
 43
0.0000000001
 40
0.0
 40
0.0
 40
0.0
 40
0.0
 40
0.126593158
 40
0.2656212363
 40
0.4105597582
 40
0.5538509969
 40
0.6882167725000004
 40
0.8079630771999999
 40
0.8615518122999999
 40
0.9109675789
 40
0.9567750316999999
 40
1.0
 40
1.0
 40
1.0
 40
1.0
 10
412.0200413442811
 20
210.6696244901745
 30
0.0
 10
412.0200413442811
 20
210.8125486798146
 30
0.0
 10
411.9818133562223
 20
211.1127807742945
 30
0.0
 10
411.8378909618216
 20
211.5555606253345
 30
0.0
 10
411.6148961931831
 20
211.9856904889746
 30
0.0
 10
411.3293641150208
 20
212.3706655026146
 30
0.0
 10
411.0028289159213
 20
212.6817070522345
 30
0.0
 10
410.7046669341423
 20
212.8672463636544
 30
0.0
 10
410.4672132942408
 20
212.9527287301545
 30
0.0
 10
410.3011331590431
 20
212.9834711832745
 30
0.0
 10
410.1437923916809
 20
212.9822326792745
 30
0.0
 10
410.0448498184205
 20
212.9591755574945
 30
0.0
 10
409.9990427065824
 20
212.9423451593544
 30
0.0
  0
SPLINE
  5
1F157
330
1F
100
AcDbEntity
  8
0
100
AcDbSpline
210
0.0
220
0.0
230
1.0
 70
     8
 71
     3
 72
    15
 73
    11
 74
     0
 42
0.0000000001
 43
0.0000000001
 40
0.0
 40
0.0
 40
0.0
 40
0.0
 40
0.1472851688
 40
0.2952269374
 40
0.4392916679
 40
0.575404995
 40
0.7002737595000001
 40
0.8120221201000001
 40
0.9108835793
 40
1.0
 40
1.0
 40
1.0
 40
1.0
 10
411.8432639127211
 20
203.1793453559544
 30
0.0
 10
411.7971768090633
 20
203.2945114908744
 30
0.0
 10
411.6897383752218
 20
203.5195961105545
 30
0.0
 10
411.490360790742
 20
203.8322996558345
 30
0.0
 10
411.2594678387607
 20
204.1105666964546
 30
0.0
 10
411.0072949699829
 20
204.3420614734944
 30
0.0
 10
410.7446087999016
 20
204.5166845684946
 30
0.0
 10
410.4819612149608
 20
204.6265868810745
 30
0.0
 10
410.2295691289413
 20
204.6659168405144
 30
0.0
 10
410.0696187909821
 20
204.6399329554744
 30
0.0
 10
409.9991653835021
 20
204.6140570382146
 30
0.0
  0
SPLINE
  5
1F158
330
1F
100
AcDbEntity
  8
0
100
AcDbSpline
210
0.0
220
0.0
230
1.0
 70
     8
 71
     3
 72
     9
 73
     5
 74
     0
 42
0.0000000001
 43
0.0000000001
 40
0.0
 40
0.0
 40
0.0
 40
0.0
 40
0.4780370693
 40
1.0
 40
1.0
 40
1.0
 40
1.0
 10
412.0200413442811
 20
202.3412998362145
 30
0.0
 10
412.0200413442811
 20
202.4660609963945
 30
0.0
 10
411.9908992918213
 20
202.7272891988544
 30
0.0
 10
411.9182115123829
 20
202.9791257055945
 30
0.0
 10
411.8710942507627
 20
203.1069430445745
 30
0.0
  0
SPLINE
  5
1F159
330
1F
100
AcDbEntity
  8
0
100
AcDbSpline
210
0.0
220
0.0
230
1.0
 70
     8
 71
     3
 72
    11
 73
     7
 74
     0
 42
0.0000000001
 43
0.0000000001
 40
0.0
 40
0.0
 40
0.0
 40
0.0
 40
0.2372539654
 40
0.5000012590999999
 40
0.7627478695000001
 40
1.0
 40
1.0
 40
1.0
 40
1.0
 10
405.479276386722
 20
212.0371693395345
 30
0.0
 10
405.479276386722
 20
212.0951322817745
 30
0.0
 10
405.4575442534027
 20
212.2173687937144
 30
0.0
 10
405.3817413747827
 20
212.3891069414745
 30
0.0
 10
405.2709127572232
 20
212.5406223407544
 30
0.0
 10
405.1759187993807
 20
212.6205601691944
 30
0.0
 10
405.1257215236017
 20
212.6495409240346
 30
0.0
  0
SPLINE
  5
1F15A
330
1F
100
AcDbEntity
  8
0
100
AcDbSpline
210
0.0
220
0.0
230
1.0
 70
     8
 71
     3
 72
    12
 73
     8
 74
     0
 42
0.0000000001
 43
0.0000000001
 40
0.0
 40
0.0
 40
0.0
 40
0.0
 40
0.2895713281
 40
0.5486413213
 40
0.7816354968000001
 40
0.8918380921
 40
1.0
 40
1.0
 40
1.0
 40
1.0
 10
407.1763397261426
 20
215.6910427455144
 30
0.0
 10
407.0567220253222
 20
215.7601024956345
 30
0.0
 10
406.8188076218014
 20
215.8732824623144
 30
0.0
 10
406.4533961021822
 20
215.9616372792545
 30
0.0
 10
406.161606960082
 20
215.9538487553344
 30
0.0
 10
405.9532952253213
 20
215.8961612608544
 30
0.0
 10
405.8584284859234
 20
215.8517266989745
 30
0.0
 10
405.8137492661626
 20
215.8259296690344
 30
0.0
  0
SPLINE
  5
1F15B
330
1F
100
AcDbEntity
  8
0
100
AcDbSpline
210
0.0
220
0.0
230
1.0
 70
     8
 71
     3
 72
    12
 73
     8
 74
     0
 42
0.0000000001
 43
0.0000000001
 40
0.0
 40
0.0
 40
0.0
 40
0.0
 40
0.2895713281
 40
0.5486413213
 40
0.7816354968000001
 40
0.8918380921
 40
1.0
 40
1.0
 40
1.0
 40
1.0
 10
407.1763397261426
 20
207.3627180915545
 30
0.0
 10
407.0567220253222
 20
207.4317778416745
 30
0.0
 10
406.8188076218014
 20
207.5449578083545
 30
0.0
 10
406.4533961021822
 20
207.6333126252944
 30
0.0
 10
406.161606960082
 20
207.6255241013745
 30
0.0
 10
405.9532952253213
 20
207.5678366068945
 30
0.0
 10
405.8584284859234
 20
207.5234020424745
 30
0.0
 10
405.8137492661626
 20
207.4976050125345
 30
0.0
  0
SPLINE
  5
1F15C
330
1F
100
AcDbEntity
  8
0
100
AcDbSpline
210
0.0
220
0.0
230
1.0
 70
     8
 71
     3
 72
    17
 73
    13
 74
     0
 42
0.0000000001
 43
0.0000000001
 40
0.0
 40
0.0
 40
0.0
 40
0.0
 40
0.126593158
 40
0.2656212363
 40
0.4105597582
 40
0.5538509969
 40
0.6882167725000004
 40
0.8079630771999999
 40
0.8615518122999999
 40
0.9109675789
 40
0.9567750316999999
 40
1.0
 40
1.0
 40
1.0
 40
1.0
 10
408.4137817445207
 20
208.5874900108144
 30
0.0
 10
408.4137817445207
 20
208.7304142004545
 30
0.0
 10
408.3755537590032
 20
209.0306462949345
 30
0.0
 10
408.2316313646026
 20
209.4734261459745
 30
0.0
 10
408.0086365959608
 20
209.9035560096146
 30
0.0
 10
407.7231045178012
 20
210.2885310232545
 30
0.0
 10
407.3965693161608
 20
210.5995725728744
 30
0.0
 10
407.0984073369229
 20
210.7851118868345
 30
0.0
 10
406.8609536944832
 20
210.8705942507945
 30
0.0
 10
406.6948735618209
 20
210.9013367039145
 30
0.0
 10
406.5375327919232
 20
210.9000981999145
 30
0.0
 10
406.4385902212014
 20
210.8770410781345
 30
0.0
 10
406.3927831093629
 20
210.8602106799945
 30
0.0
  0
SPLINE
  5
1F15D
330
1F
100
AcDbEntity
  8
0
100
AcDbSpline
210
0.0
220
0.0
230
1.0
 70
     8
 71
     3
 72
    17
 73
    13
 74
     0
 42
0.0000000001
 43
0.0000000001
 40
0.0
 40
0.0
 40
0.0
 40
0.0
 40
0.126593158
 40
0.2656212363
 40
0.4105597582
 40
0.5538509969
 40
0.6882167725000004
 40
0.8079630771999999
 40
0.8615518122999999
 40
0.9109675789
 40
0.9567750316999999
 40
1.0
 40
1.0
 40
1.0
 40
1.0
 10
404.8075221473014
 20
206.5053555314545
 30
0.0
 10
404.8075221473014
 20
206.6482797210945
 30
0.0
 10
404.7692941592426
 20
206.9485118155745
 30
0.0
 10
404.6253717648421
 20
207.3912916666146
 30
0.0
 10
404.4023769962031
 20
207.8214215302546
 30
0.0
 10
404.116844918041
 20
208.2063965438946
 30
0.0
 10
403.7903097189412
 20
208.5174380935145
 30
0.0
 10
403.4921477397035
 20
208.7029774074744
 30
0.0
 10
403.2546940972609
 20
208.7884597714345
 30
0.0
 10
403.0886139646018
 20
208.8192022245545
 30
0.0
 10
402.9312731947011
 20
208.8179637205545
 30
0.0
 10
402.8323306214406
 20
208.7949065987745
 30
0.0
 10
402.7865235121408
 20
208.7780762006344
 30
0.0
  0
SPLINE
  5
1F15E
330
1F
100
AcDbEntity
  8
0
100
AcDbSpline
210
0.0
220
0.0
230
1.0
 70
     8
 71
     3
 72
    17
 73
    13
 74
     0
 42
0.0000000001
 43
0.0000000001
 40
0.0
 40
0.0
 40
0.0
 40
0.0
 40
0.126593158
 40
0.2656212363
 40
0.4105597582
 40
0.5538509969
 40
0.6882167725000004
 40
0.8079630771999999
 40
0.8615518122999999
 40
0.9109675789
 40
0.9567750316999999
 40
1.0
 40
1.0
 40
1.0
 40
1.0
 10
404.8075221473014
 20
214.8336801854144
 30
0.0
 10
404.8075221473014
 20
214.9766043775945
 30
0.0
 10
404.7692941592426
 20
215.2768364720745
 30
0.0
 10
404.6253717648421
 20
215.7196163205745
 30
0.0
 10
404.4023769962031
 20
216.1497461842145
 30
0.0
 10
404.116844918041
 20
216.5347212003946
 30
0.0
 10
403.7903097189412
 20
216.8457627474746
 30
0.0
 10
403.4921477397035
 20
217.0313020614344
 30
0.0
 10
403.2546940972609
 20
217.1167844253944
 30
0.0
 10
403.0886139646018
 20
217.1475268810545
 30
0.0
 10
402.9312731947011
 20
217.1462883745145
 30
0.0
 10
402.8323306214406
 20
217.1232312527346
 30
0.0
 10
402.7865235121408
 20
217.1064008545946
 30
0.0
  0
SPLINE
  5
1F15F
330
1F
100
AcDbEntity
  8
0
100
AcDbSpline
210
0.0
220
0.0
230
1.0
 70
     8
 71
     3
 72
    12
 73
     8
 74
     0
 42
0.0000000001
 43
0.0000000001
 40
0.0
 40
0.0
 40
0.0
 40
0.0
 40
0.2895713281
 40
0.5486413213
 40
0.7816354968000001
 40
0.8918380921
 40
1.0
 40
1.0
 40
1.0
 40
1.0
 10
410.7825993233623
 20
209.4448525709144
 30
0.0
 10
410.6629816225416
 20
209.5139123210345
 30
0.0
 10
410.4250672215616
 20
209.6270922877145
 30
0.0
 10
410.0596556994018
 20
209.7154471046544
 30
0.0
 10
409.7678665573016
 20
209.7076585807345
 30
0.0
 10
409.5595548225408
 20
209.6499710862545
 30
0.0
 10
409.464688085681
 20
209.6055365218346
 30
0.0
 10
409.420008863382
 20
209.5797394918944
 30
0.0
  0
SPLINE
  5
1F160
330
1F
100
AcDbEntity
  8
0
100
AcDbSpline
210
0.0
220
0.0
230
1.0
 70
     8
 71
     3
 72
    12
 73
     8
 74
     0
 42
0.0000000001
 43
0.0000000001
 40
0.0
 40
0.0
 40
0.0
 40
0.0
 40
0.1081617383
 40
0.2183631586
 40
0.4513653189
 40
0.7104188102000001
 40
1.0
 40
1.0
 40
1.0
 40
1.0
 10
435.7937919145421
 20
214.2767118124344
 30
0.0
 10
435.8429781026827
 20
214.3051093070744
 30
0.0
 10
435.9375337276408
 20
214.3711278999545
 30
0.0
 10
436.1072038404219
 20
214.5379636343545
 30
0.0
 10
436.2751856812413
 20
214.8118916361545
 30
0.0
 10
436.3920915536016
 20
215.2088888482545
 30
0.0
 10
436.4151302045009
 20
215.4980073429144
 30
0.0
 10
436.4151302045009
 20
215.6500651083945
 30
0.0
  0
SPLINE
  5
1F161
330
1F
100
AcDbEntity
  8
0
100
AcDbSpline
210
0.0
220
0.0
230
1.0
 70
     8
 71
     3
 72
    12
 73
     8
 74
     0
 42
0.0000000001
 43
0.0000000001
 40
0.0
 40
0.0
 40
0.0
 40
0.0
 40
0.2895812019
 40
0.5486347013000003
 40
0.7816368512000002
 40
0.8918382665999999
 40
1.0
 40
1.0
 40
1.0
 40
1.0
 10
409.5804309504628
 20
225.3868011212944
 30
0.0
 10
409.5804309504628
 20
225.5388589096344
 30
0.0
 10
409.6034696089827
 20
225.8279774474744
 30
0.0
 10
409.7203755118222
 20
226.2249747052945
 30
0.0
 10
409.8883574085231
 20
226.4989027147144
 30
0.0
 10
410.0580275543215
 20
226.6657384389545
 30
0.0
 10
410.1525832021411
 20
226.7317570140544
 30
0.0
 10
410.2017693953611
 20
226.7601545086945
 30
0.0
  0
SPLINE
  5
1F162
330
1F
100
AcDbEntity
  8
0
100
AcDbSpline
210
0.0
220
0.0
230
1.0
 70
     8
 71
     3
 72
    11
 73
     7
 74
     0
 42
0.0000000001
 43
0.0000000001
 40
0.0
 40
0.0
 40
0.0
 40
0.0
 40
0.2543126914
 40
0.5315523589
 40
0.7897823274000002
 40
1.0
 40
1.0
 40
1.0
 40
1.0
 10
413.5380930275018
 20
210.2002848929145
 30
0.0
 10
413.4840443243226
 20
210.1690800454945
 30
0.0
 10
413.3646306388424
 20
210.1150900798145
 30
0.0
 10
413.1794653729021
 20
210.0565943624145
 30
0.0
 10
412.9995354990833
 20
210.0215531269344
 30
0.0
 10
412.8840642492023
 20
210.0144195216945
 30
0.0
 10
412.8325704380415
 20
210.0175482403545
 30
0.0
  0
LINE
  5
1F163
330
1F
100
AcDbEntity
  8
0
100
AcDbLine
 10
411.8871741424031
 20
210.0749892913345
 30
0.0
 11
411.8787328842012
 21
210.0674209625545
 31
0.0
  0
LINE
  5
1F164
330
1F
100
AcDbEntity
  8
0
100
AcDbLine
 10
411.8787328842012
 20
210.0674209625545
 30
0.0
 11
411.8432639127211
 21
210.0357008558145
 31
0.0
  0
SPLINE
  5
1F165
330
1F
100
AcDbEntity
  8
0
100
AcDbSpline
210
0.0
220
0.0
230
1.0
 70
     8
 71
     3
 72
    12
 73
     8
 74
     0
 42
0.0000000001
 43
0.0000000001
 40
0.0
 40
0.0
 40
0.0
 40
0.0
 40
0.1098570408
 40
0.2199810437
 40
0.4502431311
 40
0.7078300081000001
 40
1.0
 40
1.0
 40
1.0
 40
1.0
 10
406.3927831093629
 20
210.8602106799945
 30
0.0
 10
406.3577582772016
 20
210.8473418944545
 30
0.0
 10
406.2898625963835
 20
210.8148636104145
 30
0.0
 10
406.1664029093433
 20
210.7231915483945
 30
0.0
 10
406.0417840450423
 20
210.5569883425744
 30
0.0
 10
405.9555664704628
 20
210.3031771687144
 30
0.0
 10
405.9388977077622
 20
210.1155713488545
 30
0.0
 10
405.9388977077622
 20
210.0163326522345
 30
0.0
  0
SPLINE
  5
1F166
330
1F
100
AcDbEntity
  8
0
100
AcDbSpline
210
0.0
220
0.0
230
1.0
 70
     8
 71
     3
 72
    13
 73
     9
 74
     0
 42
0.0000000001
 43
0.0000000001
 40
0.0
 40
0.0
 40
0.0
 40
0.0
 40
0.1142471903
 40
0.2375450212
 40
0.5000010844000001
 40
0.7624565541
 40
0.8857536918
 40
1.0
 40
1.0
 40
1.0
 40
1.0
 10
407.2293635342409
 20
210.5776691292545
 30
0.0
 10
407.2293635342409
 20
210.4924353322346
 30
0.0
 10
407.2449732160023
 20
210.3150362940946
 30
0.0
 10
407.3297572399821
 20
209.9508562985544
 30
0.0
 10
407.5266957818428
 20
209.5041734809745
 30
0.0
 10
407.8150666910032
 20
209.1102799659945
 30
0.0
 10
408.0880642577808
 20
208.8547676779344
 30
0.0
 10
408.2338913854822
 20
208.7525516364944
 30
0.0
 10
408.3077058657408
 20
208.7099357908146
 30
0.0
  0
LINE
  5
1F167
330
1F
100
AcDbEntity
  8
0
100
AcDbLine
 10
408.3077058657408
 20
208.7099357908146
 30
0.0
 11
408.4071379249428
 21
208.6578516811146
 31
0.0
  0
SPLINE
  5
1F168
330
1F
100
AcDbEntity
  8
0
100
AcDbSpline
210
0.0
220
0.0
230
1.0
 70
     8
 71
     3
 72
    15
 73
    11
 74
     0
 42
0.0000000001
 43
0.0000000001
 40
0.0
 40
0.0
 40
0.0
 40
0.0
 40
0.1449005811
 40
0.2745258836
 40
0.3911156808
 40
0.5000019983000003
 40
0.6088879544
 40
0.7254767916000004
 40
0.8551007929999999
 40
1.0
 40
1.0
 40
1.0
 40
1.0
 10
401.519461923841
 20
216.6095243324745
 30
0.0
 10
401.519461923841
 20
216.7615805485545
 30
0.0
 10
401.5424458529825
 20
217.0506701405545
 30
0.0
 10
401.6595649177029
 20
217.4477677258345
 30
0.0
 10
401.8568186888033
 20
217.7702184779345
 30
0.0
 10
402.1306038537028
 20
218.0005074712544
 30
0.0
 10
402.4669286115813
 20
218.1224760411345
 30
0.0
 10
402.8448032533423
 20
218.1320851583144
 30
0.0
 10
403.2472572719016
 20
218.0349714663345
 30
0.0
 10
403.5091070606211
 20
217.9103354163945
 30
0.0
 10
403.6407911000229
 20
217.8343093200346
 30
0.0
  0
SPLINE
  5
1F169
330
1F
100
AcDbEntity
  8
0
100
AcDbSpline
210
0.0
220
0.0
230
1.0
 70
     8
 71
     3
 72
    11
 73
     7
 74
     0
 42
0.0000000001
 43
0.0000000001
 40
0.0
 40
0.0
 40
0.0
 40
0.0
 40
0.2283001609
 40
0.4746518960000001
 40
0.7339608139
 40
1.0
 40
1.0
 40
1.0
 40
1.0
 10
410.7118883522629
 20
213.7519017749346
 30
0.0
 10
410.8573234919221
 20
213.6679366571145
 30
0.0
 10
411.1445714620018
 20
213.4665274307745
 30
0.0
 10
411.5397506157627
 20
213.0965897302144
 30
0.0
 10
411.9038076118012
 20
212.6593449277945
 30
0.0
 10
412.1158224811416
 20
212.3350981467746
 30
0.0
 10
412.2135607083214
 20
212.1655603832345
 30
0.0
  0
SPLINE
  5
1F16A
330
1F
100
AcDbEntity
  8
0
100
AcDbSpline
210
0.0
220
0.0
230
1.0
 70
     8
 71
     3
 72
    11
 73
     7
 74
     0
 42
0.0000000001
 43
0.0000000001
 40
0.0
 40
0.0
 40
0.0
 40
0.0
 40
0.2670742619
 40
0.5269275755000003
 40
0.7729955488
 40
1.0
 40
1.0
 40
1.0
 40
1.0
 10
412.2135607083214
 20
212.1655603832345
 30
0.0
 10
412.314049280523
 20
211.9912518392945
 30
0.0
 10
412.4926266983213
 20
211.6355427894746
 30
0.0
 10
412.6909275488607
 20
211.0864777306345
 30
0.0
 10
412.8107860518403
 20
210.5458900665744
 30
0.0
 10
412.8362742406431
 20
210.1885215560145
 30
0.0
 10
412.8325704380415
 20
210.0175482403545
 30
0.0
  0
SPLINE
  5
1F16B
330
1F
100
AcDbEntity
  8
0
100
AcDbSpline
210
0.0
220
0.0
230
1.0
 70
     8
 71
     3
 72
    18
 73
    14
 74
     0
 42
0.0000000001
 43
0.0000000001
 40
0.0
 40
0.0
 40
0.0
 40
0.0
 40
0.1306361453
 40
0.2745810302
 40
0.4236805629
 40
0.5687101996
 40
0.7012642689000002
 40
0.7610800931
 40
0.8160678298
 40
0.8664190123
 40
0.9128754332999999
 40
0.9567793048
 40
1.0
 40
1.0
 40
1.0
 40
1.0
 10
409.5451573049817
 20
212.0984671315945
 30
0.0
 10
409.5451573049817
 20
211.9422597274745
 30
0.0
 10
409.5907550370018
 20
211.6135573800545
 30
0.0
 10
409.7594706254026
 20
211.1331969463145
 30
0.0
 10
410.0180664099609
 20
210.6744537667745
 30
0.0
 10
410.3436768204629
 20
210.2783453159146
 30
0.0
 10
410.6583877556828
 20
210.0198501102745
 30
0.0
 10
410.9195912845811
 20
209.8792356035945
 30
0.0
 10
411.1062912363029
 20
209.8122276832545
 30
0.0
 10
411.2863962482026
 20
209.7819113151345
 30
0.0
 10
411.4559823606416
 20
209.7896535069146
 30
0.0
 10
411.6105678223621
 20
209.8363050925546
 30
0.0
 10
411.6999033307626
 20
209.8927120485745
 30
0.0
 10
411.7396365888635
 20
209.9257602400344
 30
0.0
  0
SPLINE
  5
1F16C
330
1F
100
AcDbEntity
  8
0
100
AcDbSpline
210
0.0
220
0.0
230
1.0
 70
     8
 71
     3
 72
    19
 73
    15
 74
     0
 42
0.0000000001
 43
0.0000000001
 40
0.0
 40
0.0
 40
0.0
 40
0.0
 40
0.0428408021
 40
0.0874513635
 40
0.1352658523
 40
0.1872095798
 40
0.2436916508
 40
0.3046870345
 40
0.3698262743
 40
0.4384764424
 40
0.5827575082000001
 40
0.7298449583
 40
0.8713685882
 40
1.0
 40
1.0
 40
1.0
 40
1.0
 10
409.420008863382
 20
209.5797394918944
 30
0.0
 10
409.3528295971821
 20
209.5409513169946
 30
0.0
 10
409.2255089120219
 20
209.4434387307146
 30
0.0
 10
409.0722541385209
 20
209.2496497990144
 30
0.0
 10
408.9577551142821
 20
209.0126310096545
 30
0.0
 10
408.8836348002415
 20
208.7381997093944
 30
0.0
 10
408.8506279726816
 20
208.4321428183344
 30
0.0
 10
408.8590677805432
 20
208.1007495949144
 30
0.0
 10
408.9086133355013
 20
207.7508329744544
 30
0.0
 10
409.0299991023835
 20
207.2614428686545
 30
0.0
 10
409.2757487251811
 20
206.6536348767546
 30
0.0
 10
409.6881765465018
 20
205.9828258678546
 30
0.0
 10
410.1893485972421
 20
205.4126640795546
 30
0.0
 10
410.5808865848032
 20
205.1113706663946
 30
0.0
 10
410.7825993233623
 20
204.9949143968945
 30
0.0
  0
LINE
  5
1F16D
330
1F
100
AcDbEntity
  8
0
100
AcDbLine
 10
410.8403854333428
 20
204.4454410025744
 30
0.0
 11
410.8356231340017
 21
204.3314789521145
 31
0.0
  0
SPLINE
  5
1F16E
330
1F
100
AcDbEntity
  8
0
100
AcDbSpline
210
0.0
220
0.0
230
1.0
 70
     8
 71
     3
 72
    18
 73
    14
 74
     0
 42
0.0000000001
 43
0.0000000001
 40
0.0
 40
0.0
 40
0.0
 40
0.0
 40
0.1306551799
 40
0.2746253728
 40
0.4237392621
 40
0.568778355
 40
0.7013284912000001
 40
0.7611329723
 40
0.8161089393000001
 40
0.8664481737
 40
0.9128945656
 40
0.9567988463
 40
1.0
 40
1.0
 40
1.0
 40
1.0
 10
409.5451573049817
 20
203.7701424776344
 30
0.0
 10
409.5451573049817
 20
203.6138769506945
 30
0.0
 10
409.5907919914623
 20
203.2850479690345
 30
0.0
 10
409.7596076482413
 20
202.8045248355945
 30
0.0
 10
410.0183682203835
 20
202.3456650395746
 30
0.0
 10
410.3441646376229
 20
201.9495311531545
 30
0.0
 10
410.6590114323621
 20
201.6910526657946
 30
0.0
 10
410.9203366323413
 20
201.5505842395945
 30
0.0
 10
411.1070808156216
 20
201.4836976702945
 30
0.0
 10
411.2872125762625
 20
201.4534978475345
 30
0.0
 10
411.4568058362626
 20
201.4614845955945
 30
0.0
 10
411.611323726361
 20
201.5083480959745
 30
0.0
 10
411.7005996844623
 20
201.5648488643545
 30
0.0
 10
411.7402839307231
 20
201.5979376653346
 30
0.0
  0
SPLINE
  5
1F16F
330
1F
100
AcDbEntity
  8
0
100
AcDbSpline
210
0.0
220
0.0
230
1.0
 70
     8
 71
     3
 72
    17
 73
    13
 74
     0
 42
0.0000000001
 43
0.0000000001
 40
0.0
 40
0.0
 40
0.0
 40
0.0
 40
0.1460957359
 40
0.2766712586
 40
0.3937217668
 40
0.4488661281000001
 40
0.5028379304000003
 40
0.5566777047000003
 40
0.6114390215
 40
0.7271097371
 40
0.8558385376
 40
1.0
 40
1.0
 40
1.0
 40
1.0
 10
412.8325704380415
 20
202.0551695270945
 30
0.0
 10
412.8358746707029
 20
201.8988256284545
 30
0.0
 10
412.8186866939012
 20
201.6012101352945
 30
0.0
 10
412.708439990341
 20
201.1908883295745
 30
0.0
 10
412.5435713564028
 20
200.9058687802345
 30
0.0
 10
412.3744444708822
 20
200.7312191676346
 30
0.0
 10
412.2330475984811
 20
200.6275950365545
 30
0.0
 10
412.0761539092206
 20
200.5503004286345
 30
0.0
 10
411.8449141862833
 20
200.4820271031544
 30
0.0
 10
411.5195572982623
 20
200.4697675899545
 30
0.0
 10
411.111277045481
 20
200.5662947197345
 30
0.0
 10
410.8455240946423
 20
200.6923604569345
 30
0.0
 10
410.7118883522629
 20
200.7695133430145
 30
0.0
  0
SPLINE
  5
1F170
330
1F
100
AcDbEntity
  8
0
100
AcDbSpline
210
0.0
220
0.0
230
1.0
 70
     8
 71
     3
 72
    15
 73
    11
 74
     0
 42
0.0000000001
 43
0.0000000001
 40
0.0
 40
0.0
 40
0.0
 40
0.0
 40
0.1141546703
 40
0.2373261017
 40
0.3669753162
 40
0.4999989361
 40
0.6330227034
 40
0.7626723508
 40
0.8858444606999999
 40
1.0
 40
1.0
 40
1.0
 40
1.0
 10
403.6407911000229
 20
204.8519208881144
 30
0.0
 10
403.4955691374825
 20
204.9357629302344
 30
0.0
 10
403.2087296883021
 20
205.1368322563146
 30
0.0
 10
402.8140539879419
 20
205.5060783707546
 30
0.0
 10
402.4503390079813
 20
205.9425553413344
 30
0.0
 10
402.1312842612828
 20
206.4298895127144
 30
0.0
 10
401.8687651241434
 20
206.9498654399946
 30
0.0
 10
401.6726190546615
 20
207.4830910359744
 30
0.0
 10
401.5501763988636
 20
208.0095153120545
 30
0.0
 10
401.519461923841
 20
208.3584621960745
 30
0.0
 10
401.519461923841
 20
208.5261504027344
 30
0.0
  0
SPLINE
  5
1F171
330
1F
100
AcDbEntity
  8
0
100
AcDbSpline
210
0.0
220
0.0
230
1.0
 70
     8
 71
     3
 72
    11
 73
     7
 74
     0
 42
0.0000000001
 43
0.0000000001
 40
0.0
 40
0.0
 40
0.0
 40
0.0
 40
0.2895392211
 40
0.5491158134000002
 40
0.7822541151000002
 40
1.0
 40
1.0
 40
1.0
 40
1.0
 10
405.1257215236017
 20
208.3220781133945
 30
0.0
 10
405.1476481726608
 20
208.3094190429545
 30
0.0
 10
405.1913037419422
 20
208.2886789980744
 30
0.0
 10
405.2583758988808
 20
208.2724444712346
 30
0.0
 10
405.3213416581427
 20
208.2740262460745
 30
0.0
 10
405.3592169189419
 20
208.2878200056346
 30
0.0
 10
405.3757066116418
 20
208.2973403167946
 30
0.0
  0
SPLINE
  5
1F172
330
1F
100
AcDbEntity
  8
0
100
AcDbSpline
210
0.0
220
0.0
230
1.0
 70
     8
 71
     3
 72
    19
 73
    15
 74
     0
 42
0.0000000001
 43
0.0000000001
 40
0.0
 40
0.0
 40
0.0
 40
0.0
 40
0.0428408021
 40
0.0874513635
 40
0.1352658523
 40
0.1872095798
 40
0.2436916508
 40
0.3046870345
 40
0.3698262743
 40
0.4384764424
 40
0.5827575082000001
 40
0.7298449583
 40
0.8713685882
 40
1.0
 40
1.0
 40
1.0
 40
1.0
 10
405.8137492661626
 20
207.4976050125345
 30
0.0
 10
405.7465699999628
 20
207.4588168376346
 30
0.0
 10
405.6192493122613
 20
207.3613042513545
 30
0.0
 10
405.4659945413016
 20
207.1675153196544
 30
0.0
 10
405.3514955170628
 20
206.9304965302945
 30
0.0
 10
405.2773752030223
 20
206.6560652300344
 30
0.0
 10
405.2443683729211
 20
206.3500083389744
 30
0.0
 10
405.2528081807825
 20
206.0186151155544
 30
0.0
 10
405.3023537357407
 20
205.6686984950944
 30
0.0
 10
405.423739502623
 20
205.1793083918344
 30
0.0
 10
405.6694891279616
 20
204.5715003973946
 30
0.0
 10
406.0819169492821
 20
203.9006913884945
 30
0.0
 10
406.5830889974818
 20
203.3305296001945
 30
0.0
 10
406.9746269850427
 20
203.0292361870346
 30
0.0
 10
407.1763397261426
 20
202.9127799175344
 30
0.0
  0
SPLINE
  5
1F173
330
1F
100
AcDbEntity
  8
0
100
AcDbSpline
210
0.0
220
0.0
230
1.0
 70
     8
 71
     3
 72
    12
 73
     8
 74
     0
 42
0.0000000001
 43
0.0000000001
 40
0.0
 40
0.0
 40
0.0
 40
0.0
 40
0.2895713281
 40
0.5486413213
 40
0.7816354968000001
 40
0.8918380921
 40
1.0
 40
1.0
 40
1.0
 40
1.0
 10
407.1763397261426
 20
211.2411045714945
 30
0.0
 10
407.2959574269608
 20
211.1720448213745
 30
0.0
 10
407.5338718304816
 20
211.0588648546945
 30
0.0
 10
407.8992833501006
 20
210.9705100377546
 30
0.0
 10
408.1910724922009
 20
210.9782985616746
 30
0.0
 10
408.3993842269617
 20
211.0359860561545
 30
0.0
 10
408.4942509663624
 20
211.0804206205745
 30
0.0
 10
408.5389301861232
 20
211.1062176505146
 30
0.0
  0
SPLINE
  5
1F174
330
1F
100
AcDbEntity
  8
0
100
AcDbSpline
210
0.0
220
0.0
230
1.0
 70
     8
 71
     3
 72
    12
 73
     8
 74
     0
 42
0.0000000001
 43
0.0000000001
 40
0.0
 40
0.0
 40
0.0
 40
0.0
 40
0.108162631
 40
0.2183648617
 40
0.4513682726
 40
0.7104212619000001
 40
1.0
 40
1.0
 40
1.0
 40
1.0
 10
402.2443508525213
 20
218.6200175835145
 30
0.0
 10
402.3017338035416
 20
218.6531474410545
 30
0.0
 10
402.4235922314033
 20
218.7101704613746
 30
0.0
 10
402.6911263851823
 20
218.7842761450145
 30
0.0
 10
403.0658741523216
 20
218.7942066458545
 30
0.0
 10
403.5351681667407
 20
218.6807471140745
 30
0.0
 10
403.8407137075409
 20
218.5353785249545
 30
0.0
 10
403.9943430192811
 20
218.4466826063345
 30
0.0
  0
SPLINE
  5
1F175
330
1F
100
AcDbEntity
  8
0
100
AcDbSpline
210
0.0
220
0.0
230
1.0
 70
     8
 71
     3
 72
    12
 73
     8
 74
     0
 42
0.0000000001
 43
0.0000000001
 40
0.0
 40
0.0
 40
0.0
 40
0.0
 40
0.2895713281
 40
0.5486413213
 40
0.7816354968000001
 40
0.8918380921
 40
1.0
 40
1.0
 40
1.0
 40
1.0
 10
407.1763397261426
 20
202.9127799175344
 30
0.0
 10
407.2959574269608
 20
202.8437201674144
 30
0.0
 10
407.5338718304816
 20
202.7305402007346
 30
0.0
 10
407.8992833501006
 20
202.6421853837945
 30
0.0
 10
408.1910724922009
 20
202.6499739077146
 30
0.0
 10
408.3993842269617
 20
202.7076614021946
 30
0.0
 10
408.4942509663624
 20
202.7520959640745
 30
0.0
 10
408.5389301861232
 20
202.7778929940146
 30
0.0
  0
SPLINE
  5
1F176
330
1F
100
AcDbEntity
  8
0
100
AcDbSpline
210
0.0
220
0.0
230
1.0
 70
     8
 71
     3
 72
    18
 73
    14
 74
     0
 42
0.0000000001
 43
0.0000000001
 40
0.0
 40
0.0
 40
0.0
 40
0.0
 40
0.1306551799
 40
0.2746253728
 40
0.4237392621
 40
0.568778355
 40
0.7013284912000001
 40
0.7611329723
 40
0.8161089393000001
 40
0.8664481737
 40
0.9128945656
 40
0.9567988463
 40
1.0
 40
1.0
 40
1.0
 40
1.0
 10
405.9388977077622
 20
210.0163326522345
 30
0.0
 10
405.9388977077622
 20
209.8600671252945
 30
0.0
 10
405.9845323942431
 20
209.5312381436346
 30
0.0
 10
406.1533480510219
 20
209.0507150127345
 30
0.0
 10
406.4121086231611
 20
208.5918552141745
 30
0.0
 10
406.737905040401
 20
208.1957213277545
 30
0.0
 10
407.0527518351426
 20
207.9372428403945
 30
0.0
 10
407.3140770325808
 20
207.7967744141944
 30
0.0
 10
407.5008212158611
 20
207.7298878448945
 30
0.0
 10
407.6809529790429
 20
207.6996880221345
 30
0.0
 10
407.8505462365021
 20
207.7076747701944
 30
0.0
 10
408.0050641266034
 20
207.7545382705745
 30
0.0
 10
408.0943400847018
 20
207.8110390414945
 30
0.0
 10
408.1340243309623
 20
207.8441278424746
 30
0.0
  0
SPLINE
  5
1F177
330
1F
100
AcDbEntity
  8
0
100
AcDbSpline
210
0.0
220
0.0
230
1.0
 70
     8
 71
     3
 72
    18
 73
    14
 74
     0
 42
0.0000000001
 43
0.0000000001
 40
0.0
 40
0.0
 40
0.0
 40
0.0
 40
0.1306551799
 40
0.2746253728
 40
0.4237392621
 40
0.568778355
 40
0.7013284912000001
 40
0.7611329723
 40
0.8161089393000001
 40
0.8664481737
 40
0.9128945656
 40
0.9567988463
 40
1.0
 40
1.0
 40
1.0
 40
1.0
 10
402.3326381080018
 20
207.9341981728746
 30
0.0
 10
402.3326381080018
 20
207.7779326459345
 30
0.0
 10
402.3782727944826
 20
207.4491036642746
 30
0.0
 10
402.5470884512615
 20
206.9685805333745
 30
0.0
 10
402.8058490234006
 20
206.5097207348145
 30
0.0
 10
403.1316454431816
 20
206.1135868483945
 30
0.0
 10
403.4464922353821
 20
205.8551083610345
 30
0.0
 10
403.7078174353614
 20
205.7146399348344
 30
0.0
 10
403.8945616186416
 20
205.6477533655345
 30
0.0
 10
404.0746933818211
 20
205.6175535453145
 30
0.0
 10
404.2442866392828
 20
205.6255402908345
 30
0.0
 10
404.3988045293813
 20
205.6724037912144
 30
0.0
 10
404.4880804874822
 20
205.7289045621345
 30
0.0
 10
404.5277647337432
 20
205.7619933631146
 30
0.0
  0
SPLINE
  5
1F178
330
1F
100
AcDbEntity
  8
0
100
AcDbSpline
210
0.0
220
0.0
230
1.0
 70
     8
 71
     3
 72
    18
 73
    14
 74
     0
 42
0.0000000001
 43
0.0000000001
 40
0.0
 40
0.0
 40
0.0
 40
0.0
 40
0.1306551799
 40
0.2746253728
 40
0.4237392621
 40
0.568778355
 40
0.7013284912000001
 40
0.7611329723
 40
0.8161089393000001
 40
0.8664481737
 40
0.9128945656
 40
0.9567988463
 40
1.0
 40
1.0
 40
1.0
 40
1.0
 10
402.3326381080018
 20
216.2625228268345
 30
0.0
 10
402.3326381080018
 20
216.1062572998944
 30
0.0
 10
402.3782727944826
 20
215.7774283207746
 30
0.0
 10
402.5470884512615
 20
215.2969051873345
 30
0.0
 10
402.8058490234006
 20
214.8380453887745
 30
0.0
 10
403.1316454431816
 20
214.4419115023544
 30
0.0
 10
403.4464922353821
 20
214.1834330175345
 30
0.0
 10
403.7078174353614
 20
214.0429645887946
 30
0.0
 10
403.8945616186416
 20
213.9760780194946
 30
0.0
 10
404.0746933818211
 20
213.9458781992745
 30
0.0
 10
404.2442866392828
 20
213.9538649447946
 30
0.0
 10
404.3988045293813
 20
214.0007284451745
 30
0.0
 10
404.4880804874822
 20
214.0572292160945
 30
0.0
 10
404.5277647337432
 20
214.0903180170745
 30
0.0
  0
SPLINE
  5
1F179
330
1F
100
AcDbEntity
  8
0
100
AcDbSpline
210
0.0
220
0.0
230
1.0
 70
     8
 71
     3
 72
    12
 73
     8
 74
     0
 42
0.0000000001
 43
0.0000000001
 40
0.0
 40
0.0
 40
0.0
 40
0.0
 40
0.2895713281
 40
0.5486413213
 40
0.7816354968000001
 40
0.8918380921
 40
1.0
 40
1.0
 40
1.0
 40
1.0
 10
410.7825993233623
 20
204.9949143968945
 30
0.0
 10
410.9022170267214
 20
204.9258546467744
 30
0.0
 10
411.1401314277011
 20
204.8126746800944
 30
0.0
 10
411.5055429498611
 20
204.7243198631544
 30
0.0
 10
411.7973320919611
 20
204.7321083870746
 30
0.0
 10
412.0056438241809
 20
204.7897958790145
 30
0.0
 10
412.100510563582
 20
204.8342304434345
 30
0.0
 10
412.1451897858809
 20
204.8600274733746
 30
0.0
  0
SPLINE
  5
1F17A
330
1F
100
AcDbEntity
  8
0
100
AcDbSpline
210
0.0
220
0.0
230
1.0
 70
     8
 71
     3
 72
    11
 73
     7
 74
     0
 42
0.0000000001
 43
0.0000000001
 40
0.0
 40
0.0
 40
0.0
 40
0.0
 40
0.2895421822
 40
0.549119646
 40
0.7822567239
 40
1.0
 40
1.0
 40
1.0
 40
1.0
 10
401.519461923841
 20
210.4041059635545
 30
0.0
 10
401.497534967441
 20
210.4167652092544
 30
0.0
 10
401.4577447828621
 20
210.4442014891545
 30
0.0
 10
401.4101478143031
 20
210.4941697915545
 30
0.0
 10
401.3800338511623
 20
210.5494901381145
 30
0.0
 10
401.3730417874212
 20
210.5891878031944
 30
0.0
 10
401.3730418204415
 20
210.6082282959745
 30
0.0
  0
SPLINE
  5
1F17B
330
1F
100
AcDbEntity
  8
0
100
AcDbSpline
210
0.0
220
0.0
230
1.0
 70
     8
 71
     3
 72
    11
 73
     7
 74
     0
 42
0.0000000001
 43
0.0000000001
 40
0.0
 40
0.0
 40
0.0
 40
0.0
 40
0.2895368706
 40
0.5491085983000003
 40
0.7822509632
 40
1.0
 40
1.0
 40
1.0
 40
1.0
 10
403.6407911000229
 20
204.8519208881144
 30
0.0
 10
403.6407911000229
 20
204.8266015534344
 30
0.0
 10
403.6446555220625
 20
204.7784233058744
 30
0.0
 10
403.6641317696219
 20
204.7122173829146
 30
0.0
 10
403.6969831441036
 20
204.6584744169944
 30
0.0
 10
403.7278682283823
 20
204.6325685988545
 30
0.0
 10
403.7443588761219
 20
204.6230479320944
 30
0.0
  0
SPLINE
  5
1F17C
330
1F
100
AcDbEntity
  8
0
100
AcDbSpline
210
0.0
220
0.0
230
1.0
 70
     8
 71
     3
 72
    12
 73
     8
 74
     0
 42
0.0000000001
 43
0.0000000001
 40
0.0
 40
0.0
 40
0.0
 40
0.0
 40
0.287104838
 40
0.5452932587000002
 40
0.7793255473000002
 40
0.8905881725
 40
1.0
 40
1.0
 40
1.0
 40
1.0
 10
413.5380935202613
 20
201.8742785579145
 30
0.0
 10
413.5319155951033
 20
201.7099537786146
 30
0.0
 10
413.4954249162431
 20
201.3977015049746
 30
0.0
 10
413.3539531163815
 20
200.9705897379144
 30
0.0
 10
413.1630375012628
 20
200.6763286906744
 30
0.0
 10
412.9742154862221
 20
200.4956170531146
 30
0.0
 10
412.8696998862623
 20
200.4233877004944
 30
0.0
 10
412.8154315416608
 20
200.3920507832345
 30
0.0
  0
SPLINE
  5
1F17D
330
1F
100
AcDbEntity
  8
0
100
AcDbSpline
210
0.0
220
0.0
230
1.0
 70
     8
 71
     3
 72
    11
 73
     7
 74
     0
 42
0.0000000001
 43
0.0000000001
 40
0.0
 40
0.0
 40
0.0
 40
0.0
 40
0.2273128212
 40
0.4789952332
 40
0.7416023716
 40
1.0
 40
1.0
 40
1.0
 40
1.0
 10
413.5380930275018
 20
201.8742654997745
 30
0.0
 10
413.4870902339021
 20
201.8448191959545
 30
0.0
 10
413.3623436025214
 20
201.8118195845345
 30
0.0
 10
413.1684809117616
 20
201.8359649794744
 30
0.0
 10
412.9833518255813
 20
201.9185971052944
 30
0.0
 10
412.8777400962428
 20
202.0057577463145
 30
0.0
 10
412.8325704380415
 20
202.0551695270945
 30
0.0
  0
SPLINE
  5
1F17E
330
1F
100
AcDbEntity
  8
0
100
AcDbSpline
210
0.0
220
0.0
230
1.0
 70
     8
 71
     3
 72
     9
 73
     5
 74
     0
 42
0.0000000001
 43
0.0000000001
 40
0.0
 40
0.0
 40
0.0
 40
0.0
 40
0.2594289303
 40
1.0
 40
1.0
 40
1.0
 40
1.0
 10
421.2830321324608
 20
227.9791767137744
 30
0.0
 10
421.2508196086218
 20
227.9977742026146
 30
0.0
 10
421.1252649626035
 20
228.0669965025745
 30
0.0
 10
420.9939610646832
 20
228.1260509818745
 30
0.0
 10
420.8941217850615
 20
228.1621919586145
 30
0.0
  0
LINE
  5
1F17F
330
1F
100
AcDbEntity
  8
0
100
AcDbLine
 10
420.1866665959621
 20
205.8309669132544
 30
0.0
 11
418.4246613290215
 21
204.8224316760745
 31
0.0
  0
SPLINE
  5
1F180
330
1F
100
AcDbEntity
  8
0
100
AcDbSpline
210
0.0
220
0.0
230
1.0
 70
     8
 71
     3
 72
    10
 73
     6
 74
     0
 42
0.0000000001
 43
0.0000000001
 40
0.0
 40
0.0
 40
0.0
 40
0.0
 40
0.2480734965
 40
0.622755351
 40
1.0
 40
1.0
 40
1.0
 40
1.0
 10
417.3578175699008
 20
204.1983176360146
 30
0.0
 10
417.1213404330017
 20
204.0576563907946
 30
0.0
 10
416.5295229018822
 20
203.7014645784146
 30
0.0
 10
415.5864194363023
 20
203.1176601427745
 30
0.0
 10
414.8823301205831
 20
202.6706322280944
 30
0.0
 10
414.5302696817008
 20
202.4445184766145
 30
0.0
  0
SPLINE
  5
1F181
330
1F
100
AcDbEntity
  8
0
100
AcDbSpline
210
0.0
220
0.0
230
1.0
 70
     8
 71
     3
 72
    15
 73
    11
 74
     0
 42
0.0000000001
 43
0.0000000001
 40
0.0
 40
0.0
 40
0.0
 40
0.0
 40
0.1225333794
 40
0.2461424442
 40
0.3708852019
 40
0.4965312513000001
 40
0.6225464906
 40
0.7484441814000001
 40
0.8742065073
 40
1.0
 40
1.0
 40
1.0
 40
1.0
 10
414.5302696817008
 20
210.7705385072945
 30
0.0
 10
414.8847756300416
 20
210.9509915296745
 30
0.0
 10
415.5943293417426
 20
211.3185565070145
 30
0.0
 10
416.6550772278626
 20
211.8883332211544
 30
0.0
 10
417.7148464291216
 20
212.4809213831945
 30
0.0
 10
418.7734011573216
 20
213.0913904645145
 30
0.0
 10
419.8321599288028
 20
213.7089474640946
 30
0.0
 10
420.8931348045632
 20
214.3234496844145
 30
0.0
 10
421.954762031062
 20
214.9353786866146
 30
0.0
 10
422.6620824172835
 20
215.3435611824145
 30
0.0
 10
423.0155157261633
 20
215.5481456221144
 30
0.0
  0
SPLINE
  5
1F182
330
1F
100
AcDbEntity
  8
0
100
AcDbSpline
210
0.0
220
0.0
230
1.0
 70
     8
 71
     3
 72
     9
 73
     5
 74
     0
 42
0.0000000001
 43
0.0000000001
 40
0.0
 40
0.0
 40
0.0
 40
0.0
 40
0.2577552343
 40
1.0
 40
1.0
 40
1.0
 40
1.0
 10
428.6723287610014
 20
223.6715436577344
 30
0.0
 10
428.6405866451625
 20
223.6967050882344
 30
0.0
 10
428.5158189876613
 20
223.7922452527544
 30
0.0
 10
428.3844325041807
 20
223.8792740499945
 30
0.0
 10
428.2834184110636
 20
223.9375932450144
 30
0.0
  0
SPLINE
  5
1F183
330
1F
100
AcDbEntity
  8
0
100
AcDbSpline
210
0.0
220
0.0
230
1.0
 70
     8
 71
     3
 72
    15
 73
    11
 74
     0
 42
0.0000000001
 43
0.0000000001
 40
0.0
 40
0.0
 40
0.0
 40
0.0
 40
0.1141546703
 40
0.2373261017
 40
0.3669753162
 40
0.4999989361
 40
0.6330227034
 40
0.7626723508
 40
0.8858444606999999
 40
1.0
 40
1.0
 40
1.0
 40
1.0
 10
422.3084060024635
 20
220.4879747924745
 30
0.0
 10
422.4536279650012
 20
220.4041327478144
 30
0.0
 10
422.7404674141813
 20
220.2030634242746
 30
0.0
 10
423.1351431120033
 20
219.8338173072945
 30
0.0
 10
423.4988580919614
 20
219.3973403392545
 30
0.0
 10
423.8179128386629
 20
218.9100061678745
 30
0.0
 10
424.0804319758018
 20
218.3900302380545
 30
0.0
 10
424.2765780478223
 20
217.8568046446145
 30
0.0
 10
424.3990207036231
 20
217.3303803659944
 30
0.0
 10
424.4297351761018
 20
216.9814334819744
 30
0.0
 10
424.4297351761018
 20
216.8137452753145
 30
0.0
  0
SPLINE
  5
1F184
330
1F
100
AcDbEntity
  8
0
100
AcDbSpline
210
0.0
220
0.0
230
1.0
 70
     8
 71
     3
 72
    12
 73
     8
 74
     0
 42
0.0000000001
 43
0.0000000001
 40
0.0
 40
0.0
 40
0.0
 40
0.0
 40
0.2895812019
 40
0.5486347013000003
 40
0.7816368512000002
 40
0.8918382665999999
 40
1.0
 40
1.0
 40
1.0
 40
1.0
 10
424.4297351761018
 20
204.5662090185944
 30
0.0
 10
424.4297351761018
 20
204.4141512302545
 30
0.0
 10
424.4066965175817
 20
204.1250326924145
 30
0.0
 10
424.2897906147418
 20
203.7280354345945
 30
0.0
 10
424.1218087180412
 20
203.4541074277145
 30
0.0
 10
423.9521385722428
 20
203.2872717009346
 30
0.0
 10
423.8575829244235
 20
203.2212531258345
 30
0.0
 10
423.8083967312034
 20
203.1928556337346
 30
0.0
  0
SPLINE
  5
1F185
330
1F
100
AcDbEntity
  8
0
100
AcDbSpline
210
0.0
220
0.0
230
1.0
 70
     8
 71
     3
 72
    15
 73
    11
 74
     0
 42
0.0000000001
 43
0.0000000001
 40
0.0
 40
0.0
 40
0.0
 40
0.0
 40
0.1141555516
 40
0.2373276756
 40
0.3669773296
 40
0.5000011
 40
0.6330247168
 40
0.7626739247
 40
0.885845342
 40
1.0
 40
1.0
 40
1.0
 40
1.0
 10
423.0155157261633
 20
215.5481456221144
 30
0.0
 10
423.0155157261633
 20
215.7437818831145
 30
0.0
 10
422.9796821630809
 20
216.1508866264346
 30
0.0
 10
422.8368323751213
 20
216.7650483368945
 30
0.0
 10
422.6079952585012
 20
217.3871448955946
 30
0.0
 10
422.3017229119416
 20
217.9937834791145
 30
0.0
 10
421.929492366082
 20
218.5623399950344
 30
0.0
 10
421.5051582312622
 20
219.0715630786945
 30
0.0
 10
421.044703284763
 20
219.5023501698746
 30
0.0
 10
420.7100572941611
 20
219.7369310164345
 30
0.0
 10
420.540631689402
 20
219.8347467212345
 30
0.0
  0
SPLINE
  5
1F186
330
1F
100
AcDbEntity
  8
0
100
AcDbSpline
210
0.0
220
0.0
230
1.0
 70
     8
 71
     3
 72
    12
 73
     8
 74
     0
 42
0.0000000001
 43
0.0000000001
 40
0.0
 40
0.0
 40
0.0
 40
0.0
 40
0.2895802218
 40
0.5486333650999999
 40
0.7816359177
 40
0.8918377598999999
 40
1.0
 40
1.0
 40
1.0
 40
1.0
 10
413.4695344371623
 20
223.9171542688745
 30
0.0
 10
413.3159046225008
 20
224.0058504770544
 30
0.0
 10
413.010358261283
 20
224.1512184032344
 30
0.0
 10
412.5410640004814
 20
224.2646756820345
 30
0.0
 10
412.1663177751225
 20
224.2547426335745
 30
0.0
 10
411.8987853028222
 20
224.1806366806945
 30
0.0
 10
411.776927703002
 20
224.1236136476744
 30
0.0
 10
411.7195450720218
 20
224.0904839603146
 30
0.0
  0
SPLINE
  5
1F187
330
1F
100
AcDbEntity
  8
0
100
AcDbSpline
210
0.0
220
0.0
230
1.0
 70
     8
 71
     3
 72
    12
 73
     8
 74
     0
 42
0.0000000001
 43
0.0000000001
 40
0.0
 40
0.0
 40
0.0
 40
0.0
 40
0.1098570408
 40
0.2199810437
 40
0.4502431311
 40
0.7078300081000001
 40
1.0
 40
1.0
 40
1.0
 40
1.0
 10
409.9990427065824
 20
212.9423451593544
 30
0.0
 10
409.9640178769623
 20
212.9294763738145
 30
0.0
 10
409.8961221961411
 20
212.8969980897744
 30
0.0
 10
409.7726625065629
 20
212.8053260277545
 30
0.0
 10
409.648043644803
 20
212.6391228219344
 30
0.0
 10
409.5618260676822
 20
212.3853116480745
 30
0.0
 10
409.5451573049817
 20
212.1977058282145
 30
0.0
 10
409.5451573049817
 20
212.0984671315945
 30
0.0
  0
SPLINE
  5
1F188
330
1F
100
AcDbEntity
  8
0
100
AcDbSpline
210
0.0
220
0.0
230
1.0
 70
     8
 71
     3
 72
    11
 73
     7
 74
     0
 42
0.0000000001
 43
0.0000000001
 40
0.0
 40
0.0
 40
0.0
 40
0.0
 40
0.2372483561
 40
0.5000016178
 40
0.7627539995000002
 40
1.0
 40
1.0
 40
1.0
 40
1.0
 10
410.7118883522629
 20
213.7519017749346
 30
0.0
 10
410.7118883522629
 20
213.8098634268545
 30
0.0
 10
410.7336180065415
 20
213.9321003502745
 30
0.0
 10
410.809419391642
 20
214.1038414317344
 30
0.0
 10
410.9202497059214
 20
214.2553580095745
 30
0.0
 10
411.0152444308412
 20
214.3352946518344
 30
0.0
 10
411.0654402715208
 20
214.3642750612345
 30
0.0
  0
SPLINE
  5
1F189
330
1F
100
AcDbEntity
  8
0
100
AcDbSpline
210
0.0
220
0.0
230
1.0
 70
     8
 71
     3
 72
    11
 73
     7
 74
     0
 42
0.0000000001
 43
0.0000000001
 40
0.0
 40
0.0
 40
0.0
 40
0.0
 40
0.2282998971
 40
0.4746514592000004
 40
0.7339605982
 40
1.0
 40
1.0
 40
1.0
 40
1.0
 10
411.0654402715208
 20
214.3642750612345
 30
0.0
 10
411.2351144559228
 20
214.2663158413545
 30
0.0
 10
411.5702380427221
 20
214.0313403676945
 30
0.0
 10
412.0312814970616
 20
213.5997472964146
 30
0.0
 10
412.4560137489427
 20
213.0896269094946
 30
0.0
 10
412.7033632923421
 20
212.7113377168745
 30
0.0
 10
412.8173913523217
 20
212.5135434363145
 30
0.0
  0
SPLINE
  5
1F18A
330
1F
100
AcDbEntity
  8
0
100
AcDbSpline
210
0.0
220
0.0
230
1.0
 70
     8
 71
     3
 72
    11
 73
     7
 74
     0
 42
0.0000000001
 43
0.0000000001
 40
0.0
 40
0.0
 40
0.0
 40
0.0
 40
0.2643793457
 40
0.5227317023
 40
0.7694957504000001
 40
1.0
 40
1.0
 40
1.0
 40
1.0
 10
412.8173913523217
 20
212.5135434363145
 30
0.0
 10
412.9249833520207
 20
212.3269132101345
 30
0.0
 10
413.1183015658423
 20
211.9463039459546
 30
0.0
 10
413.3404538444231
 20
211.3586062516545
 30
0.0
 10
413.4863948301631
 20
210.7758220324146
 30
0.0
 10
413.531330452762
 20
210.3879694705545
 30
0.0
 10
413.5380935304229
 20
210.2002709432345
 30
0.0
  0
SPLINE
  5
1F18B
330
1F
100
AcDbEntity
  8
0
100
AcDbSpline
210
0.0
220
0.0
230
1.0
 70
     8
 71
     3
 72
    12
 73
     8
 74
     0
 42
0.0000000001
 43
0.0000000001
 40
0.0
 40
0.0
 40
0.0
 40
0.0
 40
0.1081618921
 40
0.2183632053
 40
0.4513653547
 40
0.7104188509
 40
1.0
 40
1.0
 40
1.0
 40
1.0
 10
422.2906210545422
 20
205.8625261795745
 30
0.0
 10
422.3480051104623
 20
205.8956564943144
 30
0.0
 10
422.4583204778416
 20
205.9726775010544
 30
0.0
 10
422.6562685325427
 20
206.1673205306144
 30
0.0
 10
422.8522413943434
 20
206.4869024212945
 30
0.0
 10
422.9886628715632
 20
206.9500661736544
 30
0.0
 10
423.0154535977622
 20
207.2873709930745
 30
0.0
 10
423.0155157261633
 20
207.4647716923745
 30
0.0
  0
SPLINE
  5
1F18C
330
1F
100
AcDbEntity
  8
0
100
AcDbSpline
210
0.0
220
0.0
230
1.0
 70
     8
 71
     3
 72
    13
 73
     9
 74
     0
 42
0.0000000001
 43
0.0000000001
 40
0.0
 40
0.0
 40
0.0
 40
0.0
 40
0.1142471903
 40
0.2375450212
 40
0.5000010844000001
 40
0.7624565541
 40
0.8857536918
 40
1.0
 40
1.0
 40
1.0
 40
1.0
 10
410.8356231340017
 20
212.6598036086146
 30
0.0
 10
410.8356231340017
 20
212.5745698115946
 30
0.0
 10
410.8512328132214
 20
212.3971707734546
 30
0.0
 10
410.9360168372015
 20
212.0329907779145
 30
0.0
 10
411.1329553816033
 20
211.5863079603345
 30
0.0
 10
411.4213262882229
 20
211.1924144453545
 30
0.0
 10
411.6943238550032
 20
210.9369021572945
 30
0.0
 10
411.8401509852429
 20
210.8346861158544
 30
0.0
 10
411.913965462963
 20
210.7920702701745
 30
0.0
  0
LINE
  5
1F18D
330
1F
100
AcDbEntity
  8
0
100
AcDbLine
 10
411.913965462963
 20
210.7920702701745
 30
0.0
 11
412.0133975221624
 21
210.7399861604746
 31
0.0
  0
SPLINE
  5
1F18E
330
1F
100
AcDbEntity
  8
0
100
AcDbSpline
210
0.0
220
0.0
230
1.0
 70
     8
 71
     3
 72
    12
 73
     8
 74
     0
 42
0.0000000001
 43
0.0000000001
 40
0.0
 40
0.0
 40
0.0
 40
0.0
 40
0.108162245
 40
0.2183640921
 40
0.4513666551
 40
0.7104197902000001
 40
1.0
 40
1.0
 40
1.0
 40
1.0
 10
410.2017693953611
 20
226.7601545086945
 30
0.0
 10
410.2509545065428
 20
226.7885513759545
 30
0.0
 10
410.3554038836221
 20
226.8374282327345
 30
0.0
 10
410.5847174229627
 20
226.9009475900745
 30
0.0
 10
410.905928441703
 20
226.9094615862544
 30
0.0
 10
411.3081806090007
 20
226.8122124894146
 30
0.0
 10
411.5700774461431
 20
226.6876114178144
 30
0.0
 10
411.7017601241006
 20
226.6115861088545
 30
0.0
  0
SPLINE
  5
1F18F
330
1F
100
AcDbEntity
  8
0
100
AcDbSpline
210
0.0
220
0.0
230
1.0
 70
     8
 71
     3
 72
    19
 73
    15
 74
     0
 42
0.0000000001
 43
0.0000000001
 40
0.0
 40
0.0
 40
0.0
 40
0.0
 40
0.0428408021
 40
0.0874513635
 40
0.1352658523
 40
0.1872095798
 40
0.2436916508
 40
0.3046870345
 40
0.3698262743
 40
0.4384764424
 40
0.5827575082000001
 40
0.7298449583
 40
0.8713685882
 40
1.0
 40
1.0
 40
1.0
 40
1.0
 10
405.8137492661626
 20
215.8259296690344
 30
0.0
 10
405.7465699999628
 20
215.7871414941346
 30
0.0
 10
405.6192493122613
 20
215.6896289078545
 30
0.0
 10
405.4659945413016
 20
215.4958399761544
 30
0.0
 10
405.3514955170628
 20
215.2588211842545
 30
0.0
 10
405.2773752030223
 20
214.9843898839946
 30
0.0
 10
405.2443683729211
 20
214.6783329929345
 30
0.0
 10
405.2528081807825
 20
214.3469397720545
 30
0.0
 10
405.3023537357407
 20
213.9970231490545
 30
0.0
 10
405.423739502623
 20
213.5076330457945
 30
0.0
 10
405.6694891279616
 20
212.8998250538946
 30
0.0
 10
406.0819169492821
 20
212.2290160424545
 30
0.0
 10
406.5830889974818
 20
211.6588542541545
 30
0.0
 10
406.9746269850427
 20
211.3575608435346
 30
0.0
 10
407.1763397261426
 20
211.2411045714945
 30
0.0
  0
SPLINE
  5
1F190
330
1F
100
AcDbEntity
  8
0
100
AcDbSpline
210
0.0
220
0.0
230
1.0
 70
     8
 71
     3
 72
    12
 73
     8
 74
     0
 42
0.0000000001
 43
0.0000000001
 40
0.0
 40
0.0
 40
0.0
 40
0.0
 40
0.109865129
 40
0.2199933482
 40
0.4502414612
 40
0.7078393781
 40
1.0
 40
1.0
 40
1.0
 40
1.0
 10
409.9991653835021
 20
204.6140570382146
 30
0.0
 10
409.9641321414019
 20
204.6011901348145
 30
0.0
 10
409.8962087949026
 20
204.5687378730745
 30
0.0
 10
409.7727351175426
 20
204.4770516378544
 30
0.0
 10
409.6480618997826
 20
204.3108613047545
 30
0.0
 10
409.5618373529015
 20
204.0570161431546
 30
0.0
 10
409.5451573049817
 20
203.8693899575744
 30
0.0
 10
409.5451573049817
 20
203.7701424776344
 30
0.0
  0
SPLINE
  5
1F191
330
1F
100
AcDbEntity
  8
0
100
AcDbSpline
210
0.0
220
0.0
230
1.0
 70
     8
 71
     3
 72
    11
 73
     7
 74
     0
 42
0.0000000001
 43
0.0000000001
 40
0.0
 40
0.0
 40
0.0
 40
0.0
 40
0.2895378634
 40
0.5491098265
 40
0.7822517759000001
 40
1.0
 40
1.0
 40
1.0
 40
1.0
 10
401.519461923841
 20
216.6095243324745
 30
0.0
 10
401.4975350715809
 20
216.6221835197544
 30
0.0
 10
401.4577442799411
 20
216.6496182959745
 30
0.0
 10
401.4101468872016
 20
216.6995864358146
 30
0.0
 10
401.3800298811436
 20
216.7549062515144
 30
0.0
 10
401.3730370731808
 20
216.7946052907346
 30
0.0
 10
401.3730370731808
 20
216.8136464083544
 30
0.0
  0
SPLINE
  5
1F192
330
1F
100
AcDbEntity
  8
0
100
AcDbSpline
210
0.0
220
0.0
230
1.0
 70
     8
 71
     3
 72
    11
 73
     7
 74
     0
 42
0.0000000001
 43
0.0000000001
 40
0.0
 40
0.0
 40
0.0
 40
0.0
 40
0.2372460005
 40
0.4999983822
 40
0.7627516439000001
 40
1.0
 40
1.0
 40
1.0
 40
1.0
 10
403.9943430192811
 20
218.4466826063345
 30
0.0
 10
403.9441471811423
 20
218.4177021969345
 30
0.0
 10
403.8491524536818
 20
218.3377655546745
 30
0.0
 10
403.7383221394021
 20
218.1862489768346
 30
0.0
 10
403.6625207543015
 20
218.0145078953744
 30
0.0
 10
403.6407911000229
 20
217.8922709719545
 30
0.0
 10
403.6407911000229
 20
217.8343093200346
 30
0.0
  0
SPLINE
  5
1F193
330
1F
100
AcDbEntity
  8
0
100
AcDbSpline
210
0.0
220
0.0
230
1.0
 70
     8
 71
     3
 72
    13
 73
     9
 74
     0
 42
0.0000000001
 43
0.0000000001
 40
0.0
 40
0.0
 40
0.0
 40
0.0
 40
0.1142471903
 40
0.2375450212
 40
0.5000010844000001
 40
0.7624565541
 40
0.8857536918
 40
1.0
 40
1.0
 40
1.0
 40
1.0
 10
410.8356231340017
 20
204.3314789521145
 30
0.0
 10
410.8356231340017
 20
204.2462451576345
 30
0.0
 10
410.8512328132214
 20
204.0688461169545
 30
0.0
 10
410.9360168372015
 20
203.7046661239545
 30
0.0
 10
411.1329553816033
 20
203.2579833063745
 30
0.0
 10
411.4213262882229
 20
202.8640897913946
 30
0.0
 10
411.6943238550032
 20
202.6085775007945
 30
0.0
 10
411.8401509852429
 20
202.5063614618945
 30
0.0
 10
411.913965462963
 20
202.4637456162144
 30
0.0
  0
LINE
  5
1F194
330
1F
100
AcDbEntity
  8
0
100
AcDbLine
 10
411.913965462963
 20
202.4637456162144
 30
0.0
 11
412.015332491623
 21
202.4107535530345
 31
0.0
  0
LINE
  5
1F195
330
1F
100
AcDbEntity
  8
0
100
AcDbLine
 10
404.7014462685215
 20
214.9561259679546
 30
0.0
 11
404.8008783251825
 21
214.9040418557145
 31
0.0
  0
SPLINE
  5
1F196
330
1F
100
AcDbEntity
  8
0
100
AcDbSpline
210
0.0
220
0.0
230
1.0
 70
     8
 71
     3
 72
    13
 73
     9
 74
     0
 42
0.0000000001
 43
0.0000000001
 40
0.0
 40
0.0
 40
0.0
 40
0.0
 40
0.1142471903
 40
0.2375450212
 40
0.5000010844000001
 40
0.7624565541
 40
0.8857536918
 40
1.0
 40
1.0
 40
1.0
 40
1.0
 10
403.6231039370218
 20
216.8238593038545
 30
0.0
 10
403.6231039370218
 20
216.7386255093746
 30
0.0
 10
403.6387136187829
 20
216.5612264686945
 30
0.0
 10
403.7234976402216
 20
216.1970464756944
 30
0.0
 10
403.9204361846234
 20
215.7503636555744
 30
0.0
 10
404.2088070937812
 20
215.3564701431345
 30
0.0
 10
404.4818046580233
 20
215.1009578525346
 30
0.0
 10
404.627631788263
 20
214.9987418136344
 30
0.0
 10
404.7014462685215
 20
214.9561259679546
 30
0.0
  0
SPLINE
  5
1F197
330
1F
100
AcDbEntity
  8
0
100
AcDbSpline
210
0.0
220
0.0
230
1.0
 70
     8
 71
     3
 72
    11
 73
     7
 74
     0
 42
0.0000000001
 43
0.0000000001
 40
0.0
 40
0.0
 40
0.0
 40
0.0
 40
0.2177490368
 40
0.4508914017000001
 40
0.7104631294
 40
1.0
 40
1.0
 40
1.0
 40
1.0
 10
410.8154561258236
 20
200.5406403869945
 30
0.0
 10
410.7989654806222
 20
200.5501610537546
 30
0.0
 10
410.7680803938022
 20
200.5760668718945
 30
0.0
 10
410.7352290193209
 20
200.6298098378144
 30
0.0
 10
410.715752771761
 20
200.6960157607745
 30
0.0
 10
410.7118883522629
 20
200.7441940083344
 30
0.0
 10
410.7118883522629
 20
200.7695133430145
 30
0.0
  0
SPLINE
  5
1F198
330
1F
100
AcDbEntity
  8
0
100
AcDbSpline
210
0.0
220
0.0
230
1.0
 70
     8
 71
     3
 72
    11
 73
     7
 74
     0
 42
0.0000000001
 43
0.0000000001
 40
0.0
 40
0.0
 40
0.0
 40
0.0
 40
0.2177482241
 40
0.4508901735000002
 40
0.7104621366
 40
1.0
 40
1.0
 40
1.0
 40
1.0
 10
401.3730370731808
 20
208.7302724786145
 30
0.0
 10
401.3730370731808
 20
208.7112313609945
 30
0.0
 10
401.3800298811436
 20
208.6715323217745
 30
0.0
 10
401.4101468872016
 20
208.6162125060745
 30
0.0
 10
401.4577442799411
 20
208.5662443662345
 30
0.0
 10
401.4975350715809
 20
208.5388095900145
 30
0.0
 10
401.519461923841
 20
208.5261504027344
 30
0.0
  0
SPLINE
  5
1F199
330
1F
100
AcDbEntity
  8
0
100
AcDbSpline
210
0.0
220
0.0
230
1.0
 70
     8
 71
     3
 72
     9
 73
     5
 74
     0
 42
0.0000000001
 43
0.0000000001
 40
0.0
 40
0.0
 40
0.0
 40
0.0
 40
0.2422083363
 40
1.0
 40
1.0
 40
1.0
 40
1.0
 10
427.9298841575033
 20
218.8345091916144
 30
0.0
 10
427.9298841575033
 20
218.8725722117545
 30
0.0
 10
427.9267105900636
 20
219.0297153772744
 30
0.0
 10
427.9113335011823
 20
219.1865353201744
 30
0.0
 10
427.8939293399032
 20
219.3043435732544
 30
0.0
  0
SPLINE
  5
1F19A
330
1F
100
AcDbEntity
  8
0
100
AcDbSpline
210
0.0
220
0.0
230
1.0
 70
     8
 71
     3
 72
     9
 73
     5
 74
     0
 42
0.0000000001
 43
0.0000000001
 40
0.0
 40
0.0
 40
0.0
 40
0.0
 40
0.2407580704
 40
1.0
 40
1.0
 40
1.0
 40
1.0
 10
427.8939293399032
 20
210.3228169846545
 30
0.0
 10
427.8999826983825
 20
210.3568023395945
 30
0.0
 10
427.9216415095207
 20
210.4985754825145
 30
0.0
 10
427.9298841575033
 20
210.6422740368745
 30
0.0
 10
427.9298841575033
 20
210.7511352618745
 30
0.0
  0
SPLINE
  5
1F19B
330
1F
100
AcDbEntity
  8
0
100
AcDbSpline
210
0.0
220
0.0
230
1.0
 70
     8
 71
     3
 72
    12
 73
     8
 74
     0
 42
0.0000000001
 43
0.0000000001
 40
0.0
 40
0.0
 40
0.0
 40
0.0
 40
0.1098570408
 40
0.2199810437
 40
0.4502431311
 40
0.7078300081000001
 40
1.0
 40
1.0
 40
1.0
 40
1.0
 10
402.7865235121408
 20
208.7780762006344
 30
0.0
 10
402.7514986799825
 20
208.7652074150946
 30
0.0
 10
402.6836029991613
 20
208.7327291310545
 30
0.0
 10
402.560143309583
 20
208.6410570690345
 30
0.0
 10
402.4355244478231
 20
208.4748538632144
 30
0.0
 10
402.3493068707022
 20
208.2210426893544
 30
0.0
 10
402.3326381080018
 20
208.0334368694944
 30
0.0
 10
402.3326381080018
 20
207.9341981728746
 30
0.0
  0
LINE
  5
1F19C
330
1F
100
AcDbEntity
  8
0
100
AcDbLine
 10
404.7014462685215
 20
206.6278013114545
 30
0.0
 11
404.8008783251825
 21
206.5757172017546
 31
0.0
  0
SPLINE
  5
1F19D
330
1F
100
AcDbEntity
  8
0
100
AcDbSpline
210
0.0
220
0.0
230
1.0
 70
     8
 71
     3
 72
    13
 73
     9
 74
     0
 42
0.0000000001
 43
0.0000000001
 40
0.0
 40
0.0
 40
0.0
 40
0.0
 40
0.1142471903
 40
0.2375450212
 40
0.5000010844000001
 40
0.7624565541
 40
0.8857536918
 40
1.0
 40
1.0
 40
1.0
 40
1.0
 10
403.6231039370218
 20
208.4955346498945
 30
0.0
 10
403.6231039370218
 20
208.4103008528745
 30
0.0
 10
403.6387136187829
 20
208.2329018147345
 30
0.0
 10
403.7234976402216
 20
207.8687218191944
 30
0.0
 10
403.9204361846234
 20
207.4220390016145
 30
0.0
 10
404.2088070937812
 20
207.0281454866345
 30
0.0
 10
404.4818046580233
 20
206.7726331985745
 30
0.0
 10
404.627631788263
 20
206.6704171571344
 30
0.0
 10
404.7014462685215
 20
206.6278013114545
 30
0.0
  0
SPLINE
  5
1F19E
330
1F
100
AcDbEntity
  8
0
100
AcDbSpline
210
0.0
220
0.0
230
1.0
 70
     8
 71
     3
 72
    12
 73
     8
 74
     0
 42
0.0000000001
 43
0.0000000001
 40
0.0
 40
0.0
 40
0.0
 40
0.0
 40
0.1098570408
 40
0.2199810437
 40
0.4502431311
 40
0.7078300081000001
 40
1.0
 40
1.0
 40
1.0
 40
1.0
 10
402.7865235121408
 20
217.1064008545946
 30
0.0
 10
402.7514986799825
 20
217.0935320690544
 30
0.0
 10
402.6836029991613
 20
217.0610537850144
 30
0.0
 10
402.560143309583
 20
216.9693817229945
 30
0.0
 10
402.4355244478231
 20
216.8031785171745
 30
0.0
 10
402.3493068707022
 20
216.5493673433145
 30
0.0
 10
402.3326381080018
 20
216.3617615234546
 30
0.0
 10
402.3326381080018
 20
216.2625228268345
 30
0.0
  0
LINE
  5
1F19F
330
1F
100
AcDbEntity
  8
0
100
AcDbLine
 10
423.0155157261633
 20
213.0578132381232
 30
0.0
 11
421.6720072473251
 21
214.5274977257233
 31
0.0
  0
LINE
  5
1F1A0
330
1F
100
AcDbEntity
  8
0
100
AcDbLine
 10
421.6720072473251
 20
214.7724348779409
 30
0.0
 11
421.6720072473251
 21
214.5274977257233
 31
0.0
  0
LINE
  5
1F1A1
330
1F
100
AcDbEntity
  8
0
100
AcDbLine
 10
423.0138422649448
 20
207.4657378448745
 30
0.0
 11
421.6720072473249
 21
208.9333041858345
 31
0.0
  0
LINE
  5
1F1A2
330
1F
100
AcDbEntity
  8
0
100
AcDbLine
 10
421.6720072473249
 20
208.9333041858345
 30
0.0
 11
421.6720080407299
 21
209.1794341615407
 31
0.0
  0
MTEXT
  5
1F1A3
330
1F
100
AcDbEntity
  8
DIM
100
AcDbMText
 10
519.749515770504
 20
299.1909515774445
 30
0.0
 40
1.5
 41
13.65362491127166
 71
     1
 72
     5
  1
3
  7
数字
 11
0.0000000000000012
 21
1.0
 31
0.0
 73
     1
 44
1.0
1001
ACAD
1000
MTEXTBEGIN
1070
    73
1070
     1
1070
    44
1040
1.0
1070
    74
1070
     0
1000
MTEXTEND
  0
MTEXT
  5
1F1A4
330
1F
100
AcDbEntity
  8
DIM
100
AcDbMText
 10
519.7235993876823
 20
292.5437918712081
 30
0.0
 40
1.5
 41
13.65362491127166
 71
     1
 72
     5
  1
4
  7
数字
 11
0.0000000000000012
 21
1.0
 31
0.0
 73
     1
 44
1.0
1001
ACAD
1000
MTEXTBEGIN
1070
    73
1070
     1
1070
    44
1040
1.0
1070
    74
1070
     0
1000
MTEXTEND
  0
DIMENSION
  5
1F1A5
330
1F
100
AcDbEntity
  8
0
100
AcDbDimension
  2
*D2
 10
449.813254389014
 20
315.0918992126731
 30
0.0
 11
466.1719469530932
 21
315.0918992126731
 31
0.0
 70
   160
 71
     5
 42
33.39999999945997
  3
01
100
AcDbAlignedDimension
 13
483.2132543884738
 23
298.2559615503379
 33
0.0
 14
449.813254389014
 24
298.2559615503379
 34
0.0
100
AcDbRotatedDimension
1001
ACAD
1000
DSTYLE
1002
{
1070
   140
1040
3.5
1070
    41
1040
3.0
1002
}
  0
DIMENSION
  5
1F1A6
330
1F
100
AcDbEntity
  8
0
100
AcDbDimension
  2
*D3
 10
530.1326805898752
 20
285.8625487120018
 30
0.0
 11
530.1326805898751
 21
295.8918638637996
 31
0.0
 70
   160
  1
{\fSimSun|b0|i0|c134|p2;□}<>
 71
     5
 42
20.99999999890088
  3
01
100
AcDbAlignedDimension
 13
518.4725110681016
 23
306.8625487109029
 33
0.0
 14
518.4725110681016
 24
285.8625487120018
 34
0.0
 50
270.0
100
AcDbRotatedDimension
1001
ACAD
1000
DSTYLE
1002
{
1070
   140
1040
3.5
1070
    41
1040
3.0
1002
}
  0
ENDSEC
  0
SECTION
  2
OBJECTS
  0
DICTIONARY
  5
C
330
0
100
AcDbDictionary
281
     1
  3
ACAD_COLOR
350
4FFE
  3
ACAD_GROUP
350
D
  3
ACAD_LAYOUT
350
1A
  3
ACAD_MATERIAL
350
4FE5
  3
ACAD_MLEADERSTYLE
350
5022
  3
ACAD_MLINESTYLE
350
17
  3
ACAD_PLOTSETTINGS
350
19
  3
ACAD_PLOTSTYLENAME
350
E
  3
ACAD_RENDER_PLOT_SETTINGS
350
6537
  3
ACAD_SCALELIST
350
5000
  3
ACAD_TABLESTYLE
350
4FE3
  3
ACAD_VISUALSTYLE
350
2A
  3
ACDB_RECOMPOSE_DATA
350
50EC
  3
AcDbVariableDictionary
350
5108
  3
ASE_INDEX_DICTIONARY
350
11ACE
  3
DWGPROPS
350
1F8A8
  3
lxx_dict
350
1F3EE
  0
DICTIONARY
  5
50EE
330
8
100
AcDbDictionary
280
     1
281
     1
  0
DICTIONARY
  5
50B8
330
2
100
AcDbDictionary
280
     1
281
     1
  3
ACAD_LAYERFILTERS
360
11B10
  3
ACAD_LAYERSTATES
360
50B9
  3
ACLYDICTIONARY
360
11B0F
  0
DICTIONARY
  5
50D0
330
10
100
AcDbDictionary
280
     1
281
     1
  3
ADSK_XREC_LAYER_RECONCILED
360
50D1
  0
DICTIONARY
  5
50D2
330
3B
100
AcDbDictionary
280
     1
281
     1
  3
ADSK_XREC_LAYER_RECONCILED
360
50D3
  0
DICTIONARY
  5
50AF
330
50AE
100
AcDbDictionary
280
     1
281
     1
  3
ADSK_XREC_LAYER_RECONCILED
360
50D4
  0
DICTIONARY
  5
67C0
330
1F
100
AcDbDictionary
280
     1
281
     1
  3
ACAD_SORTENTS
360
67C1
  0
DICTIONARY
  5
1F6D5
330
10FE8
100
AcDbDictionary
280
     1
281
     1
  0
DICTIONARY
  5
1F890
330
1F641
100
AcDbDictionary
280
     1
281
     1
  3
ACAD_MTEXT_2008_RT
360
1F891
  3
ACAD_MTEXT_RT
360
1F8B2
  0
DICTIONARY
  5
1F892
330
1F685
100
AcDbDictionary
280
     1
281
     1
  3
ACAD_MTEXT_2008_RT
360
1F893
  3
ACAD_MTEXT_RT
360
1F8B3
  0
DICTIONARY
  5
1F894
330
1F686
100
AcDbDictionary
280
     1
281
     1
  3
ACAD_MTEXT_2008_RT
360
1F895
  3
ACAD_MTEXT_RT
360
1F8B4
  0
DICTIONARY
  5
1F896
330
1F6AB
100
AcDbDictionary
280
     1
281
     1
  3
ACAD_MTEXT_2008_RT
360
1F897
  3
ACAD_MTEXT_RT
360
1F8B5
  0
DICTIONARY
  5
1F898
330
1F6AE
100
AcDbDictionary
280
     1
281
     1
  3
ACAD_MTEXT_2008_RT
360
1F899
  3
ACAD_MTEXT_RT
360
1F8B6
  0
DICTIONARY
  5
1F89A
330
1F6AF
100
AcDbDictionary
280
     1
281
     1
  3
ACAD_MTEXT_2008_RT
360
1F89B
  3
ACAD_MTEXT_RT
360
1F8B7
  0
DICTIONARY
  5
1F89C
330
1F6B9
100
AcDbDictionary
280
     1
281
     1
  3
ACAD_MTEXT_2008_RT
360
1F89D
  3
ACAD_MTEXT_RT
360
1F8B8
  0
DICTIONARY
  5
1F89E
330
1F6BA
100
AcDbDictionary
280
     1
281
     1
  3
ACAD_MTEXT_2008_RT
360
1F89F
  3
ACAD_MTEXT_RT
360
1F8B9
  0
DICTIONARY
  5
1F8A0
330
1F6BB
100
AcDbDictionary
280
     1
281
     1
  3
ACAD_MTEXT_2008_RT
360
1F8A1
  3
ACAD_MTEXT_RT
360
1F8BA
  0
DICTIONARY
  5
1F8A2
330
1F6C9
100
AcDbDictionary
280
     1
281
     1
  3
ACAD_MTEXT_2008_RT
360
1F8A3
  3
ACAD_MTEXT_RT
360
1F8BB
  0
DICTIONARY
  5
1F8A4
330
1F6CA
100
AcDbDictionary
280
     1
281
     1
  3
ACAD_MTEXT_2008_RT
360
1F8A5
  3
ACAD_MTEXT_RT
360
1F8BC
  0
DICTIONARY
  5
1F8A6
330
1F6CB
100
AcDbDictionary
280
     1
281
     1
  3
ACAD_MTEXT_2008_RT
360
1F8A7
  3
ACAD_MTEXT_RT
360
1F8BD
  0
DICTIONARY
  5
1F88C
330
6E00
100
AcDbDictionary
280
     1
281
     1
  3
ACAD_MTEXT_2008_RT
360
1F88D
  3
ACAD_MTEXT_RT
360
1F8B0
  0
DICTIONARY
  5
1F88E
330
7228
100
AcDbDictionary
280
     1
281
     1
  3
ACAD_MTEXT_2008_RT
360
1F88F
  3
ACAD_MTEXT_RT
360
1F8B1
  0
DICTIONARY
  5
4FFE
102
{ACAD_REACTORS
330
C
102
}
330
C
100
AcDbDictionary
281
     1
  0
DICTIONARY
  5
D
102
{ACAD_REACTORS
330
C
102
}
330
C
100
AcDbDictionary
281
     1
  0
DICTIONARY
  5
1A
102
{ACAD_REACTORS
330
C
102
}
330
C
100
AcDbDictionary
281
     1
  3
Layout1
350
1E
  3
Layout2
350
26
  3
Model
350
22
  0
DICTIONARY
  5
4FE5
102
{ACAD_REACTORS
330
C
102
}
330
C
100
AcDbDictionary
281
     1
  3
ByBlock
350
4FEE
  3
ByLayer
350
4FE6
  3
Global
350
4FF6
  0
DICTIONARY
  5
5022
102
{ACAD_REACTORS
330
C
102
}
330
C
100
AcDbDictionary
281
     1
  3
Standard
350
5023
  0
DICTIONARY
  5
17
102
{ACAD_REACTORS
330
C
102
}
330
C
100
AcDbDictionary
281
     1
  3
Standard
350
18
  0
DICTIONARY
  5
19
102
{ACAD_REACTORS
330
C
102
}
330
C
100
AcDbDictionary
281
     1
  0
ACDBDICTIONARYWDFLT
  5
E
102
{ACAD_REACTORS
330
C
102
}
330
C
100
AcDbDictionary
281
     1
  3
Normal
350
F
100
AcDbDictionaryWithDefault
340
F
  0
DICTIONARY
  5
6537
102
{ACAD_REACTORS
330
C
102
}
330
C
100
AcDbDictionary
281
     1
  3
{1DC63513-1B1A-422F-9880-65CFD2B8D533}
350
6538
  0
DICTIONARY
  5
5000
102
{ACAD_REACTORS
330
C
102
}
330
C
100
AcDbDictionary
281
     1
  3
A0
350
5001
  3
A1
350
5002
  3
A2
350
5003
  3
A3
350
5004
  3
A4
350
5005
  3
A5
350
5006
  3
A6
350
5007
  3
A7
350
5008
  3
A8
350
5009
  3
A9
350
500A
  3
B0
350
500B
  3
B1
350
500C
  3
B2
350
500D
  3
B3
350
500E
  3
B4
350
500F
  3
B5
350
5010
  3
B6
350
5011
  3
B7
350
5012
  3
B8
350
5013
  3
B9
350
5014
  3
C0
350
5015
  3
C1
350
5016
  3
C2
350
5017
  3
C3
350
5018
  3
C4
350
5019
  3
C5
350
501A
  3
C6
350
501B
  3
C7
350
501C
  3
C8
350
501D
  3
C9
350
501E
  3
D0
350
501F
  3
D1
350
5020
  3
D2
350
5021
  0
DICTIONARY
  5
4FE3
102
{ACAD_REACTORS
330
C
102
}
330
C
100
AcDbDictionary
281
     1
  3
Standard
350
4FFF
  0
DICTIONARY
  5
2A
102
{ACAD_REACTORS
330
C
102
}
330
C
100
AcDbDictionary
281
     1
  3
2dWireframe
350
2F
  3
3D Hidden
350
31
  3
3dWireframe
350
30
  3
Basic
350
32
  3
Brighten
350
36
  3
ColorChange
350
3A
  3
Conceptual
350
34
  3
Dim
350
35
  3
Facepattern
350
39
  3
Flat
350
2B
  3
FlatWithEdges
350
2C
  3
Gouraud
350
2D
  3
GouraudWithEdges
350
2E
  3
Linepattern
350
38
  3
Realistic
350
33
  3
Thicken
350
37
  0
XRECORD
  5
50EC
102
{ACAD_REACTORS
330
C
102
}
330
C
100
AcDbXrecord
280
     1
 90
        1
330
4FFF
330
6E00
330
7228
330
1F641
330
1F685
330
1F686
330
1F6AB
330
1F6AE
330
1F6AF
330
1F6B9
330
1F6BA
330
1F6BB
330
1F6C9
330
1F6CA
330
1F6CB
  0
DICTIONARY
  5
5108
102
{ACAD_REACTORS
330
C
102
}
330
C
100
AcDbDictionary
281
     1
  3
CANNOSCALE
350
510B
  3
CMLEADERSTYLE
350
510A
  3
CTABLESTYLE
350
5109
  3
DIMASSOC
350
510E
  3
INDEXCTL
350
510D
  3
LIGHTINGUNITS
350
1F54A
  3
LOFTANG1
350
1F831
  3
LOFTANG2
350
1F832
  3
MSLTSCALE
350
1F549
  3
SORTENTS
350
510C
  0
DICTIONARY
  5
11ACE
102
{ACAD_REACTORS
330
C
102
}
330
C
100
AcDbDictionary
281
     1
  3
ASEBlockHierarchyIndexRecord
350
11ACF
1001
DCO15
1040
1901610418.781
  0
XRECORD
  5
1F8A8
102
{ACAD_REACTORS
330
C
102
}
330
C
100
AcDbXrecord
280
     1
  1
DWGPROPS COOKIE
  2

  3

  4

  6

  7

  8
yl.gao
  9

300
=
301
=
302
=
303
=
304
=
305
=
306
=
307
=
308
=
309
=
 40
0.956434050925926
 41
2456524.383632987
 42
2460291.621811528
  1

 90
        0
  0
DICTIONARY
  5
1F3EE
102
{ACAD_REACTORS
330
C
102
}
330
C
100
AcDbDictionary
281
     1
  3
lxx_dimth
350
1F3EF
  0
DICTIONARY
  5
11B10
102
{ACAD_REACTORS
330
50B8
102
}
330
50B8
100
AcDbDictionary
281
     1
  0
DICTIONARY
  5
50B9
102
{ACAD_REACTORS
330
50B8
102
}
330
50B8
100
AcDbDictionary
281
     1
  0
DICTIONARY
  5
11B0F
102
{ACAD_REACTORS
330
50B8
102
}
330
50B8
100
AcDbDictionary
281
     1
1001
ACAD
1000
<All
  0
XRECORD
  5
50D1
102
{ACAD_REACTORS
330
50D0
102
}
330
50D0
100
AcDbXrecord
280
     1
290
     1
  0
XRECORD
  5
50D3
102
{ACAD_REACTORS
330
50D2
102
}
330
50D2
100
AcDbXrecord
280
     1
290
     1
  0
XRECORD
  5
50D4
102
{ACAD_REACTORS
330
50AF
102
}
330
50AF
100
AcDbXrecord
280
     1
290
     1
  0
SORTENTSTABLE
  5
67C1
102
{ACAD_REACTORS
330
67C0
102
}
330
67C0
100
AcDbSortentsTable
330
1F
331
35C8
  5
35D8
331
65A0
  5
65A1
331
3943
  5
4842
331
3807
  5
3895
331
2FDE
  5
35C8
331
7228
  5
99F4
331
4842
  5
4E94
331
65A3
  5
65A4
331
28AE
  5
2A38
331
2F93
  5
2FDE
331
2C65
  5
2EE7
331
65B2
  5
65B3
331
65A1
  5
65A2
331
35D8
  5
3807
331
2EE7
  5
2F93
331
65A4
  5
65A5
331
6E00
  5
99F3
331
3895
  5
3943
  0
XRECORD
  5
1F891
102
{ACAD_REACTORS
330
1F890
102
}
330
1F890
100
AcDbXrecord
280
     1
 40
1144.0
  1
\pxqc;GQ.WU
  0
XRECORD
  5
1F8B2
102
{ACAD_REACTORS
330
1F890
102
}
330
1F890
100
AcDbXrecord
280
     1
 40
1144.0
  1
\pxqc;GQ.WU
  0
XRECORD
  5
1F893
102
{ACAD_REACTORS
330
1F892
102
}
330
1F892
100
AcDbXrecord
280
     1
 40
1262561.0
  1
\pxqc;档案员{\H0.7x;\P\Fromans|c134;Filing Clerk\fFangSong_GB2312|b0|i0|c134|p49; }
  0
XRECORD
  5
1F8B3
102
{ACAD_REACTORS
330
1F892
102
}
330
1F892
100
AcDbXrecord
280
     1
 40
448513.0
  1
\pxqc;档案员{\H0.7x;\P\Fromans|c134;Filing Clerk\fFangSong_GB2312|b0|i0|c134|p49; }
  0
XRECORD
  5
1F895
102
{ACAD_REACTORS
330
1F894
102
}
330
1F894
100
AcDbXrecord
280
     1
 40
650528.0
  1
\pxqc;日期{\Fromans|c134;/Date}
  0
XRECORD
  5
1F8B4
102
{ACAD_REACTORS
330
1F894
102
}
330
1F894
100
AcDbXrecord
280
     1
 40
58584.0
  1
\pxqc;日期{\Fromans|c134;/Date}
  0
XRECORD
  5
1F897
102
{ACAD_REACTORS
330
1F896
102
}
330
1F896
100
AcDbXrecord
280
     1
 40
2318748.0
  1
\pxsm0.7;{\f仿宋_GB2312|b0|i0|c134|p49;标准化}\PStand.
  0
XRECORD
  5
1F8B5
102
{ACAD_REACTORS
330
1F896
102
}
330
1F896
100
AcDbXrecord
280
     1
 40
55334.0
  1
\pxsm0.7;{\f仿宋_GB2312|b0|i0|c134|p49;标准化}\PStand.
  0
XRECORD
  5
1F899
102
{ACAD_REACTORS
330
1F898
102
}
330
1F898
100
AcDbXrecord
280
     1
 40
118135.0
  1
\pxsm0.7;签名\P{\Fromans|c134;Signature} 
  0
XRECORD
  5
1F8B6
102
{ACAD_REACTORS
330
1F898
102
}
330
1F898
100
AcDbXrecord
280
     1
 40
48353.0
  1
\pxsm0.7;签名\P{\Fromans|c134;Signature} 
  0
XRECORD
  5
1F89B
102
{ACAD_REACTORS
330
1F89A
102
}
330
1F89A
100
AcDbXrecord
280
     1
 40
108939.0
  1
\pxsm0.7,qc;处数\P{\Fromans|c134;Number }
  0
XRECORD
  5
1F8B7
102
{ACAD_REACTORS
330
1F89A
102
}
330
1F89A
100
AcDbXrecord
280
     1
 40
38427.0
  1
\pxsm0.7,qc;处数\P{\Fromans|c134;Number }
  0
XRECORD
  5
1F89D
102
{ACAD_REACTORS
330
1F89C
102
}
330
1F89C
100
AcDbXrecord
280
     1
 40
125762.0
  1
\pxsm0.7;标记\P{\Fromans|c134;Mark}
  0
XRECORD
  5
1F8B8
102
{ACAD_REACTORS
330
1F89C
102
}
330
1F89C
100
AcDbXrecord
280
     1
 40
31190.0
  1
\pxsm0.7;标记\P{\Fromans|c134;Mark}
  0
XRECORD
  5
1F89F
102
{ACAD_REACTORS
330
1F89E
102
}
330
1F89E
100
AcDbXrecord
280
     1
 40
111973.0
  1
\pxsm0.7;审核\P{\Fromans|c134;Checked}
  0
XRECORD
  5
1F8B9
102
{ACAD_REACTORS
330
1F89E
102
}
330
1F89E
100
AcDbXrecord
280
     1
 40
39355.0
  1
\pxsm0.7;审核\P{\Fromans|c134;Checked}
  0
XRECORD
  5
1F8A1
102
{ACAD_REACTORS
330
1F8A0
102
}
330
1F8A0
100
AcDbXrecord
280
     1
 40
137968.0
  1
\pxsm0.7;绘图\P{\Fromans|c134;Drawn\Ftxt|c134; }
  0
XRECORD
  5
1F8BA
102
{ACAD_REACTORS
330
1F8A0
102
}
330
1F8A0
100
AcDbXrecord
280
     1
 40
66730.0
  1
\pxsm0.7;绘图\P{\Fromans|c134;Drawn\Ftxt|c134; }
  0
XRECORD
  5
1F8A3
102
{ACAD_REACTORS
330
1F8A2
102
}
330
1F8A2
100
AcDbXrecord
280
     1
 40
106320.0
  1
\pxsm0.7;批准\P{\Fromans|c134;Approved}
  0
XRECORD
  5
1F8BB
102
{ACAD_REACTORS
330
1F8A2
102
}
330
1F8A2
100
AcDbXrecord
280
     1
 40
43787.0
  1
\pxsm0.7;批准\P{\Fromans|c134;Approved}
  0
XRECORD
  5
1F8A5
102
{ACAD_REACTORS
330
1F8A4
102
}
330
1F8A4
100
AcDbXrecord
280
     1
 40
127283.0
  1
\pxsm0.7;工艺\P{\Fromans|c134;Process}
  0
XRECORD
  5
1F8BC
102
{ACAD_REACTORS
330
1F8A4
102
}
330
1F8A4
100
AcDbXrecord
280
     1
 40
40691.0
  1
\pxsm0.7;工艺\P{\Fromans|c134;Process}
  0
XRECORD
  5
1F8A7
102
{ACAD_REACTORS
330
1F8A6
102
}
330
1F8A6
100
AcDbXrecord
280
     1
 40
106220.0
  1
\pxsm0.7;日期\P{\Fromans|c134;Date}
  0
XRECORD
  5
1F8BD
102
{ACAD_REACTORS
330
1F8A6
102
}
330
1F8A6
100
AcDbXrecord
280
     1
 40
30977.0
  1
\pxsm0.7;日期\P{\Fromans|c134;Date}
  0
XRECORD
  5
1F88D
102
{ACAD_REACTORS
330
1F88C
102
}
330
1F88C
100
AcDbXrecord
280
     1
 40
4337400697.0
  1
\A1;\pxql;{\f仿宋_GB2312|b0|i0|c134|p49;技术参数}:\P{\f仿宋_GB2312|b0|i0|c134|p49;插芯：}\P- {\f仿宋_GB2312|b0|i0|c134|p49;插针数}: 8\P- {\f仿宋_GB2312|b0|i0|c134|p49;额定电流}: 10A\P- {\f仿宋_GB2312|b0|i0|c134|p49;额定电压}: -120V/{\f仿宋_GB2312|b0|i0|c134|p49;～}50V\P- {\f仿宋_GB2
  1
312|b0|i0|c134|p49;额定脉冲电压}: 0.8kV\P- {\f仿宋_GB2312|b0|i0|c134|p49;污染等级}: 3\P- {\f仿宋_GB2312|b0|i0|c134|p49;依据}UL/CSA{\f仿宋_GB2312|b0|i0|c134|p49;的额定电压}: 50V\P- {\f仿宋_GB2312|b0|i0|c134|p49;额定电压（直流电压）}: 120V\P- {\f仿宋_GB2312|b0|i0|c134|p49;绝缘阻抗}: {\f仿宋_GB2
  1
312|b0|i0|c134|p49;≥}10{\H0.7x;\S10^ ;}Ω\P- {\f仿宋_GB2312|b0|i0|c134|p49;材料}: {\f仿宋_GB2312|b0|i0|c134|p49;聚碳酸酯}\P- {\f仿宋_GB2312|b0|i0|c134|p49;颜色}: RAL 7032{\f仿宋_GB2312|b0|i0|c134|p49;（浅灰色）}\P- {\f仿宋_GB2312|b0|i0|c134|p49;温度范围}: -40{\f仿宋_GB2312|b0|i0|c
  1
134|p49;℃} - +125{\f仿宋_GB2312|b0|i0|c134|p49;℃}\P- {\f仿宋_GB2312|b0|i0|c134|p49;依据}UL 94{\f仿宋_GB2312|b0|i0|c134|p49;的阻燃等级}: V0\P\pq*;- {\f仿宋_GB2312|b0|i0|c134|p49;可插拔次数}: {\f仿宋_GB2312|b0|i0|c134|p49;≥}500\P\pql;{\f仿宋_GB2312|b0|i0|c134|p49;插针：}\P- {\f仿
  1
宋_GB2312|b0|i0|c134|p49;接线方式}: {\f仿宋_GB2312|b0|i0|c134|p49;冷压连接}\P- {\f仿宋_GB2312|b0|i0|c134|p49;材料}: {\f仿宋_GB2312|b0|i0|c134|p49;铜合金}\P- {\f仿宋_GB2312|b0|i0|c134|p49;表面处理：}\P\pq*;   {\f仿宋_GB2312|b0|i0|c134|p49;·} {\f仿宋_GB2312|b0|i0|c134|p49;镀银}\P\pql;
  1
   {\f仿宋_GB2312|b0|i0|c134|p49;·} {\f仿宋_GB2312|b0|i0|c134|p49;银金}\P- {\f仿宋_GB2312|b0|i0|c134|p49;接触电阻}: ≤3mΩ\P- {\f仿宋_GB2312|b0|i0|c134|p49;线径范围}: 0.14-2.5mm{\H0.7x;\S2^ ;}(26-14 AWG)\P- {\f仿宋_GB2312|b0|i0|c134|p49;工具：}\P\pq*;   {\f仿宋_GB2312|b0|i0|c13
  1
4|p49;·} {\f仿宋_GB2312|b0|i0|c134|p49;冷压钳}: TL02G\P\pql;   {\f仿宋_GB2312|b0|i0|c134|p49;·} {\f仿宋_GB2312|b0|i0|c134|p49;退针器}: TL00
  0
XRECORD
  5
1F8B0
102
{ACAD_REACTORS
330
1F88C
102
}
330
1F88C
100
AcDbXrecord
280
     1
 40
77126436.0
  1
\A1;\pxql;{\f仿宋_GB2312|b0|i0|c134|p49;技术参数}:\P{\f仿宋_GB2312|b0|i0|c134|p49;插芯：}\P- {\f仿宋_GB2312|b0|i0|c134|p49;插针数}: 8\P- {\f仿宋_GB2312|b0|i0|c134|p49;额定电流}: 10A\P- {\f仿宋_GB2312|b0|i0|c134|p49;额定电压}: -120V/{\f仿宋_GB2312|b0|i0|c134|p49;～}50V\P- {\f仿宋_GB2
  1
312|b0|i0|c134|p49;额定脉冲电压}: 0.8kV\P- {\f仿宋_GB2312|b0|i0|c134|p49;污染等级}: 3\P- {\f仿宋_GB2312|b0|i0|c134|p49;依据}UL/CSA{\f仿宋_GB2312|b0|i0|c134|p49;的额定电压}: 50V\P- {\f仿宋_GB2312|b0|i0|c134|p49;额定电压（直流电压）}: 120V\P- {\f仿宋_GB2312|b0|i0|c134|p49;绝缘阻抗}: {\f仿宋_GB2
  1
312|b0|i0|c134|p49;≥}10{\H0.7x;\S10^ ;}Ω\P- {\f仿宋_GB2312|b0|i0|c134|p49;材料}: {\f仿宋_GB2312|b0|i0|c134|p49;聚碳酸酯}\P- {\f仿宋_GB2312|b0|i0|c134|p49;颜色}: RAL 7032{\f仿宋_GB2312|b0|i0|c134|p49;（浅灰色）}\P- {\f仿宋_GB2312|b0|i0|c134|p49;温度范围}: -40{\f仿宋_GB2312|b0|i0|c
  1
134|p49;℃} - +125{\f仿宋_GB2312|b0|i0|c134|p49;℃}\P- {\f仿宋_GB2312|b0|i0|c134|p49;依据}UL 94{\f仿宋_GB2312|b0|i0|c134|p49;的阻燃等级}: V0\P\pq*;- {\f仿宋_GB2312|b0|i0|c134|p49;可插拔次数}: {\f仿宋_GB2312|b0|i0|c134|p49;≥}500\P\pql;{\f仿宋_GB2312|b0|i0|c134|p49;插针：}\P- {\f仿
  1
宋_GB2312|b0|i0|c134|p49;接线方式}: {\f仿宋_GB2312|b0|i0|c134|p49;冷压连接}\P- {\f仿宋_GB2312|b0|i0|c134|p49;材料}: {\f仿宋_GB2312|b0|i0|c134|p49;铜合金}\P- {\f仿宋_GB2312|b0|i0|c134|p49;表面处理：}\P\pq*;   {\f仿宋_GB2312|b0|i0|c134|p49;·} {\f仿宋_GB2312|b0|i0|c134|p49;镀银}\P\pql;
  1
   {\f仿宋_GB2312|b0|i0|c134|p49;·} {\f仿宋_GB2312|b0|i0|c134|p49;银金}\P- {\f仿宋_GB2312|b0|i0|c134|p49;接触电阻}: ≤3mΩ\P- {\f仿宋_GB2312|b0|i0|c134|p49;线径范围}: 0.14-2.5mm{\H0.7x;\S2^ ;}(26-14 AWG)\P- {\f仿宋_GB2312|b0|i0|c134|p49;工具：}\P\pq*;   {\f仿宋_GB2312|b0|i0|c13
  1
4|p49;·} {\f仿宋_GB2312|b0|i0|c134|p49;冷压钳}: TL02G\P\pql;   {\f仿宋_GB2312|b0|i0|c134|p49;·} {\f仿宋_GB2312|b0|i0|c134|p49;退针器}: TL00
  0
XRECORD
  5
1F88F
102
{ACAD_REACTORS
330
1F88E
102
}
330
1F88E
100
AcDbXrecord
280
     1
 40
155605568.0
  1
\A1;\pxql;Technical specification:\PInsters:\P- No. of contact: 8\P- Rated current: 10A\P- Rated voltage: {\f仿宋_GB2312|b0|i0|c134|p49;-120V/～50V}\P- Rated impulse voltage: 0.8kV\P- Pollution degree: 3\P- Rated voltage acc.to UL/CSA: 50V\P- Rated volt
  1
age(direct voltage): 120V\P- Insulation resistance: {\f仿宋_GB2312|b0|i0|c134|p49;≥}10{\H0.7x;\S10^ ;}Ω\P- Material: polycarbonate\P- Colour: RAL 7032(light grey) \P- Temperature range: -40{\f仿宋_GB2312|b0|i0|c134|p49;℃} - +125{\f仿宋_GB2312|b0|i0|c134|p49
  1
;℃}\P- Flammability acc.to UL 94: V0\P- Mating cycles: {\f仿宋_GB2312|b0|i0|c134|p49;≥}500\PContacts:\P- Terminal: crimp terminal\P- Material: copper alloy\P- Surface:\P   {\fArial|b0|i0|c0|p34;·} Hard-silver plated\P   {\fArial|b0|i0|c0|p34;·} Hard-go
  1
ld plated\P- Contact resistance: {\fFangSong_GB2312|b0|i0|c134|p49;≤}3mΩ\P- Wire gauge: 0.14-2.5mm{\H0.7x;\S2^ ;}(26-14 AWG)\P- Tools:\P   {\fISOCPEUR|b0|i0|c0|p34;·} Crimp contact tool: TL02G\P   {\fISOCPEUR|b0|i0|c0|p34;·} Contact removal tool: TL00
  0
XRECORD
  5
1F8B1
102
{ACAD_REACTORS
330
1F88E
102
}
330
1F88E
100
AcDbXrecord
280
     1
 40
43224414.0
  1
\A1;\pxql;Technical specification:\PInsters:\P- No. of contact: 8\P- Rated current: 10A\P- Rated voltage: {\f仿宋_GB2312|b0|i0|c134|p49;-120V/～50V}\P- Rated impulse voltage: 0.8kV\P- Pollution degree: 3\P- Rated voltage acc.to UL/CSA: 50V\P- Rated volt
  1
age(direct voltage): 120V\P- Insulation resistance: {\f仿宋_GB2312|b0|i0|c134|p49;≥}10{\H0.7x;\S10^ ;}Ω\P- Material: polycarbonate\P- Colour: RAL 7032(light grey) \P- Temperature range: -40{\f仿宋_GB2312|b0|i0|c134|p49;℃} - +125{\f仿宋_GB2312|b0|i0|c134|p49
  1
;℃}\P- Flammability acc.to UL 94: V0\P- Mating cycles: {\f仿宋_GB2312|b0|i0|c134|p49;≥}500\PContacts:\P- Terminal: crimp terminal\P- Material: copper alloy\P- Surface:\P   {\fArial|b0|i0|c0|p34;·} Hard-silver plated\P   {\fArial|b0|i0|c0|p34;·} Hard-go
  1
ld plated\P- Contact resistance: {\fFangSong_GB2312|b0|i0|c134|p49;≤}3mΩ\P- Wire gauge: 0.14-2.5mm{\H0.7x;\S2^ ;}(26-14 AWG)\P- Tools:\P   {\fISOCPEUR|b0|i0|c0|p34;·} Crimp contact tool: TL02G\P   {\fISOCPEUR|b0|i0|c0|p34;·} Contact removal tool: TL00
  0
LAYOUT
  5
1E
102
{ACAD_XDICTIONARY
360
1F8A9
102
}
102
{ACAD_REACTORS
330
1A
102
}
330
1A
100
AcDbPlotSettings
  1

  2
none_device
  4

  6

 40
0.0
 41
0.0
 42
0.0
 43
0.0
 44
0.0
 45
0.0
 46
0.0
 47
0.0
 48
0.0
 49
0.0
140
0.0
141
0.0
142
1.0
143
1.0
 70
   688
 72
     0
 73
     0
 74
     5
  7

 75
    16
147
1.0
148
0.0
149
0.0
100
AcDbLayout
  1
Layout1
 70
     1
 71
     1
 10
0.0
 20
0.0
 11
12.0
 21
9.0
 12
0.0
 22
0.0
 32
0.0
 14
1.000000000000000E+20
 24
1.000000000000000E+20
 34
1.000000000000000E+20
 15
-1.000000000000000E+20
 25
-1.000000000000000E+20
 35
-1.000000000000000E+20
146
0.0
 13
0.0
 23
0.0
 33
0.0
 16
1.0
 26
0.0
 36
0.0
 17
0.0
 27
1.0
 37
0.0
 76
     0
330
1B
  0
LAYOUT
  5
26
102
{ACAD_XDICTIONARY
360
1F8AD
102
}
102
{ACAD_REACTORS
330
1A
102
}
330
1A
100
AcDbPlotSettings
  1

  2
none_device
  4

  6

 40
0.0
 41
0.0
 42
0.0
 43
0.0
 44
0.0
 45
0.0
 46
0.0
 47
0.0
 48
0.0
 49
0.0
140
0.0
141
0.0
142
1.0
143
1.0
 70
   688
 72
     0
 73
     0
 74
     5
  7

 75
    16
147
1.0
148
0.0
149
0.0
100
AcDbLayout
  1
Layout2
 70
     1
 71
     2
 10
0.0
 20
0.0
 11
0.0
 21
0.0
 12
0.0
 22
0.0
 32
0.0
 14
0.0
 24
0.0
 34
0.0
 15
0.0
 25
0.0
 35
0.0
146
0.0
 13
0.0
 23
0.0
 33
0.0
 16
1.0
 26
0.0
 36
0.0
 17
0.0
 27
1.0
 37
0.0
 76
     0
330
23
  0
LAYOUT
  5
22
102
{ACAD_XDICTIONARY
360
1F8AB
102
}
102
{ACAD_REACTORS
330
1A
102
}
330
1A
100
AcDbPlotSettings
  1

  2
Adobe PDF Converter.pc3
  4
A4
  6

 40
3.174999952316281
 41
3.174999952316281
 42
3.17498779296875
 43
3.175003051757812
 44
297.0318298339844
 45
209.9733276367186
 46
0.0000000000000076
 47
1.630241740247063
 48
246.9897427644609
 49
39.36804549891383
140
544.952097801264
141
244.7492402188181
142
1.0
143
1.025046328645055
 70
  3764
 72
     1
 73
     0
 74
     4
  7
monochrome.ctb
 75
     0
147
0.9755656618192436
148
-246.9897427644609
149
-39.36804549891383
100
AcDbLayout
  1
Model
 70
     1
 71
     0
 10
0.0
 20
0.0
 11
12.0
 21
9.0
 12
0.0
 22
0.0
 32
0.0
 14
1.000000000000000E+20
 24
1.000000000000000E+20
 34
1.000000000000000E+20
 15
-1.000000000000000E+20
 25
-1.000000000000000E+20
 35
-1.000000000000000E+20
146
0.0
 13
0.0
 23
0.0
 33
0.0
 16
1.0
 26
0.0
 36
0.0
 17
0.0
 27
1.0
 37
0.0
 76
     0
330
1F
331
29
1001
ACAD_PSEXT
1000
Adobe PDF Converter.pc3
1000
Adobe PDF Converter
1000
桌面\*.pdf
1000

1070
     0
  0
MATERIAL
  5
4FEE
102
{ACAD_XDICTIONARY
360
4FEF
102
}
102
{ACAD_REACTORS
330
4FE5
102
}
330
4FE5
100
AcDbMaterial
  1
ByBlock
 72
     0
 43
0.0208333333333333
 43
0.0
 43
0.0
 43
0.0
 43
0.0
 43
0.0208333333333333
 43
0.0
 43
0.0
 43
0.0
 43
0.0
 43
1.0
 43
0.0
 43
0.0
 43
0.0
 43
0.0
 43
1.0
 77
     0
 47
0.0208333333333333
 47
0.0
 47
0.0
 47
0.0
 47
0.0
 47
0.0208333333333333
 47
0.0
 47
0.0
 47
0.0
 47
0.0
 47
1.0
 47
0.0
 47
0.0
 47
0.0
 47
0.0
 47
1.0
171
     0
 49
0.0208333333333333
 49
0.0
 49
0.0
 49
0.0
 49
0.0
 49
0.0208333333333333
 49
0.0
 49
0.0
 49
0.0
 49
0.0
 49
1.0
 49
0.0
 49
0.0
 49
0.0
 49
0.0
 49
1.0
175
     0
142
0.0208333333333333
142
0.0
142
0.0
142
0.0
142
0.0
142
0.0208333333333333
142
0.0
142
0.0
142
0.0
142
0.0
142
1.0
142
0.0
142
0.0
142
0.0
142
0.0
142
1.0
179
     0
144
0.0208333333333333
144
0.0
144
0.0
144
0.0
144
0.0
144
0.0208333333333333
144
0.0
144
0.0
144
0.0
144
0.0
144
1.0
144
0.0
144
0.0
144
0.0
144
0.0
144
1.0
147
0.0208333333333333
147
0.0
147
0.0
147
0.0
147
0.0
147
0.0208333333333333
147
0.0
147
0.0
147
0.0
147
0.0
147
1.0
147
0.0
147
0.0
147
0.0
147
0.0
147
1.0
  0
MATERIAL
  5
4FE6
102
{ACAD_XDICTIONARY
360
4FE7
102
}
102
{ACAD_REACTORS
330
4FE5
102
}
330
4FE5
100
AcDbMaterial
  1
ByLayer
 72
     0
 43
0.0208333333333333
 43
0.0
 43
0.0
 43
0.0
 43
0.0
 43
0.0208333333333333
 43
0.0
 43
0.0
 43
0.0
 43
0.0
 43
1.0
 43
0.0
 43
0.0
 43
0.0
 43
0.0
 43
1.0
 77
     0
 47
0.0208333333333333
 47
0.0
 47
0.0
 47
0.0
 47
0.0
 47
0.0208333333333333
 47
0.0
 47
0.0
 47
0.0
 47
0.0
 47
1.0
 47
0.0
 47
0.0
 47
0.0
 47
0.0
 47
1.0
171
     0
 49
0.0208333333333333
 49
0.0
 49
0.0
 49
0.0
 49
0.0
 49
0.0208333333333333
 49
0.0
 49
0.0
 49
0.0
 49
0.0
 49
1.0
 49
0.0
 49
0.0
 49
0.0
 49
0.0
 49
1.0
175
     0
142
0.0208333333333333
142
0.0
142
0.0
142
0.0
142
0.0
142
0.0208333333333333
142
0.0
142
0.0
142
0.0
142
0.0
142
1.0
142
0.0
142
0.0
142
0.0
142
0.0
142
1.0
179
     0
144
0.0208333333333333
144
0.0
144
0.0
144
0.0
144
0.0
144
0.0208333333333333
144
0.0
144
0.0
144
0.0
144
0.0
144
1.0
144
0.0
144
0.0
144
0.0
144
0.0
144
1.0
147
0.0208333333333333
147
0.0
147
0.0
147
0.0
147
0.0
147
0.0208333333333333
147
0.0
147
0.0
147
0.0
147
0.0
147
1.0
147
0.0
147
0.0
147
0.0
147
0.0
147
1.0
  0
MATERIAL
  5
4FF6
102
{ACAD_XDICTIONARY
360
4FF7
102
}
102
{ACAD_REACTORS
330
4FE5
102
}
330
4FE5
100
AcDbMaterial
  1
Global
 72
     0
 43
0.0208333333333333
 43
0.0
 43
0.0
 43
0.0
 43
0.0
 43
0.0208333333333333
 43
0.0
 43
0.0
 43
0.0
 43
0.0
 43
1.0
 43
0.0
 43
0.0
 43
0.0
 43
0.0
 43
1.0
 77
     0
 47
0.0208333333333333
 47
0.0
 47
0.0
 47
0.0
 47
0.0
 47
0.0208333333333333
 47
0.0
 47
0.0
 47
0.0
 47
0.0
 47
1.0
 47
0.0
 47
0.0
 47
0.0
 47
0.0
 47
1.0
171
     0
 49
0.0208333333333333
 49
0.0
 49
0.0
 49
0.0
 49
0.0
 49
0.0208333333333333
 49
0.0
 49
0.0
 49
0.0
 49
0.0
 49
1.0
 49
0.0
 49
0.0
 49
0.0
 49
0.0
 49
1.0
175
     0
142
0.0208333333333333
142
0.0
142
0.0
142
0.0
142
0.0
142
0.0208333333333333
142
0.0
142
0.0
142
0.0
142
0.0
142
1.0
142
0.0
142
0.0
142
0.0
142
0.0
142
1.0
179
     0
144
0.0208333333333333
144
0.0
144
0.0
144
0.0
144
0.0
144
0.0208333333333333
144
0.0
144
0.0
144
0.0
144
0.0
144
1.0
144
0.0
144
0.0
144
0.0
144
0.0
144
1.0
147
0.0208333333333333
147
0.0
147
0.0
147
0.0
147
0.0
147
0.0208333333333333
147
0.0
147
0.0
147
0.0
147
0.0
147
1.0
147
0.0
147
0.0
147
0.0
147
0.0
147
1.0
  0
MLEADERSTYLE
  5
5023
102
{ACAD_REACTORS
330
5022
102
}
330
5022
100
AcDbMLeaderStyle
170
     2
171
     1
172
     0
 90
        2
 40
0.0
 41
0.0
173
     1
 91
-1056964608
340
14
 92
       -2
290
     1
 42
0.09
291
     1
 43
0.36
  3
Standard
 44
0.18
300

342
11
174
     1
178
     6
175
     1
176
     0
 93
-1056964608
 45
0.18
292
     0
297
     0
 46
0.18
 94
-1056964608
 47
1.0
 49
1.0
140
1.0
293
     1
141
0.0
294
     1
177
     0
142
1.0
295
     0
296
     0
143
0.125
1001
ACAD_MLEADERVER
1070
     2
  0
MLINESTYLE
  5
18
102
{ACAD_REACTORS
330
17
102
}
330
17
100
AcDbMlineStyle
  2
STANDARD
 70
     0
  3

 62
   256
 51
90.0
 52
90.0
 71
     2
 49
0.5
 62
   256
  6
BYLAYER
 49
-0.5
 62
   256
  6
BYLAYER
  0
ACDBPLACEHOLDER
  5
F
102
{ACAD_REACTORS
330
E
102
}
330
E
  0
MENTALRAYRENDERSETTINGS
  5
6538
102
{ACAD_REACTORS
330
6537
102
}
330
6537
100
AcDbRenderSettings
 90
        2
  1
中
290
     1
290
     1
290
     1
290
     1
  1

  1
渲染质量好于“低级”。包括纹理过滤并且强制双面处于激活状态。处理中等级反锯齿和 5 反射/折射的光线跟踪深度。
 90
        0
100
AcDbMentalRayRenderSettings
 90
        2
 90
        0
 90
        1
 70
     2
 40
3.0
 40
3.0
 40
0.0500000007450581
 40
0.0500000007450581
 40
0.0500000007450581
 40
0.0500000007450581
 70
     0
290
     0
290
     1
 90
        5
 90
        5
 90
        5
290
     0
 90
      500
290
     0
 40
1.0
 90
    10000
 90
        5
 90
        5
 90
        5
290
     0
 90
      200
290
     0
290
     0
290
     0
 40
0.1
 40
1.0
 40
1500.0
 70
     0
 70
     0
 40
10.0
 70
     0
 70
     0
290
     0
  1

 90
       32
 70
     0
 90
     1048
290
     0
 40
1.0
  0
SCALE
  5
5001
102
{ACAD_REACTORS
330
5000
102
}
330
5000
100
AcDbScale
 70
     0
300
1:1
140
1.0
141
1.0
290
     1
  0
SCALE
  5
5002
102
{ACAD_REACTORS
330
5000
102
}
330
5000
100
AcDbScale
 70
     0
300
1:2
140
1.0
141
2.0
290
     0
  0
SCALE
  5
5003
102
{ACAD_REACTORS
330
5000
102
}
330
5000
100
AcDbScale
 70
     0
300
1:4
140
1.0
141
4.0
290
     0
  0
SCALE
  5
5004
102
{ACAD_REACTORS
330
5000
102
}
330
5000
100
AcDbScale
 70
     0
300
1:5
140
1.0
141
5.0
290
     0
  0
SCALE
  5
5005
102
{ACAD_REACTORS
330
5000
102
}
330
5000
100
AcDbScale
 70
     0
300
1:8
140
1.0
141
8.0
290
     0
  0
SCALE
  5
5006
102
{ACAD_REACTORS
330
5000
102
}
330
5000
100
AcDbScale
 70
     0
300
1:10
140
1.0
141
10.0
290
     0
  0
SCALE
  5
5007
102
{ACAD_REACTORS
330
5000
102
}
330
5000
100
AcDbScale
 70
     0
300
1:16
140
1.0
141
16.0
290
     0
  0
SCALE
  5
5008
102
{ACAD_REACTORS
330
5000
102
}
330
5000
100
AcDbScale
 70
     0
300
1:20
140
1.0
141
20.0
290
     0
  0
SCALE
  5
5009
102
{ACAD_REACTORS
330
5000
102
}
330
5000
100
AcDbScale
 70
     0
300
1:30
140
1.0
141
30.0
290
     0
  0
SCALE
  5
500A
102
{ACAD_REACTORS
330
5000
102
}
330
5000
100
AcDbScale
 70
     0
300
1:40
140
1.0
141
40.0
290
     0
  0
SCALE
  5
500B
102
{ACAD_REACTORS
330
5000
102
}
330
5000
100
AcDbScale
 70
     0
300
1:50
140
1.0
141
50.0
290
     0
  0
SCALE
  5
500C
102
{ACAD_REACTORS
330
5000
102
}
330
5000
100
AcDbScale
 70
     0
300
1:100
140
1.0
141
100.0
290
     0
  0
SCALE
  5
500D
102
{ACAD_REACTORS
330
5000
102
}
330
5000
100
AcDbScale
 70
     0
300
2:1
140
2.0
141
1.0
290
     0
  0
SCALE
  5
500E
102
{ACAD_REACTORS
330
5000
102
}
330
5000
100
AcDbScale
 70
     0
300
4:1
140
4.0
141
1.0
290
     0
  0
SCALE
  5
500F
102
{ACAD_REACTORS
330
5000
102
}
330
5000
100
AcDbScale
 70
     0
300
8:1
140
8.0
141
1.0
290
     0
  0
SCALE
  5
5010
102
{ACAD_REACTORS
330
5000
102
}
330
5000
100
AcDbScale
 70
     0
300
10:1
140
10.0
141
1.0
290
     0
  0
SCALE
  5
5011
102
{ACAD_REACTORS
330
5000
102
}
330
5000
100
AcDbScale
 70
     0
300
100:1
140
100.0
141
1.0
290
     0
  0
SCALE
  5
5012
102
{ACAD_REACTORS
330
5000
102
}
330
5000
100
AcDbScale
 70
     0
300
1/128" = 1'-0"
140
0.0078125
141
12.0
290
     0
  0
SCALE
  5
5013
102
{ACAD_REACTORS
330
5000
102
}
330
5000
100
AcDbScale
 70
     0
300
1/64" = 1'-0"
140
0.015625
141
12.0
290
     0
  0
SCALE
  5
5014
102
{ACAD_REACTORS
330
5000
102
}
330
5000
100
AcDbScale
 70
     0
300
1/32" = 1'-0"
140
0.03125
141
12.0
290
     0
  0
SCALE
  5
5015
102
{ACAD_REACTORS
330
5000
102
}
330
5000
100
AcDbScale
 70
     0
300
1/16" = 1'-0"
140
0.0625
141
12.0
290
     0
  0
SCALE
  5
5016
102
{ACAD_REACTORS
330
5000
102
}
330
5000
100
AcDbScale
 70
     0
300
3/32" = 1'-0"
140
0.09375
141
12.0
290
     0
  0
SCALE
  5
5017
102
{ACAD_REACTORS
330
5000
102
}
330
5000
100
AcDbScale
 70
     0
300
1/8" = 1'-0"
140
0.125
141
12.0
290
     0
  0
SCALE
  5
5018
102
{ACAD_REACTORS
330
5000
102
}
330
5000
100
AcDbScale
 70
     0
300
3/16" = 1'-0"
140
0.1875
141
12.0
290
     0
  0
SCALE
  5
5019
102
{ACAD_REACTORS
330
5000
102
}
330
5000
100
AcDbScale
 70
     0
300
1/4" = 1'-0"
140
0.25
141
12.0
290
     0
  0
SCALE
  5
501A
102
{ACAD_REACTORS
330
5000
102
}
330
5000
100
AcDbScale
 70
     0
300
3/8" = 1'-0"
140
0.375
141
12.0
290
     0
  0
SCALE
  5
501B
102
{ACAD_REACTORS
330
5000
102
}
330
5000
100
AcDbScale
 70
     0
300
1/2" = 1'-0"
140
0.5
141
12.0
290
     0
  0
SCALE
  5
501C
102
{ACAD_REACTORS
330
5000
102
}
330
5000
100
AcDbScale
 70
     0
300
3/4" = 1'-0"
140
0.75
141
12.0
290
     0
  0
SCALE
  5
501D
102
{ACAD_REACTORS
330
5000
102
}
330
5000
100
AcDbScale
 70
     0
300
1" = 1'-0"
140
1.0
141
12.0
290
     0
  0
SCALE
  5
501E
102
{ACAD_REACTORS
330
5000
102
}
330
5000
100
AcDbScale
 70
     0
300
1-1/2" = 1'-0"
140
1.5
141
12.0
290
     0
  0
SCALE
  5
501F
102
{ACAD_REACTORS
330
5000
102
}
330
5000
100
AcDbScale
 70
     0
300
3" = 1'-0"
140
3.0
141
12.0
290
     0
  0
SCALE
  5
5020
102
{ACAD_REACTORS
330
5000
102
}
330
5000
100
AcDbScale
 70
     0
300
6" = 1'-0"
140
6.0
141
12.0
290
     0
  0
SCALE
  5
5021
102
{ACAD_REACTORS
330
5000
102
}
330
5000
100
AcDbScale
 70
     0
300
1'-0" = 1'-0"
140
12.0
141
12.0
290
     0
  0
TABLESTYLE
  5
4FFF
102
{ACAD_XDICTIONARY
360
50D6
102
}
102
{ACAD_REACTORS
330
4FE3
102
}
330
4FE3
100
AcDbTableStyle
  3
Standard
 70
     0
 71
     0
 40
0.06
 41
0.06
280
     0
281
     0
  7
Standard
140
0.18
170
     2
 62
     0
 63
     7
283
     0
274
    -2
284
     1
 64
     0
275
    -2
285
     1
 65
     0
276
    -2
286
     1
 66
     0
277
    -2
287
     1
 67
     0
278
    -2
288
     1
 68
     0
279
    -2
289
     1
 69
     0
  7
Standard
140
0.25
170
     5
 62
     0
 63
     7
283
     0
274
    -2
284
     1
 64
     0
275
    -2
285
     1
 65
     0
276
    -2
286
     1
 66
     0
277
    -2
287
     1
 67
     0
278
    -2
288
     1
 68
     0
279
    -2
289
     1
 69
     0
  7
Standard
140
0.18
170
     5
 62
     0
 63
     7
283
     0
274
    -2
284
     1
 64
     0
275
    -2
285
     1
 65
     0
276
    -2
286
     1
 66
     0
277
    -2
287
     1
 67
     0
278
    -2
288
     1
 68
     0
279
    -2
289
     1
 69
     0
  0
VISUALSTYLE
  5
2F
102
{ACAD_REACTORS
330
2A
102
}
330
2A
100
AcDbVisualStyle
  2
2dWireframe
 70
     4
 71
     0
 72
     2
 73
     0
 90
        0
 40
-0.6
 41
-30.0
 62
     5
 63
     7
 74
     1
 91
        4
 64
     7
 65
   257
 75
     1
175
     1
 42
1.0
 92
        0
 66
   257
 43
1.0
 76
     1
 77
     6
 78
     2
 67
     7
 79
     5
170
     0
171
     0
290
     0
174
     0
 93
        1
 44
0.0
173
     0
291
     0
 45
0.0
1001
ACAD
1000
AcDbSavedByObjectVersion
1070
     0
1000
AcDbSavedByObjectVersion
1070
     0
1000
AcDbSavedByObjectVersion
1070
     0
1000
AcDbSavedByObjectVersion
1070
     0
1000
AcDbSavedByObjectVersion
1070
     0
1000
AcDbSavedByObjectVersion
1070
     0
1000
AcDbSavedByObjectVersion
1070
     0
1000
AcDbSavedByObjectVersion
1070
     0
1000
AcDbSavedByObjectVersion
1070
     0
1000
AcDbSavedByObjectVersion
1070
     0
1000
AcDbSavedByObjectVersion
1070
     0
1000
AcDbSavedByObjectVersion
1070
     0
1000
AcDbSavedByObjectVersion
1070
     0
1000
AcDbSavedByObjectVersion
1070
     0
1000
AcDbSavedByObjectVersion
1070
     0
1000
AcDbSavedByObjectVersion
1070
     0
1000
AcDbSavedByObjectVersion
1070
     0
1000
AcDbSavedByObjectVersion
1070
     0
1000
AcDbSavedByObjectVersion
1070
     0
1000
AcDbSavedByObjectVersion
1070
     0
1000
AcDbSavedByObjectVersion
1070
     0
1000
AcDbSavedByObjectVersion
1070
     0
1000
AcDbSavedByObjectVersion
1070
     0
1000
AcDbSavedByObjectVersion
1070
     0
1000
AcDbSavedByObjectVersion
1070
     0
1000
AcDbSavedByObjectVersion
1070
     0
1000
AcDbSavedByObjectVersion
1070
     0
1000
AcDbSavedByObjectVersion
1070
     0
1000
AcDbSavedByObjectVersion
1070
     0
1000
AcDbSavedByObjectVersion
1070
     0
1000
AcDbSavedByObjectVersion
1070
     0
1000
AcDbSavedByObjectVersion
1070
     0
1000
AcDbSavedByObjectVersion
1070
     0
1000
AcDbSavedByObjectVersion
1070
     0
1000
AcDbSavedByObjectVersion
1070
     0
1000
AcDbSavedByObjectVersion
1070
     0
1000
AcDbSavedByObjectVersion
1070
     0
1000
AcDbSavedByObjectVersion
1070
     0
1000
AcDbSavedByObjectVersion
1070
     0
1000
AcDbSavedByObjectVersion
1070
     0
1000
AcDbSavedByObjectVersion
1070
     0
1000
AcDbSavedByObjectVersion
1070
     0
1000
AcDbSavedByObjectVersion
1070
     0
1000
AcDbSavedByObjectVersion
1070
     0
1000
AcDbSavedByObjectVersion
1070
     0
1000
AcDbSavedByObjectVersion
1070
     0
  0
VISUALSTYLE
  5
31
102
{ACAD_REACTORS
330
2A
102
}
330
2A
100
AcDbVisualStyle
  2
3D Hidden
 70
     6
 71
     1
 72
     2
 73
     2
 90
        0
 40
-0.6
 41
-30.0
 62
     5
 63
     7
 74
     2
 91
        2
 64
     7
 65
   257
 75
     2
175
     1
 42
40.0
 92
        0
 66
   257
 43
1.0
 76
     1
 77
     6
 78
     2
 67
     7
 79
     3
170
     0
171
     0
290
     0
174
     0
 93
        1
 44
0.0
173
     0
291
     0
 45
0.0
1001
ACAD
1000
AcDbSavedByObjectVersion
1070
     0
1000
AcDbSavedByObjectVersion
1070
     0
1000
AcDbSavedByObjectVersion
1070
     0
1000
AcDbSavedByObjectVersion
1070
     0
1000
AcDbSavedByObjectVersion
1070
     0
1000
AcDbSavedByObjectVersion
1070
     0
1000
AcDbSavedByObjectVersion
1070
     0
1000
AcDbSavedByObjectVersion
1070
     0
1000
AcDbSavedByObjectVersion
1070
     0
1000
AcDbSavedByObjectVersion
1070
     0
1000
AcDbSavedByObjectVersion
1070
     0
1000
AcDbSavedByObjectVersion
1070
     0
1000
AcDbSavedByObjectVersion
1070
     0
1000
AcDbSavedByObjectVersion
1070
     0
1000
AcDbSavedByObjectVersion
1070
     0
1000
AcDbSavedByObjectVersion
1070
     0
1000
AcDbSavedByObjectVersion
1070
     0
1000
AcDbSavedByObjectVersion
1070
     0
1000
AcDbSavedByObjectVersion
1070
     0
1000
AcDbSavedByObjectVersion
1070
     0
1000
AcDbSavedByObjectVersion
1070
     0
1000
AcDbSavedByObjectVersion
1070
     0
1000
AcDbSavedByObjectVersion
1070
     0
1000
AcDbSavedByObjectVersion
1070
     0
1000
AcDbSavedByObjectVersion
1070
     0
1000
AcDbSavedByObjectVersion
1070
     0
1000
AcDbSavedByObjectVersion
1070
     0
1000
AcDbSavedByObjectVersion
1070
     0
1000
AcDbSavedByObjectVersion
1070
     0
1000
AcDbSavedByObjectVersion
1070
     0
1000
AcDbSavedByObjectVersion
1070
     0
1000
AcDbSavedByObjectVersion
1070
     0
1000
AcDbSavedByObjectVersion
1070
     0
1000
AcDbSavedByObjectVersion
1070
     0
1000
AcDbSavedByObjectVersion
1070
     0
1000
AcDbSavedByObjectVersion
1070
     0
1000
AcDbSavedByObjectVersion
1070
     0
1000
AcDbSavedByObjectVersion
1070
     0
1000
AcDbSavedByObjectVersion
1070
     0
1000
AcDbSavedByObjectVersion
1070
     0
1000
AcDbSavedByObjectVersion
1070
     0
1000
AcDbSavedByObjectVersion
1070
     0
1000
AcDbSavedByObjectVersion
1070
     0
1000
AcDbSavedByObjectVersion
1070
     0
1000
AcDbSavedByObjectVersion
1070
     0
1000
AcDbSavedByObjectVersion
1070
     0
  0
VISUALSTYLE
  5
30
102
{ACAD_REACTORS
330
2A
102
}
330
2A
100
AcDbVisualStyle
  2
3dWireframe
 70
     5
 71
     0
 72
     2
 73
     0
 90
        0
 40
-0.6
 41
-30.0
 62
     5
 63
     7
 74
     1
 91
        4
 64
     7
 65
   257
 75
     1
175
     1
 42
1.0
 92
        0
 66
   257
 43
1.0
 76
     1
 77
     6
 78
     2
 67
     7
 79
     5
170
     0
171
     0
290
     0
174
     0
 93
        1
 44
0.0
173
     0
291
     0
 45
0.0
1001
ACAD
1000
AcDbSavedByObjectVersion
1070
     0
1000
AcDbSavedByObjectVersion
1070
     0
1000
AcDbSavedByObjectVersion
1070
     0
1000
AcDbSavedByObjectVersion
1070
     0
1000
AcDbSavedByObjectVersion
1070
     0
1000
AcDbSavedByObjectVersion
1070
     0
1000
AcDbSavedByObjectVersion
1070
     0
1000
AcDbSavedByObjectVersion
1070
     0
1000
AcDbSavedByObjectVersion
1070
     0
1000
AcDbSavedByObjectVersion
1070
     0
1000
AcDbSavedByObjectVersion
1070
     0
1000
AcDbSavedByObjectVersion
1070
     0
1000
AcDbSavedByObjectVersion
1070
     0
1000
AcDbSavedByObjectVersion
1070
     0
1000
AcDbSavedByObjectVersion
1070
     0
1000
AcDbSavedByObjectVersion
1070
     0
1000
AcDbSavedByObjectVersion
1070
     0
1000
AcDbSavedByObjectVersion
1070
     0
1000
AcDbSavedByObjectVersion
1070
     0
1000
AcDbSavedByObjectVersion
1070
     0
1000
AcDbSavedByObjectVersion
1070
     0
1000
AcDbSavedByObjectVersion
1070
     0
1000
AcDbSavedByObjectVersion
1070
     0
1000
AcDbSavedByObjectVersion
1070
     0
1000
AcDbSavedByObjectVersion
1070
     0
1000
AcDbSavedByObjectVersion
1070
     0
1000
AcDbSavedByObjectVersion
1070
     0
1000
AcDbSavedByObjectVersion
1070
     0
1000
AcDbSavedByObjectVersion
1070
     0
1000
AcDbSavedByObjectVersion
1070
     0
1000
AcDbSavedByObjectVersion
1070
     0
1000
AcDbSavedByObjectVersion
1070
     0
1000
AcDbSavedByObjectVersion
1070
     0
1000
AcDbSavedByObjectVersion
1070
     0
1000
AcDbSavedByObjectVersion
1070
     0
1000
AcDbSavedByObjectVersion
1070
     0
1000
AcDbSavedByObjectVersion
1070
     0
1000
AcDbSavedByObjectVersion
1070
     0
1000
AcDbSavedByObjectVersion
1070
     0
1000
AcDbSavedByObjectVersion
1070
     0
1000
AcDbSavedByObjectVersion
1070
     0
1000
AcDbSavedByObjectVersion
1070
     0
1000
AcDbSavedByObjectVersion
1070
     0
1000
AcDbSavedByObjectVersion
1070
     0
1000
AcDbSavedByObjectVersion
1070
     0
1000
AcDbSavedByObjectVersion
1070
     0
  0
VISUALSTYLE
  5
32
102
{ACAD_REACTORS
330
2A
102
}
330
2A
100
AcDbVisualStyle
  2
Basic
 70
     7
 71
     1
 72
     0
 73
     1
 90
        0
 40
-0.6
 41
-30.0
 62
     5
 63
     7
 74
     0
 91
        4
 64
     7
 65
   257
 75
     1
175
     1
 42
1.0
 92
        8
 66
     7
 43
1.0
 76
     1
 77
     6
 78
     2
 67
     7
 79
     5
170
     0
171
     0
290
     0
174
     0
 93
        1
 44
0.0
173
     0
291
     1
 45
0.0
1001
ACAD
1000
AcDbSavedByObjectVersion
1070
     0
1000
AcDbSavedByObjectVersion
1070
     0
1000
AcDbSavedByObjectVersion
1070
     0
1000
AcDbSavedByObjectVersion
1070
     0
1000
AcDbSavedByObjectVersion
1070
     0
1000
AcDbSavedByObjectVersion
1070
     0
1000
AcDbSavedByObjectVersion
1070
     0
1000
AcDbSavedByObjectVersion
1070
     0
1000
AcDbSavedByObjectVersion
1070
     0
1000
AcDbSavedByObjectVersion
1070
     0
1000
AcDbSavedByObjectVersion
1070
     0
1000
AcDbSavedByObjectVersion
1070
     0
1000
AcDbSavedByObjectVersion
1070
     0
1000
AcDbSavedByObjectVersion
1070
     0
1000
AcDbSavedByObjectVersion
1070
     0
1000
AcDbSavedByObjectVersion
1070
     0
1000
AcDbSavedByObjectVersion
1070
     0
1000
AcDbSavedByObjectVersion
1070
     0
1000
AcDbSavedByObjectVersion
1070
     0
1000
AcDbSavedByObjectVersion
1070
     0
1000
AcDbSavedByObjectVersion
1070
     0
1000
AcDbSavedByObjectVersion
1070
     0
1000
AcDbSavedByObjectVersion
1070
     0
1000
AcDbSavedByObjectVersion
1070
     0
1000
AcDbSavedByObjectVersion
1070
     0
1000
AcDbSavedByObjectVersion
1070
     0
1000
AcDbSavedByObjectVersion
1070
     0
1000
AcDbSavedByObjectVersion
1070
     0
1000
AcDbSavedByObjectVersion
1070
     0
1000
AcDbSavedByObjectVersion
1070
     0
1000
AcDbSavedByObjectVersion
1070
     0
1000
AcDbSavedByObjectVersion
1070
     0
1000
AcDbSavedByObjectVersion
1070
     0
1000
AcDbSavedByObjectVersion
1070
     0
1000
AcDbSavedByObjectVersion
1070
     0
1000
AcDbSavedByObjectVersion
1070
     0
1000
AcDbSavedByObjectVersion
1070
     0
1000
AcDbSavedByObjectVersion
1070
     0
1000
AcDbSavedByObjectVersion
1070
     0
1000
AcDbSavedByObjectVersion
1070
     0
1000
AcDbSavedByObjectVersion
1070
     0
1000
AcDbSavedByObjectVersion
1070
     0
1000
AcDbSavedByObjectVersion
1070
     0
1000
AcDbSavedByObjectVersion
1070
     0
1000
AcDbSavedByObjectVersion
1070
     0
1000
AcDbSavedByObjectVersion
1070
     0
  0
VISUALSTYLE
  5
36
102
{ACAD_REACTORS
330
2A
102
}
330
2A
100
AcDbVisualStyle
  2
Brighten
 70
    12
 71
     2
 72
     2
 73
     0
 90
        0
 40
-0.6
 41
-30.0
 62
     5
 63
     7
 74
     1
 91
        4
 64
     7
 65
   257
 75
     1
175
     1
 42
1.0
 92
        8
 66
     7
 43
1.0
 76
     1
 77
     6
 78
     2
 67
     7
 79
     5
170
     0
171
     0
290
     0
174
     0
 93
        1
 44
50.0
173
     0
291
     1
 45
0.0
1001
ACAD
1000
AcDbSavedByObjectVersion
1070
     0
1000
AcDbSavedByObjectVersion
1070
     0
1000
AcDbSavedByObjectVersion
1070
     0
1000
AcDbSavedByObjectVersion
1070
     0
1000
AcDbSavedByObjectVersion
1070
     0
1000
AcDbSavedByObjectVersion
1070
     0
1000
AcDbSavedByObjectVersion
1070
     0
1000
AcDbSavedByObjectVersion
1070
     0
1000
AcDbSavedByObjectVersion
1070
     0
1000
AcDbSavedByObjectVersion
1070
     0
1000
AcDbSavedByObjectVersion
1070
     0
1000
AcDbSavedByObjectVersion
1070
     0
1000
AcDbSavedByObjectVersion
1070
     0
1000
AcDbSavedByObjectVersion
1070
     0
1000
AcDbSavedByObjectVersion
1070
     0
1000
AcDbSavedByObjectVersion
1070
     0
1000
AcDbSavedByObjectVersion
1070
     0
1000
AcDbSavedByObjectVersion
1070
     0
1000
AcDbSavedByObjectVersion
1070
     0
1000
AcDbSavedByObjectVersion
1070
     0
1000
AcDbSavedByObjectVersion
1070
     0
1000
AcDbSavedByObjectVersion
1070
     0
1000
AcDbSavedByObjectVersion
1070
     0
1000
AcDbSavedByObjectVersion
1070
     0
1000
AcDbSavedByObjectVersion
1070
     0
1000
AcDbSavedByObjectVersion
1070
     0
1000
AcDbSavedByObjectVersion
1070
     0
1000
AcDbSavedByObjectVersion
1070
     0
1000
AcDbSavedByObjectVersion
1070
     0
1000
AcDbSavedByObjectVersion
1070
     0
1000
AcDbSavedByObjectVersion
1070
     0
1000
AcDbSavedByObjectVersion
1070
     0
1000
AcDbSavedByObjectVersion
1070
     0
1000
AcDbSavedByObjectVersion
1070
     0
1000
AcDbSavedByObjectVersion
1070
     0
1000
AcDbSavedByObjectVersion
1070
     0
1000
AcDbSavedByObjectVersion
1070
     0
1000
AcDbSavedByObjectVersion
1070
     0
1000
AcDbSavedByObjectVersion
1070
     0
1000
AcDbSavedByObjectVersion
1070
     0
1000
AcDbSavedByObjectVersion
1070
     0
1000
AcDbSavedByObjectVersion
1070
     0
1000
AcDbSavedByObjectVersion
1070
     0
1000
AcDbSavedByObjectVersion
1070
     0
1000
AcDbSavedByObjectVersion
1070
     0
1000
AcDbSavedByObjectVersion
1070
     0
  0
VISUALSTYLE
  5
3A
102
{ACAD_REACTORS
330
2A
102
}
330
2A
100
AcDbVisualStyle
  2
ColorChange
 70
    16
 71
     2
 72
     2
 73
     3
 90
        0
 40
-0.6
 41
-30.0
 62
     5
 63
     8
 74
     1
 91
        4
 64
     7
 65
   257
 75
     1
175
     1
 42
1.0
 92
        8
 66
     8
 43
1.0
 76
     1
 77
     6
 78
     2
 67
     7
 79
     5
170
     0
171
     0
290
     0
174
     0
 93
        1
 44
0.0
173
     0
291
     1
 45
0.0
1001
ACAD
1000
AcDbSavedByObjectVersion
1070
     0
1000
AcDbSavedByObjectVersion
1070
     0
1000
AcDbSavedByObjectVersion
1070
     0
1000
AcDbSavedByObjectVersion
1070
     0
1000
AcDbSavedByObjectVersion
1070
     0
1000
AcDbSavedByObjectVersion
1070
     0
1000
AcDbSavedByObjectVersion
1070
     0
1000
AcDbSavedByObjectVersion
1070
     0
1000
AcDbSavedByObjectVersion
1070
     0
1000
AcDbSavedByObjectVersion
1070
     0
1000
AcDbSavedByObjectVersion
1070
     0
1000
AcDbSavedByObjectVersion
1070
     0
1000
AcDbSavedByObjectVersion
1070
     0
1000
AcDbSavedByObjectVersion
1070
     0
1000
AcDbSavedByObjectVersion
1070
     0
1000
AcDbSavedByObjectVersion
1070
     0
1000
AcDbSavedByObjectVersion
1070
     0
1000
AcDbSavedByObjectVersion
1070
     0
1000
AcDbSavedByObjectVersion
1070
     0
1000
AcDbSavedByObjectVersion
1070
     0
1000
AcDbSavedByObjectVersion
1070
     0
1000
AcDbSavedByObjectVersion
1070
     0
1000
AcDbSavedByObjectVersion
1070
     0
1000
AcDbSavedByObjectVersion
1070
     0
1000
AcDbSavedByObjectVersion
1070
     0
1000
AcDbSavedByObjectVersion
1070
     0
1000
AcDbSavedByObjectVersion
1070
     0
1000
AcDbSavedByObjectVersion
1070
     0
1000
AcDbSavedByObjectVersion
1070
     0
1000
AcDbSavedByObjectVersion
1070
     0
1000
AcDbSavedByObjectVersion
1070
     0
1000
AcDbSavedByObjectVersion
1070
     0
1000
AcDbSavedByObjectVersion
1070
     0
1000
AcDbSavedByObjectVersion
1070
     0
1000
AcDbSavedByObjectVersion
1070
     0
1000
AcDbSavedByObjectVersion
1070
     0
1000
AcDbSavedByObjectVersion
1070
     0
1000
AcDbSavedByObjectVersion
1070
     0
1000
AcDbSavedByObjectVersion
1070
     0
1000
AcDbSavedByObjectVersion
1070
     0
1000
AcDbSavedByObjectVersion
1070
     0
1000
AcDbSavedByObjectVersion
1070
     0
1000
AcDbSavedByObjectVersion
1070
     0
1000
AcDbSavedByObjectVersion
1070
     0
1000
AcDbSavedByObjectVersion
1070
     0
1000
AcDbSavedByObjectVersion
1070
     0
  0
VISUALSTYLE
  5
34
102
{ACAD_REACTORS
330
2A
102
}
330
2A
100
AcDbVisualStyle
  2
Conceptual
 70
     9
 71
     3
 72
     2
 73
     0
 90
        0
 40
-0.6
 41
-30.0
 62
     5
 63
     7
 74
     2
 91
        2
 64
     7
 65
   257
 75
     1
175
     1
 42
40.0
 92
        8
 66
     7
 43
1.0
 76
     1
 77
     6
 78
     2
 67
     7
 79
     3
170
     0
171
     0
290
     0
174
     0
 93
        1
 44
0.0
173
     0
291
     0
 45
0.0
1001
ACAD
1000
AcDbSavedByObjectVersion
1070
     0
1000
AcDbSavedByObjectVersion
1070
     0
1000
AcDbSavedByObjectVersion
1070
     0
1000
AcDbSavedByObjectVersion
1070
     0
1000
AcDbSavedByObjectVersion
1070
     0
1000
AcDbSavedByObjectVersion
1070
     0
1000
AcDbSavedByObjectVersion
1070
     0
1000
AcDbSavedByObjectVersion
1070
     0
1000
AcDbSavedByObjectVersion
1070
     0
1000
AcDbSavedByObjectVersion
1070
     0
1000
AcDbSavedByObjectVersion
1070
     0
1000
AcDbSavedByObjectVersion
1070
     0
1000
AcDbSavedByObjectVersion
1070
     0
1000
AcDbSavedByObjectVersion
1070
     0
1000
AcDbSavedByObjectVersion
1070
     0
1000
AcDbSavedByObjectVersion
1070
     0
1000
AcDbSavedByObjectVersion
1070
     0
1000
AcDbSavedByObjectVersion
1070
     0
1000
AcDbSavedByObjectVersion
1070
     0
1000
AcDbSavedByObjectVersion
1070
     0
1000
AcDbSavedByObjectVersion
1070
     0
1000
AcDbSavedByObjectVersion
1070
     0
1000
AcDbSavedByObjectVersion
1070
     0
1000
AcDbSavedByObjectVersion
1070
     0
1000
AcDbSavedByObjectVersion
1070
     0
1000
AcDbSavedByObjectVersion
1070
     0
1000
AcDbSavedByObjectVersion
1070
     0
1000
AcDbSavedByObjectVersion
1070
     0
1000
AcDbSavedByObjectVersion
1070
     0
1000
AcDbSavedByObjectVersion
1070
     0
1000
AcDbSavedByObjectVersion
1070
     0
1000
AcDbSavedByObjectVersion
1070
     0
1000
AcDbSavedByObjectVersion
1070
     0
1000
AcDbSavedByObjectVersion
1070
     0
1000
AcDbSavedByObjectVersion
1070
     0
1000
AcDbSavedByObjectVersion
1070
     0
1000
AcDbSavedByObjectVersion
1070
     0
1000
AcDbSavedByObjectVersion
1070
     0
1000
AcDbSavedByObjectVersion
1070
     0
1000
AcDbSavedByObjectVersion
1070
     0
1000
AcDbSavedByObjectVersion
1070
     0
1000
AcDbSavedByObjectVersion
1070
     0
1000
AcDbSavedByObjectVersion
1070
     0
1000
AcDbSavedByObjectVersion
1070
     0
1000
AcDbSavedByObjectVersion
1070
     0
1000
AcDbSavedByObjectVersion
1070
     0
  0
VISUALSTYLE
  5
35
102
{ACAD_REACTORS
330
2A
102
}
330
2A
100
AcDbVisualStyle
  2
Dim
 70
    11
 71
     2
 72
     2
 73
     0
 90
        0
 40
-0.6
 41
-30.0
 62
     5
 63
     7
 74
     1
 91
        4
 64
     7
 65
   257
 75
     1
175
     1
 42
1.0
 92
        8
 66
     7
 43
1.0
 76
     1
 77
     6
 78
     2
 67
     7
 79
     5
170
     0
171
     0
290
     0
174
     0
 93
        1
 44
-50.0
173
     0
291
     1
 45
0.0
1001
ACAD
1000
AcDbSavedByObjectVersion
1070
     0
1000
AcDbSavedByObjectVersion
1070
     0
1000
AcDbSavedByObjectVersion
1070
     0
1000
AcDbSavedByObjectVersion
1070
     0
1000
AcDbSavedByObjectVersion
1070
     0
1000
AcDbSavedByObjectVersion
1070
     0
1000
AcDbSavedByObjectVersion
1070
     0
1000
AcDbSavedByObjectVersion
1070
     0
1000
AcDbSavedByObjectVersion
1070
     0
1000
AcDbSavedByObjectVersion
1070
     0
1000
AcDbSavedByObjectVersion
1070
     0
1000
AcDbSavedByObjectVersion
1070
     0
1000
AcDbSavedByObjectVersion
1070
     0
1000
AcDbSavedByObjectVersion
1070
     0
1000
AcDbSavedByObjectVersion
1070
     0
1000
AcDbSavedByObjectVersion
1070
     0
1000
AcDbSavedByObjectVersion
1070
     0
1000
AcDbSavedByObjectVersion
1070
     0
1000
AcDbSavedByObjectVersion
1070
     0
1000
AcDbSavedByObjectVersion
1070
     0
1000
AcDbSavedByObjectVersion
1070
     0
1000
AcDbSavedByObjectVersion
1070
     0
1000
AcDbSavedByObjectVersion
1070
     0
1000
AcDbSavedByObjectVersion
1070
     0
1000
AcDbSavedByObjectVersion
1070
     0
1000
AcDbSavedByObjectVersion
1070
     0
1000
AcDbSavedByObjectVersion
1070
     0
1000
AcDbSavedByObjectVersion
1070
     0
1000
AcDbSavedByObjectVersion
1070
     0
1000
AcDbSavedByObjectVersion
1070
     0
1000
AcDbSavedByObjectVersion
1070
     0
1000
AcDbSavedByObjectVersion
1070
     0
1000
AcDbSavedByObjectVersion
1070
     0
1000
AcDbSavedByObjectVersion
1070
     0
1000
AcDbSavedByObjectVersion
1070
     0
1000
AcDbSavedByObjectVersion
1070
     0
1000
AcDbSavedByObjectVersion
1070
     0
1000
AcDbSavedByObjectVersion
1070
     0
1000
AcDbSavedByObjectVersion
1070
     0
1000
AcDbSavedByObjectVersion
1070
     0
1000
AcDbSavedByObjectVersion
1070
     0
1000
AcDbSavedByObjectVersion
1070
     0
1000
AcDbSavedByObjectVersion
1070
     0
1000
AcDbSavedByObjectVersion
1070
     0
1000
AcDbSavedByObjectVersion
1070
     0
1000
AcDbSavedByObjectVersion
1070
     0
  0
VISUALSTYLE
  5
39
102
{ACAD_REACTORS
330
2A
102
}
330
2A
100
AcDbVisualStyle
  2
Facepattern
 70
    15
 71
     2
 72
     2
 73
     0
 90
        0
 40
-0.6
 41
-30.0
 62
     5
 63
     7
 74
     1
 91
        4
 64
     7
 65
   257
 75
     1
175
     1
 42
1.0
 92
        8
 66
     7
 43
1.0
 76
     1
 77
     6
 78
     2
 67
     7
 79
     5
170
     0
171
     0
290
     0
174
     0
 93
        1
 44
0.0
173
     0
291
     1
 45
0.0
1001
ACAD
1000
AcDbSavedByObjectVersion
1070
     0
1000
AcDbSavedByObjectVersion
1070
     0
1000
AcDbSavedByObjectVersion
1070
     0
1000
AcDbSavedByObjectVersion
1070
     0
1000
AcDbSavedByObjectVersion
1070
     0
1000
AcDbSavedByObjectVersion
1070
     0
1000
AcDbSavedByObjectVersion
1070
     0
1000
AcDbSavedByObjectVersion
1070
     0
1000
AcDbSavedByObjectVersion
1070
     0
1000
AcDbSavedByObjectVersion
1070
     0
1000
AcDbSavedByObjectVersion
1070
     0
1000
AcDbSavedByObjectVersion
1070
     0
1000
AcDbSavedByObjectVersion
1070
     0
1000
AcDbSavedByObjectVersion
1070
     0
1000
AcDbSavedByObjectVersion
1070
     0
1000
AcDbSavedByObjectVersion
1070
     0
1000
AcDbSavedByObjectVersion
1070
     0
1000
AcDbSavedByObjectVersion
1070
     0
1000
AcDbSavedByObjectVersion
1070
     0
1000
AcDbSavedByObjectVersion
1070
     0
1000
AcDbSavedByObjectVersion
1070
     0
1000
AcDbSavedByObjectVersion
1070
     0
1000
AcDbSavedByObjectVersion
1070
     0
1000
AcDbSavedByObjectVersion
1070
     0
1000
AcDbSavedByObjectVersion
1070
     0
1000
AcDbSavedByObjectVersion
1070
     0
1000
AcDbSavedByObjectVersion
1070
     0
1000
AcDbSavedByObjectVersion
1070
     0
1000
AcDbSavedByObjectVersion
1070
     0
1000
AcDbSavedByObjectVersion
1070
     0
1000
AcDbSavedByObjectVersion
1070
     0
1000
AcDbSavedByObjectVersion
1070
     0
1000
AcDbSavedByObjectVersion
1070
     0
1000
AcDbSavedByObjectVersion
1070
     0
1000
AcDbSavedByObjectVersion
1070
     0
1000
AcDbSavedByObjectVersion
1070
     0
1000
AcDbSavedByObjectVersion
1070
     0
1000
AcDbSavedByObjectVersion
1070
     0
1000
AcDbSavedByObjectVersion
1070
     0
1000
AcDbSavedByObjectVersion
1070
     0
1000
AcDbSavedByObjectVersion
1070
     0
1000
AcDbSavedByObjectVersion
1070
     0
1000
AcDbSavedByObjectVersion
1070
     0
1000
AcDbSavedByObjectVersion
1070
     0
1000
AcDbSavedByObjectVersion
1070
     0
1000
AcDbSavedByObjectVersion
1070
     0
  0
VISUALSTYLE
  5
2B
102
{ACAD_REACTORS
330
2A
102
}
330
2A
100
AcDbVisualStyle
  2
Flat
 70
     0
 71
     2
 72
     1
 73
     1
 90
        2
 40
-0.6
 41
30.0
 62
     5
 63
     7
 74
     0
 91
        4
 64
     7
 65
   257
 75
     1
175
     1
 42
1.0
 92
        8
 66
     7
 43
1.0
 76
     1
 77
     6
 78
     2
 67
     7
 79
     5
170
     0
171
     0
290
     0
174
     0
 93
       13
 44
0.0
173
     0
291
     1
 45
0.0
1001
ACAD
1000
AcDbSavedByObjectVersion
1070
     0
1000
AcDbSavedByObjectVersion
1070
     0
1000
AcDbSavedByObjectVersion
1070
     0
1000
AcDbSavedByObjectVersion
1070
     0
1000
AcDbSavedByObjectVersion
1070
     0
1000
AcDbSavedByObjectVersion
1070
     0
1000
AcDbSavedByObjectVersion
1070
     0
1000
AcDbSavedByObjectVersion
1070
     0
1000
AcDbSavedByObjectVersion
1070
     0
1000
AcDbSavedByObjectVersion
1070
     0
1000
AcDbSavedByObjectVersion
1070
     0
1000
AcDbSavedByObjectVersion
1070
     0
1000
AcDbSavedByObjectVersion
1070
     0
1000
AcDbSavedByObjectVersion
1070
     0
1000
AcDbSavedByObjectVersion
1070
     0
1000
AcDbSavedByObjectVersion
1070
     0
1000
AcDbSavedByObjectVersion
1070
     0
1000
AcDbSavedByObjectVersion
1070
     0
1000
AcDbSavedByObjectVersion
1070
     0
1000
AcDbSavedByObjectVersion
1070
     0
1000
AcDbSavedByObjectVersion
1070
     0
1000
AcDbSavedByObjectVersion
1070
     0
1000
AcDbSavedByObjectVersion
1070
     0
1000
AcDbSavedByObjectVersion
1070
     0
1000
AcDbSavedByObjectVersion
1070
     0
1000
AcDbSavedByObjectVersion
1070
     0
1000
AcDbSavedByObjectVersion
1070
     0
1000
AcDbSavedByObjectVersion
1070
     0
1000
AcDbSavedByObjectVersion
1070
     0
1000
AcDbSavedByObjectVersion
1070
     0
1000
AcDbSavedByObjectVersion
1070
     0
1000
AcDbSavedByObjectVersion
1070
     0
1000
AcDbSavedByObjectVersion
1070
     0
1000
AcDbSavedByObjectVersion
1070
     0
1000
AcDbSavedByObjectVersion
1070
     0
1000
AcDbSavedByObjectVersion
1070
     0
1000
AcDbSavedByObjectVersion
1070
     0
1000
AcDbSavedByObjectVersion
1070
     0
1000
AcDbSavedByObjectVersion
1070
     0
1000
AcDbSavedByObjectVersion
1070
     0
1000
AcDbSavedByObjectVersion
1070
     0
1000
AcDbSavedByObjectVersion
1070
     0
1000
AcDbSavedByObjectVersion
1070
     0
1000
AcDbSavedByObjectVersion
1070
     0
1000
AcDbSavedByObjectVersion
1070
     0
1000
AcDbSavedByObjectVersion
1070
     0
  0
VISUALSTYLE
  5
2C
102
{ACAD_REACTORS
330
2A
102
}
330
2A
100
AcDbVisualStyle
  2
FlatWithEdges
 70
     1
 71
     2
 72
     1
 73
     1
 90
        2
 40
-0.6
 41
30.0
 62
     5
 63
     7
 74
     1
 91
        4
 64
     7
 65
   257
 75
     1
175
     1
 42
1.0
 92
        0
 66
   257
 43
1.0
 76
     1
 77
     6
 78
     2
 67
     7
 79
     5
170
     0
171
     0
290
     0
174
     0
 93
       13
 44
0.0
173
     0
291
     1
 45
0.0
1001
ACAD
1000
AcDbSavedByObjectVersion
1070
     0
1000
AcDbSavedByObjectVersion
1070
     0
1000
AcDbSavedByObjectVersion
1070
     0
1000
AcDbSavedByObjectVersion
1070
     0
1000
AcDbSavedByObjectVersion
1070
     0
1000
AcDbSavedByObjectVersion
1070
     0
1000
AcDbSavedByObjectVersion
1070
     0
1000
AcDbSavedByObjectVersion
1070
     0
1000
AcDbSavedByObjectVersion
1070
     0
1000
AcDbSavedByObjectVersion
1070
     0
1000
AcDbSavedByObjectVersion
1070
     0
1000
AcDbSavedByObjectVersion
1070
     0
1000
AcDbSavedByObjectVersion
1070
     0
1000
AcDbSavedByObjectVersion
1070
     0
1000
AcDbSavedByObjectVersion
1070
     0
1000
AcDbSavedByObjectVersion
1070
     0
1000
AcDbSavedByObjectVersion
1070
     0
1000
AcDbSavedByObjectVersion
1070
     0
1000
AcDbSavedByObjectVersion
1070
     0
1000
AcDbSavedByObjectVersion
1070
     0
1000
AcDbSavedByObjectVersion
1070
     0
1000
AcDbSavedByObjectVersion
1070
     0
1000
AcDbSavedByObjectVersion
1070
     0
1000
AcDbSavedByObjectVersion
1070
     0
1000
AcDbSavedByObjectVersion
1070
     0
1000
AcDbSavedByObjectVersion
1070
     0
1000
AcDbSavedByObjectVersion
1070
     0
1000
AcDbSavedByObjectVersion
1070
     0
1000
AcDbSavedByObjectVersion
1070
     0
1000
AcDbSavedByObjectVersion
1070
     0
1000
AcDbSavedByObjectVersion
1070
     0
1000
AcDbSavedByObjectVersion
1070
     0
1000
AcDbSavedByObjectVersion
1070
     0
1000
AcDbSavedByObjectVersion
1070
     0
1000
AcDbSavedByObjectVersion
1070
     0
1000
AcDbSavedByObjectVersion
1070
     0
1000
AcDbSavedByObjectVersion
1070
     0
1000
AcDbSavedByObjectVersion
1070
     0
1000
AcDbSavedByObjectVersion
1070
     0
1000
AcDbSavedByObjectVersion
1070
     0
1000
AcDbSavedByObjectVersion
1070
     0
1000
AcDbSavedByObjectVersion
1070
     0
1000
AcDbSavedByObjectVersion
1070
     0
1000
AcDbSavedByObjectVersion
1070
     0
1000
AcDbSavedByObjectVersion
1070
     0
1000
AcDbSavedByObjectVersion
1070
     0
  0
VISUALSTYLE
  5
2D
102
{ACAD_REACTORS
330
2A
102
}
330
2A
100
AcDbVisualStyle
  2
Gouraud
 70
     2
 71
     2
 72
     2
 73
     1
 90
        2
 40
-0.6
 41
30.0
 62
     5
 63
     7
 74
     0
 91
        4
 64
     7
 65
   257
 75
     1
175
     1
 42
1.0
 92
        0
 66
     7
 43
1.0
 76
     1
 77
     6
 78
     2
 67
     7
 79
     5
170
     0
171
     0
290
     0
174
     0
 93
       13
 44
0.0
173
     0
291
     1
 45
0.0
1001
ACAD
1000
AcDbSavedByObjectVersion
1070
     0
1000
AcDbSavedByObjectVersion
1070
     0
1000
AcDbSavedByObjectVersion
1070
     0
1000
AcDbSavedByObjectVersion
1070
     0
1000
AcDbSavedByObjectVersion
1070
     0
1000
AcDbSavedByObjectVersion
1070
     0
1000
AcDbSavedByObjectVersion
1070
     0
1000
AcDbSavedByObjectVersion
1070
     0
1000
AcDbSavedByObjectVersion
1070
     0
1000
AcDbSavedByObjectVersion
1070
     0
1000
AcDbSavedByObjectVersion
1070
     0
1000
AcDbSavedByObjectVersion
1070
     0
1000
AcDbSavedByObjectVersion
1070
     0
1000
AcDbSavedByObjectVersion
1070
     0
1000
AcDbSavedByObjectVersion
1070
     0
1000
AcDbSavedByObjectVersion
1070
     0
1000
AcDbSavedByObjectVersion
1070
     0
1000
AcDbSavedByObjectVersion
1070
     0
1000
AcDbSavedByObjectVersion
1070
     0
1000
AcDbSavedByObjectVersion
1070
     0
1000
AcDbSavedByObjectVersion
1070
     0
1000
AcDbSavedByObjectVersion
1070
     0
1000
AcDbSavedByObjectVersion
1070
     0
1000
AcDbSavedByObjectVersion
1070
     0
1000
AcDbSavedByObjectVersion
1070
     0
1000
AcDbSavedByObjectVersion
1070
     0
1000
AcDbSavedByObjectVersion
1070
     0
1000
AcDbSavedByObjectVersion
1070
     0
1000
AcDbSavedByObjectVersion
1070
     0
1000
AcDbSavedByObjectVersion
1070
     0
1000
AcDbSavedByObjectVersion
1070
     0
1000
AcDbSavedByObjectVersion
1070
     0
1000
AcDbSavedByObjectVersion
1070
     0
1000
AcDbSavedByObjectVersion
1070
     0
1000
AcDbSavedByObjectVersion
1070
     0
1000
AcDbSavedByObjectVersion
1070
     0
1000
AcDbSavedByObjectVersion
1070
     0
1000
AcDbSavedByObjectVersion
1070
     0
1000
AcDbSavedByObjectVersion
1070
     0
1000
AcDbSavedByObjectVersion
1070
     0
1000
AcDbSavedByObjectVersion
1070
     0
1000
AcDbSavedByObjectVersion
1070
     0
1000
AcDbSavedByObjectVersion
1070
     0
1000
AcDbSavedByObjectVersion
1070
     0
1000
AcDbSavedByObjectVersion
1070
     0
1000
AcDbSavedByObjectVersion
1070
     0
  0
VISUALSTYLE
  5
2E
102
{ACAD_REACTORS
330
2A
102
}
330
2A
100
AcDbVisualStyle
  2
GouraudWithEdges
 70
     3
 71
     2
 72
     2
 73
     1
 90
        2
 40
-0.6
 41
30.0
 62
     5
 63
     7
 74
     1
 91
        4
 64
     7
 65
   257
 75
     1
175
     1
 42
1.0
 92
        0
 66
   257
 43
1.0
 76
     1
 77
     6
 78
     2
 67
     7
 79
     5
170
     0
171
     0
290
     0
174
     0
 93
       13
 44
0.0
173
     0
291
     1
 45
0.0
1001
ACAD
1000
AcDbSavedByObjectVersion
1070
     0
1000
AcDbSavedByObjectVersion
1070
     0
1000
AcDbSavedByObjectVersion
1070
     0
1000
AcDbSavedByObjectVersion
1070
     0
1000
AcDbSavedByObjectVersion
1070
     0
1000
AcDbSavedByObjectVersion
1070
     0
1000
AcDbSavedByObjectVersion
1070
     0
1000
AcDbSavedByObjectVersion
1070
     0
1000
AcDbSavedByObjectVersion
1070
     0
1000
AcDbSavedByObjectVersion
1070
     0
1000
AcDbSavedByObjectVersion
1070
     0
1000
AcDbSavedByObjectVersion
1070
     0
1000
AcDbSavedByObjectVersion
1070
     0
1000
AcDbSavedByObjectVersion
1070
     0
1000
AcDbSavedByObjectVersion
1070
     0
1000
AcDbSavedByObjectVersion
1070
     0
1000
AcDbSavedByObjectVersion
1070
     0
1000
AcDbSavedByObjectVersion
1070
     0
1000
AcDbSavedByObjectVersion
1070
     0
1000
AcDbSavedByObjectVersion
1070
     0
1000
AcDbSavedByObjectVersion
1070
     0
1000
AcDbSavedByObjectVersion
1070
     0
1000
AcDbSavedByObjectVersion
1070
     0
1000
AcDbSavedByObjectVersion
1070
     0
1000
AcDbSavedByObjectVersion
1070
     0
1000
AcDbSavedByObjectVersion
1070
     0
1000
AcDbSavedByObjectVersion
1070
     0
1000
AcDbSavedByObjectVersion
1070
     0
1000
AcDbSavedByObjectVersion
1070
     0
1000
AcDbSavedByObjectVersion
1070
     0
1000
AcDbSavedByObjectVersion
1070
     0
1000
AcDbSavedByObjectVersion
1070
     0
1000
AcDbSavedByObjectVersion
1070
     0
1000
AcDbSavedByObjectVersion
1070
     0
1000
AcDbSavedByObjectVersion
1070
     0
1000
AcDbSavedByObjectVersion
1070
     0
1000
AcDbSavedByObjectVersion
1070
     0
1000
AcDbSavedByObjectVersion
1070
     0
1000
AcDbSavedByObjectVersion
1070
     0
1000
AcDbSavedByObjectVersion
1070
     0
1000
AcDbSavedByObjectVersion
1070
     0
1000
AcDbSavedByObjectVersion
1070
     0
1000
AcDbSavedByObjectVersion
1070
     0
1000
AcDbSavedByObjectVersion
1070
     0
1000
AcDbSavedByObjectVersion
1070
     0
1000
AcDbSavedByObjectVersion
1070
     0
  0
VISUALSTYLE
  5
38
102
{ACAD_REACTORS
330
2A
102
}
330
2A
100
AcDbVisualStyle
  2
Linepattern
 70
    14
 71
     2
 72
     2
 73
     0
 90
        0
 40
-0.6
 41
-30.0
 62
     5
 63
     7
 74
     1
 91
        4
 64
     7
 65
   257
 75
     7
175
     7
 42
1.0
 92
        8
 66
     7
 43
1.0
 76
     1
 77
     6
 78
     2
 67
     7
 79
     5
170
     0
171
     0
290
     0
174
     0
 93
        1
 44
0.0
173
     0
291
     1
 45
0.0
1001
ACAD
1000
AcDbSavedByObjectVersion
1070
     0
1000
AcDbSavedByObjectVersion
1070
     0
1000
AcDbSavedByObjectVersion
1070
     0
1000
AcDbSavedByObjectVersion
1070
     0
1000
AcDbSavedByObjectVersion
1070
     0
1000
AcDbSavedByObjectVersion
1070
     0
1000
AcDbSavedByObjectVersion
1070
     0
1000
AcDbSavedByObjectVersion
1070
     0
1000
AcDbSavedByObjectVersion
1070
     0
1000
AcDbSavedByObjectVersion
1070
     0
1000
AcDbSavedByObjectVersion
1070
     0
1000
AcDbSavedByObjectVersion
1070
     0
1000
AcDbSavedByObjectVersion
1070
     0
1000
AcDbSavedByObjectVersion
1070
     0
1000
AcDbSavedByObjectVersion
1070
     0
1000
AcDbSavedByObjectVersion
1070
     0
1000
AcDbSavedByObjectVersion
1070
     0
1000
AcDbSavedByObjectVersion
1070
     0
1000
AcDbSavedByObjectVersion
1070
     0
1000
AcDbSavedByObjectVersion
1070
     0
1000
AcDbSavedByObjectVersion
1070
     0
1000
AcDbSavedByObjectVersion
1070
     0
1000
AcDbSavedByObjectVersion
1070
     0
1000
AcDbSavedByObjectVersion
1070
     0
1000
AcDbSavedByObjectVersion
1070
     0
1000
AcDbSavedByObjectVersion
1070
     0
1000
AcDbSavedByObjectVersion
1070
     0
1000
AcDbSavedByObjectVersion
1070
     0
1000
AcDbSavedByObjectVersion
1070
     0
1000
AcDbSavedByObjectVersion
1070
     0
1000
AcDbSavedByObjectVersion
1070
     0
1000
AcDbSavedByObjectVersion
1070
     0
1000
AcDbSavedByObjectVersion
1070
     0
1000
AcDbSavedByObjectVersion
1070
     0
1000
AcDbSavedByObjectVersion
1070
     0
1000
AcDbSavedByObjectVersion
1070
     0
1000
AcDbSavedByObjectVersion
1070
     0
1000
AcDbSavedByObjectVersion
1070
     0
1000
AcDbSavedByObjectVersion
1070
     0
1000
AcDbSavedByObjectVersion
1070
     0
1000
AcDbSavedByObjectVersion
1070
     0
1000
AcDbSavedByObjectVersion
1070
     0
1000
AcDbSavedByObjectVersion
1070
     0
1000
AcDbSavedByObjectVersion
1070
     0
1000
AcDbSavedByObjectVersion
1070
     0
1000
AcDbSavedByObjectVersion
1070
     0
  0
VISUALSTYLE
  5
33
102
{ACAD_REACTORS
330
2A
102
}
330
2A
100
AcDbVisualStyle
  2
Realistic
 70
     8
 71
     2
 72
     2
 73
     0
 90
        0
 40
-0.6
 41
-30.0
 62
     5
 63
     7
 74
     1
 91
        0
 64
     7
 65
   257
 75
     1
175
     1
 42
1.0
 92
        8
 66
     8
 43
1.0
 76
     1
 77
     6
 78
     2
 67
     7
 79
     5
170
     0
171
     0
290
     0
174
     0
 93
       13
 44
0.0
173
     0
291
     0
 45
0.0
1001
ACAD
1000
AcDbSavedByObjectVersion
1070
     0
1000
AcDbSavedByObjectVersion
1070
     0
1000
AcDbSavedByObjectVersion
1070
     0
1000
AcDbSavedByObjectVersion
1070
     0
1000
AcDbSavedByObjectVersion
1070
     0
1000
AcDbSavedByObjectVersion
1070
     0
1000
AcDbSavedByObjectVersion
1070
     0
1000
AcDbSavedByObjectVersion
1070
     0
1000
AcDbSavedByObjectVersion
1070
     0
1000
AcDbSavedByObjectVersion
1070
     0
1000
AcDbSavedByObjectVersion
1070
     0
1000
AcDbSavedByObjectVersion
1070
     0
1000
AcDbSavedByObjectVersion
1070
     0
1000
AcDbSavedByObjectVersion
1070
     0
1000
AcDbSavedByObjectVersion
1070
     0
1000
AcDbSavedByObjectVersion
1070
     0
1000
AcDbSavedByObjectVersion
1070
     0
1000
AcDbSavedByObjectVersion
1070
     0
1000
AcDbSavedByObjectVersion
1070
     0
1000
AcDbSavedByObjectVersion
1070
     0
1000
AcDbSavedByObjectVersion
1070
     0
1000
AcDbSavedByObjectVersion
1070
     0
1000
AcDbSavedByObjectVersion
1070
     0
1000
AcDbSavedByObjectVersion
1070
     0
1000
AcDbSavedByObjectVersion
1070
     0
1000
AcDbSavedByObjectVersion
1070
     0
1000
AcDbSavedByObjectVersion
1070
     0
1000
AcDbSavedByObjectVersion
1070
     0
1000
AcDbSavedByObjectVersion
1070
     0
1000
AcDbSavedByObjectVersion
1070
     0
1000
AcDbSavedByObjectVersion
1070
     0
1000
AcDbSavedByObjectVersion
1070
     0
1000
AcDbSavedByObjectVersion
1070
     0
1000
AcDbSavedByObjectVersion
1070
     0
1000
AcDbSavedByObjectVersion
1070
     0
1000
AcDbSavedByObjectVersion
1070
     0
1000
AcDbSavedByObjectVersion
1070
     0
1000
AcDbSavedByObjectVersion
1070
     0
1000
AcDbSavedByObjectVersion
1070
     0
1000
AcDbSavedByObjectVersion
1070
     0
1000
AcDbSavedByObjectVersion
1070
     0
1000
AcDbSavedByObjectVersion
1070
     0
1000
AcDbSavedByObjectVersion
1070
     0
1000
AcDbSavedByObjectVersion
1070
     0
1000
AcDbSavedByObjectVersion
1070
     0
1000
AcDbSavedByObjectVersion
1070
     0
  0
VISUALSTYLE
  5
37
102
{ACAD_REACTORS
330
2A
102
}
330
2A
100
AcDbVisualStyle
  2
Thicken
 70
    13
 71
     2
 72
     2
 73
     0
 90
        0
 40
-0.6
 41
-30.0
 62
     5
 63
     7
 74
     1
 91
        4
 64
     7
 65
   257
 75
     1
175
     1
 42
1.0
 92
       12
 66
     7
 43
1.0
 76
     1
 77
     6
 78
     2
 67
     7
 79
     5
170
     0
171
     0
290
     0
174
     0
 93
        1
 44
0.0
173
     0
291
     1
 45
0.0
1001
ACAD
1000
AcDbSavedByObjectVersion
1070
     0
1000
AcDbSavedByObjectVersion
1070
     0
1000
AcDbSavedByObjectVersion
1070
     0
1000
AcDbSavedByObjectVersion
1070
     0
1000
AcDbSavedByObjectVersion
1070
     0
1000
AcDbSavedByObjectVersion
1070
     0
1000
AcDbSavedByObjectVersion
1070
     0
1000
AcDbSavedByObjectVersion
1070
     0
1000
AcDbSavedByObjectVersion
1070
     0
1000
AcDbSavedByObjectVersion
1070
     0
1000
AcDbSavedByObjectVersion
1070
     0
1000
AcDbSavedByObjectVersion
1070
     0
1000
AcDbSavedByObjectVersion
1070
     0
1000
AcDbSavedByObjectVersion
1070
     0
1000
AcDbSavedByObjectVersion
1070
     0
1000
AcDbSavedByObjectVersion
1070
     0
1000
AcDbSavedByObjectVersion
1070
     0
1000
AcDbSavedByObjectVersion
1070
     0
1000
AcDbSavedByObjectVersion
1070
     0
1000
AcDbSavedByObjectVersion
1070
     0
1000
AcDbSavedByObjectVersion
1070
     0
1000
AcDbSavedByObjectVersion
1070
     0
1000
AcDbSavedByObjectVersion
1070
     0
1000
AcDbSavedByObjectVersion
1070
     0
1000
AcDbSavedByObjectVersion
1070
     0
1000
AcDbSavedByObjectVersion
1070
     0
1000
AcDbSavedByObjectVersion
1070
     0
1000
AcDbSavedByObjectVersion
1070
     0
1000
AcDbSavedByObjectVersion
1070
     0
1000
AcDbSavedByObjectVersion
1070
     0
1000
AcDbSavedByObjectVersion
1070
     0
1000
AcDbSavedByObjectVersion
1070
     0
1000
AcDbSavedByObjectVersion
1070
     0
1000
AcDbSavedByObjectVersion
1070
     0
1000
AcDbSavedByObjectVersion
1070
     0
1000
AcDbSavedByObjectVersion
1070
     0
1000
AcDbSavedByObjectVersion
1070
     0
1000
AcDbSavedByObjectVersion
1070
     0
1000
AcDbSavedByObjectVersion
1070
     0
1000
AcDbSavedByObjectVersion
1070
     0
1000
AcDbSavedByObjectVersion
1070
     0
1000
AcDbSavedByObjectVersion
1070
     0
1000
AcDbSavedByObjectVersion
1070
     0
1000
AcDbSavedByObjectVersion
1070
     0
1000
AcDbSavedByObjectVersion
1070
     0
1000
AcDbSavedByObjectVersion
1070
     0
  0
DICTIONARYVAR
  5
510B
102
{ACAD_REACTORS
330
5108
102
}
330
5108
100
DictionaryVariables
280
     0
  1
1:1
  0
DICTIONARYVAR
  5
510A
102
{ACAD_REACTORS
330
5108
102
}
330
5108
100
DictionaryVariables
280
     0
  1
STANDARD
  0
DICTIONARYVAR
  5
5109
102
{ACAD_REACTORS
330
5108
102
}
330
5108
100
DictionaryVariables
280
     0
  1
STANDARD
  0
DICTIONARYVAR
  5
510E
102
{ACAD_REACTORS
330
5108
102
}
330
5108
100
DictionaryVariables
280
     0
  1
1
  0
DICTIONARYVAR
  5
510D
102
{ACAD_REACTORS
330
5108
102
}
330
5108
100
DictionaryVariables
280
     0
  1
0
  0
DICTIONARYVAR
  5
1F54A
102
{ACAD_REACTORS
330
5108
102
}
330
5108
100
DictionaryVariables
280
     0
  1
0
  0
DICTIONARYVAR
  5
1F831
102
{ACAD_REACTORS
330
5108
102
}
330
5108
100
DictionaryVariables
280
     0
  1
1.570796
  0
DICTIONARYVAR
  5
1F832
102
{ACAD_REACTORS
330
5108
102
}
330
5108
100
DictionaryVariables
280
     0
  1
1.570796
  0
DICTIONARYVAR
  5
1F549
102
{ACAD_REACTORS
330
5108
102
}
330
5108
100
DictionaryVariables
280
     0
  1
0
  0
DICTIONARYVAR
  5
510C
102
{ACAD_REACTORS
330
5108
102
}
330
5108
100
DictionaryVariables
280
     0
  1
127
  0
XRECORD
  5
11ACF
102
{ACAD_REACTORS
330
11ACE
102
}
330
11ACE
100
AcDbXrecord
280
     1
330
11089
  0
VLO-VL
  5
1F3EF
102
{ACAD_REACTORS
330
1F3EE
102
}
330
1F3EE
100
vlo_VL
 90
   -64512
 91
       12
 92
        1
 40
2.5
300
(&VLO-R . 0)
  0
DICTIONARY
  5
1F8A9
330
1E
100
AcDbDictionary
280
     1
281
     1
  3
ACAD_XREC_ROUNDTRIP
360
1F8AA
  0
DICTIONARY
  5
1F8AD
330
26
100
AcDbDictionary
280
     1
281
     1
  3
ACAD_XREC_ROUNDTRIP
360
1F8AE
  0
DICTIONARY
  5
1F8AB
330
22
100
AcDbDictionary
280
     1
281
     1
  3
ACAD_XREC_ROUNDTRIP
360
1F8AC
  0
DICTIONARY
  5
4FEF
330
4FEE
100
AcDbDictionary
280
     1
281
     1
  3
ACAD_XREC_ROUNDTRIP
360
1F3D0
  3
BUMPTILE
360
4FF1
  3
DIFFUSETILE
360
4FF0
  3
OPACITYTILE
360
4FF4
  3
REFLECTIONTILE
360
4FF3
  3
REFRACTIONTILE
360
4FF5
  3
SPECULARTILE
360
4FF2
  0
DICTIONARY
  5
4FE7
330
4FE6
100
AcDbDictionary
280
     1
281
     1
  3
ACAD_XREC_ROUNDTRIP
360
1F3CF
  3
BUMPTILE
360
4FE9
  3
DIFFUSETILE
360
4FE8
  3
OPACITYTILE
360
4FEC
  3
REFLECTIONTILE
360
4FEB
  3
REFRACTIONTILE
360
4FED
  3
SPECULARTILE
360
4FEA
  0
DICTIONARY
  5
4FF7
330
4FF6
100
AcDbDictionary
280
     1
281
     1
  3
ACAD_XREC_ROUNDTRIP
360
1F3D1
  3
BUMPTILE
360
4FF9
  3
DIFFUSETILE
360
4FF8
  3
OPACITYTILE
360
4FFC
  3
REFLECTIONTILE
360
4FFB
  3
REFRACTIONTILE
360
4FFD
  3
SPECULARTILE
360
4FFA
  0
DICTIONARY
  5
50D6
330
4FFF
100
AcDbDictionary
280
     1
281
     1
  3
ACAD_ROUNDTRIP_2008_TABLESTYLE_CELLSTYLEMAP
360
1F88B
  3
ACAD_XREC_ROUNDTRIP
360
1F8AF
  0
XRECORD
  5
1F8AA
102
{ACAD_REACTORS
330
1F8A9
102
}
330
1F8A9
100
AcDbXrecord
280
     1
102
SHADEPLOT
 70
     0
102
SHADEPLOTRESLEVEL
 70
     2
102
SHADEPLOTCUSTOMDPI
 70
   300
  0
XRECORD
  5
1F8AE
102
{ACAD_REACTORS
330
1F8AD
102
}
330
1F8AD
100
AcDbXrecord
280
     1
102
SHADEPLOT
 70
     0
102
SHADEPLOTRESLEVEL
 70
     2
102
SHADEPLOTCUSTOMDPI
 70
   300
  0
XRECORD
  5
1F8AC
102
{ACAD_REACTORS
330
1F8AB
102
}
330
1F8AB
100
AcDbXrecord
280
     1
102
SHADEPLOT
 70
     1
102
SHADEPLOTRESLEVEL
 70
     2
102
SHADEPLOTCUSTOMDPI
 70
   300
  0
XRECORD
  5
1F3D0
102
{ACAD_REACTORS
330
4FEF
102
}
330
4FEF
100
AcDbXrecord
280
     1
102
MATERIAL
148
0.0
149
0.0
149
0.0
 93
        0
 94
      127
282
     0
 72
     0
 77
     0
171
     0
175
     0
179
     0
273
     0
  0
XRECORD
  5
4FF1
102
{ACAD_REACTORS
330
4FEF
102
}
330
4FEF
100
AcDbXrecord
280
     1
270
     1
271
     1
  0
XRECORD
  5
4FF0
102
{ACAD_REACTORS
330
4FEF
102
}
330
4FEF
100
AcDbXrecord
280
     1
270
     1
271
     1
  0
XRECORD
  5
4FF4
102
{ACAD_REACTORS
330
4FEF
102
}
330
4FEF
100
AcDbXrecord
280
     1
270
     1
271
     1
  0
XRECORD
  5
4FF3
102
{ACAD_REACTORS
330
4FEF
102
}
330
4FEF
100
AcDbXrecord
280
     1
270
     1
271
     1
  0
XRECORD
  5
4FF5
102
{ACAD_REACTORS
330
4FEF
102
}
330
4FEF
100
AcDbXrecord
280
     1
270
     1
271
     1
  0
XRECORD
  5
4FF2
102
{ACAD_REACTORS
330
4FEF
102
}
330
4FEF
100
AcDbXrecord
280
     1
270
     1
271
     1
  0
XRECORD
  5
1F3CF
102
{ACAD_REACTORS
330
4FE7
102
}
330
4FE7
100
AcDbXrecord
280
     1
102
MATERIAL
148
0.0
149
0.0
149
0.0
 93
        0
 94
      127
282
     0
 72
     0
 77
     0
171
     0
175
     0
179
     0
273
     0
  0
XRECORD
  5
4FE9
102
{ACAD_REACTORS
330
4FE7
102
}
330
4FE7
100
AcDbXrecord
280
     1
270
     1
271
     1
  0
XRECORD
  5
4FE8
102
{ACAD_REACTORS
330
4FE7
102
}
330
4FE7
100
AcDbXrecord
280
     1
270
     1
271
     1
  0
XRECORD
  5
4FEC
102
{ACAD_REACTORS
330
4FE7
102
}
330
4FE7
100
AcDbXrecord
280
     1
270
     1
271
     1
  0
XRECORD
  5
4FEB
102
{ACAD_REACTORS
330
4FE7
102
}
330
4FE7
100
AcDbXrecord
280
     1
270
     1
271
     1
  0
XRECORD
  5
4FED
102
{ACAD_REACTORS
330
4FE7
102
}
330
4FE7
100
AcDbXrecord
280
     1
270
     1
271
     1
  0
XRECORD
  5
4FEA
102
{ACAD_REACTORS
330
4FE7
102
}
330
4FE7
100
AcDbXrecord
280
     1
270
     1
271
     1
  0
XRECORD
  5
1F3D1
102
{ACAD_REACTORS
330
4FF7
102
}
330
4FF7
100
AcDbXrecord
280
     1
102
MATERIAL
148
0.0
149
0.0
149
0.0
 93
        0
 94
      127
282
     0
 72
     0
 77
     0
171
     0
175
     0
179
     0
273
     0
  0
XRECORD
  5
4FF9
102
{ACAD_REACTORS
330
4FF7
102
}
330
4FF7
100
AcDbXrecord
280
     1
270
     1
271
     1
  0
XRECORD
  5
4FF8
102
{ACAD_REACTORS
330
4FF7
102
}
330
4FF7
100
AcDbXrecord
280
     1
270
     1
271
     1
  0
XRECORD
  5
4FFC
102
{ACAD_REACTORS
330
4FF7
102
}
330
4FF7
100
AcDbXrecord
280
     1
270
     1
271
     1
  0
XRECORD
  5
4FFB
102
{ACAD_REACTORS
330
4FF7
102
}
330
4FF7
100
AcDbXrecord
280
     1
270
     1
271
     1
  0
XRECORD
  5
4FFD
102
{ACAD_REACTORS
330
4FF7
102
}
330
4FF7
100
AcDbXrecord
280
     1
270
     1
271
     1
  0
XRECORD
  5
4FFA
102
{ACAD_REACTORS
330
4FF7
102
}
330
4FF7
100
AcDbXrecord
280
     1
270
     1
271
     1
  0
CELLSTYLEMAP
  5
1F88B
102
{ACAD_REACTORS
330
50D6
102
}
330
50D6
100
AcDbCellStyleMap
 90
        3
300
CELLSTYLE
  1
TABLEFORMAT_BEGIN
 90
        5
170
     1
 91
        0
 92
    32768
 62
   257
 93
        1
300
CONTENTFORMAT
  1
CONTENTFORMAT_BEGIN
 90
        0
 91
        0
 92
      512
 93
        0
300

 40
0.0
140
1.0
 94
        5
 62
     0
340
11
144
0.25
309
CONTENTFORMAT_END
171
     1
301
MARGIN
  1
CELLMARGIN_BEGIN
 40
0.06
 40
0.06
 40
0.06
 40
0.06
 40
0.18
 40
0.18
309
CELLMARGIN_END
 94
        6
 95
        1
302
GRIDFORMAT
  1
GRIDFORMAT_BEGIN
 90
        0
 91
        1
 62
     0
 92
       -2
340
0
 93
        0
 40
0.045
309
GRIDFORMAT_END
 95
        2
302
GRIDFORMAT
  1
GRIDFORMAT_BEGIN
 90
        0
 91
        1
 62
     0
 92
       -2
340
0
 93
        0
 40
0.045
309
GRIDFORMAT_END
 95
        4
302
GRIDFORMAT
  1
GRIDFORMAT_BEGIN
 90
        0
 91
        1
 62
     0
 92
       -2
340
0
 93
        0
 40
0.045
309
GRIDFORMAT_END
 95
        8
302
GRIDFORMAT
  1
GRIDFORMAT_BEGIN
 90
        0
 91
        1
 62
     0
 92
       -2
340
0
 93
        0
 40
0.045
309
GRIDFORMAT_END
 95
       16
302
GRIDFORMAT
  1
GRIDFORMAT_BEGIN
 90
        0
 91
        1
 62
     0
 92
       -2
340
0
 93
        0
 40
0.045
309
GRIDFORMAT_END
 95
       32
302
GRIDFORMAT
  1
GRIDFORMAT_BEGIN
 90
        0
 91
        1
 62
     0
 92
       -2
340
0
 93
        0
 40
0.045
309
GRIDFORMAT_END
309
TABLEFORMAT_END
  1
CELLSTYLE_BEGIN
 90
        1
 91
        1
300
_TITLE
309
CELLSTYLE_END
300
CELLSTYLE
  1
TABLEFORMAT_BEGIN
 90
        5
170
     1
 91
        0
 92
        0
 62
   257
 93
        1
300
CONTENTFORMAT
  1
CONTENTFORMAT_BEGIN
 90
        0
 91
        0
 92
      512
 93
        0
300

 40
0.0
140
1.0
 94
        5
 62
     0
340
11
144
0.18
309
CONTENTFORMAT_END
171
     1
301
MARGIN
  1
CELLMARGIN_BEGIN
 40
0.06
 40
0.06
 40
0.06
 40
0.06
 40
0.18
 40
0.18
309
CELLMARGIN_END
 94
        6
 95
        1
302
GRIDFORMAT
  1
GRIDFORMAT_BEGIN
 90
        0
 91
        1
 62
     0
 92
       -2
340
0
 93
        0
 40
0.045
309
GRIDFORMAT_END
 95
        2
302
GRIDFORMAT
  1
GRIDFORMAT_BEGIN
 90
        0
 91
        1
 62
     0
 92
       -2
340
0
 93
        0
 40
0.045
309
GRIDFORMAT_END
 95
        4
302
GRIDFORMAT
  1
GRIDFORMAT_BEGIN
 90
        0
 91
        1
 62
     0
 92
       -2
340
0
 93
        0
 40
0.045
309
GRIDFORMAT_END
 95
        8
302
GRIDFORMAT
  1
GRIDFORMAT_BEGIN
 90
        0
 91
        1
 62
     0
 92
       -2
340
0
 93
        0
 40
0.045
309
GRIDFORMAT_END
 95
       16
302
GRIDFORMAT
  1
GRIDFORMAT_BEGIN
 90
        0
 91
        1
 62
     0
 92
       -2
340
0
 93
        0
 40
0.045
309
GRIDFORMAT_END
 95
       32
302
GRIDFORMAT
  1
GRIDFORMAT_BEGIN
 90
        0
 91
        1
 62
     0
 92
       -2
340
0
 93
        0
 40
0.045
309
GRIDFORMAT_END
309
TABLEFORMAT_END
  1
CELLSTYLE_BEGIN
 90
        2
 91
        1
300
_HEADER
309
CELLSTYLE_END
300
CELLSTYLE
  1
TABLEFORMAT_BEGIN
 90
        5
170
     1
 91
        0
 92
        0
 62
   257
 93
        1
300
CONTENTFORMAT
  1
CONTENTFORMAT_BEGIN
 90
        0
 91
        0
 92
      512
 93
        0
300

 40
0.0
140
1.0
 94
        2
 62
     0
340
11
144
0.18
309
CONTENTFORMAT_END
171
     1
301
MARGIN
  1
CELLMARGIN_BEGIN
 40
0.06
 40
0.06
 40
0.06
 40
0.06
 40
0.18
 40
0.18
309
CELLMARGIN_END
 94
        6
 95
        1
302
GRIDFORMAT
  1
GRIDFORMAT_BEGIN
 90
        0
 91
        1
 62
     0
 92
       -2
340
0
 93
        0
 40
0.045
309
GRIDFORMAT_END
 95
        2
302
GRIDFORMAT
  1
GRIDFORMAT_BEGIN
 90
        0
 91
        1
 62
     0
 92
       -2
340
0
 93
        0
 40
0.045
309
GRIDFORMAT_END
 95
        4
302
GRIDFORMAT
  1
GRIDFORMAT_BEGIN
 90
        0
 91
        1
 62
     0
 92
       -2
340
0
 93
        0
 40
0.045
309
GRIDFORMAT_END
 95
        8
302
GRIDFORMAT
  1
GRIDFORMAT_BEGIN
 90
        0
 91
        1
 62
     0
 92
       -2
340
0
 93
        0
 40
0.045
309
GRIDFORMAT_END
 95
       16
302
GRIDFORMAT
  1
GRIDFORMAT_BEGIN
 90
        0
 91
        1
 62
     0
 92
       -2
340
0
 93
        0
 40
0.045
309
GRIDFORMAT_END
 95
       32
302
GRIDFORMAT
  1
GRIDFORMAT_BEGIN
 90
        0
 91
        1
 62
     0
 92
       -2
340
0
 93
        0
 40
0.045
309
GRIDFORMAT_END
309
TABLEFORMAT_END
  1
CELLSTYLE_BEGIN
 90
        3
 91
        2
300
_DATA
309
CELLSTYLE_END
  0
XRECORD
  5
1F8AF
102
{ACAD_REACTORS
330
50D6
102
}
330
50D6
100
AcDbXrecord
280
     1
102
ACAD_ROUNDTRIP_PRE2007_TABLESTYLE
 90
      512
 91
        0
  1

 92
      512
 93
        0
  2

 94
      512
 95
        0
  3

  0
ENDSEC
  0
EOF
