  0
SECTION
  2
HEADER
  9
$ACADVER
  1
AC1032
  9
$ACADMAINTVER
 90
        4
  9
$DWGCODEPAGE
  3
ANSI_936
  9
$LASTSAVEDBY
  1
14663
  9
$REQUIREDVERSIONS
160
                 0
  9
$INSBASE
 10
0.0
 20
0.0
 30
0.0
  9
$EXTMIN
 10
705.5483254505566
 20
158.1105656886554
 30
0.0
  9
$EXTMAX
 10
854.0477004184088
 20
263.1105656886575
 30
0.0
  9
$LIMMIN
 10
0.0
 20
0.0
  9
$LIMMAX
 10
12.0
 20
9.0
  9
$ORTHOMODE
 70
     0
  9
$REGENMODE
 70
     1
  9
$FILLMODE
 70
     1
  9
$QTEXTMODE
 70
     0
  9
$MIRRTEXT
 70
     1
  9
$LTSCALE
 40
1.0
  9
$ATTMODE
 70
     1
  9
$TEXTSIZE
 40
0.2
  9
$TRACEWID
 40
0.05
  9
$TEXTSTYLE
  7
Standard
  9
$CLAYER
  8
DIM
  9
$CELTYPE
  6
ByLayer
  9
$CECOLOR
 62
   256
  9
$CELTSCALE
 40
1.0
  9
$DISPSILH
 70
     0
  9
$DIMSCALE
 40
1.0
  9
$DIMASZ
 40
1.5
  9
$DIMEXO
 40
0.2
  9
$DIMDLI
 40
0.2
  9
$DIMRND
 40
0.0
  9
$DIMDLE
 40
0.0
  9
$DIMEXE
 40
0.5
  9
$DIMTP
 40
0.0
  9
$DIMTM
 40
0.0
  9
$DIMTXT
 40
2.0
  9
$DIMCEN
 40
0.0
  9
$DIMTSZ
 40
0.0
  9
$DIMTOL
 70
     0
  9
$DIMLIM
 70
     0
  9
$DIMTIH
 70
     0
  9
$DIMTOH
 70
     0
  9
$DIMSE1
 70
     0
  9
$DIMSE2
 70
     0
  9
$DIMTAD
 70
     1
  9
$DIMZIN
 70
     8
  9
$DIMBLK
  1

  9
$DIMASO
 70
     1
  9
$DIMSHO
 70
     1
  9
$DIMPOST
  1

  9
$DIMAPOST
  1

  9
$DIMALT
 70
     0
  9
$DIMALTD
 70
     2
  9
$DIMALTF
 40
25.4
  9
$DIMLFAC
 40
1.0
  9
$DIMTOFL
 70
     0
  9
$DIMTVP
 40
0.0
  9
$DIMTIX
 70
     0
  9
$DIMSOXD
 70
     0
  9
$DIMSAH
 70
     0
  9
$DIMBLK1
  1

  9
$DIMBLK2
  1

  9
$DIMSTYLE
  2
01
  9
$DIMCLRD
 70
     1
  9
$DIMCLRE
 70
     6
  9
$DIMCLRT
 70
     4
  9
$DIMTFAC
 40
1.0
  9
$DIMGAP
 40
0.5
  9
$DIMJUST
 70
     0
  9
$DIMSD1
 70
     0
  9
$DIMSD2
 70
     0
  9
$DIMTOLJ
 70
     1
  9
$DIMTZIN
 70
     0
  9
$DIMALTZ
 70
     0
  9
$DIMALTTZ
 70
     0
  9
$DIMUPT
 70
     0
  9
$DIMDEC
 70
     1
  9
$DIMTDEC
 70
     1
  9
$DIMALTU
 70
     2
  9
$DIMALTTD
 70
     2
  9
$DIMTXSTY
  7
Romans字体
  9
$DIMAUNIT
 70
     0
  9
$DIMADEC
 70
     2
  9
$DIMALTRND
 40
0.0
  9
$DIMAZIN
 70
     2
  9
$DIMDSEP
 70
    46
  9
$DIMATFIT
 70
     3
  9
$DIMFRAC
 70
     0
  9
$DIMLDRBLK
  1

  9
$DIMLUNIT
 70
     2
  9
$DIMLWD
 70
    -2
  9
$DIMLWE
 70
    -2
  9
$DIMTMOVE
 70
     0
  9
$DIMFXL
 40
1.0
  9
$DIMFXLON
 70
     0
  9
$DIMJOGANG
 40
0.7853981633974483
  9
$DIMTFILL
 70
     0
  9
$DIMTFILLCLR
 70
     0
  9
$DIMARCSYM
 70
     0
  9
$DIMLTYPE
  6

  9
$DIMLTEX1
  6

  9
$DIMLTEX2
  6

  9
$DIMTXTDIRECTION
 70
     0
  9
$LUNITS
 70
     2
  9
$LUPREC
 70
     4
  9
$SKETCHINC
 40
0.1
  9
$FILLETRAD
 40
0.5
  9
$AUNITS
 70
     0
  9
$AUPREC
 70
     0
  9
$MENU
  1
.
  9
$ELEVATION
 40
0.0
  9
$PELEVATION
 40
0.0
  9
$THICKNESS
 40
0.0
  9
$LIMCHECK
 70
     0
  9
$CHAMFERA
 40
0.5
  9
$CHAMFERB
 40
0.5
  9
$CHAMFERC
 40
1.0
  9
$CHAMFERD
 40
0.0
  9
$SKPOLY
 70
     0
  9
$TDCREATE
 40
2456524.383632986
  9
$TDUCREATE
 40
2456524.050299653
  9
$TDUPDATE
 40
2460339.537014468
  9
$TDUUPDATE
 40
2460339.203681134
  9
$TDINDWG
 40
1.230150243
  9
$TDUSRTIMER
 40
1.230131076
  9
$USRTIMER
 70
     1
  9
$ANGBASE
 50
0.0
  9
$ANGDIR
 70
     0
  9
$PDMODE
 70
     0
  9
$PDSIZE
 40
0.0
  9
$PLINEWID
 40
0.0
  9
$SPLFRAME
 70
     0
  9
$SPLINETYPE
 70
     6
  9
$SPLINESEGS
 70
     8
  9
$HANDSEED
  5
1501
  9
$SURFTAB1
 70
     6
  9
$SURFTAB2
 70
     6
  9
$SURFTYPE
 70
     6
  9
$SURFU
 70
     6
  9
$SURFV
 70
     6
  9
$UCSBASE
  2

  9
$UCSNAME
  2

  9
$UCSORG
 10
0.0
 20
0.0
 30
0.0
  9
$UCSXDIR
 10
1.0
 20
0.0
 30
0.0
  9
$UCSYDIR
 10
0.0
 20
1.0
 30
0.0
  9
$UCSORTHOREF
  2

  9
$UCSORTHOVIEW
 70
     0
  9
$UCSORGTOP
 10
0.0
 20
0.0
 30
0.0
  9
$UCSORGBOTTOM
 10
0.0
 20
0.0
 30
0.0
  9
$UCSORGLEFT
 10
0.0
 20
0.0
 30
0.0
  9
$UCSORGRIGHT
 10
0.0
 20
0.0
 30
0.0
  9
$UCSORGFRONT
 10
0.0
 20
0.0
 30
0.0
  9
$UCSORGBACK
 10
0.0
 20
0.0
 30
0.0
  9
$PUCSBASE
  2

  9
$PUCSNAME
  2

  9
$PUCSORG
 10
0.0
 20
0.0
 30
0.0
  9
$PUCSXDIR
 10
1.0
 20
0.0
 30
0.0
  9
$PUCSYDIR
 10
0.0
 20
1.0
 30
0.0
  9
$PUCSORTHOREF
  2

  9
$PUCSORTHOVIEW
 70
     0
  9
$PUCSORGTOP
 10
0.0
 20
0.0
 30
0.0
  9
$PUCSORGBOTTOM
 10
0.0
 20
0.0
 30
0.0
  9
$PUCSORGLEFT
 10
0.0
 20
0.0
 30
0.0
  9
$PUCSORGRIGHT
 10
0.0
 20
0.0
 30
0.0
  9
$PUCSORGFRONT
 10
0.0
 20
0.0
 30
0.0
  9
$PUCSORGBACK
 10
0.0
 20
0.0
 30
0.0
  9
$USERI1
 70
     0
  9
$USERI2
 70
     0
  9
$USERI3
 70
     0
  9
$USERI4
 70
     0
  9
$USERI5
 70
     0
  9
$USERR1
 40
0.0
  9
$USERR2
 40
0.0
  9
$USERR3
 40
0.0
  9
$USERR4
 40
0.0
  9
$USERR5
 40
0.0
  9
$WORLDVIEW
 70
     1
  9
$SHADEDGE
 70
     3
  9
$SHADEDIF
 70
    70
  9
$TILEMODE
 70
     1
  9
$MAXACTVP
 70
    64
  9
$PINSBASE
 10
0.0
 20
0.0
 30
0.0
  9
$PLIMCHECK
 70
     0
  9
$PEXTMIN
 10
1.000000000000000E+20
 20
1.000000000000000E+20
 30
1.000000000000000E+20
  9
$PEXTMAX
 10
-1.000000000000000E+20
 20
-1.000000000000000E+20
 30
-1.000000000000000E+20
  9
$PLIMMIN
 10
0.0
 20
0.0
  9
$PLIMMAX
 10
12.0
 20
9.0
  9
$UNITMODE
 70
     0
  9
$VISRETAIN
 70
     1
  9
$PLINEGEN
 70
     0
  9
$PSLTSCALE
 70
     1
  9
$TREEDEPTH
 70
  3020
  9
$CMLSTYLE
  2
Standard
  9
$CMLJUST
 70
     0
  9
$CMLSCALE
 40
1.0
  9
$PROXYGRAPHICS
 70
     1
  9
$MEASUREMENT
 70
     0
  9
$CELWEIGHT
370
    -1
  9
$ENDCAPS
280
     0
  9
$JOINSTYLE
280
     0
  9
$LWDISPLAY
290
     0
  9
$INSUNITS
 70
     4
  9
$HYPERLINKBASE
  1

  9
$STYLESHEET
  1

  9
$XEDIT
290
     1
  9
$CEPSNTYPE
380
     0
  9
$PSTYLEMODE
290
     1
  9
$FINGERPRINTGUID
  2
{8E60234D-0476-4C72-BFA5-4A8A198E63F0}
  9
$VERSIONGUID
  2
{641B268C-F693-4BB9-B734-646385815564}
  9
$EXTNAMES
290
     1
  9
$PSVPSCALE
 40
0.0
  9
$OLESTARTUP
290
     0
  9
$SORTENTS
280
   127
  9
$INDEXCTL
280
     0
  9
$HIDETEXT
280
     1
  9
$XCLIPFRAME
280
     0
  9
$HALOGAP
280
     0
  9
$OBSCOLOR
 70
   257
  9
$OBSLTYPE
280
     0
  9
$INTERSECTIONDISPLAY
280
     0
  9
$INTERSECTIONCOLOR
 70
   257
  9
$DIMASSOC
280
     1
  9
$PROJECTNAME
  1

  9
$CAMERADISPLAY
290
     0
  9
$LENSLENGTH
 40
50.0
  9
$CAMERAHEIGHT
 40
0.0
  9
$STEPSPERSEC
 40
2.0
  9
$STEPSIZE
 40
6.0
  9
$3DDWFPREC
 40
2.0
  9
$PSOLWIDTH
 40
0.25
  9
$PSOLHEIGHT
 40
4.0
  9
$LOFTANG1
 40
1.570795999999999
  9
$LOFTANG2
 40
1.570795999999999
  9
$LOFTMAG1
 40
0.0
  9
$LOFTMAG2
 40
0.0
  9
$LOFTPARAM
 70
     7
  9
$LOFTNORMALS
280
     1
  9
$LATITUDE
 40
37.795
  9
$LONGITUDE
 40
-122.394
  9
$NORTHDIRECTION
 40
0.0
  9
$TIMEZONE
 70
 -8000
  9
$LIGHTGLYPHDISPLAY
280
     1
  9
$TILEMODELIGHTSYNCH
280
     1
  9
$CMATERIAL
347
1E4
  9
$SOLIDHIST
280
     0
  9
$SHOWHIST
280
     1
  9
$DWFFRAME
280
     2
  9
$DGNFRAME
280
     0
  9
$REALWORLDSCALE
290
     1
  9
$INTERFERECOLOR
 62
     1
  9
$INTERFEREOBJVS
345
1FA
  9
$INTERFEREVPVS
346
13A6
  9
$CSHADOW
280
     0
  9
$SHADOWPLANELOCATION
 40
0.0
  0
ENDSEC
  0
SECTION
  2
CLASSES
  0
CLASS
  1
ACDBDICTIONARYWDFLT
  2
AcDbDictionaryWithDefault
  3
ObjectDBX Classes
 90
        0
 91
        1
280
     0
281
     0
  0
CLASS
  1
VISUALSTYLE
  2
AcDbVisualStyle
  3
ObjectDBX Classes
 90
     4095
 91
       26
280
     0
281
     0
  0
CLASS
  1
MATERIAL
  2
AcDbMaterial
  3
ObjectDBX Classes
 90
     1153
 91
        3
280
     0
281
     0
  0
CLASS
  1
TABLESTYLE
  2
AcDbTableStyle
  3
ObjectDBX Classes
 90
     4095
 91
        1
280
     0
281
     0
  0
CLASS
  1
SCALE
  2
AcDbScale
  3
ObjectDBX Classes
 90
     1153
 91
       33
280
     0
281
     0
  0
CLASS
  1
MLEADERSTYLE
  2
AcDbMLeaderStyle
  3
ACDB_MLEADERSTYLE_CLASS
 90
     4095
 91
        1
280
     0
281
     0
  0
CLASS
  1
CELLSTYLEMAP
  2
AcDbCellStyleMap
  3
ObjectDBX Classes
 90
     1152
 91
        4
280
     0
281
     0
  0
CLASS
  1
DICTIONARYVAR
  2
AcDbDictionaryVar
  3
ObjectDBX Classes
 90
        0
 91
       13
280
     0
281
     0
  0
CLASS
  1
SORTENTSTABLE
  2
AcDbSortentsTable
  3
ObjectDBX Classes
 90
        0
 91
        1
280
     0
281
     0
  0
CLASS
  1
ACAD_EVALUATION_GRAPH
  2
AcDbEvalGraph
  3
ObjectDBX Classes
 90
     1153
 91
        0
280
     0
281
     0
  0
CLASS
  1
ACAECUSTOBJ
  2
AcAeEditorObj
  3
AcAeEditorObj
 90
     1024
 91
        0
280
     1
281
     0
  0
CLASS
  1
ACDB_DYNAMICBLOCKPURGEPREVENTER_VERSION
  2
AcDbDynamicBlockPurgePreventer
  3
ObjectDBX Classes
 90
     1153
 91
        0
280
     0
281
     0
  0
CLASS
  1
MENTALRAYRENDERSETTINGS
  2
AcDbMentalRayRenderSettings
  3
SCENEOE
 90
     1024
 91
        0
280
     0
281
     0
  0
CLASS
  1
ACDB_BLOCKREPRESENTATION_DATA
  2
AcDbBlockRepresentationData
  3
ObjectDBX Classes
 90
     1153
 91
        0
280
     0
281
     0
  0
CLASS
  1
DIMASSOC
  2
AcDbDimAssoc
  3
"AcDbDimAssoc|Product Desc:     AcDim ARX App For Dimension|Company:          Autodesk, Inc.|WEB Address:      www.autodesk.com"
 90
        0
 91
        2
280
     0
281
     0
  0
CLASS
  1
ACDBSECTIONVIEWSTYLE
  2
AcDbSectionViewStyle
  3
ObjectDBX Classes
 90
     1025
 91
        1
280
     0
281
     0
  0
CLASS
  1
ACDBDETAILVIEWSTYLE
  2
AcDbDetailViewStyle
  3
ObjectDBX Classes
 90
     1025
 91
        1
280
     0
281
     0
  0
CLASS
  1
RASTERVARIABLES
  2
AcDbRasterVariables
  3
ISM
 90
        0
 91
        1
280
     0
281
     0
  0
ENDSEC
  0
SECTION
  2
TABLES
  0
TABLE
  2
VPORT
  5
1D8
102
{ACAD_XDICTIONARY
360
1DC
102
}
330
0
100
AcDbSymbolTable
 70
     1
  0
VPORT
  5
1D9
330
1D8
100
AcDbSymbolTableRecord
100
AcDbViewportTableRecord
  2
*Active
 70
     0
 10
0.0
 20
0.0
 11
1.0
 21
1.0
 12
674.832516062574
 22
62.1083349200586
 13
0.0
 23
0.0
 14
0.5
 24
0.5
 15
0.5
 25
0.5
 16
0.0
 26
0.0
 36
1.0
 17
104.9654968719086
 27
148.5022307685978
 37
0.0
 40
105.7191780821938
 41
2.123287671232876
 42
50.0
 43
0.0
 44
0.0
 50
0.0
 51
0.0
 71
     0
 72
   100
 73
     1
 74
     3
 75
     0
 76
     0
 77
     0
 78
     0
281
     0
 65
     1
110
0.0
120
0.0
130
0.0
111
1.0
121
0.0
131
0.0
112
0.0
122
1.0
132
0.0
 79
     0
146
0.0
348
1DA
 60
     3
 61
     5
292
     1
282
     1
141
0.0
142
0.0
 63
   250
421
  3355443
1001
ACAD_NAV_VCDISPLAY
1070
     3
  0
ENDTAB
  0
TABLE
  2
LTYPE
  5
1D3
330
0
100
AcDbSymbolTable
 70
     3
  0
LTYPE
  5
1D4
330
1D3
100
AcDbSymbolTableRecord
100
AcDbLinetypeTableRecord
  2
ByBlock
 70
     0
  3

 72
    65
 73
     0
 40
0.0
  0
LTYPE
  5
1D5
330
1D3
100
AcDbSymbolTableRecord
100
AcDbLinetypeTableRecord
  2
ByLayer
 70
     0
  3

 72
    65
 73
     0
 40
0.0
  0
LTYPE
  5
15
330
1D3
100
AcDbSymbolTableRecord
100
AcDbLinetypeTableRecord
  2
Continuous
 70
     0
  3
Solid line
 72
    65
 73
     0
 40
0.0
  0
LTYPE
  5
100
330
1D3
100
AcDbSymbolTableRecord
100
AcDbLinetypeTableRecord
  2
CENTER
 70
     0
  3
Center ____ _ ____ _ ____ _ ____ _ ____ _ ____
 72
    65
 73
     4
 40
2.0
 49
1.25
 74
     0
 49
-0.25
 74
     0
 49
0.25
 74
     0
 49
-0.25
 74
     0
  0
LTYPE
  5
A72
330
1D3
100
AcDbSymbolTableRecord
100
AcDbLinetypeTableRecord
  2
CENTERX2
 70
     0
  3
Center (2x) ________  __  ________  __  _____
 72
    65
 73
     4
 40
4.0
 49
2.5
 74
     0
 49
-0.5
 74
     0
 49
0.5
 74
     0
 49
-0.5
 74
     0
  0
ENDTAB
  0
TABLE
  2
LAYER
  5
1CC
102
{ACAD_XDICTIONARY
360
1CD
102
}
330
0
100
AcDbSymbolTable
 70
     8
  0
LAYER
  5
6
102
{ACAD_XDICTIONARY
360
7
102
}
330
1CC
100
AcDbSymbolTableRecord
100
AcDbLayerTableRecord
  2
0
 70
     0
 62
     7
  6
Continuous
370
    30
390
9
347
C
348
0
  0
LAYER
  5
17
102
{ACAD_XDICTIONARY
360
18
102
}
330
1CC
100
AcDbSymbolTableRecord
100
AcDbLayerTableRecord
  2
图层 1
 70
     0
 62
     7
  6
Continuous
370
    -3
390
9
347
C
348
0
  0
LAYER
  5
25
102
{ACAD_XDICTIONARY
360
26
102
}
330
1CC
100
AcDbSymbolTableRecord
100
AcDbLayerTableRecord
  2
图框
 70
     0
 62
     7
  6
Continuous
370
    20
390
9
347
C
348
0
  0
LAYER
  5
12A
330
1CC
100
AcDbSymbolTableRecord
100
AcDbLayerTableRecord
  2
Defpoints
 70
     0
 62
     7
  6
Continuous
290
     0
370
    -3
390
9
347
C
348
0
  0
LAYER
  5
E7
330
1CC
100
AcDbSymbolTableRecord
100
AcDbLayerTableRecord
  2
打标文字
 70
     0
 62
     3
  6
Continuous
370
    20
390
9
347
C
348
0
  0
LAYER
  5
2FD
330
1CC
100
AcDbSymbolTableRecord
100
AcDbLayerTableRecord
  2
DIM
 70
     0
 62
     3
  6
Continuous
370
    15
390
9
347
C
348
0
1001
AcAecLayerStandard
1000

1000

  0
LAYER
  5
A73
330
1CC
100
AcDbSymbolTableRecord
100
AcDbLayerTableRecord
  2
center
 70
     0
 62
     1
  6
CENTER
370
     9
390
9
347
C
348
0
  0
LAYER
  5
FBB
330
1CC
100
AcDbSymbolTableRecord
100
AcDbLayerTableRecord
  2
epin
 70
     0
 62
    13
  6
Continuous
370
     9
390
9
347
C
348
0
  0
ENDTAB
  0
TABLE
  2
STYLE
  5
1D1
330
0
100
AcDbSymbolTable
 70
     4
  0
STYLE
  5
48
330
1D1
100
AcDbSymbolTableRecord
100
AcDbTextStyleTableRecord
  2
Standard
 70
     0
 40
0.0
 41
0.75
 50
0.0
 71
     0
 42
0.2
  3

  4

1001
ACAD
1000
仿宋_GB2312
1071
    34353
  0
STYLE
  5
28
330
1D1
100
AcDbSymbolTableRecord
100
AcDbTextStyleTableRecord
  2
Romans字体
 70
     0
 40
0.0
 41
0.75
 50
0.0
 71
     0
 42
0.2
  3
romans.shx
  4

  0
STYLE
  5
4A
330
1D1
100
AcDbSymbolTableRecord
100
AcDbTextStyleTableRecord
  2
工程字
 70
     0
 40
0.0
 41
1.0
 50
0.0
 71
     0
 42
3.5
  3
gbenor.shx
  4
gbcbig.shx
  0
STYLE
  5
4C
330
1D1
100
AcDbSymbolTableRecord
100
AcDbTextStyleTableRecord
  2
Chinese
 70
     0
 40
0.0
 41
1.0
 50
0.0
 71
     0
 42
2.5
  3
PMingLiU.ttf
  4

1001
ACAD
1000
PMingLiU
1071
    34834
  0
ENDTAB
  0
TABLE
  2
VIEW
  5
1D6
330
0
100
AcDbSymbolTable
 70
     0
  0
ENDTAB
  0
TABLE
  2
UCS
  5
1D7
330
0
100
AcDbSymbolTable
 70
     0
  0
ENDTAB
  0
TABLE
  2
APPID
  5
1DD
330
0
100
AcDbSymbolTable
 70
    17
  0
APPID
  5
29
330
1DD
100
AcDbSymbolTableRecord
100
AcDbRegAppTableRecord
  2
ACAD
 70
     0
  0
APPID
  5
37
330
1DD
100
AcDbSymbolTableRecord
100
AcDbRegAppTableRecord
  2
AcDbBlockRepETag
 70
     0
  0
APPID
  5
1C3
330
1DD
100
AcDbSymbolTableRecord
100
AcDbRegAppTableRecord
  2
ACAD_PSEXT
 70
     0
  0
APPID
  5
101
330
1DD
100
AcDbSymbolTableRecord
100
AcDbRegAppTableRecord
  2
AcAecLayerStandard
 70
     0
  0
APPID
  5
12F
330
1DD
100
AcDbSymbolTableRecord
100
AcDbRegAppTableRecord
  2
ACAD_DSTYLE_DIMJAG
 70
     0
  0
APPID
  5
130
330
1DD
100
AcDbSymbolTableRecord
100
AcDbRegAppTableRecord
  2
ACAD_DSTYLE_DIMTALN
 70
     0
  0
APPID
  5
257
330
1DD
100
AcDbSymbolTableRecord
100
AcDbRegAppTableRecord
  2
ACAD_MLEADERVER
 70
     0
  0
APPID
  5
2FE
330
1DD
100
AcDbSymbolTableRecord
100
AcDbRegAppTableRecord
  2
AcDbDynamicBlockGUID
 70
     0
  0
APPID
  5
4CC
330
1DD
100
AcDbSymbolTableRecord
100
AcDbRegAppTableRecord
  2
ACAD_DSTYLE_DIMBREAK
 70
     0
  0
APPID
  5
4CD
330
1DD
100
AcDbSymbolTableRecord
100
AcDbRegAppTableRecord
  2
ACAD_DSTYLE_DIMRADIAL_EXTENSION
 70
     0
  0
APPID
  5
BFC
330
1DD
100
AcDbSymbolTableRecord
100
AcDbRegAppTableRecord
  2
ACAD_EXEMPT_FROM_CAD_STANDARDS
 70
     0
  0
APPID
  5
13BF
330
1DD
100
AcDbSymbolTableRecord
100
AcDbRegAppTableRecord
  2
AcadAnnoPO
 70
     0
  0
APPID
  5
13C7
330
1DD
100
AcDbSymbolTableRecord
100
AcDbRegAppTableRecord
  2
ACAD_NAV_VCDISPLAY
 70
     0
  0
APPID
  5
146F
330
1DD
100
AcDbSymbolTableRecord
100
AcDbRegAppTableRecord
  2
ACAUTHENVIRON
 70
     0
  0
APPID
  5
1472
330
1DD
100
AcDbSymbolTableRecord
100
AcDbRegAppTableRecord
  2
AcDbDynamicBlockTrueName
 70
     0
  0
APPID
  5
148A
330
1DD
100
AcDbSymbolTableRecord
100
AcDbRegAppTableRecord
  2
AcadAnnoMonitorAlertIconDisabled
 70
     0
  0
APPID
  5
14FD
330
1DD
100
AcDbSymbolTableRecord
100
AcDbRegAppTableRecord
  2
PLOTTRANSPARENCY
 70
     0
  0
ENDTAB
  0
TABLE
  2
DIMSTYLE
  5
1DE
330
0
100
AcDbSymbolTable
 70
     3
100
AcDbDimStyleTable
 71
     2
340
12E
340
1DF
  0
DIMSTYLE
105
1DF
330
1DE
100
AcDbSymbolTableRecord
100
AcDbDimStyleTableRecord
  2
Standard
 70
     0
340
48
  0
DIMSTYLE
105
12E
102
{ACAD_REACTORS
330
127E
330
127B
330
147D
102
}
330
1DE
100
AcDbSymbolTableRecord
100
AcDbDimStyleTableRecord
  2
01
 70
     0
 41
1.5
 42
0.2
 43
0.2
 44
0.5
 73
     0
 74
     0
 77
     1
 78
     8
 79
     2
140
2.0
141
0.0
147
0.5
176
     1
177
     6
271
     1
178
     4
179
     2
271
     1
272
     1
340
28
1001
ACAD_DSTYLE_DIMJAG
1070
   388
1040
1.5
1001
ACAD_DSTYLE_DIMTALN
1070
   392
1070
     0
  0
DIMSTYLE
105
FBC
330
1DE
100
AcDbSymbolTableRecord
100
AcDbDimStyleTableRecord
  2
0.5
 70
     0
 40
0.65
 41
1.0
 42
0.2
 43
0.1
 44
0.5
 47
0.01
 48
0.000000001
 73
     0
 74
     0
 78
     8
 79
     2
140
1.199999999999999
141
0.0
146
0.7
147
0.2
176
     1
177
     6
271
     2
178
     4
179
     2
271
     2
272
     2
284
     8
340
4C
1001
ACAD_DSTYLE_DIMBREAK
1070
   391
1040
0.125
1001
ACAD_DSTYLE_DIMJAG
1070
   388
1040
1.5
1001
ACAD_DSTYLE_DIMTALN
1070
   392
1070
     0
  0
ENDTAB
  0
TABLE
  2
BLOCK_RECORD
  5
1
330
0
100
AcDbSymbolTable
 70
    14
  0
BLOCK_RECORD
  5
2
102
{ACAD_XDICTIONARY
360
3
102
}
330
1
100
AcDbSymbolTableRecord
100
AcDbBlockTableRecord
  2
*MODEL_SPACE
340
1C1
 70
     0
280
     1
281
     0
  0
BLOCK_RECORD
  5
1C4
330
1
100
AcDbSymbolTableRecord
100
AcDbBlockTableRecord
  2
*PAPER_SPACE
340
1C7
 70
     0
280
     1
281
     0
  0
BLOCK_RECORD
  5
1C8
330
1
100
AcDbSymbolTableRecord
100
AcDbBlockTableRecord
  2
*PAPER_SPACE0
340
1CB
 70
     0
280
     1
281
     0
  0
BLOCK_RECORD
  5
264
330
1
100
AcDbSymbolTableRecord
100
AcDbBlockTableRecord
  2
A4图框-NEW
340
0
310
2800000020000000200000000100080000000000000400000000000000000000000000000000000000000000000080000080000000808000800000008000800080800000C0C0C000C0DCC000F0CAA6000020400000206000002080000020A0000020C0000020E00000400000004020000040400000406000004080000040A0
310
000040C0000040E00000600000006020000060400000606000006080000060A0000060C0000060E00000800000008020000080400000806000008080000080A0000080C0000080E00000A0000000A0200000A0400000A0600000A0800000A0A00000A0C00000A0E00000C0000000C0200000C0400000C0600000C0800000C0
310
A00000C0C00000C0E00000E0000000E0200000E0400000E0600000E0800000E0A00000E0C00000E0E00040000000400020004000400040006000400080004000A0004000C0004000E00040200000402020004020400040206000402080004020A0004020C0004020E000404000004040200040404000404060004040800040
310
40A0004040C0004040E00040600000406020004060400040606000406080004060A0004060C0004060E00040800000408020004080400040806000408080004080A0004080C0004080E00040A0000040A0200040A0400040A0600040A0800040A0A00040A0C00040A0E00040C0000040C0200040C0400040C0600040C08000
310
40C0A00040C0C00040C0E00040E0000040E0200040E0400040E0600040E0800040E0A00040E0C00040E0E00080000000800020008000400080006000800080008000A0008000C0008000E00080200000802020008020400080206000802080008020A0008020C0008020E00080400000804020008040400080406000804080
310
008040A0008040C0008040E00080600000806020008060400080606000806080008060A0008060C0008060E00080800000808020008080400080806000808080008080A0008080C0008080E00080A0000080A0200080A0400080A0600080A0800080A0A00080A0C00080A0E00080C0000080C0200080C0400080C0600080C0
310
800080C0A00080C0C00080C0E00080E0000080E0200080E0400080E0600080E0800080E0A00080E0C00080E0E000C0000000C0002000C0004000C0006000C0008000C000A000C000C000C000E000C0200000C0202000C0204000C0206000C0208000C020A000C020C000C020E000C0400000C0402000C0404000C0406000C0
310
408000C040A000C040C000C040E000C0600000C0602000C0604000C0606000C0608000C060A000C060C000C060E000C0800000C0802000C0804000C0806000C0808000C080A000C080C000C080E000C0A00000C0A02000C0A04000C0A06000C0A08000C0A0A000C0A0C000C0A0E000C0C00000C0C02000C0C04000C0C06000
310
C0C08000C0C0A000F0FBFF00A4A0A000808080000000FF0000FF000000FFFF00FF000000FF00FF00FFFF0000FFFFFF0000000000000000000000000000000000000000000000000000000000000000000000000000000000000000000000000000000000000000000000000000000000000000000000000000000000000000
310
000000000000000000000000000000000000000000000000000000000000000000000000000000000000000000000000000000000000000000000000000000000000000000000000000000000000000000000000000000000000000000000000000000000000000000000000000000000000F9F9F9F9F9F9F9F9F9F9F9F9F9
310
F9F9F9F9F9F9F9F9F9F9F9F9F9F9FF00000000F9FF000000000000000000FFFFFFFFFFFFFFFFFFFFFFFFF9FAFAFAFF00000000F9FF000000000000000000FFFFFFFFFFFFFFFFFFFFFFFFFFFFFFFFFF00000000F9FD000000000000000000FFFFFFFFFFFFFFFFFFFFFFFFFFFFFFFFFF00000000F9FF000000000000000000FF
310
FFFFFFFFFFFFFFFFFFFFFFFFFFFFFFFF00000000F9FD000000000000000000FFFFFFFFFFFFFFFFFFFFFFFFFFFFFFFFFF00000000F9FF00000000000000000000000000000000000000000000000000FF00000000F9FD00000000000000000000000000000000000000000000000000FF00000000F9FF000000000000000000
310
00000000000000000000000000000000FF00000000F9FD00000000000000000000000000000000000000000000000000FF00000000F9FF00000000000000000000000000000000000000000000000000FF00000000F9FD00000000000000000000000000000000000000000000000000FF00000000F9FD0000000000000000
310
0000000000000000000000000000000000FF00000000F9FF00000000000000000000000000000000000000000000000000FF00000000F9FD00000000000000000000000000000000000000000000000000FF00000000F9FF00000000000000000000000000000000000000000000000000FF00000000F9FD00000000000000
310
000000000000000000000000000000000000FF00000000F9FF00000000000000000000000000000000000000000000000000FF00000000F9FFFFFFFFFFFFFFFFFFFFFFFFFFFFFFFFFFFFFFFFFFFFFFFFFFFFFF00000000F9FFFFFFF9F9F9F9F9F9F9F9F9F9F9F9F9F9F9F9F9F9F9F9F9F9F9F9000000000000000000000000
310
00000000000000000000000000000000000000000000000000000000000000000000000000000000000000000000000000000000000000000000000000000000000000000000000000000000000000000000000000000000000000000000000000000000000000000000000000000000000000000000000000000000000000
310
0000000000000000000000000000000000000000000000000000000000000000000000000000000000000000000000000000000000000000
102
{BLKREFS
331
30A
102
}
 70
     4
280
     1
281
     0
1001
AcDbBlockRepETag
1070
     1
1071
      149
1001
AcDbDynamicBlockGUID
1000
{56A22AD3-3B26-5843-992E-532C7CCDBDE3}
  0
BLOCK_RECORD
  5
E3E
330
1
100
AcDbSymbolTableRecord
100
AcDbBlockTableRecord
  2
*D2
340
0
 70
     0
280
     1
281
     0
  0
BLOCK_RECORD
  5
E4B
330
1
100
AcDbSymbolTableRecord
100
AcDbBlockTableRecord
  2
*D3
340
0
 70
     0
280
     1
281
     0
  0
BLOCK_RECORD
  5
FA1
330
1
100
AcDbSymbolTableRecord
100
AcDbBlockTableRecord
  2
*D4
340
0
 70
     0
280
     1
281
     0
  0
BLOCK_RECORD
  5
FAE
330
1
100
AcDbSymbolTableRecord
100
AcDbBlockTableRecord
  2
*D5
340
0
 70
     0
280
     1
281
     0
  0
BLOCK_RECORD
  5
10B3
330
1
100
AcDbSymbolTableRecord
100
AcDbBlockTableRecord
  2
*D6
340
0
 70
     0
280
     1
281
     0
  0
BLOCK_RECORD
  5
10C0
330
1
100
AcDbSymbolTableRecord
100
AcDbBlockTableRecord
  2
*D7
340
0
 70
     0
280
     1
281
     0
  0
BLOCK_RECORD
  5
11C6
330
1
100
AcDbSymbolTableRecord
100
AcDbBlockTableRecord
  2
*D8
340
0
 70
     0
280
     1
281
     0
  0
BLOCK_RECORD
  5
11D3
330
1
100
AcDbSymbolTableRecord
100
AcDbBlockTableRecord
  2
*D9
340
0
 70
     0
280
     1
281
     0
  0
BLOCK_RECORD
  5
12D2
330
1
100
AcDbSymbolTableRecord
100
AcDbBlockTableRecord
  2
*D10
340
0
 70
     0
280
     1
281
     0
  0
BLOCK_RECORD
  5
12DF
330
1
100
AcDbSymbolTableRecord
100
AcDbBlockTableRecord
  2
*D11
340
0
 70
     0
280
     1
281
     0
  0
BLOCK_RECORD
  5
147E
330
1
100
AcDbSymbolTableRecord
100
AcDbBlockTableRecord
  2
*D12
340
0
 70
     0
280
     1
281
     0
  0
BLOCK_RECORD
  5
14A0
330
1
100
AcDbSymbolTableRecord
100
AcDbBlockTableRecord
  2
*D13
340
0
 70
     0
280
     1
281
     0
  0
ENDTAB
  0
ENDSEC
  0
SECTION
  2
BLOCKS
  0
BLOCK
  5
5
330
2
100
AcDbEntity
  8
0
100
AcDbBlockBegin
  2
*MODEL_SPACE
 70
     0
 10
0.0
 20
0.0
 30
0.0
  3
*MODEL_SPACE
  1

  0
ENDBLK
  5
1C0
330
2
100
AcDbEntity
  8
0
100
AcDbBlockEnd
  0
BLOCK
  5
1C5
330
1C4
100
AcDbEntity
 67
     1
  8
0
100
AcDbBlockBegin
  2
*PAPER_SPACE
 70
     0
 10
0.0
 20
0.0
 30
0.0
  3
*PAPER_SPACE
  1

  0
ENDBLK
  5
1C6
330
1C4
100
AcDbEntity
 67
     1
  8
0
100
AcDbBlockEnd
  0
BLOCK
  5
1C9
330
1C8
100
AcDbEntity
  8
0
100
AcDbBlockBegin
  2
*PAPER_SPACE0
 70
     0
 10
0.0
 20
0.0
 30
0.0
  3
*PAPER_SPACE0
  1

  0
ENDBLK
  5
1CA
330
1C8
100
AcDbEntity
  8
0
100
AcDbBlockEnd
  0
BLOCK
  5
266
330
264
100
AcDbEntity
  8
0
100
AcDbBlockBegin
  2
A4图框-NEW
 70
     0
 10
0.0
 20
0.0
 30
0.0
  3
A4图框-NEW
  1

  0
MTEXT
  5
13CD
102
{ACAD_XDICTIONARY
360
13CE
102
}
330
264
100
AcDbEntity
  8
图框
 62
     3
100
AcDbMText
 10
967.6594956750133
 20
499.7664151964293
 30
0.0
 40
2.985513575034151
 41
15.50176341157864
 46
6.292658374511018
 71
     5
 72
     5
  1
\pxqc;BQ LUO
  7
Romans字体
 73
     1
 44
1.0
1001
AcDbBlockRepETag
1070
     1
1071
        0
1005
13CD
1001
ACAD
1000
ACAD_MTEXT_DEFINED_HEIGHT_BEGIN
1070
    46
1040
6.292658374511018
1000
ACAD_MTEXT_DEFINED_HEIGHT_END
  0
MTEXT
  5
13CF
330
264
100
AcDbEntity
  8
图框
 62
     3
100
AcDbMText
 10
983.041569333247
 20
499.7664151964293
 30
0.0
 40
2.487927979195124
 41
15.26238390489062
 46
6.292658374511042
 71
     5
 72
     5
  1
{\W0.7;18.10.2010}
  7
Romans字体
 73
     1
 44
1.0
1001
AcDbBlockRepETag
1070
     1
1071
        1
1005
13CF
1001
ACAD
1000
ACAD_MTEXT_DEFINED_HEIGHT_BEGIN
1070
    46
1040
6.292658374511042
1000
ACAD_MTEXT_DEFINED_HEIGHT_END
  0
MTEXT
  5
13D0
330
264
100
AcDbEntity
  8
图框
 62
     3
100
AcDbMText
 10
1012.477254728976
 20
487.1810984474071
 30
0.0
 40
2.985513575034151
 41
17.64876416884615
 46
6.292658374511455
 71
     5
 72
     5
  1
YY LIN
  7
Romans字体
 73
     1
 44
1.0
1001
AcDbBlockRepETag
1070
     1
1071
        2
1005
13D0
1001
ACAD
1000
ACAD_MTEXT_DEFINED_HEIGHT_BEGIN
1070
    46
1040
6.292658374511455
1000
ACAD_MTEXT_DEFINED_HEIGHT_END
  0
MTEXT
  5
13D1
330
264
100
AcDbEntity
  8
图框
 62
     3
100
AcDbMText
 10
1028.977802139886
 20
487.1810984474071
 30
0.0
 40
2.487927979195124
 41
15.35233065297276
 46
6.292658374511495
 71
     5
 72
     5
  1
{\W0.7;18.10.2010}
  7
Romans字体
 73
     1
 44
1.0
1001
AcDbBlockRepETag
1070
     1
1071
        3
1005
13D1
1001
ACAD
1000
ACAD_MTEXT_DEFINED_HEIGHT_BEGIN
1070
    46
1040
6.292658374511495
1000
ACAD_MTEXT_DEFINED_HEIGHT_END
  0
MTEXT
  5
13D2
330
264
100
AcDbEntity
  8
图框
 62
     3
100
AcDbMText
 10
1063.722665487208
 20
525.4145966538831
 30
0.0
 40
2.985513575034151
 41
32.4973914334545
 46
11.82914190181707
 71
     5
 72
     5
  1
-
  7
Romans字体
 73
     1
 44
1.0
1001
AcDbBlockRepETag
1070
     1
1071
        4
1005
13D2
1001
ACAD
1000
ACAD_MTEXT_DEFINED_HEIGHT_BEGIN
1070
    46
1040
11.82914190181707
1000
ACAD_MTEXT_DEFINED_HEIGHT_END
  0
MTEXT
  5
13D3
330
264
100
AcDbEntity
  8
图框
 62
     3
100
AcDbMText
 10
1063.727338552349
 20
513.5854547520641
 30
0.0
 40
2.985513575034151
 41
32.48804530317308
 46
11.82914190182139
 71
     5
 72
     5
  1
-
  7
Romans字体
 73
     1
 44
1.0
1001
AcDbBlockRepETag
1070
     1
1071
        5
1005
13D3
1001
ACAD
1000
ACAD_MTEXT_DEFINED_HEIGHT_BEGIN
1070
    46
1040
11.82914190182139
1000
ACAD_MTEXT_DEFINED_HEIGHT_END
  0
MTEXT
  5
13D4
330
264
100
AcDbEntity
  8
图框
 62
     3
100
AcDbMText
 10
1110.122306614152
 20
526.8006839312707
 30
0.0
 40
2.985513575034151
 41
33.61239199242139
 46
9.05696734704178
 71
     5
 72
     5
  1
-
  7
Romans字体
 73
     1
 44
1.0
1001
AcDbBlockRepETag
1070
     1
1071
        6
1005
13D4
1001
ACAD
1000
ACAD_MTEXT_DEFINED_HEIGHT_BEGIN
1070
    46
1040
9.05696734704178
1000
ACAD_MTEXT_DEFINED_HEIGHT_END
  0
MTEXT
  5
13D5
330
264
100
AcDbEntity
  8
图框
 62
     3
100
AcDbMText
 10
1110.122306614152
 20
500.2775205517162
 30
0.0
 40
2.985513575034151
 41
33.61239199242139
 46
8.871557304763419
 71
     5
 72
     5
  1
-
  7
Romans字体
 73
     1
 44
1.0
1001
AcDbBlockRepETag
1070
     1
1071
        7
1005
13D5
1001
ACAD
1000
ACAD_MTEXT_DEFINED_HEIGHT_BEGIN
1070
    46
1040
8.871557304763419
1000
ACAD_MTEXT_DEFINED_HEIGHT_END
  0
MTEXT
  5
13D6
330
264
100
AcDbEntity
  8
图框
 62
     3
100
AcDbMText
 10
967.6594956750133
 20
493.4737568219182
 30
0.0
 40
2.985513575034151
 41
15.50176341157864
 46
6.292658374510335
 71
     5
 72
     5
  1
P RAO
  7
Romans字体
 73
     1
 44
1.0
1001
AcDbBlockRepETag
1070
     1
1071
        8
1005
13D6
1001
ACAD
1000
ACAD_MTEXT_DEFINED_HEIGHT_BEGIN
1070
    46
1040
6.292658374510335
1000
ACAD_MTEXT_DEFINED_HEIGHT_END
  0
MTEXT
  5
13D7
330
264
100
AcDbEntity
  8
图框
 62
     3
100
AcDbMText
 10
983.041569333247
 20
493.2441970450405
 30
0.0
 40
2.487927979195124
 41
15.26238390489051
 46
6.751777928266487
 71
     5
 72
     5
  1
{\W0.7;18.10.2010}
  7
Romans字体
 73
     1
 44
1.0
1001
AcDbBlockRepETag
1070
     1
1071
        9
1005
13D7
1001
ACAD
1000
ACAD_MTEXT_DEFINED_HEIGHT_BEGIN
1070
    46
1040
6.751777928266487
1000
ACAD_MTEXT_DEFINED_HEIGHT_END
  0
MTEXT
  5
13D8
330
264
100
AcDbEntity
  8
图框
 62
     3
100
AcDbMText
 10
1012.477254728976
 20
499.7664151964291
 30
0.0
 40
2.985513575034151
 41
17.64876416884615
 46
6.292658374511397
 71
     5
 72
     5
  1
-
  7
Romans字体
 73
     1
 44
1.0
1001
AcDbBlockRepETag
1070
     1
1071
       10
1005
13D8
1001
ACAD
1000
ACAD_MTEXT_DEFINED_HEIGHT_BEGIN
1070
    46
1040
6.292658374511397
1000
ACAD_MTEXT_DEFINED_HEIGHT_END
  0
MTEXT
  5
13D9
330
264
100
AcDbEntity
  8
图框
 62
     3
100
AcDbMText
 10
1028.977802139886
 20
499.7664151964289
 30
0.0
 40
2.487927979195124
 41
15.35233065297265
 46
6.292658374511382
 71
     5
 72
     5
  1
-
  7
Romans字体
 73
     1
 44
1.0
1001
AcDbBlockRepETag
1070
     1
1071
       11
1005
13D9
1001
ACAD
1000
ACAD_MTEXT_DEFINED_HEIGHT_BEGIN
1070
    46
1040
6.292658374511382
1000
ACAD_MTEXT_DEFINED_HEIGHT_END
  0
MTEXT
  5
13DA
330
264
100
AcDbEntity
  8
图框
 62
     3
100
AcDbMText
 10
967.6594956750133
 20
487.1810984474071
 30
0.0
 40
2.985513575034151
 41
15.50176341157863
 46
6.292658374511478
 71
     5
 72
     5
  1
-
  7
Romans字体
 73
     1
 44
1.0
1001
AcDbBlockRepETag
1070
     1
1071
       12
1005
13DA
1001
ACAD
1000
ACAD_MTEXT_DEFINED_HEIGHT_BEGIN
1070
    46
1040
6.292658374511478
1000
ACAD_MTEXT_DEFINED_HEIGHT_END
  0
MTEXT
  5
13DB
330
264
100
AcDbEntity
  8
图框
 62
     3
100
AcDbMText
 10
983.041569333247
 20
487.1810984474071
 30
0.0
 40
2.487927979195124
 41
15.26238390489062
 46
6.292658374511495
 71
     5
 72
     5
  1
-
  7
Romans字体
 73
     1
 44
1.0
1001
AcDbBlockRepETag
1070
     1
1071
       13
1005
13DB
1001
ACAD
1000
ACAD_MTEXT_DEFINED_HEIGHT_BEGIN
1070
    46
1040
6.292658374511495
1000
ACAD_MTEXT_DEFINED_HEIGHT_END
  0
MTEXT
  5
13DC
330
264
100
AcDbEntity
  8
图框
 62
     3
100
AcDbMText
 10
1074.556686986741
 20
495.8417418993361
 30
0.0
 40
2.985513575034151
 41
10.82934843438978
 46
7.886094601210427
 71
     5
 72
     5
  1
-
  7
Romans字体
 73
     1
 44
1.0
1001
AcDbBlockRepETag
1070
     1
1071
       14
1005
13DC
1001
ACAD
1000
ACAD_MTEXT_DEFINED_HEIGHT_BEGIN
1070
    46
1040
7.886094601210427
1000
ACAD_MTEXT_DEFINED_HEIGHT_END
  0
LINE
  5
13DD
330
264
100
AcDbEntity
  8
图框
370
    -3
100
AcDbLine
 10
1036.653967466372
 20
499.7847891999413
 30
0.0
 11
1079.971361203936
 21
499.7847891999413
 31
0.0
1001
AcDbBlockRepETag
1070
     1
1071
       15
1005
13DD
  0
MTEXT
  5
13DE
330
264
100
AcDbEntity
  8
图框
 62
     1
370
    20
100
AcDbMText
 10
1108.26336443907
 20
491.5162596080882
 30
0.0
 40
2.699054613030988
 41
82.30831305643079
 46
0.0
 71
     5
 72
     5
  1
{\fSimHei|b0|i0|c134|p2;厦门唯恩电气有限公司}
 73
     1
 44
1.0
1001
AcDbBlockRepETag
1070
     1
1071
       16
1005
13DE
  0
MTEXT
  5
13DF
330
264
100
AcDbEntity
  8
图框
 62
     3
370
    20
100
AcDbMText
 10
1108.435451459908
 20
487.298967726064
 30
0.0
 40
1.652482416141417
 41
68.08558693693567
 46
0.0
 71
     5
 72
     5
  1
{\fArial Narrow|b0|i0|c0|p34;XIAMEN WAIN ELECTRICAL CO.LTD}
  7
工程字
 73
     1
 44
1.0
1001
AcDbBlockRepETag
1070
     1
1071
       17
1005
13DF
  0
MTEXT
  5
13E0
330
264
100
AcDbEntity
  8
图框
 62
     1
370
    20
100
AcDbMText
 10
1085.711816899387
 20
491.0944802995856
 30
0.0
 40
2.005930044038334
 41
5.047240019334847
 46
0.0
 71
     1
 72
     5
  1
{\fArial|b0|i0|c0|p34;A}
  7
Chinese
 73
     1
 44
1.0
1001
AcDbBlockRepETag
1070
     1
1071
       18
1005
13E0
  0
MTEXT
  5
13E1
330
264
100
AcDbEntity
  8
图框
 62
     1
370
    20
100
AcDbMText
 10
1088.213485935716
 20
491.0944802995856
 30
0.0
 40
2.005930044038334
 41
5.047240019334847
 46
0.0
 71
     1
 72
     5
  1
{\fArial|b0|i0|c0|p34;I}
  7
Chinese
 73
     1
 44
1.0
1001
AcDbBlockRepETag
1070
     1
1071
       19
1005
13E1
  0
MTEXT
  5
13E2
330
264
100
AcDbEntity
  8
图框
 62
     1
370
    20
100
AcDbMText
 10
1089.142375222864
 20
491.0822866326808
 30
0.0
 40
2.005930044038334
 41
5.047240019334847
 46
0.0
 71
     1
 72
     5
  1
{\fArial|b0|i0|c0|p34;N}
  7
Chinese
 73
     1
 44
1.0
1001
AcDbBlockRepETag
1070
     1
1071
       20
1005
13E2
  0
MTEXT
  5
13E3
330
264
100
AcDbEntity
  8
图框
100
AcDbMText
 10
1069.142012769545
 20
487.9667319294409
 30
0.0
 40
2.252848170144607
 41
21.65869686878327
 46
7.863925338579296
 71
     5
 72
     5
  1
{\W0.5;\C1;All Dimensions in mm\POriginal Size DIN A 4}
  7
Romans字体
 73
     1
 44
1.0
1001
AcDbBlockRepETag
1070
     1
1071
       21
1005
13E3
1001
ACAD
1000
ACAD_MTEXT_DEFINED_HEIGHT_BEGIN
1070
    46
1040
7.863925338579296
1000
ACAD_MTEXT_DEFINED_HEIGHT_END
  0
MTEXT
  5
13E4
330
264
100
AcDbEntity
  8
图框
  6
ByBlock
 62
     6
370
    18
100
AcDbMText
 10
1127.40434942308
 20
508.7896535755975
 30
0.0
 40
2.651776162684904
 41
2.557913877927211
 46
0.0
 71
     1
 72
     5
  1
A
  7
Romans字体
 11
0.0000000000000001
 21
1.0
 31
0.0
 73
     1
 44
1.0
1001
AcDbBlockRepETag
1070
     1
1071
       22
1005
13E4
  0
MTEXT
  5
13E5
330
264
100
AcDbEntity
  8
图框
 62
     6
100
AcDbMText
 10
1127.40434942308
 20
556.3746573232886
 30
0.0
 40
2.651776162684904
 41
2.557913877927211
 46
0.0
 71
     1
 72
     5
  1
B
  7
Romans字体
 11
0.0000000000000001
 21
1.0
 31
0.0
 73
     1
 44
1.0
1001
AcDbBlockRepETag
1070
     1
1071
       23
1005
13E5
  0
MTEXT
  5
13E6
330
264
100
AcDbEntity
  8
图框
 62
     6
100
AcDbMText
 10
1127.40434942308
 20
607.5539372630998
 30
0.0
 40
2.651776162684904
 41
2.557913877927211
 46
0.0
 71
     1
 72
     5
  1
C
  7
Romans字体
 11
0.0000000000000001
 21
1.0
 31
0.0
 73
     1
 44
1.0
1001
AcDbBlockRepETag
1070
     1
1071
       24
1005
13E6
  0
MTEXT
  5
13E7
330
264
100
AcDbEntity
  8
图框
 62
     6
100
AcDbMText
 10
1127.40434942308
 20
658.7332172029115
 30
0.0
 40
2.651776162684904
 41
2.557913877927211
 46
0.0
 71
     1
 72
     5
  1
D
  7
Romans字体
 11
0.0000000000000001
 21
1.0
 31
0.0
 73
     1
 44
1.0
1001
AcDbBlockRepETag
1070
     1
1071
       25
1005
13E7
  0
LINE
  5
13E8
330
264
100
AcDbEntity
  8
图框
 62
     6
100
AcDbLine
 10
1130.411601781241
 20
634.0726090796082
 30
0.0
 11
1126.928502610363
 21
634.0726090796082
 31
0.0
1001
AcDbBlockRepETag
1070
     1
1071
       26
1005
13E8
  0
LINE
  5
13E9
330
264
100
AcDbEntity
  8
图框
 62
     6
100
AcDbLine
 10
1130.411601781241
 20
582.89332913979
 30
0.0
 11
1126.928502610363
 21
582.89332913979
 31
0.0
1001
AcDbBlockRepETag
1070
     1
1071
       27
1005
13E9
  0
MTEXT
  5
13EA
330
264
100
AcDbEntity
  8
图框
 62
     6
100
AcDbMText
 10
1105.329704038389
 20
483.6164543011163
 30
0.0
 40
2.651776162684904
 41
2.557913877927211
 46
0.0
 71
     1
 72
     5
  1
6
  7
Romans字体
 73
     1
 44
1.0
1001
AcDbBlockRepETag
1070
     1
1071
       28
1005
13EA
  0
LINE
  5
13EB
330
264
100
AcDbEntity
  8
图框
 62
     6
100
AcDbLine
 10
1081.088565155284
 20
484.0347692601515
 30
0.0
 11
1081.088565155284
 21
480.5347692601475
 31
0.0
1001
AcDbBlockRepETag
1070
     1
1071
       29
1005
13EB
  0
MTEXT
  5
13EC
330
264
100
AcDbEntity
  8
图框
 62
     6
100
AcDbMText
 10
1055.900596365941
 20
483.520053108993
 30
0.0
 40
2.651776162684904
 41
2.557913877927211
 46
0.0
 71
     1
 72
     5
  1
5
  7
Romans字体
 73
     1
 44
1.0
1001
AcDbBlockRepETag
1070
     1
1071
       30
1005
13EC
  0
LINE
  5
13ED
330
264
100
AcDbEntity
  8
图框
 62
     6
100
AcDbLine
 10
1031.553386436349
 20
484.0347692601515
 30
0.0
 11
1031.553386436349
 21
480.5347692601475
 31
0.0
1001
AcDbBlockRepETag
1070
     1
1071
       31
1005
13ED
  0
MTEXT
  5
13EE
330
264
100
AcDbEntity
  8
图框
 62
     6
100
AcDbMText
 10
1006.383180575197
 20
483.5687958215896
 30
0.0
 40
2.651776162684904
 41
2.557913877927211
 46
0.0
 71
     1
 72
     5
  1
4
  7
Romans字体
 73
     1
 44
1.0
1001
AcDbBlockRepETag
1070
     1
1071
       32
1005
13EE
  0
LINE
  5
13EF
330
264
100
AcDbEntity
  8
图框
 62
     6
100
AcDbLine
 10
982.0182077173887
 20
484.0347692601515
 30
0.0
 11
982.0182077173887
 21
480.5347692601475
 31
0.0
1001
AcDbBlockRepETag
1070
     1
1071
       33
1005
13EF
  0
MTEXT
  5
13F0
330
264
100
AcDbEntity
  8
图框
 62
     6
100
AcDbMText
 10
956.8302389280352
 20
483.5989680297948
 30
0.0
 40
2.651776162684904
 41
2.557913877927211
 46
0.0
 71
     1
 72
     5
  1
3
  7
Romans字体
 73
     1
 44
1.0
1001
AcDbBlockRepETag
1070
     1
1071
       34
1005
13F0
  0
LINE
  5
13F1
330
264
100
AcDbEntity
  8
图框
 62
     6
100
AcDbLine
 10
932.4830289984245
 20
484.0347692601515
 30
0.0
 11
932.4830289984245
 21
480.5347692601475
 31
0.0
1001
AcDbBlockRepETag
1070
     1
1071
       35
1005
13F1
  0
MTEXT
  5
13F2
330
264
100
AcDbEntity
  8
图框
 62
     6
100
AcDbMText
 10
906.0252349826365
 20
483.6475250013156
 30
0.0
 40
2.651776162684904
 41
2.557913877927211
 46
0.0
 71
     1
 72
     5
  1
2
  7
Romans字体
 73
     1
 44
1.0
1001
AcDbBlockRepETag
1070
     1
1071
       36
1005
13F2
  0
LINE
  5
13F3
330
264
100
AcDbEntity
  8
图框
 62
     6
100
AcDbLine
 10
882.9478502794648
 20
484.0347692601515
 30
0.0
 11
882.9478502794648
 21
480.5347692601475
 31
0.0
1001
AcDbBlockRepETag
1070
     1
1071
       37
1005
13F3
  0
MTEXT
  5
13F4
330
264
100
AcDbEntity
  8
图框
 62
     6
100
AcDbMText
 10
857.7598814901191
 20
483.651829494754
 30
0.0
 40
2.651776162684904
 41
2.557913877927211
 46
0.0
 71
     1
 72
     5
  1
1
  7
Romans字体
 73
     1
 44
1.0
1001
AcDbBlockRepETag
1070
     1
1071
       38
1005
13F4
  0
LINE
  5
13F5
330
264
100
AcDbEntity
  8
图框
370
    50
100
AcDbLine
 10
836.8548209370597
 20
484.0347692601515
 30
0.0
 11
1126.928502610363
 21
484.0347692601515
 31
0.0
1001
AcDbBlockRepETag
1070
     1
1071
       39
1005
13F5
  0
LINE
  5
13F6
330
264
100
AcDbEntity
  8
图框
370
    50
100
AcDbLine
 10
836.9128518455362
 20
484.0178684310246
 30
0.0
 11
836.9128518455394
 21
675.0207195125422
 31
0.0
1001
AcDbBlockRepETag
1070
     1
1071
       40
1005
13F6
  0
MTEXT
  5
13F7
330
264
100
AcDbEntity
  8
图框
 62
     6
100
AcDbMText
 10
833.8475685789031
 20
658.7332172029115
 30
0.0
 40
2.651776162684904
 41
2.557913877927211
 46
0.0
 71
     1
 72
     5
  1
D
  7
Romans字体
 11
0.0000000000000001
 21
1.0
 31
0.0
 73
     1
 44
1.0
1001
AcDbBlockRepETag
1070
     1
1071
       41
1005
13F7
  0
LINE
  5
13F8
330
264
100
AcDbEntity
  8
图框
 62
     6
100
AcDbLine
 10
836.9128518455386
 20
634.0726090796082
 30
0.0
 11
833.4128518455365
 21
634.0726090796082
 31
0.0
1001
AcDbBlockRepETag
1070
     1
1071
       42
1005
13F8
  0
MTEXT
  5
13F9
330
264
100
AcDbEntity
  8
图框
 62
     6
100
AcDbMText
 10
833.9039177480142
 20
607.5539372630998
 30
0.0
 40
2.651776162684904
 41
2.557913877927211
 46
0.0
 71
     1
 72
     5
  1
C
  7
Romans字体
 11
0.0000000000000001
 21
1.0
 31
0.0
 73
     1
 44
1.0
1001
AcDbBlockRepETag
1070
     1
1071
       43
1005
13F9
  0
LINE
  5
13FA
330
264
100
AcDbEntity
  8
图框
 62
     6
100
AcDbLine
 10
836.9128518455378
 20
582.89332913979
 30
0.0
 11
833.4128518455365
 21
582.89332913979
 31
0.0
1001
AcDbBlockRepETag
1070
     1
1071
       44
1005
13FA
  0
MTEXT
  5
13FB
330
264
100
AcDbEntity
  8
图框
 62
     6
100
AcDbMText
 10
833.9039177480142
 20
556.3746573232886
 30
0.0
 40
2.651776162684904
 41
2.557913877927211
 46
0.0
 71
     1
 72
     5
  1
B
  7
Romans字体
 11
0.0000000000000001
 21
1.0
 31
0.0
 73
     1
 44
1.0
1001
AcDbBlockRepETag
1070
     1
1071
       45
1005
13FB
  0
LINE
  5
13FC
330
264
100
AcDbEntity
  8
图框
 62
     6
100
AcDbLine
 10
836.9128518455367
 20
531.714049199969
 30
0.0
 11
833.4128518455365
 21
531.714049199969
 31
0.0
1001
AcDbBlockRepETag
1070
     1
1071
       46
1005
13FC
  0
MTEXT
  5
13FD
330
264
100
AcDbEntity
  8
图框
 62
     6
100
AcDbMText
 10
833.9039177480142
 20
508.7896535755975
 30
0.0
 40
2.651776162684904
 41
2.557913877927211
 46
0.0
 71
     1
 72
     5
  1
A
  7
Romans字体
 11
0.0000000000000001
 21
1.0
 31
0.0
 73
     1
 44
1.0
1001
AcDbBlockRepETag
1070
     1
1071
       47
1005
13FD
  0
LINE
  5
13FE
330
264
100
AcDbEntity
  8
图框
370
    -3
100
AcDbLine
 10
836.9128518455394
 20
675.0207195125422
 30
0.0
 11
836.9128518455394
 21
684.5021384922564
 31
0.0
1001
AcDbBlockRepETag
1070
     1
1071
       48
1005
13FE
  0
LINE
  5
13FF
330
264
100
AcDbEntity
  8
图框
370
    -3
100
AcDbLine
 10
842.6237321475781
 20
675.5347692601515
 30
0.0
 11
842.6237321475781
 21
685.0161882398658
 31
0.0
1001
AcDbBlockRepETag
1070
     1
1071
       49
1005
13FF
  0
LINE
  5
1400
330
264
100
AcDbEntity
  8
图框
370
    -3
100
AcDbLine
 10
848.3346124496179
 20
675.5347692601515
 30
0.0
 11
848.3346124496179
 21
685.0161882398658
 31
0.0
1001
AcDbBlockRepETag
1070
     1
1071
       50
1005
1400
  0
LINE
  5
1401
330
264
100
AcDbEntity
  8
图框
370
    -3
100
AcDbLine
 10
854.0454927516588
 20
675.5347692601515
 30
0.0
 11
854.0454927516588
 21
685.0161882398658
 31
0.0
1001
AcDbBlockRepETag
1070
     1
1071
       51
1005
1401
  0
LINE
  5
1402
330
264
100
AcDbEntity
  8
图框
370
    -3
100
AcDbLine
 10
861.5351874539182
 20
675.5347692601515
 30
0.0
 11
861.5351874539182
 21
686.7901958362482
 31
0.0
1001
AcDbBlockRepETag
1070
     1
1071
       52
1005
1402
  0
MTEXT
  5
1403
330
264
100
AcDbEntity
  8
图框
 62
     6
100
AcDbMText
 10
1105.329704038389
 20
678.859919059449
 30
0.0
 40
2.651776162684904
 41
2.557913877927211
 46
0.0
 71
     1
 72
     5
  1
6
  7
Romans字体
 73
     1
 44
1.0
1001
AcDbBlockRepETag
1070
     1
1071
       53
1005
1403
  0
LINE
  5
1404
330
264
100
AcDbEntity
  8
图框
 62
     6
100
AcDbLine
 10
1081.088565155284
 20
679.0347692601516
 30
0.0
 11
1081.088565155284
 21
675.5347692601515
 31
0.0
1001
AcDbBlockRepETag
1070
     1
1071
       54
1005
1404
  0
MTEXT
  5
1405
330
264
100
AcDbEntity
  8
图框
 62
     6
100
AcDbMText
 10
1055.900596365941
 20
678.859919059449
 30
0.0
 40
2.651776162684904
 41
2.557913877927211
 46
0.0
 71
     1
 72
     5
  1
5
  7
Romans字体
 73
     1
 44
1.0
1001
AcDbBlockRepETag
1070
     1
1071
       55
1005
1405
  0
LINE
  5
1406
330
264
100
AcDbEntity
  8
图框
 62
     6
100
AcDbLine
 10
1031.553386436349
 20
679.0347692601516
 30
0.0
 11
1031.553386436349
 21
675.5347692601515
 31
0.0
1001
AcDbBlockRepETag
1070
     1
1071
       56
1005
1406
  0
MTEXT
  5
1407
330
264
100
AcDbEntity
  8
图框
 62
     6
100
AcDbMText
 10
1006.36541764698
 20
678.7312083656147
 30
0.0
 40
2.651776162684904
 41
2.557913877927211
 46
0.0
 71
     1
 72
     5
  1
4
  7
Romans字体
 73
     1
 44
1.0
1001
AcDbBlockRepETag
1070
     1
1071
       57
1005
1407
  0
LINE
  5
1408
330
264
100
AcDbEntity
  8
图框
 62
     6
100
AcDbLine
 10
982.0182077173887
 20
679.0347692601516
 30
0.0
 11
982.0182077173887
 21
675.5347692601515
 31
0.0
1001
AcDbBlockRepETag
1070
     1
1071
       58
1005
1408
  0
MTEXT
  5
1409
330
264
100
AcDbEntity
  8
图框
 62
     6
100
AcDbMText
 10
956.8302389280352
 20
678.859919059449
 30
0.0
 40
2.651776162684904
 41
2.557913877927211
 46
0.0
 71
     1
 72
     5
  1
3
  7
Romans字体
 73
     1
 44
1.0
1001
AcDbBlockRepETag
1070
     1
1071
       59
1005
1409
  0
LINE
  5
140A
330
264
100
AcDbEntity
  8
图框
 62
     6
100
AcDbLine
 10
932.4830289984245
 20
679.0347692601516
 30
0.0
 11
932.4830289984245
 21
675.5347692601515
 31
0.0
1001
AcDbBlockRepETag
1070
     1
1071
       60
1005
140A
  0
MTEXT
  5
140B
330
264
100
AcDbEntity
  8
图框
 62
     6
100
AcDbMText
 10
907.295060209082
 20
678.859919059449
 30
0.0
 40
2.651776162684904
 41
2.557913877927211
 46
0.0
 71
     1
 72
     5
  1
2
  7
Romans字体
 73
     1
 44
1.0
1001
AcDbBlockRepETag
1070
     1
1071
       61
1005
140B
  0
LINE
  5
140C
330
264
100
AcDbEntity
  8
图框
 62
     6
100
AcDbLine
 10
882.9478502794648
 20
678.7962435131815
 30
0.0
 11
882.9478502794648
 21
675.5347692601515
 31
0.0
1001
AcDbBlockRepETag
1070
     1
1071
       62
1005
140C
  0
MTEXT
  5
140D
330
264
100
AcDbEntity
  8
图框
 62
     6
100
AcDbMText
 10
862.6286629643733
 20
678.859919059449
 30
0.0
 40
2.651776162684904
 41
2.557913877927211
 46
0.0
 71
     1
 72
     5
  1
1
  7
Romans字体
 73
     1
 44
1.0
1001
AcDbBlockRepETag
1070
     1
1071
       63
1005
140D
  0
LINE
  5
140E
330
264
100
AcDbEntity
  8
图框
370
    -3
100
AcDbLine
 10
836.9128518455394
 20
675.0207195125422
 30
0.0
 11
836.9128518455394
 21
686.7901958362482
 31
0.0
1001
AcDbBlockRepETag
1070
     1
1071
       64
1005
140E
  0
LINE
  5
140F
330
264
100
AcDbEntity
  8
图框
370
    50
100
AcDbLine
 10
836.9128518455394
 20
675.5347692601515
 30
0.0
 11
1126.928502610363
 21
675.5347692601515
 31
0.0
1001
AcDbBlockRepETag
1070
     1
1071
       65
1005
140F
  0
LINE
  5
1410
330
264
100
AcDbEntity
  8
图框
370
    -3
100
AcDbLine
 10
842.6237321475781
 20
675.5347692601515
 30
0.0
 11
842.6237321475781
 21
686.7901958362482
 31
0.0
1001
AcDbBlockRepETag
1070
     1
1071
       66
1005
1410
  0
LINE
  5
1411
330
264
100
AcDbEntity
  8
图框
370
    -3
100
AcDbLine
 10
848.3346124496179
 20
675.5347692601515
 30
0.0
 11
848.3346124496179
 21
686.7901958362482
 31
0.0
1001
AcDbBlockRepETag
1070
     1
1071
       67
1005
1411
  0
MTEXT
  5
1412
102
{ACAD_XDICTIONARY
360
1413
102
}
330
264
100
AcDbEntity
  8
图框
100
AcDbMText
 10
857.7903401027889
 20
686.7901958362482
 30
0.0
 40
1.958998408821398
 41
11.25542657609672
 46
7.489694702258906
 71
     4
 72
     5
  1
\pxqc;档案员{\H0.7x;\P\Fromans|c134;Filing Clerk\fFangSong_GB2312|b0|i0|c134|p49; }
 11
-0.0000000000000002
 21
-1.0
 31
0.0
 73
     1
 44
1.0
1001
AcDbBlockRepETag
1070
     1
1071
       68
1005
1412
1001
ACAD
1000
ACAD_MTEXT_DEFINED_HEIGHT_BEGIN
1070
    46
1040
7.489694702258906
1000
ACAD_MTEXT_DEFINED_HEIGHT_END
  0
MTEXT
  5
1414
102
{ACAD_XDICTIONARY
360
1415
102
}
330
264
100
AcDbEntity
  8
图框
100
AcDbMText
 10
845.479172298598
 20
686.7901958362482
 30
0.0
 40
1.958998408821398
 41
11.25542657609672
 46
5.710880302039671
 71
     4
 72
     5
  1
\pxqc;日期{\Fromans|c134;/Date}
 11
-0.0000000000000002
 21
-1.0
 31
0.0
 73
     1
 44
1.0
1001
AcDbBlockRepETag
1070
     1
1071
       69
1005
1414
1001
ACAD
1000
ACAD_MTEXT_DEFINED_HEIGHT_BEGIN
1070
    46
1040
5.710880302039671
1000
ACAD_MTEXT_DEFINED_HEIGHT_END
  0
LINE
  5
1416
330
264
100
AcDbEntity
  8
图框
370
    -3
100
AcDbLine
 10
854.0454927516588
 20
675.5347692601515
 30
0.0
 11
854.0454927516588
 21
686.7901958362482
 31
0.0
1001
AcDbBlockRepETag
1070
     1
1071
       70
1005
1416
  0
LINE
  5
1417
330
264
100
AcDbEntity
  8
图框
370
    -3
100
AcDbLine
 10
1036.653967466372
 20
531.3291676047914
 30
0.0
 11
1036.653967466372
 21
484.0126019753161
 31
0.0
1001
AcDbBlockRepETag
1070
     1
1071
       71
1005
1417
  0
LINE
  5
1418
330
264
100
AcDbEntity
  8
图框
370
    -3
100
AcDbLine
 10
1047.483315900763
 20
507.6708838011533
 30
0.0
 11
1047.483315900763
 21
491.8986945987308
 31
0.0
1001
AcDbBlockRepETag
1070
     1
1071
       72
1005
1418
  0
LINE
  5
1419
330
264
100
AcDbEntity
  8
图框
370
    -3
100
AcDbLine
 10
1058.312664335153
 20
507.6708838011533
 30
0.0
 11
1058.312664335153
 21
484.0347692601515
 31
0.0
1001
AcDbBlockRepETag
1070
     1
1071
       73
1005
1419
  0
LINE
  5
141A
330
264
100
AcDbEntity
  8
图框
370
    25
100
AcDbLine
 10
1048.474135214456
 20
488.1095628329926
 30
0.0
 11
1054.946420288459
 21
488.1095628329926
 31
0.0
1001
AcDbBlockRepETag
1070
     1
1071
       74
1005
141A
  0
LINE
  5
141B
330
264
100
AcDbEntity
  8
图框
370
    25
100
AcDbLine
 10
1054.232527365989
 20
487.0761716842634
 30
0.0
 11
1049.156490914508
 21
486.4576273751
 31
0.0
1001
AcDbBlockRepETag
1070
     1
1071
       75
1005
141B
  0
LINE
  5
141C
330
264
100
AcDbEntity
  8
图框
370
    25
100
AcDbLine
 10
1054.232527365989
 20
489.1429539817209
 30
0.0
 11
1049.156490914508
 21
489.7614982908846
 31
0.0
1001
AcDbBlockRepETag
1070
     1
1071
       76
1005
141C
  0
LINE
  5
141D
330
264
100
AcDbEntity
  8
图框
370
    25
100
AcDbLine
 10
1049.156490914508
 20
489.7614982908846
 30
0.0
 11
1049.156490914508
 21
486.4576273751
 31
0.0
1001
AcDbBlockRepETag
1070
     1
1071
       77
1005
141D
  0
LINE
  5
141E
330
264
100
AcDbEntity
  8
图框
370
    25
100
AcDbLine
 10
1054.232527365989
 20
489.1429539817209
 30
0.0
 11
1054.232527365989
 21
487.0761716842634
 31
0.0
1001
AcDbBlockRepETag
1070
     1
1071
       78
1005
141E
  0
CIRCLE
  5
141F
330
264
100
AcDbEntity
  8
图框
370
    25
100
AcDbCircle
 10
1042.502700458579
 20
488.1095628329926
 30
0.0
 40
1.651935457891863
1001
AcDbBlockRepETag
1070
     1
1071
       79
1005
141F
  0
CIRCLE
  5
1420
330
264
100
AcDbEntity
  8
图框
370
    25
100
AcDbCircle
 10
1042.502700458579
 20
488.1095628329926
 30
0.0
 40
1.033391148728775
1001
AcDbBlockRepETag
1070
     1
1071
       80
1005
1420
  0
LINE
  5
1421
330
264
100
AcDbEntity
  8
图框
370
    25
100
AcDbLine
 10
1040.136872078216
 20
488.1095628329926
 30
0.0
 11
1044.868528838943
 21
488.1095628329926
 31
0.0
1001
AcDbBlockRepETag
1070
     1
1071
       81
1005
1421
  0
LINE
  5
1422
330
264
100
AcDbEntity
  8
图框
370
    25
100
AcDbLine
 10
1042.502700458579
 20
490.475391213355
 30
0.0
 11
1042.502700458579
 21
485.743734452629
 31
0.0
1001
AcDbBlockRepETag
1070
     1
1071
       82
1005
1422
  0
LINE
  5
1423
330
264
100
AcDbEntity
  8
图框
370
    -3
100
AcDbLine
 10
1069.142012769546
 20
507.6708838011533
 30
0.0
 11
1069.142012769546
 21
491.8986945987308
 31
0.0
1001
AcDbBlockRepETag
1070
     1
1071
       83
1005
1423
  0
MTEXT
  5
1424
330
264
100
AcDbEntity
  8
图框
100
AcDbMText
 10
1086.643735910939
 20
526.8006839312707
 30
0.0
 40
2.154898249703542
 41
13.34474941400573
 46
9.056967347041775
 71
     5
 72
     5
  1
图号{\Ftxt|c134;\P\Fromans|c134;\W0.65;Drawing No.}
 73
     1
 44
1.0
1001
AcDbBlockRepETag
1070
     1
1071
       84
1005
1424
1001
ACAD
1000
ACAD_MTEXT_DEFINED_HEIGHT_BEGIN
1070
    46
1040
9.056967347041775
1000
ACAD_MTEXT_DEFINED_HEIGHT_END
  0
LINE
  5
1425
330
264
100
AcDbEntity
  8
图框
370
    -3
100
AcDbLine
 10
1093.316110617942
 20
531.3291676047914
 30
0.0
 11
1093.316110617942
 21
495.8417418993347
 31
0.0
1001
AcDbBlockRepETag
1070
     1
1071
       85
1005
1425
  0
LINE
  5
1426
330
264
100
AcDbEntity
  8
图框
370
    -3
100
AcDbLine
 10
1047.473969770481
 20
531.3291676047914
 30
0.0
 11
1047.473969770481
 21
507.6708838011533
 31
0.0
1001
AcDbBlockRepETag
1070
     1
1071
       86
1005
1426
  0
MTEXT
  5
1427
330
264
100
AcDbEntity
  8
图框
100
AcDbMText
 10
1063.72733855235
 20
503.7278365005473
 30
0.0
 40
2.252848170144607
 41
10.82934843439208
 46
7.886094601212128
 71
     5
 72
     5
  1
重量\P{\Fromans|c134;Weight}
 73
     1
 44
1.0
1001
AcDbBlockRepETag
1070
     1
1071
       87
1005
1427
1001
ACAD
1000
ACAD_MTEXT_DEFINED_HEIGHT_BEGIN
1070
    46
1040
7.886094601212128
1000
ACAD_MTEXT_DEFINED_HEIGHT_END
  0
LINE
  5
1428
330
264
100
AcDbEntity
  8
图框
370
    -3
100
AcDbLine
 10
1036.653967466372
 20
519.5000257029746
 30
0.0
 11
1079.971361203936
 21
519.5000257029746
 31
0.0
1001
AcDbBlockRepETag
1070
     1
1071
       88
1005
1428
  0
MTEXT
  5
1429
330
264
100
AcDbEntity
  8
图框
100
AcDbMText
 10
1074.556686986741
 20
503.7278365005473
 30
0.0
 40
2.252848170144607
 41
10.82934843438984
 46
7.886094601212141
 71
     5
 72
     5
  1
数量\P{\Fromans|c134;Qty.}
 73
     1
 44
1.0
1001
AcDbBlockRepETag
1070
     1
1071
       89
1005
1429
1001
ACAD
1000
ACAD_MTEXT_DEFINED_HEIGHT_BEGIN
1070
    46
1040
7.886094601212141
1000
ACAD_MTEXT_DEFINED_HEIGHT_END
  0
LINE
  5
142A
330
264
100
AcDbEntity
  8
图框
370
    -3
100
AcDbLine
 10
1079.971361203936
 20
495.8417418993347
 30
0.0
 11
1126.928502610363
 21
495.8417418993342
 31
0.0
1001
AcDbBlockRepETag
1070
     1
1071
       90
1005
142A
  0
LINE
  5
142B
330
264
100
AcDbEntity
  8
图框
370
    -3
100
AcDbLine
 10
1079.971361203936
 20
504.7132992040975
 30
0.0
 11
1126.928502610363
 21
504.7132992040975
 31
0.0
1001
AcDbBlockRepETag
1070
     1
1071
       91
1005
142B
  0
MTEXT
  5
142C
330
264
100
AcDbEntity
  8
图框
100
AcDbMText
 10
1052.893317052817
 20
503.7278365005473
 30
0.0
 40
2.252848170144607
 41
10.83869456467139
 46
7.886094601212101
 71
     5
 72
     5
  1
版本\P{\Fromans|c134;REV.}
 73
     1
 44
1.0
1001
AcDbBlockRepETag
1070
     1
1071
       92
1005
142C
1001
ACAD
1000
ACAD_MTEXT_DEFINED_HEIGHT_BEGIN
1070
    46
1040
7.886094601212101
1000
ACAD_MTEXT_DEFINED_HEIGHT_END
  0
MTEXT
  5
142D
330
264
100
AcDbEntity
  8
图框
100
AcDbMText
 10
1042.068641683568
 20
503.7278365005473
 30
0.0
 40
2.252848170144607
 41
10.8293484343908
 46
7.886094601212136
 71
     5
 72
     5
  1
比例\P{\Fromans|c134;Scale}
 73
     1
 44
1.0
1001
AcDbBlockRepETag
1070
     1
1071
       93
1005
142D
1001
ACAD
1000
ACAD_MTEXT_DEFINED_HEIGHT_BEGIN
1070
    46
1040
7.886094601212136
1000
ACAD_MTEXT_DEFINED_HEIGHT_END
  0
LINE
  5
142E
330
264
100
AcDbEntity
  8
图框
370
    -3
100
AcDbLine
 10
1036.653967466372
 20
507.6708838011533
 30
0.0
 11
1079.971361203936
 21
507.6708838011533
 31
0.0
1001
AcDbBlockRepETag
1070
     1
1071
       94
1005
142E
  0
LINE
  5
142F
330
264
100
AcDbEntity
  8
图框
370
    -3
100
AcDbLine
 10
1036.653967466372
 20
491.8986945987308
 30
0.0
 11
1079.971361203936
 21
491.8986945987308
 31
0.0
1001
AcDbBlockRepETag
1070
     1
1071
       95
1005
142F
  0
LINE
  5
1430
330
264
100
AcDbEntity
  8
图框
370
    -3
100
AcDbLine
 10
1079.971361203936
 20
531.3291676047914
 30
0.0
 11
1079.971361203936
 21
484.0125999975168
 31
0.0
1001
AcDbBlockRepETag
1070
     1
1071
       96
1005
1430
  0
MTEXT
  5
1431
330
264
100
AcDbEntity
  8
图框
100
AcDbMText
 10
1042.063968618426
 20
525.4145966538832
 30
0.0
 40
2.252848170144607
 41
10.82000230410933
 46
11.82914190181708
 71
     5
 72
     5
  1
表面处理\P{\Fromans|c134;Finish}
 73
     1
 44
1.0
1001
AcDbBlockRepETag
1070
     1
1071
       97
1005
1431
1001
ACAD
1000
ACAD_MTEXT_DEFINED_HEIGHT_BEGIN
1070
    46
1040
11.82914190181708
1000
ACAD_MTEXT_DEFINED_HEIGHT_END
  0
MTEXT
  5
1432
330
264
100
AcDbEntity
  8
图框
100
AcDbMText
 10
1042.063968618426
 20
513.5854547520639
 30
0.0
 40
2.252848170144607
 41
10.82000230410933
 46
11.8291419018212
 71
     5
 72
     5
  1
材料\P{\Fromans|c134;Material}
 73
     1
 44
1.0
1001
AcDbBlockRepETag
1070
     1
1071
       98
1005
1432
1001
ACAD
1000
ACAD_MTEXT_DEFINED_HEIGHT_BEGIN
1070
    46
1040
11.8291419018212
1000
ACAD_MTEXT_DEFINED_HEIGHT_END
  0
LINE
  5
1433
330
264
100
AcDbEntity
  8
图框
370
    -3
100
AcDbLine
 10
1079.971361203936
 20
522.27220025775
 30
0.0
 11
1126.928502610363
 21
522.27220025775
 31
0.0
1001
AcDbBlockRepETag
1070
     1
1071
       99
1005
1433
  0
LINE
  5
1434
330
264
100
AcDbEntity
  8
图框
370
    -3
100
AcDbLine
 10
1079.971361203936
 20
513.5854547520641
 30
0.0
 11
1126.928502610363
 21
513.5854547520639
 31
0.0
1001
AcDbBlockRepETag
1070
     1
1071
      100
1005
1434
  0
MTEXT
  5
1435
330
264
100
AcDbEntity
  8
图框
100
AcDbMText
 10
1086.643735910939
 20
517.9288275049072
 30
0.0
 40
1.958998408821398
 41
13.34474941400573
 46
8.686745505685811
 71
     5
 72
     5
  1
产品代号\P{\Fromans|c134;Part Code}
 73
     1
 44
1.0
1001
AcDbBlockRepETag
1070
     1
1071
      101
1005
1435
1001
ACAD
1000
ACAD_MTEXT_DEFINED_HEIGHT_BEGIN
1070
    46
1040
8.686745505685811
1000
ACAD_MTEXT_DEFINED_HEIGHT_END
  0
LINE
  5
1436
330
264
100
AcDbEntity
  8
图框
370
    -3
100
AcDbLine
 10
946.9285026103634
 20
525.7982263931411
 30
0.0
 11
1036.653967466372
 21
525.7982263931411
 31
0.0
1001
AcDbBlockRepETag
1070
     1
1071
      102
1005
1436
  0
LINE
  5
1437
330
264
100
AcDbEntity
  8
图框
370
    -3
100
AcDbLine
 10
946.9285026103634
 20
520.2672851814959
 30
0.0
 11
1036.653967466372
 21
520.2672851814959
 31
0.0
1001
AcDbBlockRepETag
1070
     1
1071
      103
1005
1437
  0
LINE
  5
1438
330
264
100
AcDbEntity
  8
图框
370
    35
100
AcDbLine
 10
946.9285026103634
 20
531.3291676047914
 30
0.0
 11
1126.928502610363
 21
531.3291676047914
 31
0.0
1001
AcDbBlockRepETag
1070
     1
1071
      104
1005
1438
  0
LINE
  5
1439
330
264
100
AcDbEntity
  8
图框
370
    -3
100
AcDbLine
 10
990.6727612856927
 20
509.2054027581959
 30
0.0
 11
990.6727612856927
 21
484.0347692601515
 31
0.0
1001
AcDbBlockRepETag
1070
     1
1071
      105
1005
1439
  0
MTEXT
  5
143A
102
{ACAD_XDICTIONARY
360
143B
102
}
330
264
100
AcDbEntity
  8
图框
100
AcDbMText
 10
997.1628169651232
 20
499.816589978722
 30
0.0
 40
2.252848170144607
 41
12.98011135886052
 46
6.19230880992475
 71
     5
 72
     5
  1
\pxsm0.7;{\fFangSong_GB2312|b0|i0|c134|p49;标准化}\PStand.
  7
Romans字体
 73
     1
 44
1.0
1001
AcDbBlockRepETag
1070
     1
1071
      106
1005
143A
1001
ACAD
1000
ACAD_MTEXT_DEFINED_HEIGHT_BEGIN
1070
    46
1040
6.19230880992475
1000
ACAD_MTEXT_DEFINED_HEIGHT_END
  0
LINE
  5
143C
330
264
100
AcDbEntity
  8
图框
370
    -3
100
AcDbLine
 10
975.4103773808022
 20
509.2054027581959
 30
0.0
 11
975.4103773808022
 21
484.0347692601515
 31
0.0
1001
AcDbBlockRepETag
1070
     1
1071
      107
1005
143C
  0
MTEXT
  5
143D
330
264
100
AcDbEntity
  8
图框
100
AcDbMText
 10
984.5089229802068
 20
511.9708733640202
 30
0.0
 40
2.448748011026752
 41
38.287899328693
 46
5.530941211648832
 71
     5
 72
     5
  1
  变更描述{\Fromans|c134;/Description}
 73
     1
 44
1.0
1001
AcDbBlockRepETag
1070
     1
1071
      108
1005
143D
1001
ACAD
1000
ACAD_MTEXT_DEFINED_HEIGHT_BEGIN
1070
    46
1040
5.530941211648832
1000
ACAD_MTEXT_DEFINED_HEIGHT_END
  0
MTEXT
  5
143E
102
{ACAD_XDICTIONARY
360
143F
102
}
330
264
100
AcDbEntity
  8
图框
100
AcDbMText
 10
1012.466086049227
 20
511.9708733640202
 30
0.0
 40
1.958998408821398
 41
17.6264268093469
 46
5.530941211648825
 71
     5
 72
     5
  1
\pxsm0.7;签名\P{\Fromans|c134;Signature} 
 73
     1
 44
1.0
1001
AcDbBlockRepETag
1070
     1
1071
      109
1005
143E
1001
ACAD
1000
ACAD_MTEXT_DEFINED_HEIGHT_BEGIN
1070
    46
1040
5.530941211648825
1000
ACAD_MTEXT_DEFINED_HEIGHT_END
  0
MTEXT
  5
1440
102
{ACAD_XDICTIONARY
360
1441
102
}
330
264
100
AcDbEntity
  8
图框
100
AcDbMText
 10
960.7558556394856
 20
511.9708733640202
 30
0.0
 40
1.958998408821398
 41
9.218235352749283
 46
5.530941211648841
 71
     5
 72
     5
  1
\pxsm0.7,qc;处数\P{\Fromans|c134;Number }
 73
     1
 44
1.0
1001
AcDbBlockRepETag
1070
     1
1071
      110
1005
1440
1001
ACAD
1000
ACAD_MTEXT_DEFINED_HEIGHT_BEGIN
1070
    46
1040
5.530941211648841
1000
ACAD_MTEXT_DEFINED_HEIGHT_END
  0
LINE
  5
1442
330
264
100
AcDbEntity
  8
图框
370
    -3
100
AcDbLine
 10
946.9285026103634
 20
514.7363439698449
 30
0.0
 11
1036.653967466372
 21
514.7363439698449
 31
0.0
1001
AcDbBlockRepETag
1070
     1
1071
      111
1005
1442
  0
LINE
  5
1443
330
264
100
AcDbEntity
  8
图框
370
    -3
100
AcDbLine
 10
946.9285026103634
 20
509.2054027581959
 30
0.0
 11
1036.653967466372
 21
509.2054027581959
 31
0.0
1001
AcDbBlockRepETag
1070
     1
1071
      112
1005
1443
  0
LINE
  5
1444
330
264
100
AcDbEntity
  8
图框
370
    -3
100
AcDbLine
 10
946.9285026103634
 20
502.9127443836848
 30
0.0
 11
1036.653967466372
 21
502.9127443836848
 31
0.0
1001
AcDbBlockRepETag
1070
     1
1071
      113
1005
1444
  0
LINE
  5
1445
330
264
100
AcDbEntity
  8
图框
370
    -3
100
AcDbLine
 10
946.9285026103634
 20
496.620086009173
 30
0.0
 11
1036.653967466372
 21
496.620086009173
 31
0.0
1001
AcDbBlockRepETag
1070
     1
1071
      114
1005
1445
  0
LINE
  5
1446
330
264
100
AcDbEntity
  8
图框
370
    35
380
     1
100
AcDbLine
 10
946.9285026103634
 20
531.3291676047914
 30
0.0
 11
946.9285026103634
 21
484.0347692601515
 31
0.0
1001
AcDbBlockRepETag
1070
     1
1071
      115
1005
1446
  0
LINE
  5
1447
330
264
100
AcDbEntity
  8
图框
370
    -3
100
AcDbLine
 10
1021.301636813399
 20
531.3291676047914
 30
0.0
 11
1021.301636813399
 21
484.0347692601515
 31
0.0
1001
AcDbBlockRepETag
1070
     1
1071
      116
1005
1447
  0
LINE
  5
1448
330
264
100
AcDbEntity
  8
图框
370
    -3
100
AcDbLine
 10
1003.652872644553
 20
531.3291676047914
 30
0.0
 11
1003.652872644553
 21
484.0347692601515
 31
0.0
1001
AcDbBlockRepETag
1070
     1
1071
      117
1005
1448
  0
LINE
  5
1449
330
264
100
AcDbEntity
  8
图框
370
    -3
100
AcDbLine
 10
965.3649733158603
 20
531.3291676047914
 30
0.0
 11
965.3649733158603
 21
509.2054027581959
 31
0.0
1001
AcDbBlockRepETag
1070
     1
1071
      118
1005
1449
  0
LINE
  5
144A
330
264
100
AcDbEntity
  8
图框
370
    -3
100
AcDbLine
 10
956.1467379631109
 20
531.3291676047914
 30
0.0
 11
956.1467379631109
 21
509.2054027581959
 31
0.0
1001
AcDbBlockRepETag
1070
     1
1071
      119
1005
144A
  0
MTEXT
  5
144B
102
{ACAD_XDICTIONARY
360
144C
102
}
330
264
100
AcDbEntity
  8
图框
100
AcDbMText
 10
951.537620286737
 20
511.9708733640202
 30
0.0
 40
1.958998408821398
 41
9.218235352747692
 46
5.530941211648832
 71
     5
 72
     5
  1
\pxsm0.7;标记\P{\Fromans|c134;Mark}
 73
     1
 44
1.0
1001
AcDbBlockRepETag
1070
     1
1071
      120
1005
144B
1001
ACAD
1000
ACAD_MTEXT_DEFINED_HEIGHT_BEGIN
1070
    46
1040
5.530941211648832
1000
ACAD_MTEXT_DEFINED_HEIGHT_END
  0
MTEXT
  5
144D
102
{ACAD_XDICTIONARY
360
144E
102
}
330
264
100
AcDbEntity
  8
图框
100
AcDbMText
 10
953.4185582897936
 20
493.4737568219182
 30
0.0
 40
2.252848170144607
 41
12.98011135886041
 46
6.292658374510382
 71
     5
 72
     5
  1
\pxsm0.7;审核\P{\Fromans|c134;Checked}
 73
     1
 44
1.0
1001
AcDbBlockRepETag
1070
     1
1071
      121
1005
144D
1001
ACAD
1000
ACAD_MTEXT_DEFINED_HEIGHT_BEGIN
1070
    46
1040
6.292658374510382
1000
ACAD_MTEXT_DEFINED_HEIGHT_END
  0
MTEXT
  5
144F
102
{ACAD_XDICTIONARY
360
1450
102
}
330
264
100
AcDbEntity
  8
图框
100
AcDbMText
 10
953.4185582897936
 20
499.8775635376777
 30
0.0
 40
2.252848170144607
 41
12.98011135886041
 46
6.070361692014189
 71
     5
 72
     5
  1
\pxsm0.7;绘图\P{\Fromans|c134;Drawn\Ftxt|c134; }
 73
     1
 44
1.0
1001
AcDbBlockRepETag
1070
     1
1071
      122
1005
144F
1001
ACAD
1000
ACAD_MTEXT_DEFINED_HEIGHT_BEGIN
1070
    46
1040
6.070361692014189
1000
ACAD_MTEXT_DEFINED_HEIGHT_END
  0
ARC
  5
1451
330
264
100
AcDbEntity
  8
图框
 62
     4
370
    35
100
AcDbCircle
 10
1086.900627017421
 20
490.0179944151195
 30
0.0
 40
4.063310408393665
100
AcDbArc
 50
18.95237904564806
 51
161.0476209543519
1001
AcDbBlockRepETag
1070
     1
1071
      123
1005
1451
  0
ARC
  5
1452
330
264
100
AcDbEntity
  8
图框
 62
     4
370
    35
100
AcDbCircle
 10
1086.900627017421
 20
490.0179944151195
 30
0.0
 40
4.063310408393665
100
AcDbArc
 50
198.952379045648
 51
341.0476209543519
1001
AcDbBlockRepETag
1070
     1
1071
      124
1005
1452
  0
LINE
  5
1453
330
264
100
AcDbEntity
  8
图框
 62
     4
370
    35
100
AcDbLine
 10
1083.057593369548
 20
488.6983035966752
 30
0.0
 11
1090.74366066529
 21
488.6983035966752
 31
0.0
1001
AcDbBlockRepETag
1070
     1
1071
      125
1005
1453
  0
LINE
  5
1454
330
264
100
AcDbEntity
  8
图框
 62
     4
370
    35
100
AcDbLine
 10
1083.057593369548
 20
491.3376852335652
 30
0.0
 11
1090.74366066529
 21
491.3376852335652
 31
0.0
1001
AcDbBlockRepETag
1070
     1
1071
      126
1005
1454
  0
MTEXT
  5
1455
330
264
100
AcDbEntity
  8
图框
 62
     1
370
    20
100
AcDbMText
 10
1083.034582879669
 20
491.0506288081688
 30
0.0
 40
2.005930044038334
 41
5.047240019334847
 46
0.0
 71
     1
 72
     5
  1
{\fArial|b0|i0|c0|p34;W}
  7
Chinese
 73
     1
 44
1.0
1001
AcDbBlockRepETag
1070
     1
1071
      127
1005
1455
  0
LINE
  5
1456
330
264
100
AcDbEntity
  8
图框
370
    -3
100
AcDbLine
 10
946.9285026103634
 20
490.327427634663
 30
0.0
 11
1036.653967466372
 21
490.327427634663
 31
0.0
1001
AcDbBlockRepETag
1070
     1
1071
      128
1005
1456
  0
LINE
  5
1457
330
264
100
AcDbEntity
  8
图框
370
    -3
100
AcDbLine
 10
959.9086139692238
 20
509.2054027581959
 30
0.0
 11
959.9086139692238
 21
484.0347692601515
 31
0.0
1001
AcDbBlockRepETag
1070
     1
1071
      129
1005
1457
  0
MTEXT
  5
1458
330
264
100
AcDbEntity
  8
图框
100
AcDbMText
 10
967.6594956750129
 20
506.0590735709403
 30
0.0
 40
2.252848170144607
 41
15.50176341157869
 46
6.292658374511246
 71
     5
 72
     5
  1
姓名{\Fromans|c134;/Name\Ftxt|c134; }
 73
     1
 44
1.0
1001
AcDbBlockRepETag
1070
     1
1071
      130
1005
1458
1001
ACAD
1000
ACAD_MTEXT_DEFINED_HEIGHT_BEGIN
1070
    46
1040
6.292658374511246
1000
ACAD_MTEXT_DEFINED_HEIGHT_END
  0
MTEXT
  5
1459
330
264
100
AcDbEntity
  8
图框
100
AcDbMText
 10
983.0415693332477
 20
506.0590735709403
 30
0.0
 40
2.252848170144607
 41
15.26238390489042
 46
6.2926583745112
 71
     5
 72
     5
  1
日期{\Fromans|c134;/Date}
 73
     1
 44
1.0
1001
AcDbBlockRepETag
1070
     1
1071
      131
1005
1459
1001
ACAD
1000
ACAD_MTEXT_DEFINED_HEIGHT_BEGIN
1070
    46
1040
6.2926583745112
1000
ACAD_MTEXT_DEFINED_HEIGHT_END
  0
LINE
  5
145A
330
264
100
AcDbEntity
  8
图框
370
    -3
100
AcDbLine
 10
946.9285026103634
 20
509.2054027581959
 30
0.0
 11
959.9086139692238
 21
502.9127443836848
 31
0.0
1001
AcDbBlockRepETag
1070
     1
1071
      132
1005
145A
  0
MTEXT
  5
145B
330
264
100
AcDbEntity
  8
图框
100
AcDbMText
 10
1012.931405110086
 20
506.0185715840725
 30
0.0
 40
2.252848170144607
 41
16.93492221063566
 46
0.0
 71
     5
 72
     5
  1
姓名{\Fromans|c134;/Name}
 73
     1
 44
1.0
1001
AcDbBlockRepETag
1070
     1
1071
      133
1005
145B
  0
MTEXT
  5
145C
330
264
100
AcDbEntity
  8
图框
100
AcDbMText
 10
1028.977802139886
 20
506.0590735709403
 30
0.0
 40
2.252848170144607
 41
15.35233065297283
 46
6.292658374511256
 71
     5
 72
     5
  1
日期{\Fromans|c134;/Date}
 73
     1
 44
1.0
1001
AcDbBlockRepETag
1070
     1
1071
      134
1005
145C
1001
ACAD
1000
ACAD_MTEXT_DEFINED_HEIGHT_BEGIN
1070
    46
1040
6.292658374511256
1000
ACAD_MTEXT_DEFINED_HEIGHT_END
  0
LINE
  5
145D
330
264
100
AcDbEntity
  8
图框
370
    -3
100
AcDbLine
 10
1003.652872644553
 20
502.9127443836848
 30
0.0
 11
990.6727612856927
 21
509.2054027581959
 31
0.0
1001
AcDbBlockRepETag
1070
     1
1071
      135
1005
145D
  0
MTEXT
  5
145E
102
{ACAD_XDICTIONARY
360
145F
102
}
330
264
100
AcDbEntity
  8
图框
100
AcDbMText
 10
997.1628169651232
 20
487.1810984474071
 30
0.0
 40
2.252848170144607
 41
12.98011135886052
 46
6.292658374511517
 71
     5
 72
     5
  1
\pxsm0.7;批准\P{\Fromans|c134;Approved}
 73
     1
 44
1.0
1001
AcDbBlockRepETag
1070
     1
1071
      136
1005
145E
1001
ACAD
1000
ACAD_MTEXT_DEFINED_HEIGHT_BEGIN
1070
    46
1040
6.292658374511517
1000
ACAD_MTEXT_DEFINED_HEIGHT_END
  0
MTEXT
  5
1460
102
{ACAD_XDICTIONARY
360
1461
102
}
330
264
100
AcDbEntity
  8
图框
100
AcDbMText
 10
953.4185582897936
 20
487.1810984474071
 30
0.0
 40
2.252848170144607
 41
12.98011135886041
 46
6.292658374511495
 71
     5
 72
     5
  1
\pxsm0.7;工艺\P{\Fromans|c134;Process}
 73
     1
 44
1.0
1001
AcDbBlockRepETag
1070
     1
1071
      137
1005
1460
1001
ACAD
1000
ACAD_MTEXT_DEFINED_HEIGHT_BEGIN
1070
    46
1040
6.292658374511495
1000
ACAD_MTEXT_DEFINED_HEIGHT_END
  0
MTEXT
  5
1462
102
{ACAD_XDICTIONARY
360
1463
102
}
330
264
100
AcDbEntity
  8
图框
100
AcDbMText
 10
1028.977802139886
 20
511.8287965307664
 30
0.0
 40
1.958998408821398
 41
15.3523306529728
 46
5.246787545140668
 71
     5
 72
     5
  1
\pxsm0.7;日期\P{\Fromans|c134;Date}
 73
     1
 44
1.0
1001
AcDbBlockRepETag
1070
     1
1071
      138
1005
1462
1001
ACAD
1000
ACAD_MTEXT_DEFINED_HEIGHT_BEGIN
1070
    46
1040
5.246787545140668
1000
ACAD_MTEXT_DEFINED_HEIGHT_END
  0
MTEXT
  5
1464
330
264
100
AcDbEntity
  8
图框
100
AcDbMText
 10
1086.643735910939
 20
509.1493769780809
 30
0.0
 40
2.154898249703542
 41
13.34474941400573
 46
8.87215554796615
 71
     5
 72
     5
  1
产品料号\P{\Fromans|c134;Part No.}
 73
     1
 44
1.0
1001
AcDbBlockRepETag
1070
     1
1071
      139
1005
1464
1001
ACAD
1000
ACAD_MTEXT_DEFINED_HEIGHT_BEGIN
1070
    46
1040
8.87215554796615
1000
ACAD_MTEXT_DEFINED_HEIGHT_END
  0
MTEXT
  5
1465
330
264
100
AcDbEntity
  8
图框
100
AcDbMText
 10
1086.643735910939
 20
500.2775205517163
 30
0.0
 40
1.958998408821398
 41
13.34474941400573
 46
8.871557304763321
 71
     5
 72
     5
  1
产品名称\P{\Fromans|c134;Part Name}
 73
     1
 44
1.0
1001
AcDbBlockRepETag
1070
     1
1071
      140
1005
1465
1001
ACAD
1000
ACAD_MTEXT_DEFINED_HEIGHT_BEGIN
1070
    46
1040
8.871557304763321
1000
ACAD_MTEXT_DEFINED_HEIGHT_END
  0
LINE
  5
1466
330
264
100
AcDbEntity
  8
图框
 62
     1
370
    18
100
AcDbLine
 10
833.4128518455365
 20
690.5347692601515
 30
0.0
 11
833.4128518455365
 21
480.5347692601515
 31
0.0
1001
AcDbBlockRepETag
1070
     1
1071
      141
1005
1466
  0
LINE
  5
1467
330
264
100
AcDbEntity
  8
图框
 62
     1
370
    18
100
AcDbLine
 10
833.4128518455365
 20
480.5347692601515
 30
0.0
 11
1130.411601781236
 21
480.5347692601515
 31
0.0
1001
AcDbBlockRepETag
1070
     1
1071
      142
1005
1467
  0
LINE
  5
1468
330
264
100
AcDbEntity
  8
图框
 62
     1
370
    18
100
AcDbLine
 10
833.4128518455365
 20
690.5347692601515
 30
0.0
 11
1130.411601781236
 21
690.5347692601515
 31
0.0
1001
AcDbBlockRepETag
1070
     1
1071
      143
1005
1468
  0
LINE
  5
1469
330
264
100
AcDbEntity
  8
图框
 62
     1
370
    18
100
AcDbLine
 10
1130.411601781236
 20
480.5347692601515
 30
0.0
 11
1130.411601781236
 21
690.5347692601515
 31
0.0
1001
AcDbBlockRepETag
1070
     1
1071
      144
1005
1469
  0
LINE
  5
146A
330
264
100
AcDbEntity
  8
图框
370
    18
100
AcDbLine
 10
836.9128518455394
 20
686.7901958362482
 30
0.0
 11
861.5351874539182
 21
686.7901958362482
 31
0.0
1001
AcDbBlockRepETag
1070
     1
1071
      145
1005
146A
  0
LINE
  5
146B
330
264
100
AcDbEntity
  8
图框
370
    50
100
AcDbLine
 10
1126.928502610363
 20
484.3410054693078
 30
0.0
 11
1126.928502610363
 21
675.5347692601515
 31
0.0
1001
AcDbBlockRepETag
1070
     1
1071
      146
1005
146B
  0
MTEXT
  5
146C
330
264
100
AcDbEntity
  8
图框
 62
     3
100
AcDbMText
 10
1052.897990117958
 20
495.8417418993364
 30
0.0
 40
2.985513575034151
 41
10.82934843439114
 46
7.886094601211307
 71
     5
 72
     5
  1
V1.1
  7
Romans字体
 73
     1
 44
1.0
1001
AcDbBlockRepETag
1070
     1
1071
      147
1005
146C
1001
ACAD
1000
ACAD_MTEXT_DEFINED_HEIGHT_BEGIN
1070
    46
1040
7.886094601211307
1000
ACAD_MTEXT_DEFINED_HEIGHT_END
  0
LINE
  5
146D
330
264
100
AcDbEntity
  8
图框
 62
     6
100
AcDbLine
 10
1126.911601781236
 20
531.714049199969
 30
0.0
 11
1130.411601781236
 21
531.714049199969
 31
0.0
1001
AcDbBlockRepETag
1070
     1
1071
      148
1005
146D
  0
ENDBLK
  5
2FC
330
264
100
AcDbEntity
  8
0
100
AcDbBlockEnd
  0
BLOCK
  5
E3F
330
E3E
100
AcDbEntity
  8
0
100
AcDbBlockBegin
  2
*D2
 70
     1
 10
0.0
 20
0.0
 30
0.0
  3
*D2
  1

  0
LINE
  5
F25
330
E3E
100
AcDbEntity
  8
DIM
 62
     6
370
    -2
100
AcDbLine
 10
781.6954278828282
 20
217.7973247775199
 30
0.0
 11
781.6954278828282
 21
211.4228087390358
 31
0.0
  0
LINE
  5
F26
330
E3E
100
AcDbEntity
  8
DIM
 62
     6
370
    -2
100
AcDbLine
 10
758.895427882828
 20
215.660683201279
 30
0.0
 11
758.895427882828
 21
211.4228087390358
 31
0.0
  0
LINE
  5
F27
330
E3E
100
AcDbEntity
  8
DIM
 62
     1
370
    -2
100
AcDbLine
 10
780.1954278828282
 20
211.9228087390359
 30
0.0
 11
760.395427882828
 21
211.9228087390359
 31
0.0
  0
SOLID
  5
F28
330
E3E
100
AcDbEntity
  8
DIM
 62
     1
100
AcDbTrace
 10
780.1954278828282
 20
212.1728087390359
 30
0.0
 11
780.1954278828282
 21
211.6728087390359
 31
0.0
 12
781.6954278828282
 22
211.9228087390359
 32
0.0
 13
781.6954278828282
 23
211.9228087390359
 33
0.0
  0
SOLID
  5
F29
330
E3E
100
AcDbEntity
  8
DIM
 62
     1
100
AcDbTrace
 10
760.395427882828
 20
212.1728087390359
 30
0.0
 11
760.395427882828
 21
211.6728087390359
 31
0.0
 12
758.895427882828
 22
211.9228087390359
 32
0.0
 13
758.895427882828
 23
211.9228087390359
 33
0.0
  0
MTEXT
  5
F2A
330
E3E
100
AcDbEntity
  8
DIM
 62
     4
100
AcDbMText
 10
770.3811745066936
 20
214.4228087390358
 30
0.0
 40
2.0
 41
0.0
 46
0.0
 71
     2
 72
     1
  1
\A1;22.8
  7
Romans字体
 73
     1
 44
1.0
  0
POINT
  5
F2B
330
E3E
100
AcDbEntity
  8
Defpoints
 62
     0
100
AcDbPoint
 10
781.6954278828282
 20
217.9973247775199
 30
0.0
  0
POINT
  5
F2C
330
E3E
100
AcDbEntity
  8
Defpoints
 62
     0
100
AcDbPoint
 10
758.895427882828
 20
215.860683201279
 30
0.0
  0
POINT
  5
F2D
330
E3E
100
AcDbEntity
  8
Defpoints
 62
     0
100
AcDbPoint
 10
758.895427882828
 20
211.9228087390359
 30
0.0
  0
ENDBLK
  5
E40
330
E3E
100
AcDbEntity
  8
0
100
AcDbBlockEnd
  0
BLOCK
  5
E4C
330
E4B
100
AcDbEntity
  8
0
100
AcDbBlockBegin
  2
*D3
 70
     1
 10
0.0
 20
0.0
 30
0.0
  3
*D3
  1

  0
LINE
  5
F2E
330
E4B
100
AcDbEntity
  8
DIM
 62
     6
370
    -2
100
AcDbLine
 10
758.8954278828286
 20
215.6606832012787
 30
0.0
 11
755.3773271462135
 21
215.6606832012787
 31
0.0
  0
LINE
  5
F2F
330
E4B
100
AcDbEntity
  8
DIM
 62
     6
370
    -2
100
AcDbLine
 10
758.8954278828286
 20
223.860683201279
 30
0.0
 11
755.3773271462135
 21
223.860683201279
 31
0.0
  0
LINE
  5
F30
330
E4B
100
AcDbEntity
  8
DIM
 62
     1
370
    -2
100
AcDbLine
 10
755.8773271462135
 20
217.1606832012787
 30
0.0
 11
755.8773271462135
 21
222.360683201279
 31
0.0
  0
SOLID
  5
F31
330
E4B
100
AcDbEntity
  8
DIM
 62
     1
100
AcDbTrace
 10
755.6273271462137
 20
217.1606832012787
 30
0.0
 11
756.1273271462137
 21
217.1606832012787
 31
0.0
 12
755.8773271462135
 22
215.6606832012787
 32
0.0
 13
755.8773271462135
 23
215.6606832012787
 33
0.0
  0
SOLID
  5
F32
330
E4B
100
AcDbEntity
  8
DIM
 62
     1
100
AcDbTrace
 10
755.6273271462137
 20
222.360683201279
 30
0.0
 11
756.1273271462137
 21
222.360683201279
 31
0.0
 12
755.8773271462135
 22
223.860683201279
 32
0.0
 13
755.8773271462135
 23
223.860683201279
 33
0.0
  0
MTEXT
  5
F33
330
E4B
100
AcDbEntity
  8
DIM
 62
     4
100
AcDbMText
 10
753.3773271462137
 20
221.598989092294
 30
0.0
 40
2.0
 41
0.0
 46
0.0
 71
     3
 72
     1
  1
\A1;%%c8.2
  7
Romans字体
 11
0.0000000000000001
 21
1.0
 31
0.0
 73
     1
 44
1.0
  0
POINT
  5
F34
330
E4B
100
AcDbEntity
  8
Defpoints
 62
     0
100
AcDbPoint
 10
759.0954278828286
 20
215.6606832012787
 30
0.0
  0
POINT
  5
F35
330
E4B
100
AcDbEntity
  8
Defpoints
 62
     0
100
AcDbPoint
 10
759.0954278828286
 20
223.860683201279
 30
0.0
  0
POINT
  5
F36
330
E4B
100
AcDbEntity
  8
Defpoints
 62
     0
100
AcDbPoint
 10
755.8773271462135
 20
223.860683201279
 30
0.0
  0
ENDBLK
  5
E4D
330
E4B
100
AcDbEntity
  8
0
100
AcDbBlockEnd
  0
BLOCK
  5
FA2
330
FA1
100
AcDbEntity
  8
0
100
AcDbBlockBegin
  2
*D4
 70
     1
 10
0.0
 20
0.0
 30
0.0
  3
*D4
  1

  0
LINE
  5
FA3
330
FA1
100
AcDbEntity
  8
epin
 62
     6
370
    -2
100
AcDbLine
 10
3578.505588183921
 20
-2435.019788969198
 30
0.0
 11
3575.064386255891
 21
-2435.019788969198
 31
0.0
  0
LINE
  5
FA4
330
FA1
100
AcDbEntity
  8
epin
 62
     6
370
    -2
100
AcDbLine
 10
3578.505588183921
 20
-2443.219721228447
 30
0.0
 11
3575.064386255891
 21
-2443.219721228447
 31
0.0
  0
LINE
  5
FA5
330
FA1
100
AcDbEntity
  8
epin
 62
     1
370
    -2
100
AcDbLine
 10
3575.389386255891
 20
-2435.669788969197
 30
0.0
 11
3575.389386255891
 21
-2438.024040813108
 31
0.0
  0
LINE
  5
FA6
330
FA1
100
AcDbEntity
  8
epin
 62
     1
370
    -2
100
AcDbLine
 10
3575.389386255891
 20
-2442.569721228447
 30
0.0
 11
3575.389386255891
 21
-2440.215469384536
 31
0.0
  0
SOLID
  5
FA7
330
FA1
100
AcDbEntity
  8
epin
 62
     1
100
AcDbTrace
 10
3575.281052922559
 20
-2435.669788969197
 30
0.0
 11
3575.497719589225
 21
-2435.669788969197
 31
0.0
 12
3575.389386255891
 22
-2435.019788969198
 32
0.0
 13
3575.389386255891
 23
-2435.019788969198
 33
0.0
  0
SOLID
  5
FA8
330
FA1
100
AcDbEntity
  8
epin
 62
     1
100
AcDbTrace
 10
3575.281052922559
 20
-2442.569721228447
 30
0.0
 11
3575.497719589225
 21
-2442.569721228447
 31
0.0
 12
3575.389386255891
 22
-2443.219721228447
 32
0.0
 13
3575.389386255891
 23
-2443.219721228447
 33
0.0
  0
MTEXT
  5
FA9
330
FA1
100
AcDbEntity
  8
epin
 62
     4
100
AcDbMText
 10
3575.389386255891
 20
-2439.119755098821
 30
0.0
 40
0.7800000000000003
 41
0.0
 46
0.0
 71
     5
 72
     1
  1
\A1;%%c8.2
  7
Chinese
 11
0.0000000000000001
 21
1.0
 31
0.0
 73
     1
 44
1.0
  0
POINT
  5
FAA
330
FA1
100
AcDbEntity
  8
Defpoints
 62
     0
100
AcDbPoint
 10
3578.635588183921
 20
-2435.019788969198
 30
0.0
  0
POINT
  5
FAB
330
FA1
100
AcDbEntity
  8
Defpoints
 62
     0
100
AcDbPoint
 10
3578.635588183921
 20
-2443.219721228447
 30
0.0
  0
POINT
  5
FAC
330
FA1
100
AcDbEntity
  8
Defpoints
 62
     0
100
AcDbPoint
 10
3575.389386255891
 20
-2443.219721228447
 30
0.0
  0
ENDBLK
  5
FAD
330
FA1
100
AcDbEntity
  8
0
100
AcDbBlockEnd
  0
BLOCK
  5
FAF
330
FAE
100
AcDbEntity
  8
0
100
AcDbBlockBegin
  2
*D5
 70
     1
 10
0.0
 20
0.0
 30
0.0
  3
*D5
  1

  0
LINE
  5
FB0
330
FAE
100
AcDbEntity
  8
epin
 62
     6
370
    -2
100
AcDbLine
 10
3578.635588183921
 20
-2443.349721228447
 30
0.0
 11
3578.635588183921
 21
-2446.737440047361
 31
0.0
  0
LINE
  5
FB1
330
FAE
100
AcDbEntity
  8
epin
 62
     6
370
    -2
100
AcDbLine
 10
3604.135588183922
 20
-2440.249758305766
 30
0.0
 11
3604.135588183922
 21
-2446.737440047361
 31
0.0
  0
LINE
  5
FB2
330
FAE
100
AcDbEntity
  8
epin
 62
     1
370
    -2
100
AcDbLine
 10
3579.285588183922
 20
-2446.41244004736
 30
0.0
 11
3590.289873898207
 21
-2446.41244004736
 31
0.0
  0
LINE
  5
FB3
330
FAE
100
AcDbEntity
  8
epin
 62
     1
370
    -2
100
AcDbLine
 10
3603.485588183922
 20
-2446.41244004736
 30
0.0
 11
3592.481302469636
 21
-2446.41244004736
 31
0.0
  0
SOLID
  5
FB4
330
FAE
100
AcDbEntity
  8
epin
 62
     1
100
AcDbTrace
 10
3579.285588183922
 20
-2446.304106714027
 30
0.0
 11
3579.285588183922
 21
-2446.520773380694
 31
0.0
 12
3578.635588183921
 22
-2446.41244004736
 32
0.0
 13
3578.635588183921
 23
-2446.41244004736
 33
0.0
  0
SOLID
  5
FB5
330
FAE
100
AcDbEntity
  8
epin
 62
     1
100
AcDbTrace
 10
3603.485588183922
 20
-2446.304106714027
 30
0.0
 11
3603.485588183922
 21
-2446.520773380694
 31
0.0
 12
3604.135588183922
 22
-2446.41244004736
 32
0.0
 13
3604.135588183922
 23
-2446.41244004736
 33
0.0
  0
MTEXT
  5
FB6
330
FAE
100
AcDbEntity
  8
epin
 62
     4
100
AcDbMText
 10
3591.385588183921
 20
-2446.41244004736
 30
0.0
 40
0.7800000000000003
 41
0.0
 46
0.0
 71
     5
 72
     1
  1
\A1;25.5
  7
Chinese
 73
     1
 44
1.0
  0
POINT
  5
FB7
330
FAE
100
AcDbEntity
  8
Defpoints
 62
     0
100
AcDbPoint
 10
3578.635588183921
 20
-2443.219721228447
 30
0.0
  0
POINT
  5
FB8
330
FAE
100
AcDbEntity
  8
Defpoints
 62
     0
100
AcDbPoint
 10
3604.135588183922
 20
-2440.119758305766
 30
0.0
  0
POINT
  5
FB9
330
FAE
100
AcDbEntity
  8
Defpoints
 62
     0
100
AcDbPoint
 10
3604.135588183922
 20
-2446.41244004736
 30
0.0
  0
ENDBLK
  5
FBA
330
FAE
100
AcDbEntity
  8
0
100
AcDbBlockEnd
  0
BLOCK
  5
10B4
330
10B3
100
AcDbEntity
  8
0
100
AcDbBlockBegin
  2
*D6
 70
     1
 10
0.0
 20
0.0
 30
0.0
  3
*D6
  1

  0
LINE
  5
1108
330
10B3
100
AcDbEntity
  8
DIM
 62
     6
370
    -2
100
AcDbLine
 10
757.7285803521547
 20
218.0858362478043
 30
0.0
 11
754.1823784241244
 21
218.0858362478043
 31
0.0
  0
LINE
  5
1109
330
10B3
100
AcDbEntity
  8
DIM
 62
     6
370
    -2
100
AcDbLine
 10
757.7285803521547
 20
209.8859039885542
 30
0.0
 11
754.1823784241244
 21
209.8859039885542
 31
0.0
  0
LINE
  5
110A
330
10B3
100
AcDbEntity
  8
DIM
 62
     1
370
    -2
100
AcDbLine
 10
754.6823784241244
 20
216.5858362478043
 30
0.0
 11
754.6823784241244
 21
211.3859039885542
 31
0.0
  0
SOLID
  5
110B
330
10B3
100
AcDbEntity
  8
DIM
 62
     1
100
AcDbTrace
 10
754.4323784241242
 20
216.5858362478043
 30
0.0
 11
754.9323784241244
 21
216.5858362478043
 31
0.0
 12
754.6823784241244
 22
218.0858362478043
 32
0.0
 13
754.6823784241244
 23
218.0858362478043
 33
0.0
  0
SOLID
  5
110C
330
10B3
100
AcDbEntity
  8
DIM
 62
     1
100
AcDbTrace
 10
754.4323784241242
 20
211.3859039885542
 30
0.0
 11
754.9323784241244
 21
211.3859039885542
 31
0.0
 12
754.6823784241244
 22
209.8859039885542
 32
0.0
 13
754.6823784241244
 23
209.8859039885542
 33
0.0
  0
MTEXT
  5
110D
330
10B3
100
AcDbEntity
  8
DIM
 62
     4
100
AcDbMText
 10
753.1823784241244
 20
213.9858701181793
 30
0.0
 40
2.0
 41
0.0
 46
0.0
 71
     5
 72
     1
  1
\A1;%%c8.2
  7
Romans字体
 11
0.0000000000000001
 21
1.0
 31
0.0
 73
     1
 44
1.0
  0
POINT
  5
110E
330
10B3
100
AcDbEntity
  8
Defpoints
 62
     0
100
AcDbPoint
 10
757.9285803521551
 20
218.0858362478043
 30
0.0
  0
POINT
  5
110F
330
10B3
100
AcDbEntity
  8
Defpoints
 62
     0
100
AcDbPoint
 10
757.9285803521551
 20
209.8859039885542
 30
0.0
  0
POINT
  5
1110
330
10B3
100
AcDbEntity
  8
Defpoints
 62
     0
100
AcDbPoint
 10
754.6823784241244
 20
209.8859039885542
 30
0.0
  0
ENDBLK
  5
10B5
330
10B3
100
AcDbEntity
  8
0
100
AcDbBlockEnd
  0
BLOCK
  5
10C1
330
10C0
100
AcDbEntity
  8
0
100
AcDbBlockBegin
  2
*D7
 70
     1
 10
0.0
 20
0.0
 30
0.0
  3
*D7
  1

  0
LINE
  5
1111
330
10C0
100
AcDbEntity
  8
DIM
 62
     6
370
    -2
100
AcDbLine
 10
757.9285803521551
 20
209.6859039885542
 30
0.0
 11
757.9285803521551
 21
206.1931851696404
 31
0.0
  0
LINE
  5
1112
330
10C0
100
AcDbEntity
  8
DIM
 62
     6
370
    -2
100
AcDbLine
 10
783.4285803521551
 20
212.7858669112345
 30
0.0
 11
783.4285803521551
 21
206.1931851696404
 31
0.0
  0
LINE
  5
1113
330
10C0
100
AcDbEntity
  8
DIM
 62
     1
370
    -2
100
AcDbLine
 10
759.4285803521549
 20
206.6931851696404
 30
0.0
 11
781.9285803521551
 21
206.6931851696404
 31
0.0
  0
SOLID
  5
1114
330
10C0
100
AcDbEntity
  8
DIM
 62
     1
100
AcDbTrace
 10
759.4285803521549
 20
206.9431851696404
 30
0.0
 11
759.4285803521549
 21
206.4431851696404
 31
0.0
 12
757.9285803521551
 22
206.6931851696404
 32
0.0
 13
757.9285803521551
 23
206.6931851696404
 33
0.0
  0
SOLID
  5
1115
330
10C0
100
AcDbEntity
  8
DIM
 62
     1
100
AcDbTrace
 10
781.9285803521551
 20
206.9431851696404
 30
0.0
 11
781.9285803521551
 21
206.4431851696404
 31
0.0
 12
783.4285803521551
 22
206.6931851696404
 32
0.0
 13
783.4285803521551
 23
206.6931851696404
 33
0.0
  0
MTEXT
  5
1116
330
10C0
100
AcDbEntity
  8
DIM
 62
     4
100
AcDbMText
 10
770.6785803521551
 20
208.1931851696404
 30
0.0
 40
2.0
 41
0.0
 46
0.0
 71
     5
 72
     1
  1
\A1;25.5
  7
Romans字体
 73
     1
 44
1.0
  0
POINT
  5
1117
330
10C0
100
AcDbEntity
  8
Defpoints
 62
     0
100
AcDbPoint
 10
757.9285803521551
 20
209.8859039885542
 30
0.0
  0
POINT
  5
1118
330
10C0
100
AcDbEntity
  8
Defpoints
 62
     0
100
AcDbPoint
 10
783.4285803521551
 20
212.9858669112345
 30
0.0
  0
POINT
  5
1119
330
10C0
100
AcDbEntity
  8
Defpoints
 62
     0
100
AcDbPoint
 10
783.4285803521551
 20
206.6931851696404
 30
0.0
  0
ENDBLK
  5
10C2
330
10C0
100
AcDbEntity
  8
0
100
AcDbBlockEnd
  0
BLOCK
  5
11C7
330
11C6
100
AcDbEntity
  8
0
100
AcDbBlockBegin
  2
*D8
 70
     1
 10
0.0
 20
0.0
 30
0.0
  3
*D8
  1

  0
LINE
  5
11C8
330
11C6
100
AcDbEntity
  8
DIM
 62
     6
370
    -2
100
AcDbLine
 10
3683.157559863257
 20
-2429.518356954506
 30
0.0
 11
3679.74897368586
 21
-2429.518356954506
 31
0.0
  0
LINE
  5
11C9
330
11C6
100
AcDbEntity
  8
DIM
 62
     6
370
    -2
100
AcDbLine
 10
3683.157559863257
 20
-2437.718356954505
 30
0.0
 11
3679.74897368586
 21
-2437.718356954505
 31
0.0
  0
LINE
  5
11CA
330
11C6
100
AcDbEntity
  8
DIM
 62
     1
370
    -2
100
AcDbLine
 10
3680.07397368586
 20
-2430.428356954506
 30
0.0
 11
3680.07397368586
 21
-2432.522642668792
 31
0.0
  0
LINE
  5
11CB
330
11C6
100
AcDbEntity
  8
DIM
 62
     1
370
    -2
100
AcDbLine
 10
3680.07397368586
 20
-2436.808356954506
 30
0.0
 11
3680.07397368586
 21
-2434.71407124022
 31
0.0
  0
SOLID
  5
11CC
330
11C6
100
AcDbEntity
  8
DIM
 62
     1
100
AcDbTrace
 10
3679.922307019193
 20
-2430.428356954506
 30
0.0
 11
3680.225640352527
 21
-2430.428356954506
 31
0.0
 12
3680.07397368586
 22
-2429.518356954506
 32
0.0
 13
3680.07397368586
 23
-2429.518356954506
 33
0.0
  0
SOLID
  5
11CD
330
11C6
100
AcDbEntity
  8
DIM
 62
     1
100
AcDbTrace
 10
3679.922307019193
 20
-2436.808356954506
 30
0.0
 11
3680.225640352527
 21
-2436.808356954506
 31
0.0
 12
3680.07397368586
 22
-2437.718356954505
 32
0.0
 13
3680.07397368586
 23
-2437.718356954505
 33
0.0
  0
MTEXT
  5
11CE
330
11C6
100
AcDbEntity
  8
DIM
 62
     4
100
AcDbMText
 10
3680.07397368586
 20
-2433.618356954506
 30
0.0
 40
0.7800000000000003
 41
0.0
 46
0.0
 71
     5
 72
     1
  1
\A1;%%c8.2
  7
Chinese
 11
0.0000000000000001
 21
1.0
 31
0.0
 73
     1
 44
1.0
  0
POINT
  5
11CF
330
11C6
100
AcDbEntity
  8
Defpoints
 62
     0
100
AcDbPoint
 10
3683.287559863258
 20
-2429.518356954506
 30
0.0
  0
POINT
  5
11D0
330
11C6
100
AcDbEntity
  8
Defpoints
 62
     0
100
AcDbPoint
 10
3683.287559863258
 20
-2437.718356954505
 30
0.0
  0
POINT
  5
11D1
330
11C6
100
AcDbEntity
  8
Defpoints
 62
     0
100
AcDbPoint
 10
3680.07397368586
 20
-2437.718356954505
 30
0.0
  0
ENDBLK
  5
11D2
330
11C6
100
AcDbEntity
  8
0
100
AcDbBlockEnd
  0
BLOCK
  5
11D4
330
11D3
100
AcDbEntity
  8
0
100
AcDbBlockBegin
  2
*D9
 70
     1
 10
0.0
 20
0.0
 30
0.0
  3
*D9
  1

  0
LINE
  5
11D5
330
11D3
100
AcDbEntity
  8
DIM
 62
     6
370
    -2
100
AcDbLine
 10
3682.98755986326
 20
-2437.548356954506
 30
0.0
 11
3682.98755986326
 21
-2441.123818621083
 31
0.0
  0
LINE
  5
11D6
330
11D3
100
AcDbEntity
  8
DIM
 62
     6
370
    -2
100
AcDbLine
 10
3705.78755986326
 20
-2435.448356954506
 30
0.0
 11
3705.78755986326
 21
-2441.123818621083
 31
0.0
  0
LINE
  5
11D7
330
11D3
100
AcDbEntity
  8
DIM
 62
     1
370
    -2
100
AcDbLine
 10
3683.897559863257
 20
-2440.798818621083
 30
0.0
 11
3693.291845577544
 21
-2440.798818621083
 31
0.0
  0
LINE
  5
11D8
330
11D3
100
AcDbEntity
  8
DIM
 62
     1
370
    -2
100
AcDbLine
 10
3704.877559863258
 20
-2440.798818621083
 30
0.0
 11
3695.483274148973
 21
-2440.798818621083
 31
0.0
  0
SOLID
  5
11D9
330
11D3
100
AcDbEntity
  8
DIM
 62
     1
100
AcDbTrace
 10
3683.897559863257
 20
-2440.647151954417
 30
0.0
 11
3683.897559863257
 21
-2440.95048528775
 31
0.0
 12
3682.98755986326
 22
-2440.798818621083
 32
0.0
 13
3682.98755986326
 23
-2440.798818621083
 33
0.0
  0
SOLID
  5
11DA
330
11D3
100
AcDbEntity
  8
DIM
 62
     1
100
AcDbTrace
 10
3704.877559863258
 20
-2440.647151954417
 30
0.0
 11
3704.877559863258
 21
-2440.95048528775
 31
0.0
 12
3705.78755986326
 22
-2440.798818621083
 32
0.0
 13
3705.78755986326
 23
-2440.798818621083
 33
0.0
  0
MTEXT
  5
11DB
330
11D3
100
AcDbEntity
  8
DIM
 62
     4
100
AcDbMText
 10
3694.387559863258
 20
-2440.798818621083
 30
0.0
 40
0.7800000000000003
 41
0.0
 46
0.0
 71
     5
 72
     1
  1
\A1;22.8
  7
Chinese
 73
     1
 44
1.0
  0
POINT
  5
11DC
330
11D3
100
AcDbEntity
  8
Defpoints
 62
     0
100
AcDbPoint
 10
3682.98755986326
 20
-2437.418356954506
 30
0.0
  0
POINT
  5
11DD
330
11D3
100
AcDbEntity
  8
Defpoints
 62
     0
100
AcDbPoint
 10
3705.78755986326
 20
-2435.318356954506
 30
0.0
  0
POINT
  5
11DE
330
11D3
100
AcDbEntity
  8
Defpoints
 62
     0
100
AcDbPoint
 10
3705.78755986326
 20
-2440.798818621083
 30
0.0
  0
ENDBLK
  5
11DF
330
11D3
100
AcDbEntity
  8
0
100
AcDbBlockEnd
  0
BLOCK
  5
12D3
330
12D2
100
AcDbEntity
  8
0
100
AcDbBlockBegin
  2
*D10
 70
     1
 10
0.0
 20
0.0
 30
0.0
  3
*D10
  1

  0
LINE
  5
1361
330
12D2
100
AcDbEntity
  8
DIM
 62
     6
440
 16777216
370
    -2
100
AcDbLine
 10
759.3562807725093
 20
221.0061837073296
 30
0.0
 11
755.8426945951116
 21
221.0061837073296
 31
0.0
  0
LINE
  5
1362
330
12D2
100
AcDbEntity
  8
DIM
 62
     6
440
 16777216
370
    -2
100
AcDbLine
 10
759.3562807725093
 20
212.8061837073298
 30
0.0
 11
755.8426945951116
 21
212.8061837073298
 31
0.0
  0
LINE
  5
1363
330
12D2
100
AcDbEntity
  8
DIM
 62
     1
440
 16777216
370
    -2
100
AcDbLine
 10
756.3426945951116
 20
219.5061837073296
 30
0.0
 11
756.3426945951116
 21
214.3061837073299
 31
0.0
  0
SOLID
  5
1364
330
12D2
100
AcDbEntity
  8
DIM
 62
     1
440
 16777216
100
AcDbTrace
 10
756.0926945951116
 20
219.5061837073296
 30
0.0
 11
756.5926945951116
 21
219.5061837073296
 31
0.0
 12
756.3426945951116
 22
221.0061837073296
 32
0.0
 13
756.3426945951116
 23
221.0061837073296
 33
0.0
  0
SOLID
  5
1365
330
12D2
100
AcDbEntity
  8
DIM
 62
     1
440
 16777216
100
AcDbTrace
 10
756.0926945951116
 20
214.3061837073299
 30
0.0
 11
756.5926945951116
 21
214.3061837073299
 31
0.0
 12
756.3426945951116
 22
212.8061837073298
 32
0.0
 13
756.3426945951116
 23
212.8061837073298
 33
0.0
  0
MTEXT
  5
1366
330
12D2
100
AcDbEntity
  8
DIM
 62
     4
440
 16777216
100
AcDbMText
 10
754.8426945951116
 20
216.9061837073299
 30
0.0
 40
2.0
 41
0.0
 46
0.0
 71
     5
 72
     1
  1
\A1;%%c8.2
  7
Romans字体
 11
0.0000000000000001
 21
1.0
 31
0.0
 73
     1
 44
1.0
  0
POINT
  5
1367
330
12D2
100
AcDbEntity
  8
Defpoints
 62
     0
440
 16777216
100
AcDbPoint
 10
759.5562807725094
 20
221.0061837073296
 30
0.0
  0
POINT
  5
1368
330
12D2
100
AcDbEntity
  8
Defpoints
 62
     0
440
 16777216
100
AcDbPoint
 10
759.5562807725094
 20
212.8061837073298
 30
0.0
  0
POINT
  5
1369
330
12D2
100
AcDbEntity
  8
Defpoints
 62
     0
440
 16777216
100
AcDbPoint
 10
756.3426945951116
 20
212.8061837073298
 30
0.0
  0
ENDBLK
  5
12D4
330
12D2
100
AcDbEntity
  8
0
100
AcDbBlockEnd
  0
BLOCK
  5
12E0
330
12DF
100
AcDbEntity
  8
0
100
AcDbBlockBegin
  2
*D11
 70
     1
 10
0.0
 20
0.0
 30
0.0
  3
*D11
  1

  0
LINE
  5
136A
330
12DF
100
AcDbEntity
  8
DIM
 62
     6
440
 16777216
370
    -2
100
AcDbLine
 10
759.2562807725093
 20
212.9061837073296
 30
0.0
 11
759.2562807725093
 21
209.2257220407518
 31
0.0
  0
LINE
  5
136B
330
12DF
100
AcDbEntity
  8
DIM
 62
     6
440
 16777216
370
    -2
100
AcDbLine
 10
782.0562807725096
 20
215.0061837073296
 30
0.0
 11
782.0562807725096
 21
209.2257220407518
 31
0.0
  0
LINE
  5
136C
330
12DF
100
AcDbEntity
  8
DIM
 62
     1
440
 16777216
370
    -2
100
AcDbLine
 10
760.7562807725092
 20
209.7257220407518
 30
0.0
 11
780.5562807725094
 21
209.7257220407518
 31
0.0
  0
SOLID
  5
136D
330
12DF
100
AcDbEntity
  8
DIM
 62
     1
440
 16777216
100
AcDbTrace
 10
760.7562807725092
 20
209.9757220407518
 30
0.0
 11
760.7562807725092
 21
209.4757220407518
 31
0.0
 12
759.2562807725093
 22
209.7257220407518
 32
0.0
 13
759.2562807725093
 23
209.7257220407518
 33
0.0
  0
SOLID
  5
136E
330
12DF
100
AcDbEntity
  8
DIM
 62
     1
440
 16777216
100
AcDbTrace
 10
780.5562807725094
 20
209.9757220407518
 30
0.0
 11
780.5562807725094
 21
209.4757220407518
 31
0.0
 12
782.0562807725096
 22
209.7257220407518
 32
0.0
 13
782.0562807725096
 23
209.7257220407518
 33
0.0
  0
MTEXT
  5
136F
330
12DF
100
AcDbEntity
  8
DIM
 62
     4
440
 16777216
100
AcDbMText
 10
770.6562807725092
 20
211.2257220407518
 30
0.0
 40
2.0
 41
0.0
 46
0.0
 71
     5
 72
     1
  1
\A1;22.8
  7
Romans字体
 73
     1
 44
1.0
  0
POINT
  5
1370
330
12DF
100
AcDbEntity
  8
Defpoints
 62
     0
440
 16777216
100
AcDbPoint
 10
759.2562807725093
 20
213.1061837073297
 30
0.0
  0
POINT
  5
1371
330
12DF
100
AcDbEntity
  8
Defpoints
 62
     0
440
 16777216
100
AcDbPoint
 10
782.0562807725096
 20
215.2061837073297
 30
0.0
  0
POINT
  5
1372
330
12DF
100
AcDbEntity
  8
Defpoints
 62
     0
440
 16777216
100
AcDbPoint
 10
782.0562807725096
 20
209.7257220407518
 30
0.0
  0
ENDBLK
  5
12E1
330
12DF
100
AcDbEntity
  8
0
100
AcDbBlockEnd
  0
BLOCK
  5
147F
330
147E
100
AcDbEntity
  8
0
100
AcDbBlockBegin
  2
*D12
 70
     1
 10
0.0
 20
0.0
 30
0.0
  3
*D12
  1

  0
LINE
  5
1495
330
147E
100
AcDbEntity
  8
DIM
 62
     6
440
 16777216
370
    -2
100
AcDbLine
 10
770.8562807725102
 20
214.3061837073296
 30
0.0
 11
787.1022082120738
 21
214.3061837073296
 31
0.0
  0
LINE
  5
1496
330
147E
100
AcDbEntity
  8
DIM
 62
     6
440
 16777216
370
    -2
100
AcDbLine
 10
770.8562807725102
 20
219.5061837073299
 30
0.0
 11
787.1022082120738
 21
219.5061837073299
 31
0.0
  0
LINE
  5
1497
330
147E
100
AcDbEntity
  8
DIM
 62
     1
440
 16777216
370
    -2
100
AcDbLine
 10
786.6022082120738
 20
215.8061837073296
 30
0.0
 11
786.6022082120738
 21
218.0061837073299
 31
0.0
  0
LINE
  5
1498
330
147E
100
AcDbEntity
  8
DIM
 62
     1
440
 16777216
370
    -2
100
AcDbLine
 10
786.6022082120738
 20
219.5061837073299
 30
0.0
 11
786.6022082120738
 21
226.5061837073299
 31
0.0
  0
SOLID
  5
1499
330
147E
100
AcDbEntity
  8
DIM
 62
     1
440
 16777216
100
AcDbTrace
 10
786.3522082120738
 20
215.8061837073296
 30
0.0
 11
786.8522082120738
 21
215.8061837073296
 31
0.0
 12
786.6022082120738
 22
214.3061837073296
 32
0.0
 13
786.6022082120738
 23
214.3061837073296
 33
0.0
  0
SOLID
  5
149A
330
147E
100
AcDbEntity
  8
DIM
 62
     1
440
 16777216
100
AcDbTrace
 10
786.3522082120738
 20
218.0061837073299
 30
0.0
 11
786.8522082120738
 21
218.0061837073299
 31
0.0
 12
786.6022082120738
 22
219.5061837073299
 32
0.0
 13
786.6022082120738
 23
219.5061837073299
 33
0.0
  0
MTEXT
  5
149B
330
147E
100
AcDbEntity
  8
DIM
 62
     4
440
 16777216
100
AcDbMText
 10
785.1022082120738
 20
223.7561837073297
 30
0.0
 40
2.0
 41
0.0
 46
0.0
 71
     5
 72
     1
  1
\A1;%%C5.2
  7
Romans字体
 11
0.0000000000000001
 21
1.0
 31
0.0
 73
     1
 44
1.0
  0
POINT
  5
149C
330
147E
100
AcDbEntity
  8
Defpoints
 62
     0
440
 16777216
100
AcDbPoint
 10
770.65628077251
 20
214.3061837073296
 30
0.0
  0
POINT
  5
149D
330
147E
100
AcDbEntity
  8
Defpoints
 62
     0
440
 16777216
100
AcDbPoint
 10
770.65628077251
 20
219.5061837073299
 30
0.0
  0
POINT
  5
149E
330
147E
100
AcDbEntity
  8
Defpoints
 62
     0
440
 16777216
100
AcDbPoint
 10
786.6022082120738
 20
219.5061837073299
 30
0.0
  0
ENDBLK
  5
1480
330
147E
100
AcDbEntity
  8
0
100
AcDbBlockEnd
  0
BLOCK
  5
14A1
330
14A0
100
AcDbEntity
  8
0
100
AcDbBlockBegin
  2
*D13
 70
     1
 10
0.0
 20
0.0
 30
0.0
  3
*D13
  1

  0
LINE
  5
14AC
330
14A0
100
AcDbEntity
  8
DIM
 62
     6
440
 16777216
370
    -2
100
AcDbLine
 10
765.5562807725093
 20
219.7061837073298
 30
0.0
 11
765.5562807725093
 21
223.5720910122556
 31
0.0
  0
LINE
  5
14AD
330
14A0
100
AcDbEntity
  8
DIM
 62
     6
440
 16777216
370
    -2
100
AcDbLine
 10
782.0562807725093
 20
218.8061073224795
 30
0.0
 11
782.0562807725093
 21
223.5720910122556
 31
0.0
  0
LINE
  5
14AE
330
14A0
100
AcDbEntity
  8
DIM
 62
     1
440
 16777216
370
    -2
100
AcDbLine
 10
767.0562807725093
 20
223.0720910122556
 30
0.0
 11
780.5562807725094
 21
223.0720910122556
 31
0.0
  0
SOLID
  5
14AF
330
14A0
100
AcDbEntity
  8
DIM
 62
     1
440
 16777216
100
AcDbTrace
 10
767.0562807725093
 20
223.3220910122556
 30
0.0
 11
767.0562807725093
 21
222.8220910122556
 31
0.0
 12
765.5562807725093
 22
223.0720910122556
 32
0.0
 13
765.5562807725093
 23
223.0720910122556
 33
0.0
  0
SOLID
  5
14B0
330
14A0
100
AcDbEntity
  8
DIM
 62
     1
440
 16777216
100
AcDbTrace
 10
780.5562807725094
 20
223.3220910122556
 30
0.0
 11
780.5562807725094
 21
222.8220910122556
 31
0.0
 12
782.0562807725093
 22
223.0720910122556
 32
0.0
 13
782.0562807725093
 23
223.0720910122556
 33
0.0
  0
MTEXT
  5
14B1
330
14A0
100
AcDbEntity
  8
DIM
 62
     4
440
 16777216
100
AcDbMText
 10
774.5983844674027
 20
224.5720910122556
 30
0.0
 40
2.0
 41
0.0
 46
0.0
 71
     5
 72
     1
  1
\A1;16.5
  7
Romans字体
 73
     1
 44
1.0
  0
POINT
  5
14B2
330
14A0
100
AcDbEntity
  8
Defpoints
 62
     0
440
 16777216
100
AcDbPoint
 10
765.5562807725093
 20
219.5061837073298
 30
0.0
  0
POINT
  5
14B3
330
14A0
100
AcDbEntity
  8
Defpoints
 62
     0
440
 16777216
100
AcDbPoint
 10
782.0562807725093
 20
218.6061073224795
 30
0.0
  0
POINT
  5
14B4
330
14A0
100
AcDbEntity
  8
Defpoints
 62
     0
440
 16777216
100
AcDbPoint
 10
782.0562807725093
 20
223.0720910122556
 30
0.0
  0
ENDBLK
  5
14A2
330
14A0
100
AcDbEntity
  8
0
100
AcDbBlockEnd
  0
ENDSEC
  0
SECTION
  2
ENTITIES
  0
MTEXT
  5
E6
102
{ACAD_XDICTIONARY
360
137B
102
}
330
2
100
AcDbEntity
  8
打标文字
 62
     3
100
AcDbMText
 10
811.5228820062633
 20
228.1821962816525
 30
0.0
 40
1.5
 41
43.12740902174064
 46
53.91180554791946
 71
     1
 72
     5
  3
\pxql;\A1;\f仿宋_GB2312|b0|i0|c134|p49;技术参数\Fromans.shx|c134;:\P\pq*;- \f仿宋_GB2312|b0|i0|c134|p49;材料\Fromans.shx|c134;: \f仿宋_GB2312|b0|i0|c134|p49;聚甲醛\P\Fromans.shx|c134;- \f仿宋_GB2312|b0|i0|c134|p49;颜色\Fromans.shx|c134;: \f仿宋_GB2312|b0|i0|c134|p49;黑色\P
  3
\Fromans.shx|c134;- \f仿宋_GB2312|b0|i0|c134|p49;软管内径\Fromans.shx|c134;: 4.0mm/ 1/8\f仿宋_GB2312|b0|i0|c134|p49;〃\P\pql;\Fromans.shx|c134;- \f仿宋_GB2312|b0|i0|c134|p49;工作压力\Fromans.shx|c134;: \f仿宋_GB2312|b0|i0|c134|p49;最大\Fromans.shx|c134; 8 bar/116 psi\P
  3
- \f仿宋_GB2312|b0|i0|c134|p49;密封圈材料\Fromans.shx|c134;: \f仿宋_GB2312|b0|i0|c134|p49;氟橡胶\P\Fromans.shx|c134;- \f仿宋_GB2312|b0|i0|c134|p49;可插拔次数\Fromans.shx|c134;: \f仿宋_GB2312|b0|i0|c134|p49;>\Fromans.shx|c134;500\P\pq*;\P\pql;Technical specification:\P- M
  3
aterial: delrin acetal\P- Colour: black\P\pq*;- Tube termination: \P\pql;  Internal diameter(ID): 4.0mm/ 1/8\f仿宋_GB2312|b0|i0|c134|p49;〃\P\Fromans.shx|c134;- Working pressure: up to 8 bar/116 psi\P- Sealing material: FPM\P- Mating cycles: \f仿宋_GB2312
  1
|b0|i0|c134|p49;>\Fromans.shx|c134;500
  7
Romans字体
 73
     1
 44
1.0
1001
ACAD
1000
ACAD_MTEXT_DEFINED_HEIGHT_BEGIN
1070
    46
1040
53.91180554791946
1000
ACAD_MTEXT_DEFINED_HEIGHT_END
  0
MTEXT
  5
309
330
2
100
AcDbEntity
  8
图框
 62
     3
100
AcDbMText
 10
843.9030534867272
 20
172.4178698465939
 30
0.0
 40
1.492756789270166
 41
16.80619601594785
 46
4.436077779192768
 71
     5
 72
     5
  1
1011000020003
  7
Romans字体
 73
     1
 44
1.0
1001
ACAD
1000
ACAD_MTEXT_DEFINED_HEIGHT_BEGIN
1070
    46
1040
4.436077779192768
1000
ACAD_MTEXT_DEFINED_HEIGHT_END
  0
INSERT
  5
30A
330
2
100
AcDbEntity
  8
DIM
100
AcDbBlockReference
  2
A4图框-NEW
 10
288.8418995277883
 20
-82.15681894141829
 30
0.0
 41
0.5
 42
0.5
 43
0.5
  0
MTEXT
  5
30B
330
2
100
AcDbEntity
  8
图框
 62
     3
100
AcDbMText
 10
820.7055691249598
 20
165.764052159038
 30
0.0
 40
1.492756789270166
 41
5.414673575202384
 46
3.943047602182616
 71
     5
 72
     5
  1
0.8g
  7
Romans字体
 73
     1
 44
1.0
1001
ACAD
1000
ACAD_MTEXT_DEFINED_HEIGHT_BEGIN
1070
    46
1040
3.943047602182616
1000
ACAD_MTEXT_DEFINED_HEIGHT_END
  0
MTEXT
  5
30C
330
2
100
AcDbEntity
  8
图框
 62
     3
100
AcDbMText
 10
809.8762203695715
 20
165.7640520082494
 30
0.0
 40
1.492756787517073
 41
5.414674217195232
 46
3.943047300605248
 71
     5
 72
     5
  1
2:1
  7
Romans字体
 73
     1
 44
1.0
1001
ACAD
1000
ACAD_MTEXT_DEFINED_HEIGHT_BEGIN
1070
    46
1040
3.943047300605248
1000
ACAD_MTEXT_DEFINED_HEIGHT_END
  0
MTEXT
  5
30D
330
2
100
AcDbEntity
  8
图框
 62
     3
100
AcDbMText
 10
843.9030528348641
 20
176.8075948110354
 30
0.0
 40
1.492756787517073
 41
16.80619599621068
 46
4.343372752842928
 71
     5
 72
     5
  1
PCF-4.0
  7
Romans字体
 73
     1
 44
1.0
1001
ACAD
1000
ACAD_MTEXT_DEFINED_HEIGHT_BEGIN
1070
    46
1040
4.343372752842928
1000
ACAD_MTEXT_DEFINED_HEIGHT_END
  0
LINE
  5
125C
330
2
100
AcDbEntity
  8
0
100
AcDbLine
 10
759.2562807725096
 20
220.7061837073296
 30
0.0
 11
759.2562807725096
 21
213.1061837073297
 31
0.0
  0
LINE
  5
125D
330
2
100
AcDbEntity
  8
0
100
AcDbLine
 10
759.5562807725094
 20
221.0061837073298
 30
0.0
 11
759.5562807725094
 21
212.8061837073296
 31
0.0
  0
LINE
  5
125E
330
2
100
AcDbEntity
  8
0
100
AcDbLine
 10
765.1562807725097
 20
221.0061837073298
 30
0.0
 11
765.1562807725097
 21
212.8061837073296
 31
0.0
  0
LINE
  5
125F
330
2
100
AcDbEntity
  8
0
100
AcDbLine
 10
765.5562807725093
 20
220.6061837073297
 30
0.0
 11
765.5562807725093
 21
213.2061837073297
 31
0.0
  0
LINE
  5
1260
102
{ACAD_REACTORS
330
1280
102
}
330
2
100
AcDbEntity
  8
0
100
AcDbLine
 10
782.0562807725093
 20
215.2061837073297
 30
0.0
 11
778.1762807725097
 21
214.5081067842297
 31
0.0
  0
LINE
  5
1261
330
2
100
AcDbEntity
  8
0
100
AcDbLine
 10
759.5562807725094
 20
212.8061837073296
 30
0.0
 11
765.1562807725097
 21
212.8061837073296
 31
0.0
  0
LINE
  5
1262
330
2
100
AcDbEntity
  8
0
100
AcDbLine
 10
778.1762807725097
 20
214.8561837073297
 30
0.0
 11
775.7562807725096
 21
214.5061837073298
 31
0.0
  0
LINE
  5
1263
330
2
100
AcDbEntity
  8
0
100
AcDbLine
 10
775.7562807725096
 20
214.8561837073297
 30
0.0
 11
773.1562807725097
 21
214.5061837073298
 31
0.0
  0
LINE
  5
1264
330
2
100
AcDbEntity
  8
0
100
AcDbLine
 10
765.5562807725093
 20
214.3061837073295
 30
0.0
 11
769.4562807725093
 21
214.3061837073295
 31
0.0
  0
LINE
  5
1265
330
2
100
AcDbEntity
  8
0
100
AcDbLine
 10
769.4562807725093
 20
214.3061837073295
 30
0.0
 11
770.6562807725097
 21
214.3061837073295
 31
0.0
  0
LINE
  5
1266
330
2
100
AcDbEntity
  8
0
100
AcDbLine
 10
769.4562807725093
 20
214.3061837073295
 30
0.0
 11
769.4562807725093
 21
219.5061837073298
 31
0.0
  0
LINE
  5
1267
330
2
100
AcDbEntity
  8
0
100
AcDbLine
 10
773.1562807725097
 20
214.8561837073297
 30
0.0
 11
770.6562807725097
 21
214.5061837073298
 31
0.0
  0
LINE
  5
1268
330
2
100
AcDbEntity
  8
0
100
AcDbLine
 10
770.6562807725097
 20
214.3061837073295
 30
0.0
 11
770.6562807725097
 21
219.5061837073298
 31
0.0
  0
LINE
  5
1269
330
2
100
AcDbEntity
  8
0
100
AcDbLine
 10
773.1562807725097
 20
214.5061837073298
 30
0.0
 11
773.1562807725097
 21
219.3061837073296
 31
0.0
  0
LINE
  5
126A
330
2
100
AcDbEntity
  8
0
100
AcDbLine
 10
770.6562807725097
 20
219.5061837073298
 30
0.0
 11
769.4562807725093
 21
219.5061837073298
 31
0.0
  0
LINE
  5
126B
330
2
100
AcDbEntity
  8
0
100
AcDbLine
 10
765.5562807725093
 20
219.5061837073298
 30
0.0
 11
769.4562807725093
 21
219.5061837073298
 31
0.0
  0
LINE
  5
126C
330
2
100
AcDbEntity
  8
0
100
AcDbLine
 10
775.7562807725096
 20
218.9561837073296
 30
0.0
 11
773.1562807725097
 21
219.3061837073296
 31
0.0
  0
LINE
  5
126D
330
2
100
AcDbEntity
  8
0
100
AcDbLine
 10
773.1562807725097
 20
218.9561837073296
 30
0.0
 11
770.6562807725097
 21
219.3061837073296
 31
0.0
  0
LINE
  5
126E
330
2
100
AcDbEntity
  8
0
100
AcDbLine
 10
778.1762807725097
 20
218.9561837073296
 30
0.0
 11
775.7562807725096
 21
219.3061837073296
 31
0.0
  0
LINE
  5
126F
330
2
100
AcDbEntity
  8
0
100
AcDbLine
 10
782.0562807725093
 20
218.6061837073297
 30
0.0
 11
778.1762807725097
 21
219.3042606303797
 31
0.0
  0
LINE
  5
1270
330
2
100
AcDbEntity
  8
0
100
AcDbLine
 10
759.5562807725094
 20
221.0061837073298
 30
0.0
 11
765.1562807725097
 21
221.0061837073298
 31
0.0
  0
LINE
  5
1271
330
2
100
AcDbEntity
  8
0
100
AcDbLine
 10
775.7562807725096
 20
214.5061837073298
 30
0.0
 11
775.7562807725096
 21
219.3061837073296
 31
0.0
  0
LINE
  5
1272
330
2
100
AcDbEntity
  8
0
100
AcDbLine
 10
778.1762807725097
 20
214.5081067842297
 30
0.0
 11
778.1762807725097
 21
219.3042606303797
 31
0.0
  0
LINE
  5
1273
330
2
100
AcDbEntity
  8
0
100
AcDbLine
 10
782.0562807725093
 20
215.2062600921298
 30
0.0
 11
782.0562807725093
 21
218.6061073224795
 31
0.0
  0
ARC
  5
1274
330
2
100
AcDbEntity
  8
0
100
AcDbCircle
 10
765.1562807725097
 20
220.6061837073297
 30
0.0
 40
0.4
100
AcDbArc
 50
0.0
 51
90.0
  0
ARC
  5
1275
330
2
100
AcDbEntity
  8
0
100
AcDbCircle
 10
765.1562807725097
 20
213.2061837073297
 30
0.0
 40
0.4
100
AcDbArc
 50
270.0
 51
0.0
  0
ARC
  5
1276
102
{ACAD_REACTORS
330
127D
102
}
330
2
100
AcDbEntity
  8
0
100
AcDbCircle
 10
759.5562807725094
 20
220.7061837073296
 30
0.0
 40
0.3
100
AcDbArc
 50
90.0
 51
180.0
  0
ARC
  5
1277
102
{ACAD_REACTORS
330
127D
330
1280
102
}
330
2
100
AcDbEntity
  8
0
100
AcDbCircle
 10
759.5562807725094
 20
213.1061837073297
 30
0.0
 40
0.3
100
AcDbArc
 50
180.0
 51
270.0
  0
SPLINE
  5
1278
330
2
100
AcDbEntity
  8
0
100
AcDbSpline
210
0.0
220
0.0
230
1.0
 70
     8
 71
     3
 72
    11
 73
     7
 74
     0
 42
0.000000001
 43
0.0000000001
 40
0.0
 40
0.0
 40
0.0
 40
0.0
 40
0.2499892556
 40
0.4999710594
 40
0.7500083398000001
 40
1.0
 40
1.0
 40
1.0
 40
1.0
 10
769.4562807725093
 20
218.2999196937798
 30
0.0
 10
769.5611317304594
 20
218.2536845015797
 30
0.0
 10
769.7695442337598
 20
218.1582521707795
 30
0.0
 10
770.0766710380096
 20
218.0034921316295
 30
0.0
 10
770.3754093878592
 20
217.8330259257299
 30
0.0
 10
770.5656014080092
 20
217.7042583948795
 30
0.0
 10
770.6562807725097
 20
217.6341946962297
 30
0.0
  0
SPLINE
  5
1279
330
2
100
AcDbEntity
  8
0
100
AcDbSpline
210
0.0
220
0.0
230
1.0
 70
     8
 71
     3
 72
    11
 73
     7
 74
     0
 42
0.000000001
 43
0.0000000001
 40
0.0
 40
0.0
 40
0.0
 40
0.0
 40
0.2499916455
 40
0.5000286107000002
 40
0.7500106378
 40
1.0
 40
1.0
 40
1.0
 40
1.0
 10
770.6562807725097
 20
216.1781727183797
 30
0.0
 10
770.5656014146596
 20
216.1081090248798
 30
0.0
 10
770.3754091746092
 20
215.9793421075796
 30
0.0
 10
770.0766713364592
 20
215.8088751552795
 30
0.0
 10
769.7695444257594
 20
215.6541152792796
 30
0.0
 10
769.5611317737095
 20
215.5586829321295
 30
0.0
 10
769.4562807725093
 20
215.5124477208296
 30
0.0
  0
LINE
  5
127A
330
2
100
AcDbEntity
  8
center
  6
CENTERX2
 48
1.5
100
AcDbLine
 10
758.1036058507566
 20
216.9061837073295
 30
0.0
 11
782.9990654461563
 21
216.9061837073295
 31
0.0
  0
DIMENSION
  5
127B
102
{ACAD_XDICTIONARY
360
127C
102
}
102
{ACAD_REACTORS
330
127D
102
}
330
2
100
AcDbEntity
  8
DIM
100
AcDbDimension
280
     0
  2
*D10
 10
756.3426945951116
 20
212.8061837073298
 30
0.0
 11
754.8426945951116
 21
216.9061837073299
 31
0.0
 70
    32
  1
%%c8.2
 71
     5
 42
8.199999999999818
 73
     0
 74
     0
 75
     0
  3
01
100
AcDbAlignedDimension
 13
759.5562807725094
 23
221.0061837073296
 33
0.0
 14
759.5562807725094
 24
212.8061837073298
 34
0.0
 50
90.0
100
AcDbRotatedDimension
  0
DIMENSION
  5
127E
102
{ACAD_XDICTIONARY
360
127F
102
}
102
{ACAD_REACTORS
330
1280
102
}
330
2
100
AcDbEntity
  8
DIM
100
AcDbDimension
280
     0
  2
*D11
 10
782.0562807725096
 20
209.7257220407518
 30
0.0
 11
770.6562807725092
 21
211.2257220407518
 31
0.0
 70
    32
  1
22.8
 71
     5
 42
22.80000000000018
 73
     0
 74
     0
 75
     0
  3
01
100
AcDbAlignedDimension
 13
759.2562807725093
 23
213.1061837073297
 33
0.0
 14
782.0562807725096
 24
215.2061837073297
 34
0.0
 50
0.0
100
AcDbRotatedDimension
  0
LINE
  5
1281
330
2
100
AcDbEntity
  8
0
100
AcDbLine
 10
729.5625313130368
 20
183.9823776447262
 30
0.0
 11
728.0548370357719
 21
179.5163166725528
 31
0.0
  0
LINE
  5
1282
330
2
100
AcDbEntity
  8
0
100
AcDbLine
 10
721.2586467017297
 20
166.7060551076936
 30
0.0
 11
722.9313929417092
 21
169.5511378919729
 31
0.0
  0
LINE
  5
1283
330
2
100
AcDbEntity
  8
0
100
AcDbLine
 10
720.2793653519168
 20
177.0890083487608
 30
0.0
 11
720.2852552616489
 21
176.909565950192
 31
0.0
  0
LINE
  5
1284
330
2
100
AcDbEntity
  8
0
100
AcDbLine
 10
726.1289807284261
 20
178.3699062510947
 30
0.0
 11
725.5157368425861
 21
176.5533678279724
 31
0.0
  0
LINE
  5
1285
330
2
100
AcDbEntity
  8
0
100
AcDbLine
 10
725.851169199665
 20
176.4878226915944
 30
0.0
 11
725.7629245387797
 21
176.287447211733
 31
0.0
  0
LINE
  5
1286
330
2
100
AcDbEntity
  8
0
100
AcDbLine
 10
723.2825751339319
 20
171.6285786883052
 30
0.0
 11
724.2996985963266
 21
173.5810911618579
 31
0.0
  0
LINE
  5
1287
330
2
100
AcDbEntity
  8
0
100
AcDbLine
 10
723.9811180180037
 20
173.6993288965339
 30
0.0
 11
724.6892565735866
 21
175.0386255937094
 31
0.0
  0
LINE
  5
1288
330
2
100
AcDbEntity
  8
0
100
AcDbLine
 10
722.6283098765478
 20
169.6934414237636
 30
0.0
 11
723.5965063320012
 21
171.5015208055523
 31
0.0
  0
LINE
  5
1289
330
2
100
AcDbEntity
  8
0
100
AcDbLine
 10
725.7631524553926
 20
176.2877631130792
 30
0.0
 11
725.2161892351682
 21
175.421762013913
 31
0.0
  0
LINE
  5
128A
330
2
100
AcDbEntity
  8
0
100
AcDbLine
 10
720.7596498454282
 20
176.1025026854666
 30
0.0
 11
720.2852552616489
 21
176.909565950192
 31
0.0
  0
LINE
  5
128B
330
2
100
AcDbEntity
  8
0
100
AcDbLine
 10
724.2825671854573
 20
174.9351521148714
 30
0.0
 11
723.0081171792094
 21
174.99190508967
 31
0.0
  0
LINE
  5
128C
330
2
100
AcDbEntity
  8
0
100
AcDbLine
 10
721.2996307386386
 20
176.690508827892
 30
0.0
 11
720.3914290586502
 21
178.2355859387199
 31
0.0
  0
LINE
  5
128D
330
2
100
AcDbEntity
  8
0
100
AcDbLine
 10
725.1883508634247
 20
175.866216482711
 30
0.0
 11
722.7484881915005
 21
175.9748668527679
 31
0.0
  0
LINE
  5
128E
330
2
100
AcDbEntity
  8
0
100
AcDbLine
 10
720.2176340861956
 20
174.9698407014373
 30
0.0
 11
720.4839685153611
 21
176.5715052455246
 31
0.0
  0
LINE
  5
128F
330
2
100
AcDbEntity
  8
0
100
AcDbLine
 10
725.6240496024332
 20
176.8742096570093
 30
0.0
 11
725.851169199665
 21
176.4878226915944
 31
0.0
  0
LINE
  5
1290
330
2
100
AcDbEntity
  8
0
100
AcDbLine
 10
720.3254466786203
 20
177.6131132134666
 30
0.0
 11
720.2792476402247
 21
177.0884205383414
 31
0.0
  0
LINE
  5
1291
330
2
100
AcDbEntity
  8
0
100
AcDbLine
 10
718.8656581085901
 20
170.9636722990783
 30
0.0
 11
719.1914506036639
 21
172.9886203668946
 31
0.0
  0
LINE
  5
1292
330
2
100
AcDbEntity
  8
0
100
AcDbLine
 10
719.5181572898198
 20
172.8994057719846
 30
0.0
 11
719.8925752666499
 21
175.0688887232334
 31
0.0
  0
LINE
  5
1293
330
2
100
AcDbEntity
  8
0
100
AcDbLine
 10
721.3411007226867
 20
179.9895278414205
 30
0.0
 11
720.7268614157306
 21
178.1700408023425
 31
0.0
  0
LINE
  5
1294
330
2
100
AcDbEntity
  8
0
100
AcDbLine
 10
718.1444050866089
 20
167.7573896708345
 30
0.0
 11
718.5383394416337
 21
171.0341856298008
 31
0.0
  0
LINE
  5
1295
330
2
100
AcDbEntity
  8
0
100
AcDbLine
 10
722.0108431399189
 20
186.5317465658492
 30
0.0
 11
720.5031488626541
 21
182.0656855936764
 31
0.0
  0
LINE
  5
1296
330
2
100
AcDbEntity
  8
0
100
AcDbLine
 10
722.7539236944659
 20
185.4507504463858
 30
0.0
 11
722.6288618885932
 21
185.640534353238
 31
0.0
  0
ARC
  5
1297
330
2
100
AcDbEntity
  8
0
100
AcDbCircle
 10
724.3062277673175
 20
181.9225735942221
 30
0.0
 40
5.7377984432904
100
AcDbArc
 50
86.74510860658884
 51
87.4494868759911
  0
ARC
  5
1298
330
2
100
AcDbEntity
  8
0
100
AcDbCircle
 10
725.7214292505182
 20
184.0574667588598
 30
0.0
 40
5.711426368001997
100
AcDbArc
 50
266.5030723554238
 51
267.4489233456151
  0
ARC
  5
1299
330
2
100
AcDbEntity
  8
0
100
AcDbCircle
 10
725.5434609058162
 20
187.6412791058744
 30
0.0
 40
3.6171547471746
100
AcDbArc
 50
222.7544334017242
 51
225.7847291918228
  0
SPLINE
  5
129A
330
2
100
AcDbEntity
  8
0
100
AcDbSpline
210
0.0
220
0.0
230
1.0
 70
     8
 71
     3
 72
    15
 73
    11
 74
     0
 42
0.000000001
 43
0.0000000001
 40
0.0
 40
0.0
 40
0.0
 40
0.0
 40
0.109142448
 40
0.2255131488
 40
0.3478698405
 40
0.4749590154
 40
0.6052998202000001
 40
0.7373233595000001
 40
0.8694872989
 40
1.0
 40
1.0
 40
1.0
 40
1.0
 10
720.7596498454282
 20
176.1025026854666
 30
0.0
 10
720.825312270051
 20
176.0374952400511
 30
0.0
 10
720.9680513652568
 20
175.9102025966043
 30
0.0
 10
721.2042844740158
 20
175.7338377660584
 30
0.0
 10
721.4663894464202
 20
175.5683237439367
 30
0.0
 10
721.7500277640342
 20
175.4163743606511
 30
0.0
 10
722.0506318518499
 20
175.2803620840499
 30
0.0
 10
722.3634118431626
 20
175.1625401577443
 30
0.0
 10
722.6831941919986
 20
175.0648778047574
 30
0.0
 10
722.899791267213
 20
175.0136686157475
 30
0.0
 10
723.0081171792094
 20
174.99190508967
 30
0.0
  0
SPLINE
  5
129B
330
2
100
AcDbEntity
  8
0
100
AcDbSpline
210
0.0
220
0.0
230
1.0
 70
     8
 71
     3
 72
    11
 73
     7
 74
     0
 42
0.000000001
 43
0.0000000001
 40
0.0
 40
0.0
 40
0.0
 40
0.0
 40
0.2794672024
 40
0.5343061973
 40
0.7713774031
 40
1.0
 40
1.0
 40
1.0
 40
1.0
 10
720.9295230905295
 20
178.8054636818775
 30
0.0
 10
720.8612451321802
 20
178.7737073525732
 30
0.0
 10
720.7347977473457
 20
178.7032117154529
 30
0.0
 10
720.5743627471647
 20
178.5687758063259
 30
0.0
 10
720.4561263780957
 20
178.4125105853276
 30
0.0
 10
720.4074211436404
 20
178.295075670145
 30
0.0
 10
720.3914290586502
 20
178.2355859387199
 30
0.0
  0
SPLINE
  5
129C
330
2
100
AcDbEntity
  8
0
100
AcDbSpline
210
0.0
220
0.0
230
1.0
 70
     8
 71
     3
 72
     9
 73
     5
 74
     0
 42
0.000000001
 43
0.0000000001
 40
0.0
 40
0.0
 40
0.0
 40
0.0
 40
0.2591787038
 40
1.0
 40
1.0
 40
1.0
 40
1.0
 10
722.9158249453239
 20
185.2502055875439
 30
0.0
 10
722.9051025513967
 20
185.2692350126708
 30
0.0
 10
722.8651270838411
 20
185.3434248643992
 30
0.0
 10
722.8309165335851
 20
185.4207948018151
 30
0.0
 10
722.8098232461256
 20
185.4795565604487
 30
0.0
  0
SPLINE
  5
129D
330
2
100
AcDbEntity
  8
0
100
AcDbSpline
210
0.0
220
0.0
230
1.0
 70
     8
 71
     3
 72
    11
 73
     7
 74
     0
 42
0.000000001
 43
0.0000000001
 40
0.0
 40
0.0
 40
0.0
 40
0.0
 40
0.2693628848
 40
0.5226606325000001
 40
0.7643787805
 40
1.0
 40
1.0
 40
1.0
 40
1.0
 10
722.8098232461256
 20
185.4795565604487
 30
0.0
 10
722.7908793240335
 20
185.5323306092168
 30
0.0
 10
722.7607010336417
 20
185.6373080832609
 30
0.0
 10
722.7404861455174
 20
185.7958279117973
 30
0.0
 10
722.7473310339969
 20
185.9485445415063
 30
0.0
 10
722.7701538276562
 20
186.0459644471066
 30
0.0
 10
722.7858407389624
 20
186.0924356043013
 30
0.0
  0
SPLINE
  5
129E
330
2
100
AcDbEntity
  8
0
100
AcDbSpline
210
0.0
220
0.0
230
1.0
 70
     8
 71
     3
 72
    11
 73
     7
 74
     0
 42
0.000000001
 43
0.0000000001
 40
0.0
 40
0.0
 40
0.0
 40
0.0
 40
0.2783005895
 40
0.5309426962
 40
0.7672793197
 40
1.0
 40
1.0
 40
1.0
 40
1.0
 10
718.9620514008247
 20
171.5666952999942
 30
0.0
 10
718.9032086016427
 20
171.5373443978722
 30
0.0
 10
718.7951950033721
 20
171.4717449323852
 30
0.0
 10
718.6630272462257
 20
171.3451596206963
 30
0.0
 10
718.5734391899759
 20
171.1975688031492
 30
0.0
 10
718.544883547662
 20
171.0886526021317
 30
0.0
 10
718.538326046201
 20
171.0340578607138
 30
0.0
  0
SPLINE
  5
129F
330
2
100
AcDbEntity
  8
0
100
AcDbSpline
210
0.0
220
0.0
230
1.0
 70
     8
 71
     3
 72
    11
 73
     7
 74
     0
 42
0.000000001
 43
0.0000000001
 40
0.0
 40
0.0
 40
0.0
 40
0.0
 40
0.2787401399
 40
0.5320898205
 40
0.7685896299
 40
1.0
 40
1.0
 40
1.0
 40
1.0
 10
719.620323867845
 20
173.5016448551952
 30
0.0
 10
719.5623581835661
 20
173.4732896903224
 30
0.0
 10
719.4556912195475
 20
173.4100162290477
 30
0.0
 10
719.323741580014
 20
173.2883497050377
 30
0.0
 10
719.2318881740898
 20
173.1466016744729
 30
0.0
 10
719.1999363052566
 20
173.0413726936142
 30
0.0
 10
719.1914327560843
 20
172.9884795539423
 30
0.0
  0
SPLINE
  5
12A0
330
2
100
AcDbEntity
  8
0
100
AcDbSpline
210
0.0
220
0.0
230
1.0
 70
     8
 71
     3
 72
    13
 73
     9
 74
     0
 42
0.000000001
 43
0.0000000001
 40
0.0
 40
0.0
 40
0.0
 40
0.0
 40
0.2773472626
 40
0.5295838757000002
 40
0.6492908527000001
 40
0.7664937504000001
 40
0.8828335034999998
 40
1.0
 40
1.0
 40
1.0
 40
1.0
 10
722.9214892285366
 20
170.2225332343712
 30
0.0
 10
722.9495158236552
 20
170.1642613374679
 30
0.0
 10
722.9939906035824
 20
170.048155154135
 30
0.0
 10
723.0165256788747
 20
169.8968831573071
 30
0.0
 10
723.0110012322708
 20
169.782664369602
 30
0.0
 10
722.9958616523404
 20
169.7014363621289
 30
0.0
 10
722.9697610603611
 20
169.6236792056272
 30
0.0
 10
722.9453043748178
 20
169.5748125613201
 30
0.0
 10
722.9314621092894
 20
169.5512629789561
 30
0.0
  0
SPLINE
  5
12A1
330
2
100
AcDbEntity
  8
0
100
AcDbSpline
210
0.0
220
0.0
230
1.0
 70
     8
 71
     3
 72
    11
 73
     7
 74
     0
 42
0.000000001
 43
0.0000000001
 40
0.0
 40
0.0
 40
0.0
 40
0.0
 40
0.2782337176
 40
0.5314787224000001
 40
0.7682059943999999
 40
1.0
 40
1.0
 40
1.0
 40
1.0
 10
723.5698890899588
 20
172.1623477803627
 30
0.0
 10
723.5980223397232
 20
172.1052510540692
 30
0.0
 10
723.6431749792383
 20
171.991472718809
 30
0.0
 10
723.6729813471774
 20
171.8167359239691
 30
0.0
 10
723.6596019435599
 20
171.6502838569202
 30
0.0
 10
723.6215819288193
 20
171.5483600579882
 30
0.0
 10
723.5965533191086
 20
171.5016108840638
 30
0.0
  0
SPLINE
  5
12A2
330
2
100
AcDbEntity
  8
0
100
AcDbSpline
210
0.0
220
0.0
230
1.0
 70
     8
 71
     3
 72
    11
 73
     7
 74
     0
 42
0.000000001
 43
0.0000000001
 40
0.0
 40
0.0
 40
0.0
 40
0.0
 40
0.2784245747
 40
0.5318721477000004
 40
0.76861055
 40
1.0
 40
1.0
 40
1.0
 40
1.0
 10
720.3167218691685
 20
175.5734031552223
 30
0.0
 10
720.2598151510636
 20
175.5453265534494
 30
0.0
 10
720.1550241866975
 20
175.4828022610703
 30
0.0
 10
720.0250971950131
 20
175.363116607697
 30
0.0
 10
719.9339862757882
 20
175.2240081468364
 30
0.0
 10
719.9015206366152
 20
175.1207231685796
 30
0.0
 10
719.892557668597
 20
175.068754193866
 30
0.0
  0
SPLINE
  5
12A3
330
2
100
AcDbEntity
  8
0
100
AcDbSpline
210
0.0
220
0.0
230
1.0
 70
     8
 71
     3
 72
    11
 73
     7
 74
     0
 42
0.000000001
 43
0.0000000001
 40
0.0
 40
0.0
 40
0.0
 40
0.0
 40
0.2778651443
 40
0.5311953752000002
 40
0.7681834599
 40
1.0
 40
1.0
 40
1.0
 40
1.0
 10
724.2720366205571
 20
174.2314965982236
 30
0.0
 10
724.2994241803232
 20
174.1753254376617
 30
0.0
 10
724.3434098399992
 20
174.0634032830388
 30
0.0
 10
724.3726720023634
 20
173.8916709239889
 30
0.0
 10
724.3602400141337
 20
173.7279634920767
 30
0.0
 10
724.3238175485601
 20
173.6273988147746
 30
0.0
 10
724.2997334220047
 20
173.5811592231468
 30
0.0
  0
SPLINE
  5
12A4
330
2
100
AcDbEntity
  8
0
100
AcDbSpline
210
0.0
220
0.0
230
1.0
 70
     8
 71
     3
 72
    12
 73
     8
 74
     0
 42
0.000000001
 43
0.0000000001
 40
0.0
 40
0.0
 40
0.0
 40
0.0
 40
0.1027201832
 40
0.2099472166
 40
0.4425289269
 40
0.7052463029
 40
1.0
 40
1.0
 40
1.0
 40
1.0
 10
725.2160933067471
 20
175.4216055552053
 30
0.0
 10
725.1962832787088
 20
175.3902583190627
 30
0.0
 10
725.1505912271092
 20
175.329348736553
 30
0.0
 10
725.0368079893352
 20
175.2165563900529
 30
0.0
 10
724.8526865997233
 20
175.0964533362736
 30
0.0
 10
724.5855026612701
 20
174.9927193898551
 30
0.0
 10
724.3878236080596
 20
174.9507548447076
 30
0.0
 10
724.2825671854573
 20
174.9351521148714
 30
0.0
  0
SPLINE
  5
12A5
330
2
100
AcDbEntity
  8
0
100
AcDbSpline
210
0.0
220
0.0
230
1.0
 70
     8
 71
     3
 72
     9
 73
     5
 74
     0
 42
0.000000001
 43
0.0000000001
 40
0.0
 40
0.0
 40
0.0
 40
0.0
 40
0.2507650853999999
 40
1.0
 40
1.0
 40
1.0
 40
1.0
 10
720.3250708171792
 20
177.6089442707023
 30
0.0
 10
720.3297095862702
 20
177.6614137725913
 30
0.0
 10
720.3493182571882
 20
177.870553245912
 30
0.0
 10
720.3726000886647
 20
178.0793367172496
 30
0.0
 10
720.3914290586502
 20
178.2355859387199
 30
0.0
  0
SPLINE
  5
12A6
330
2
100
AcDbEntity
  8
0
100
AcDbSpline
210
0.0
220
0.0
230
1.0
 70
     8
 71
     3
 72
    15
 73
    11
 74
     0
 42
0.000000001
 43
0.0000000001
 40
0.0
 40
0.0
 40
0.0
 40
0.0
 40
0.0938411476
 40
0.1940572537
 40
0.3029270522
 40
0.4218215386
 40
0.5512768825
 40
0.6912550541
 40
0.8412424934
 40
1.0
 40
1.0
 40
1.0
 40
1.0
 10
721.2586395735546
 20
166.7060600420453
 30
0.0
 10
721.2415541015103
 20
166.6770003039819
 30
0.0
 10
721.1990281111869
 20
166.6209234118663
 30
0.0
 10
721.1163204922497
 20
166.5492459527904
 30
0.0
 10
721.0146983166337
 20
166.4886068961559
 30
0.0
 10
720.8956596263663
 20
166.4396624999775
 30
0.0
 10
720.7607982294407
 20
166.4028456756754
 30
0.0
 10
720.6118541046836
 20
166.3785855419211
 30
0.0
 10
720.4508755282932
 20
166.3672153000254
 30
0.0
 10
720.3398469189757
 20
166.3682313669946
 30
0.0
 10
720.2828734195637
 20
166.3707684736553
 30
0.0
  0
SPLINE
  5
12A7
330
2
100
AcDbEntity
  8
0
100
AcDbSpline
210
0.0
220
0.0
230
1.0
 70
     8
 71
     3
 72
    11
 73
     7
 74
     0
 42
0.000000001
 43
0.0000000001
 40
0.0
 40
0.0
 40
0.0
 40
0.0
 40
0.2356507206
 40
0.4774021234000001
 40
0.7307286428000001
 40
1.0
 40
1.0
 40
1.0
 40
1.0
 10
728.6798412656121
 20
184.1026842511015
 30
0.0
 10
728.6641709637715
 20
184.0562622980718
 30
0.0
 10
728.6233344078532
 20
183.9650338588757
 30
0.0
 10
728.53633821225
 20
183.839529841052
 30
0.0
 10
728.4243587789752
 20
183.7257985933347
 30
0.0
 10
728.3368851374141
 20
183.6606220137793
 30
0.0
 10
728.2899223292602
 20
183.6301442154974
 30
0.0
  0
SPLINE
  5
12A8
330
2
100
AcDbEntity
  8
0
100
AcDbSpline
210
0.0
220
0.0
230
1.0
 70
     8
 71
     3
 72
     9
 73
     5
 74
     0
 42
0.000000001
 43
0.0000000001
 40
0.0
 40
0.0
 40
0.0
 40
0.0
 40
0.2410336725
 40
1.0
 40
1.0
 40
1.0
 40
1.0
 10
728.2899223292602
 20
183.6301442154974
 30
0.0
 10
728.2728315065762
 20
183.6190526588361
 30
0.0
 10
728.2008434269122
 20
183.5747098413269
 30
0.0
 10
728.1248905769252
 20
183.5369293582762
 30
0.0
 10
728.0659629162085
 20
183.5115639400188
 30
0.0
  0
SPLINE
  5
12A9
330
2
100
AcDbEntity
  8
0
100
AcDbSpline
210
0.0
220
0.0
230
1.0
 70
     8
 71
     3
 72
    25
 73
    21
 74
     0
 42
0.000000001
 43
0.0000000001
 40
0.0
 40
0.0
 40
0.0
 40
0.0
 40
0.0688793461
 40
0.139984511
 40
0.2125649455
 40
0.2858155122
 40
0.3588788029
 40
0.4309152331
 40
0.5011301164999999
 40
0.5688195654000002
 40
0.6334150589
 40
0.6945319238
 40
0.7520241631999999
 40
0.8060434415000001
 40
0.8570507612
 40
0.8816757168
 40
0.9058584998
 40
0.9531830443
 40
0.9765758064999999
 40
1.0
 40
1.0
 40
1.0
 40
1.0
 10
725.3730607035791
 20
178.3566746636672
 30
0.0
 10
725.217260572449
 20
178.3661850269506
 30
0.0
 10
724.9012941766267
 20
178.3981783184627
 30
0.0
 10
724.4264266142294
 20
178.4811906958472
 30
0.0
 10
723.9486862991914
 20
178.5987002877102
 30
0.0
 10
723.4755102865988
 20
178.7487512415664
 30
0.0
 10
723.0143122058628
 20
178.9290021196823
 30
0.0
 10
722.5723566962938
 20
179.1366550087445
 30
0.0
 10
722.156518841708
 20
179.3686260902632
 30
0.0
 10
721.7731321799568
 20
179.6216511270835
 30
0.0
 10
721.4278684404057
 20
179.8924983543238
 30
0.0
 10
721.12571118817
 20
180.178188746799
 30
0.0
 10
720.8710407461798
 20
180.4762929593828
 30
0.0
 10
720.6681386328502
 20
180.784955975911
 30
0.0
 10
720.5447417494602
 20
181.0532283753244
 30
0.0
 10
720.4790159974947
 20
181.2700213376269
 30
0.0
 10
720.4365844269446
 20
181.4839509518424
 30
0.0
 10
720.4283026065327
 20
181.7010283203786
 30
0.0
 10
720.4584298379857
 20
181.912645292006
 30
0.0
 10
720.4861701938696
 20
182.0153917302829
 30
0.0
 10
720.5031488626541
 20
182.0656855936764
 30
0.0
  0
SPLINE
  5
12AA
330
2
100
AcDbEntity
  8
0
100
AcDbSpline
210
0.0
220
0.0
230
1.0
 70
     8
 71
     3
 72
    16
 73
    12
 74
     0
 42
0.000000001
 43
0.0000000001
 40
0.0
 40
0.0
 40
0.0
 40
0.0
 40
0.053960904
 40
0.1078811922
 40
0.2170673621
 40
0.3297012811
 40
0.4478725334000001
 40
0.5733511999000001
 40
0.7071404232999999
 40
0.8495381027
 40
1.0
 40
1.0
 40
1.0
 40
1.0
 10
728.0548370357719
 20
179.5163166725528
 30
0.0
 10
728.0373806539435
 20
179.4646077374078
 30
0.0
 10
727.9958483902412
 20
179.363323825963
 30
0.0
 10
727.8874731024609
 20
179.1718551819405
 30
0.0
 10
727.7062924838426
 20
178.9561980030525
 30
0.0
 10
727.4317474266545
 20
178.7455094222798
 30
0.0
 10
727.1092896813893
 20
178.58096311064
 30
0.0
 10
726.7458506975847
 20
178.4603429794744
 30
0.0
 10
726.3463870615226
 20
178.3816111470616
 30
0.0
 10
725.9158703541304
 20
178.3436418643585
 30
0.0
 10
725.6192401170022
 20
178.3449308209514
 30
0.0
 10
725.4672137929096
 20
178.3517007578677
 30
0.0
  0
SPLINE
  5
12AB
330
2
100
AcDbEntity
  8
0
100
AcDbSpline
210
0.0
220
0.0
230
1.0
 70
     8
 71
     3
 72
    19
 73
    15
 74
     0
 42
0.000000001
 43
0.0000000001
 40
0.0
 40
0.0
 40
0.0
 40
0.0
 40
0.0388731432
 40
0.0805923084
 40
0.1261703906
 40
0.1761837693
 40
0.2308314226
 40
0.2900090142
 40
0.3533925406
 40
0.4204742497
 40
0.5630153422
 40
0.7116404479
 40
0.8595327690999996
 40
1.0
 40
1.0
 40
1.0
 40
1.0
 10
718.144413221833
 20
167.7573893669174
 30
0.0
 10
718.1401616046307
 20
167.7220243145073
 30
0.0
 10
718.1404946182167
 20
167.6473947818129
 30
0.0
 10
718.1661341492784
 20
167.533925255802
 30
0.0
 10
718.2158779755542
 20
167.4177189598165
 30
0.0
 10
718.2887265801406
 20
167.300403406624
 30
0.0
 10
718.3834980800062
 20
167.1835455311975
 30
0.0
 10
718.4987264524965
 20
167.0687721932136
 30
0.0
 10
718.6327165441192
 20
166.9577828876612
 30
0.0
 10
718.8378071835104
 20
166.8141622844534
 30
0.0
 10
719.1268550279763
 20
166.6562160829235
 30
0.0
 10
719.5023092899291
 20
166.5089632055296
 30
0.0
 10
719.8910303256682
 20
166.4089934764055
 30
0.0
 10
720.1542898552547
 20
166.3764944728795
 30
0.0
 10
720.2828734195637
 20
166.3707684736553
 30
0.0
  0
SPLINE
  5
12AC
330
2
100
AcDbEntity
  8
0
100
AcDbSpline
210
0.0
220
0.0
230
1.0
 70
     8
 71
     3
 72
    24
 73
    20
 74
     0
 42
0.000000001
 43
0.0000000001
 40
0.0
 40
0.0
 40
0.0
 40
0.0
 40
0.0692443832
 40
0.140853372
 40
0.2140391393
 40
0.2879689683
 40
0.3617563018999999
 40
0.4345296516
 40
0.5054576011
 40
0.5737916793000001
 40
0.6389083839000002
 40
0.7003558459999999
 40
0.7579078088
 40
0.8116251844
 40
0.8618900548
 40
0.9094170764000001
 40
0.9550899663999999
 40
0.9775561369
 40
1.0
 40
1.0
 40
1.0
 40
1.0
 10
724.6320086076532
 20
187.651115975962
 30
0.0
 10
724.7889099545357
 20
187.642199010371
 30
0.0
 10
725.1074457933412
 20
187.6112171596625
 30
0.0
 10
725.5866434150265
 20
187.5293133591469
 30
0.0
 10
726.0694875389495
 20
187.4124468942489
 30
0.0
 10
726.5482921012549
 20
187.2625862721987
 30
0.0
 10
727.0154185691088
 20
187.0821104342027
 30
0.0
 10
727.4633708872925
 20
186.8738906483384
 30
0.0
 10
727.8850305759552
 20
186.6411310557649
 30
0.0
 10
728.2738037915837
 20
186.3872783710742
 30
0.0
 10
728.6237486465612
 20
186.1158394338208
 30
0.0
 10
728.929630601722
 20
185.8301790581878
 30
0.0
 10
729.1868818429581
 20
185.5332799884235
 30
0.0
 10
729.3912389613865
 20
185.2275615664934
 30
0.0
 10
729.5382683594652
 20
184.9149911081615
 30
0.0
 10
729.6220530339642
 20
184.5982484455359
 30
0.0
 10
729.6337567701217
 20
184.3334393416611
 30
0.0
 10
729.605363740724
 20
184.1293869608551
 30
0.0
 10
729.5788239928282
 20
184.0306394856361
 30
0.0
 10
729.5625313130368
 20
183.9823776447262
 30
0.0
  0
SPLINE
  5
12AD
330
2
100
AcDbEntity
  8
0
100
AcDbSpline
210
0.0
220
0.0
230
1.0
 70
     8
 71
     3
 72
    16
 73
    12
 74
     0
 42
0.000000001
 43
0.0000000001
 40
0.0
 40
0.0
 40
0.0
 40
0.0
 40
0.0523675039
 40
0.1048163063
 40
0.2115437914
 40
0.3227403249
 40
0.4405965343
 40
0.5667885522999999
 40
0.7021490814
 40
0.8467831642
 40
1.0
 40
1.0
 40
1.0
 40
1.0
 10
722.0108431399189
 20
186.5317465658492
 30
0.0
 10
722.0274671529048
 20
186.5809898751279
 30
0.0
 10
722.0671343104753
 20
186.6775327129417
 30
0.0
 10
722.1710959729962
 20
186.8604699904663
 30
0.0
 10
722.3462140404393
 20
187.0673518180796
 30
0.0
 10
722.6131451137092
 20
187.2704071634047
 30
0.0
 10
722.9292497681883
 20
187.4301908530368
 30
0.0
 10
723.2880778691542
 20
187.5481293027911
 30
0.0
 10
723.6846196845217
 20
187.6254812485516
 30
0.0
 10
724.1136114295962
 20
187.6628459321841
 30
0.0
 10
724.4096466917709
 20
187.6614529796383
 30
0.0
 10
724.5615606674292
 20
187.654688045779
 30
0.0
  0
SPLINE
  5
12AE
330
2
100
AcDbEntity
  8
0
100
AcDbSpline
210
0.0
220
0.0
230
1.0
 70
     8
 71
     3
 72
    23
 73
    19
 74
     0
 42
0.000000001
 43
0.0000000001
 40
0.0
 40
0.0
 40
0.0
 40
0.0
 40
0.0514116186
 40
0.1068695421
 40
0.1660819077
 40
0.2286128543
 40
0.2939197189
 40
0.3613769737
 40
0.4302991254000001
 40
0.4999641314
 40
0.5696301929
 40
0.6385555885000001
 40
0.7060179994000002
 40
0.7713317706
 40
0.8338725481
 40
0.893093666
 40
0.9485604409
 40
1.0
 40
1.0
 40
1.0
 40
1.0
 10
728.317098301943
 20
183.5731442557255
 30
0.0
 10
728.2160908925073
 20
183.5430222496175
 30
0.0
 10
728.002152195142
 20
183.4933389517621
 30
0.0
 10
727.6639634741163
 20
183.4500199078258
 30
0.0
 10
727.3005369987343
 20
183.4355202726878
 30
0.0
 10
726.916980219564
 20
183.4500219497813
 30
0.0
 10
726.518629494192
 20
183.4933266496061
 30
0.0
 10
726.1110856863131
 20
183.5648453385227
 30
0.0
 10
725.7000837845894
 20
183.6635562185369
 30
0.0
 10
725.2914227837652
 20
183.7880740675184
 30
0.0
 10
724.8908771061437
 20
183.936658532932
 30
0.0
 10
724.5040955072106
 20
184.1071952538374
 30
0.0
 10
724.1365307267535
 20
184.2972712070237
 30
0.0
 10
723.7933610383243
 20
184.5042231870569
 30
0.0
 10
723.4794093578997
 20
184.725131671421
 30
0.0
 10
723.1990338595267
 20
184.9569050363294
 30
0.0
 10
722.956159117565
 20
185.1963296707736
 30
0.0
 10
722.8160237357029
 20
185.3655437278125
 30
0.0
 10
722.7538800727614
 20
185.45074980795
 30
0.0
  0
SPLINE
  5
12AF
330
2
100
AcDbEntity
  8
0
100
AcDbSpline
210
0.0
220
0.0
230
1.0
 70
     8
 71
     3
 72
    17
 73
    13
 74
     0
 42
0.000000001
 43
0.0000000001
 40
0.0
 40
0.0
 40
0.0
 40
0.0
 40
0.0472431431
 40
0.0979064134
 40
0.1518652595
 40
0.2089473891
 40
0.3313857962
 40
0.4625013903000001
 40
0.5988023044
 40
0.7364248706000001
 40
0.871414829
 40
1.0
 40
1.0
 40
1.0
 40
1.0
 10
720.8455298986607
 20
177.4630473832749
 30
0.0
 10
720.8742452098462
 20
177.4141954916915
 30
0.0
 10
720.9396684317717
 20
177.3163645392567
 30
0.0
 10
721.0551645599219
 20
177.1752123461194
 30
0.0
 10
721.1904342559321
 20
177.0359089980026
 30
0.0
 10
721.400231462449
 20
176.850079637688
 30
0.0
 10
721.7039459892426
 20
176.6323948742154
 30
0.0
 10
722.1130595935416
 20
176.4042042928202
 30
0.0
 10
722.5599872864535
 20
176.2116703911259
 30
0.0
 10
723.0279169898162
 20
176.0620700736996
 30
0.0
 10
723.4991821344106
 20
175.9610235409569
 30
0.0
 10
723.8143391839833
 20
175.9274030728899
 30
0.0
 10
723.968419527463
 20
175.9205416677392
 30
0.0
  0
SPLINE
  5
12B0
330
2
100
AcDbEntity
  8
0
100
AcDbSpline
210
0.0
220
0.0
230
1.0
 70
     8
 71
     3
 72
    11
 73
     7
 74
     0
 42
0.000000001
 43
0.0000000001
 40
0.0
 40
0.0
 40
0.0
 40
0.0
 40
0.2471124297
 40
0.4958362854
 40
0.7466612658000003
 40
1.0
 40
1.0
 40
1.0
 40
1.0
 10
725.1883508634247
 20
175.866216482711
 30
0.0
 10
725.1194577677368
 20
175.7841672404374
 30
0.0
 10
724.9793154317329
 20
175.6211196194305
 30
0.0
 10
724.7609541122003
 20
175.3820409909169
 30
0.0
 10
724.531007338578
 20
175.1502308419538
 30
0.0
 10
724.3678502921587
 20
175.0043679904153
 30
0.0
 10
724.2825671854573
 20
174.9351521148714
 30
0.0
  0
SPLINE
  5
12B1
330
2
100
AcDbEntity
  8
0
100
AcDbSpline
210
0.0
220
0.0
230
1.0
 70
     8
 71
     3
 72
    15
 73
    11
 74
     0
 42
0.000000001
 43
0.0000000001
 40
0.0
 40
0.0
 40
0.0
 40
0.0
 40
0.1597113978
 40
0.3103035426
 40
0.4505470346
 40
0.5799307654
 40
0.6984444393000003
 40
0.8067421689999999
 40
0.9064035392
 40
1.0
 40
1.0
 40
1.0
 40
1.0
 10
722.7930658341892
 20
173.2746127118065
 30
0.0
 10
722.8634231664807
 20
173.2714796050652
 30
0.0
 10
723.0004121235531
 20
173.2703331698289
 30
0.0
 10
723.1987921026532
 20
173.2849567270976
 30
0.0
 10
723.3818181954416
 20
173.315858379189
 30
0.0
 10
723.5468698833697
 20
173.3626338045978
 30
0.0
 10
723.6917164358152
 20
173.4246977251241
 30
0.0
 10
723.8143012589453
 20
173.5015126967293
 30
0.0
 10
723.9126750309613
 20
173.5922348349999
 30
0.0
 10
723.961864398259
 20
173.6629099324122
 30
0.0
 10
723.9811536327366
 20
173.6993977749444
 30
0.0
  0
SPLINE
  5
12B2
330
2
100
AcDbEntity
  8
0
100
AcDbSpline
210
0.0
220
0.0
230
1.0
 70
     8
 71
     3
 72
    12
 73
     8
 74
     0
 42
0.000000001
 43
0.0000000001
 40
0.0
 40
0.0
 40
0.0
 40
0.0
 40
0.2818664353
 40
0.5380710359
 40
0.7742847005
 40
0.8878518537999998
 40
1.0
 40
1.0
 40
1.0
 40
1.0
 10
728.5337877475273
 20
184.972829997663
 30
0.0
 10
728.5770699775962
 20
184.8991961488258
 30
0.0
 10
728.6499560894914
 20
184.7523918500435
 30
0.0
 10
728.7152800779573
 20
184.5255370624381
 30
0.0
 10
728.7265359087191
 20
184.340331621241
 30
0.0
 10
728.7083243540869
 20
184.2012173942537
 30
0.0
 10
728.6907103160342
 20
184.1348829000141
 30
0.0
 10
728.6798412656121
 20
184.1026842511015
 30
0.0
  0
SPLINE
  5
12B3
330
2
100
AcDbEntity
  8
0
100
AcDbSpline
210
0.0
220
0.0
230
1.0
 70
     8
 71
     3
 72
    15
 73
    11
 74
     0
 42
0.000000001
 43
0.0000000001
 40
0.0
 40
0.0
 40
0.0
 40
0.0
 40
0.0935701679
 40
0.1931602129
 40
0.3013815689
 40
0.4198422097
 40
0.5492135501
 40
0.68949146
 40
0.8401650025
 40
1.0
 40
1.0
 40
1.0
 40
1.0
 10
724.2997334220047
 20
173.5811592231468
 30
0.0
 10
724.2773661480941
 20
173.5382158509216
 30
0.0
 10
724.2201255035546
 20
173.4549939590746
 30
0.0
 10
724.1051884319845
 20
173.3481034097218
 30
0.0
 10
723.9616824340863
 20
173.257588943966
 30
0.0
 10
723.7919145431138
 20
173.1844443017668
 30
0.0
 10
723.5983111130788
 20
173.1293062031735
 30
0.0
 10
723.3835052581741
 20
173.0928659522771
 30
0.0
 10
723.1505904712835
 20
173.0756020953228
 30
0.0
 10
722.9897284177443
 20
173.0769305496584
 30
0.0
 10
722.9071012724321
 20
173.0806100477095
 30
0.0
  0
SPLINE
  5
12B4
330
2
100
AcDbEntity
  8
0
100
AcDbSpline
210
0.0
220
0.0
230
1.0
 70
     8
 71
     3
 72
    15
 73
    11
 74
     0
 42
0.000000001
 43
0.0000000001
 40
0.0
 40
0.0
 40
0.0
 40
0.0
 40
0.1598349975
 40
0.31050854
 40
0.4507864499
 40
0.5801577903
 40
0.6986184311
 40
0.8068397870999998
 40
0.9064298320999998
 40
1.0
 40
1.0
 40
1.0
 40
1.0
 10
722.0930649197392
 20
171.2010844032829
 30
0.0
 10
722.163642273023
 20
171.1979414987178
 30
0.0
 10
722.3010452771228
 20
171.1968067773068
 30
0.0
 10
722.4999933242218
 20
171.2115529884353
 30
0.0
 10
722.6834733253406
 20
171.2426790360576
 30
0.0
 10
722.8488429217902
 20
171.2897761619295
 30
0.0
 10
722.9938529953258
 20
171.3522538771765
 30
0.0
 10
723.1164310351856
 20
171.4295683166489
 30
0.0
 10
723.2146064505212
 20
171.5208706608937
 30
0.0
 10
723.2634995010705
 20
171.591956026872
 30
0.0
 10
723.2826048808473
 20
171.62863682393
 30
0.0
  0
SPLINE
  5
12B5
330
2
100
AcDbEntity
  8
0
100
AcDbSpline
210
0.0
220
0.0
230
1.0
 70
     8
 71
     3
 72
    21
 73
    17
 74
     0
 42
0.000000001
 43
0.0000000001
 40
0.0
 40
0.0
 40
0.0
 40
0.0
 40
0.0386738088
 40
0.0800109786
 40
0.1251354388
 40
0.1747032086
 40
0.2289692276
 40
0.2878688207
 40
0.3510857762
 40
0.4181225818
 40
0.4883377809000001
 40
0.5609831107
 40
0.7101689608
 40
0.8587741420999998
 40
0.9307512766
 40
1.0
 40
1.0
 40
1.0
 40
1.0
 10
720.2176188624036
 20
174.9697225069198
 30
0.0
 10
720.2105640416166
 20
174.9272662664854
 30
0.0
 10
720.2072030497284
 20
174.8372844915338
 30
0.0
 10
720.2334284789824
 20
174.6995615040283
 30
0.0
 10
720.2896437864543
 20
174.5581772242971
 30
0.0
 10
720.3745478222089
 20
174.4151564632701
 30
0.0
 10
720.4866953840924
 20
174.2724160342022
 30
0.0
 10
720.624353880039
 20
174.1320230243426
 30
0.0
 10
720.7853897670852
 20
173.9960381908764
 30
0.0
 10
720.967337058473
 20
173.8665514477347
 30
0.0
 10
721.1673863812095
 20
173.7455640285467
 30
0.0
 10
721.4565912667567
 20
173.5968120690932
 30
0.0
 10
721.8409363069461
 20
173.4445647654997
 30
0.0
 10
722.2403869778611
 20
173.3408630563266
 30
0.0
 10
722.5592940574918
 20
173.2912410856545
 30
0.0
 10
722.7160782597462
 20
173.278041072124
 30
0.0
 10
722.7930658341892
 20
173.2746127118065
 30
0.0
  0
SPLINE
  5
12B6
330
2
100
AcDbEntity
  8
0
100
AcDbSpline
210
0.0
220
0.0
230
1.0
 70
     8
 71
     3
 72
    15
 73
    11
 74
     0
 42
0.000000001
 43
0.0000000001
 40
0.0
 40
0.0
 40
0.0
 40
0.0
 40
0.1596047795
 40
0.3101265563
 40
0.4503400496000002
 40
0.5797340355000001
 40
0.698293002
 40
0.806656392
 40
0.9063796222
 40
1.0
 40
1.0
 40
1.0
 40
1.0
 10
721.4415256070552
 20
169.2711080545675
 30
0.0
 10
721.5116936609653
 20
169.2679833766746
 30
0.0
 10
721.6483263415759
 20
169.266826936779
 30
0.0
 10
721.8462173150187
 20
169.2813453637555
 30
0.0
 10
722.0288522028917
 20
169.312054618436
 30
0.0
 10
722.1936292039536
 20
169.358554135029
 30
0.0
 10
722.3383333093267
 20
169.4202631912989
 30
0.0
 10
722.4609215970456
 20
169.4966497537391
 30
0.0
 10
722.5594627443597
 20
169.5868742197363
 30
0.0
 10
722.6089040407583
 20
169.6571966095536
 30
0.0
 10
722.6283500113652
 20
169.6935183658335
 30
0.0
  0
SPLINE
  5
12B7
330
2
100
AcDbEntity
  8
0
100
AcDbSpline
210
0.0
220
0.0
230
1.0
 70
     8
 71
     3
 72
    21
 73
    17
 74
     0
 42
0.000000001
 43
0.0000000001
 40
0.0
 40
0.0
 40
0.0
 40
0.0
 40
0.0386509476
 40
0.0799394101
 40
0.1250038929
 40
0.1745121292
 40
0.22872733
 40
0.2875894086
 40
0.350784586
 40
0.4178159997
 40
0.4880412874000001
 40
0.5607105620000003
 40
0.7099752014
 40
0.8586799780999998
 40
0.9307064330999999
 40
1.0
 40
1.0
 40
1.0
 40
1.0
 10
719.892557668597
 20
175.068754193866
 30
0.0
 10
719.8839911217334
 20
175.0190837438238
 30
0.0
 10
719.8794457633087
 20
174.9137501726158
 30
0.0
 10
719.909396125135
 20
174.7523785362104
 30
0.0
 10
719.974596671338
 20
174.5866604922889
 30
0.0
 10
720.0735177058374
 20
174.4189774244358
 30
0.0
 10
720.20446679602
 20
174.2515826084014
 30
0.0
 10
720.3654111751068
 20
174.086903260765
 30
0.0
 10
720.5538493711208
 20
173.9273627888751
 30
0.0
 10
720.7668880434128
 20
173.7754206921838
 30
0.0
 10
721.0012270065456
 20
173.6334304978426
 30
0.0
 10
721.3401403984782
 20
173.4588240279558
 30
0.0
 10
721.7906919623881
 20
173.2801027090458
 30
0.0
 10
722.2590352510222
 20
173.1583679005896
 30
0.0
 10
722.632980446659
 20
173.1001198956797
 30
0.0
 10
722.8168266776123
 20
173.0846300969984
 30
0.0
 10
722.9071012724321
 20
173.0806100477095
 30
0.0
  0
SPLINE
  5
12B8
330
2
100
AcDbEntity
  8
0
100
AcDbSpline
210
0.0
220
0.0
230
1.0
 70
     8
 71
     3
 72
    16
 73
    12
 74
     0
 42
0.000000001
 43
0.0000000001
 40
0.0
 40
0.0
 40
0.0
 40
0.0
 40
0.046532689
 40
0.0936559959
 40
0.1916781086
 40
0.2979644058
 40
0.4149439933
 40
0.5438050228
 40
0.6847387746
 40
0.8372536424999999
 40
1.0
 40
1.0
 40
1.0
 40
1.0
 10
725.5156891147406
 20
176.5532603676976
 30
0.0
 10
725.5068564508859
 20
176.5271013529342
 30
0.0
 10
725.4855858433867
 20
176.4755549457059
 30
0.0
 10
725.4288037192893
 20
176.3767052492356
 30
0.0
 10
725.3303343605458
 20
176.2625814604598
 30
0.0
 10
725.1763583738007
 20
176.1481398574134
 30
0.0
 10
724.988179415988
 20
176.0552254988703
 30
0.0
 10
724.7690138838311
 20
175.9848957394068
 30
0.0
 10
724.5223282214674
 20
175.9379911327062
 30
0.0
 10
724.252204692583
 20
175.915214178856
 30
0.0
 10
724.064888743865
 20
175.9162457636547
 30
0.0
 10
723.968419527463
 20
175.9205416677392
 30
0.0
  0
SPLINE
  5
12B9
330
2
100
AcDbEntity
  8
0
100
AcDbSpline
210
0.0
220
0.0
230
1.0
 70
     8
 71
     3
 72
    11
 73
     7
 74
     0
 42
0.000000001
 43
0.0000000001
 40
0.0
 40
0.0
 40
0.0
 40
0.0
 40
0.2674082841
 40
0.5258128561
 40
0.7718657783000003
 40
1.0
 40
1.0
 40
1.0
 40
1.0
 10
721.2996307386386
 20
176.690508827892
 30
0.0
 10
721.2569270608566
 20
176.6333066923433
 30
0.0
 10
721.1713588297502
 20
176.5220114524454
 30
0.0
 10
721.0392532053506
 20
176.3637460133726
 30
0.0
 10
720.9051025169988
 20
176.2213513780749
 30
0.0
 10
720.8093361892371
 20
176.1377173477667
 30
0.0
 10
720.7596498454282
 20
176.1025026854666
 30
0.0
  0
SPLINE
  5
12BA
330
2
100
AcDbEntity
  8
0
100
AcDbSpline
210
0.0
220
0.0
230
1.0
 70
     8
 71
     3
 72
    11
 73
     7
 74
     0
 42
0.000000001
 43
0.0000000001
 40
0.0
 40
0.0
 40
0.0
 40
0.0
 40
0.2243917534
 40
0.4630658077000004
 40
0.7207892131
 40
1.0
 40
1.0
 40
1.0
 40
1.0
 10
725.7629300069391
 20
176.2874449884681
 30
0.0
 10
725.7339841917954
 20
176.2416392203228
 30
0.0
 10
725.6639427034804
 20
176.1533387218653
 30
0.0
 10
725.5314004628446
 20
176.0392213550429
 30
0.0
 10
725.3709103869952
 20
175.9413359719592
 30
0.0
 10
725.2516157741702
 20
175.8895265005209
 30
0.0
 10
725.1883508634247
 20
175.866216482711
 30
0.0
  0
SPLINE
  5
12BB
330
2
100
AcDbEntity
  8
0
100
AcDbSpline
210
0.0
220
0.0
230
1.0
 70
     8
 71
     3
 72
    11
 73
     7
 74
     0
 42
0.000000001
 43
0.0000000001
 40
0.0
 40
0.0
 40
0.0
 40
0.0
 40
0.2372213687
 40
0.4855509076
 40
0.7411864156999999
 40
1.0
 40
1.0
 40
1.0
 40
1.0
 10
721.2996307386386
 20
176.690508827892
 30
0.0
 10
721.4035506515199
 20
176.6153239824165
 30
0.0
 10
721.6236400852753
 20
176.4714645431817
 30
0.0
 10
721.976328061921
 20
176.2803209525871
 30
0.0
 10
722.3532955983522
 20
176.1120706980895
 30
0.0
 10
722.6152098675107
 20
176.0175316958393
 30
0.0
 10
722.7484881915005
 20
175.9748668527679
 30
0.0
  0
SPLINE
  5
12BC
330
2
100
AcDbEntity
  8
0
100
AcDbSpline
210
0.0
220
0.0
230
1.0
 70
     8
 71
     3
 72
    11
 73
     7
 74
     0
 42
0.000000001
 43
0.0000000001
 40
0.0
 40
0.0
 40
0.0
 40
0.0
 40
0.2467898067
 40
0.4958856685
 40
0.7470440856999999
 40
1.0
 40
1.0
 40
1.0
 40
1.0
 10
723.0081171792094
 20
174.99190508967
 30
0.0
 10
722.9710754775319
 20
175.0672159800744
 30
0.0
 10
722.9093220793981
 20
175.2247965485374
 30
0.0
 10
722.8406738509477
 20
175.469592273576
 30
0.0
 10
722.7879853859497
 20
175.7204126713612
 30
0.0
 10
722.7606902173611
 20
175.8897122352497
 30
0.0
 10
722.7484881915005
 20
175.9748668527679
 30
0.0
  0
SPLINE
  5
12BD
330
2
100
AcDbEntity
  8
0
100
AcDbSpline
210
0.0
220
0.0
230
1.0
 70
     8
 71
     3
 72
    21
 73
    17
 74
     0
 42
0.000000001
 43
0.0000000001
 40
0.0
 40
0.0
 40
0.0
 40
0.0
 40
0.0386509476
 40
0.0799394101
 40
0.1250038929
 40
0.1745121292
 40
0.22872733
 40
0.2875894086
 40
0.350784586
 40
0.4178159997
 40
0.4880412874000001
 40
0.5607105620000003
 40
0.7099752014
 40
0.8586799780999998
 40
0.9307064330999999
 40
1.0
 40
1.0
 40
1.0
 40
1.0
 10
719.5181422581294
 20
172.8992908614399
 30
0.0
 10
719.5108249993827
 20
172.8568640186679
 30
0.0
 10
719.5069425057081
 20
172.7668915933103
 30
0.0
 10
719.532525106431
 20
172.6290533205629
 30
0.0
 10
719.5882172396509
 20
172.4875024913242
 30
0.0
 10
719.672712289967
 20
172.3442732042062
 30
0.0
 10
719.7845646378127
 20
172.2012901321508
 30
0.0
 10
719.9220379616197
 20
172.0606265227561
 30
0.0
 10
720.0829955873707
 20
171.924352369667
 30
0.0
 10
720.2649661199806
 20
171.7945684954105
 30
0.0
 10
720.4651306509362
 20
171.6732852044009
 30
0.0
 10
720.7546191732566
 20
171.5241421780643
 30
0.0
 10
721.1394653007687
 20
171.3714843848316
 30
0.0
 10
721.5395085264636
 20
171.2675025692413
 30
0.0
 10
721.8589200477656
 20
171.2177490650942
 30
0.0
 10
722.0159553700073
 20
171.2045181953737
 30
0.0
 10
722.0930649197392
 20
171.2010844032829
 30
0.0
  0
SPLINE
  5
12BE
330
2
100
AcDbEntity
  8
0
100
AcDbSpline
210
0.0
220
0.0
230
1.0
 70
     8
 71
     3
 72
    11
 73
     7
 74
     0
 42
0.000000001
 43
0.0000000001
 40
0.0
 40
0.0
 40
0.0
 40
0.0
 40
0.2253438494
 40
0.4616648989
 40
0.7180379384000001
 40
1.0
 40
1.0
 40
1.0
 40
1.0
 10
720.7269091436217
 20
178.1701482626026
 30
0.0
 10
720.7091657421241
 20
178.1175990081152
 30
0.0
 10
720.6871443080878
 20
178.0045736836353
 30
0.0
 10
720.6980767820996
 20
177.8265912233273
 30
0.0
 10
720.7511371692921
 20
177.642161969747
 30
0.0
 10
720.8103621828372
 20
177.5228764212261
 30
0.0
 10
720.8455298986607
 20
177.4630473832749
 30
0.0
  0
SPLINE
  5
12BF
330
2
100
AcDbEntity
  8
0
100
AcDbSpline
210
0.0
220
0.0
230
1.0
 70
     8
 71
     3
 72
     9
 73
     5
 74
     0
 42
0.000000001
 43
0.0000000001
 40
0.0
 40
0.0
 40
0.0
 40
0.0
 40
0.5004476493
 40
1.0
 40
1.0
 40
1.0
 40
1.0
 10
720.2852552616489
 20
176.909565950192
 30
0.0
 10
720.2869225883751
 20
177.0264292200547
 30
0.0
 10
720.2969168648169
 20
177.2598538047498
 30
0.0
 10
720.3147965762751
 20
177.4927314794633
 30
0.0
 10
720.3250708171792
 20
177.6089442707023
 30
0.0
  0
SPLINE
  5
12C0
330
2
100
AcDbEntity
  8
0
100
AcDbSpline
210
0.0
220
0.0
230
1.0
 70
     8
 71
     3
 72
    18
 73
    14
 74
     0
 42
0.000000001
 43
0.0000000001
 40
0.0
 40
0.0
 40
0.0
 40
0.0
 40
0.137806987
 40
0.2621054778
 40
0.3203385491
 40
0.3767253528
 40
0.4320101956000002
 40
0.4869997141
 40
0.5425250318
 40
0.5993823363000002
 40
0.7196427208000003
 40
0.8523850002999997
 40
1.0
 40
1.0
 40
1.0
 40
1.0
 10
729.1060512369665
 20
185.352096390032
 30
0.0
 10
729.1602573657724
 20
185.2598782766184
 30
0.0
 10
729.2502843963355
 20
185.0761067824885
 30
0.0
 10
729.3135253495825
 20
184.8332828295355
 30
0.0
 10
729.3260831913377
 20
184.6477779096251
 30
0.0
 10
729.3175642431456
 20
184.515757544626
 30
0.0
 10
729.2913416954594
 20
184.3886356382742
 30
0.0
 10
729.2474717121034
 20
184.2671771642697
 30
0.0
 10
729.1862375654234
 20
184.1521036132315
 30
0.0
 10
729.0801121186708
 20
184.0053793585997
 30
0.0
 10
728.9016699835927
 20
183.8402978002003
 30
0.0
 10
728.631813612767
 20
183.6822059849579
 30
0.0
 10
728.4269024918224
 20
183.6058896008013
 30
0.0
 10
728.317098301943
 20
183.5731442557255
 30
0.0
  0
SPLINE
  5
12C1
330
2
100
AcDbEntity
  8
0
100
AcDbSpline
210
0.0
220
0.0
230
1.0
 70
     8
 71
     3
 72
    17
 73
    13
 74
     0
 42
0.000000001
 43
0.0000000001
 40
0.0
 40
0.0
 40
0.0
 40
0.0
 40
0.0465242496
 40
0.0936389074
 40
0.141901106
 40
0.191813402
 40
0.2980780055
 40
0.4150326426000003
 40
0.5438802702000001
 40
0.6847943861
 40
0.8372475652
 40
1.0
 40
1.0
 40
1.0
 40
1.0
 10
729.5625254283979
 20
183.9823796309065
 30
0.0
 10
729.5486009095935
 20
183.9411250455212
 30
0.0
 10
729.5150690359477
 20
183.8598378764658
 30
0.0
 10
729.448751540182
 20
183.7443844933201
 30
0.0
 10
729.3666724026429
 20
183.6355467472294
 30
0.0
 10
729.2340379154475
 20
183.4971229312217
 30
0.0
 10
729.0274473921968
 20
183.3433500604641
 30
0.0
 10
728.730749882639
 20
183.1968978190496
 30
0.0
 10
728.3850899308188
 20
183.0859689172316
 30
0.0
 10
727.9960918344832
 20
183.0119935847724
 30
0.0
 10
727.5700975530195
 20
182.9760368784006
 30
0.0
 10
727.2746970545779
 20
182.9776833065942
 30
0.0
 10
727.1225309314908
 20
182.9844594689372
 30
0.0
  0
SPLINE
  5
12C2
330
2
100
AcDbEntity
  8
0
100
AcDbSpline
210
0.0
220
0.0
230
1.0
 70
     8
 71
     3
 72
    17
 73
    13
 74
     0
 42
0.000000001
 43
0.0000000001
 40
0.0
 40
0.0
 40
0.0
 40
0.0
 40
0.0465242496
 40
0.0936389075
 40
0.1419011061
 40
0.1918134021
 40
0.2980780058
 40
0.4150326429
 40
0.5438802706
 40
0.6847943865000003
 40
0.8372475653
 40
1.0
 40
1.0
 40
1.0
 40
1.0
 10
728.0548311511024
 20
179.5163186587954
 30
0.0
 10
728.0409066322822
 20
179.4750640733642
 30
0.0
 10
728.0073747586677
 20
179.3937769042466
 30
0.0
 10
727.9410572628099
 20
179.2783235209795
 30
0.0
 10
727.8589781252087
 20
179.1694857748574
 30
0.0
 10
727.7263436379508
 20
179.0310619586653
 30
0.0
 10
727.5197531143929
 20
178.8772890879099
 30
0.0
 10
727.2230556044807
 20
178.7308368465117
 30
0.0
 10
726.8773956524774
 20
178.619907944756
 30
0.0
 10
726.4883975563121
 20
178.5459326124954
 30
0.0
 10
726.0624032752624
 20
178.5099759061377
 30
0.0
 10
725.767002777206
 20
178.5116223344072
 30
0.0
 10
725.6148366542262
 20
178.5183984967643
 30
0.0
  0
SPLINE
  5
12C3
330
2
100
AcDbEntity
  8
0
100
AcDbSpline
210
0.0
220
0.0
230
1.0
 70
     8
 71
     3
 72
    34
 73
    30
 74
     0
 42
0.000000001
 43
0.0000000001
 40
0.0
 40
0.0
 40
0.0
 40
0.0
 40
0.025839945
 40
0.0498788731
 40
0.0723252706
 40
0.0935463515
 40
0.1140202454
 40
0.1343002233
 40
0.15496485
 40
0.1765489035
 40
0.1994887593
 40
0.2241040708
 40
0.2505937179
 40
0.2790551923
 40
0.3094971582999999
 40
0.3418580278
 40
0.3760194998
 40
0.4118152179
 40
0.487442507
 40
0.5668367895000001
 40
0.6477793802000003
 40
0.7279446783
 40
0.8050600497999999
 40
0.8418357823
 40
0.8771078196999997
 40
0.9106824737
 40
0.9424145674
 40
0.9722093621999999
 40
1.0
 40
1.0
 40
1.0
 40
1.0
 10
722.6288618885932
 20
185.640534353238
 30
0.0
 10
722.5908598841145
 20
185.7051852190838
 30
0.0
 10
722.5241517514403
 20
185.8341116127468
 30
0.0
 10
722.4522687454832
 20
186.0320181514253
 30
0.0
 10
722.4133765831392
 20
186.2254922780428
 30
0.0
 10
722.4082039583787
 20
186.4125756976609
 30
0.0
 10
722.4371614925457
 20
186.5912430961545
 30
0.0
 10
722.5001713956682
 20
186.7592345938738
 30
0.0
 10
722.5963373712716
 20
186.9144257188702
 30
0.0
 10
722.7242873421443
 20
187.0550781858288
 30
0.0
 10
722.8823011911972
 20
187.1800137145099
 30
0.0
 10
723.0686856877362
 20
187.2882278294555
 30
0.0
 10
723.2815655621966
 20
187.3789813354058
 30
0.0
 10
723.5189562825801
 20
187.451537398784
 30
0.0
 10
723.7786416631511
 20
187.5053193934602
 30
0.0
 10
724.058197103594
 20
187.5398722138085
 30
0.0
 10
724.3550046157922
 20
187.554869652495
 30
0.0
 10
724.7777191006546
 20
187.5485094751274
 30
0.0
 10
725.3296738002517
 20
187.4895817107876
 30
0.0
 10
726.0003477092046
 20
187.3457965210725
 30
0.0
 10
726.6662565120837
 20
187.132893777121
 30
0.0
 10
727.3021985998242
 20
186.8589262367983
 30
0.0
 10
727.7951393837427
 20
186.5840308922008
 30
0.0
 10
728.1537179624008
 20
186.3410911280731
 30
0.0
 10
728.3965500439027
 20
186.153656700399
 30
0.0
 10
728.6152291024292
 20
185.9599411650728
 30
0.0
 10
728.8077148407827
 20
185.7617160081612
 30
0.0
 10
728.9720861411757
 20
185.5608603302928
 30
0.0
 10
729.0651804114984
 20
185.4216278395242
 30
0.0
 10
729.1060512369665
 20
185.352096390032
 30
0.0
  0
SPLINE
  5
12C4
330
2
100
AcDbEntity
  8
0
100
AcDbSpline
210
0.0
220
0.0
230
1.0
 70
     8
 71
     3
 72
    32
 73
    28
 74
     0
 42
0.000000001
 43
0.0000000001
 40
0.0
 40
0.0
 40
0.0
 40
0.0
 40
0.0761343037
 40
0.1559288866
 40
0.2374953766
 40
0.3188338933
 40
0.3979615448
 40
0.4730263759000001
 40
0.5085405474
 40
0.5424737992000001
 40
0.5746955322999999
 40
0.6051127248000002
 40
0.6336816117000002
 40
0.6604138581
 40
0.6853933351000002
 40
0.7087833654000001
 40
0.7308430509
 40
0.7519249669
 40
0.7724680959
 40
0.7929627483
 40
0.8139044451
 40
0.8357453049
 40
0.8588554616999999
 40
0.8835128738999998
 40
0.9098983684
 40
0.9381113106999999
 40
1.0
 40
1.0
 40
1.0
 40
1.0
 10
724.6293575190966
 20
187.6026300101781
 30
0.0
 10
724.8369034875395
 20
187.593387708742
 30
0.0
 10
725.2611231992672
 20
187.5501709874978
 30
0.0
 10
725.8972181887742
 20
187.4216330940453
 30
0.0
 10
726.5325458057167
 20
187.2314541538569
 30
0.0
 10
727.1465659692307
 20
186.9857338766527
 30
0.0
 10
727.7194883626163
 20
186.6924272708626
 30
0.0
 10
728.1553691213746
 20
186.4111221869709
 30
0.0
 10
728.4669541620274
 20
186.1690797362235
 30
0.0
 10
728.6751141302625
 20
185.985369485889
 30
0.0
 10
728.8603808949551
 20
185.7976424314056
 30
0.0
 10
729.0212477030583
 20
185.6073744312069
 30
0.0
 10
729.1564267185926
 20
185.4160803659379
 30
0.0
 10
729.2647753538789
 20
185.2252183498695
 30
0.0
 10
729.3453944677597
 20
185.0362634691617
 30
0.0
 10
729.3974494077117
 20
184.8506276206473
 30
0.0
 10
729.4203606905816
 20
184.6697856069997
 30
0.0
 10
729.4135784917791
 20
184.4952829850917
 30
0.0
 10
729.3770064150528
 20
184.328812010651
 30
0.0
 10
729.3108232512802
 20
184.1721532580623
 30
0.0
 10
729.2158853396533
 20
184.0268828501836
 30
0.0
 10
729.0932385817398
 20
183.8943592207273
 30
0.0
 10
728.9442538666548
 20
183.7755120409467
 30
0.0
 10
728.7702575968141
 20
183.6712107950909
 30
0.0
 10
728.5727418132022
 20
183.582055846187
 30
0.0
 10
728.270870522281
 20
183.4812239143502
 30
0.0
 10
728.0278724132211
 20
183.4354573337468
 30
0.0
 10
727.8602242292712
 20
183.415106182354
 30
0.0
  0
SPLINE
  5
12C5
330
2
100
AcDbEntity
  8
0
100
AcDbSpline
210
0.0
220
0.0
230
1.0
 70
     8
 71
     3
 72
     9
 73
     5
 74
     0
 42
0.000000001
 43
0.0000000001
 40
0.0
 40
0.0
 40
0.0
 40
0.0
 40
0.4853516957
 40
1.0
 40
1.0
 40
1.0
 40
1.0
 10
727.8602242292712
 20
183.415106182354
 30
0.0
 10
727.7388512607922
 20
183.4003724727489
 30
0.0
 10
727.4872380968011
 20
183.3820452923948
 30
0.0
 10
727.2350712780982
 20
183.3842332258484
 30
0.0
 10
727.1055556064164
 20
183.3900007331083
 30
0.0
  0
SPLINE
  5
12C6
330
2
100
AcDbEntity
  8
0
100
AcDbSpline
210
0.0
220
0.0
230
1.0
 70
     8
 71
     3
 72
    15
 73
    11
 74
     0
 42
0.000000001
 43
0.0000000001
 40
0.0
 40
0.0
 40
0.0
 40
0.0
 40
0.0936203778
 40
0.193343608
 40
0.301706998
 40
0.4202659645000001
 40
0.5496599504000002
 40
0.6898734437
 40
0.8403952204999999
 40
1.0
 40
1.0
 40
1.0
 40
1.0
 10
723.5965533191086
 20
171.5016108840638
 30
0.0
 10
723.5737873047265
 20
171.4590878523424
 30
0.0
 10
723.5159048114204
 20
171.3767592008049
 30
0.0
 10
723.4005395657492
 20
171.2711305577155
 30
0.0
 10
723.2570215703804
 20
171.1817023870675
 30
0.0
 10
723.0876118860853
 20
171.1094576382622
 30
0.0
 10
722.8947022262898
 20
171.0550191798087
 30
0.0
 10
722.6808857722044
 20
171.0190668816363
 30
0.0
 10
722.4492085349757
 20
171.0020696988533
 30
0.0
 10
722.2892483235089
 20
171.0034235796927
 30
0.0
 10
722.2071003579817
 20
171.0070817391865
 30
0.0
  0
SPLINE
  5
12C7
330
2
100
AcDbEntity
  8
0
100
AcDbSpline
210
0.0
220
0.0
230
1.0
 70
     8
 71
     3
 72
    15
 73
    11
 74
     0
 42
0.000000001
 43
0.0000000001
 40
0.0
 40
0.0
 40
0.0
 40
0.0
 40
0.1226633992
 40
0.2508813093
 40
0.3822625853
 40
0.5142992038000001
 40
0.6444343931000001
 40
0.7702070772000002
 40
0.8893637920999999
 40
1.0
 40
1.0
 40
1.0
 40
1.0
 10
727.1055556064164
 20
183.3900007331083
 30
0.0
 10
726.9220306930661
 20
183.3981733445947
 30
0.0
 10
726.5473464354004
 20
183.4338915113043
 30
0.0
 10
725.9837844919742
 20
183.5381840875028
 30
0.0
 10
725.4171353543732
 20
183.6921113995897
 30
0.0
 10
724.861898329239
 20
183.8917318463467
 30
0.0
 10
724.3321786803936
 20
184.1319815214665
 30
0.0
 10
723.8414008913768
 20
184.4067517395351
 30
0.0
 10
723.4020468665674
 20
184.7090078507856
 30
0.0
 10
723.1397430005531
 20
184.9331959823314
 30
0.0
 10
723.0210157853621
 20
185.0487747029335
 30
0.0
  0
SPLINE
  5
12C8
330
2
100
AcDbEntity
  8
0
100
AcDbSpline
210
0.0
220
0.0
230
1.0
 70
     8
 71
     3
 72
    23
 73
    19
 74
     0
 42
0.000000001
 43
0.0000000001
 40
0.0
 40
0.0
 40
0.0
 40
0.0
 40
0.0719355056
 40
0.1384680032
 40
0.1997058025
 40
0.2560934467
 40
0.3084689921
 40
0.3580927327
 40
0.4065877759000001
 40
0.4557441135
 40
0.5072522146000003
 40
0.5624785679
 40
0.6223755978
 40
0.6874861623000001
 40
0.7579938867
 40
0.8338143116999997
 40
0.9146722873999999
 40
1.0
 40
1.0
 40
1.0
 40
1.0
 10
722.8874927498147
 20
185.1857462473738
 30
0.0
 10
722.8182579068683
 20
185.2607553182257
 30
0.0
 10
722.6914063230963
 20
185.4113159526558
 30
0.0
 10
722.5330380717617
 20
185.6470800103401
 30
0.0
 10
722.4158358838754
 20
185.8815917207459
 30
0.0
 10
722.341483328863
 20
186.1122214666311
 30
0.0
 10
722.3114370630687
 20
186.3363537769539
 30
0.0
 10
722.3269258432719
 20
186.5510073864149
 30
0.0
 10
722.3882870092297
 20
186.7526560667651
 30
0.0
 10
722.494546881782
 20
186.9376890309088
 30
0.0
 10
722.6434632857988
 20
187.1032393536359
 30
0.0
 10
722.8322794114567
 20
187.247492095501
 30
0.0
 10
723.0582777968112
 20
187.369133862761
 30
0.0
 10
723.3185892595825
 20
187.467096509684
 30
0.0
 10
723.6100714910532
 20
187.5404893818355
 30
0.0
 10
723.9293044563614
 20
187.5885139365657
 30
0.0
 10
724.2723540389297
 20
187.6106131139098
 30
0.0
 10
724.5083961168573
 20
187.6080165842857
 30
0.0
 10
724.6293575190966
 20
187.6026300101781
 30
0.0
  0
SPLINE
  5
12C9
330
2
100
AcDbEntity
  8
0
100
AcDbSpline
210
0.0
220
0.0
230
1.0
 70
     8
 71
     3
 72
    15
 73
    11
 74
     0
 42
0.000000001
 43
0.0000000001
 40
0.0
 40
0.0
 40
0.0
 40
0.0
 40
0.0938422043
 40
0.1940534038
 40
0.3029177658
 40
0.4218132377
 40
0.5512736236000002
 40
0.6912460578000001
 40
0.8412193468999998
 40
1.0
 40
1.0
 40
1.0
 40
1.0
 10
722.9314621092894
 20
169.5512629789561
 30
0.0
 10
722.9073628267482
 20
169.5102633291019
 30
0.0
 10
722.8473780261615
 20
169.4311480116456
 30
0.0
 10
722.7307232592806
 20
169.330005639572
 30
0.0
 10
722.5873735252121
 20
169.2444387105555
 30
0.0
 10
722.4194379681082
 20
169.1753880934538
 30
0.0
 10
722.2291842568032
 20
169.1234327005868
 30
0.0
 10
722.019066293982
 20
169.0892082088732
 30
0.0
 10
721.7919626863952
 20
169.0731518075608
 30
0.0
 10
721.6353224690335
 20
169.0745915536827
 30
0.0
 10
721.5549344769604
 20
169.078171339196
 30
0.0
  0
SPLINE
  5
12CA
330
2
100
AcDbEntity
  8
0
100
AcDbSpline
210
0.0
220
0.0
230
1.0
 70
     8
 71
     3
 72
    26
 73
    22
 74
     0
 42
0.000000001
 43
0.0000000001
 40
0.0
 40
0.0
 40
0.0
 40
0.0
 40
0.0192660588
 40
0.0389105537
 40
0.0592825245
 40
0.0806755226
 40
0.1033201302
 40
0.1273786917
 40
0.1800425339
 40
0.2389435837
 40
0.30365979
 40
0.3733285974
 40
0.4467817093999999
 40
0.522647072
 40
0.5994330715000002
 40
0.675604361
 40
0.7496544559000001
 40
0.8201816738999998
 40
0.8859676954999999
 40
0.9460835461
 40
1.0
 40
1.0
 40
1.0
 40
1.0
 10
722.7858407389624
 20
186.0924356043013
 30
0.0
 10
722.7994378943052
 20
186.1327160347969
 30
0.0
 10
722.8336982600874
 20
186.2119395750989
 30
0.0
 10
722.9045215884711
 20
186.3225362309811
 30
0.0
 10
722.9944114637945
 20
186.4245925847525
 30
0.0
 10
723.1025431640532
 20
186.5174619070445
 30
0.0
 10
723.2281445008102
 20
186.6005843613806
 30
0.0
 10
723.4235800622911
 20
186.7008202810708
 30
0.0
 10
723.7089295322228
 20
186.796578403859
 30
0.0
 10
724.0933053134523
 20
186.8631260848739
 30
0.0
 10
724.5202808651462
 20
186.8834124507772
 30
0.0
 10
724.9788723360055
 20
186.8569582858974
 30
0.0
 10
725.4572729585502
 20
186.7844602362347
 30
0.0
 10
725.9429641370509
 20
186.6677869319089
 30
0.0
 10
726.4231909741035
 20
186.5099892131411
 30
0.0
 10
726.8853161885629
 20
186.3152164557721
 30
0.0
 10
727.3172068447569
 20
186.0885972988093
 30
0.0
 10
727.707554354293
 20
185.8360914288969
 30
0.0
 10
728.0462933843312
 20
185.564204298205
 30
0.0
 10
728.3246281335664
 20
185.279992730176
 30
0.0
 10
728.4734980255566
 20
185.0753978178356
 30
0.0
 10
728.5337877475273
 20
184.972829997663
 30
0.0
  0
SPLINE
  5
12CB
330
2
100
AcDbEntity
  8
0
100
AcDbSpline
210
0.0
220
0.0
230
1.0
 70
     8
 71
     3
 72
    21
 73
    17
 74
     0
 42
0.000000001
 43
0.0000000001
 40
0.0
 40
0.0
 40
0.0
 40
0.0
 40
0.0386941198
 40
0.0800735241
 40
0.1252496535
 40
0.1748685608
 40
0.2291781397
 40
0.2881098117
 40
0.3513453178
 40
0.4183865994
 40
0.4885929894
 40
0.5612176277000001
 40
0.7103356109000001
 40
0.8588551188
 40
0.9307898403999999
 40
1.0
 40
1.0
 40
1.0
 40
1.0
 10
719.1914327560843
 20
172.9884795539423
 30
0.0
 10
719.1834371522795
 20
172.938745897953
 30
0.0
 10
719.1800255524959
 20
172.8333937153926
 30
0.0
 10
719.2113728603701
 20
172.6722742019563
 30
0.0
 10
719.2777099632417
 20
172.5069195104858
 30
0.0
 10
719.377519340944
 20
172.3396910565097
 30
0.0
 10
719.5091092919244
 20
172.1728249930817
 30
0.0
 10
719.6704551115316
 20
172.0087350465452
 30
0.0
 10
719.8590622652512
 20
171.8498246153718
 30
0.0
 10
720.0720491569
 20
171.6985294068123
 30
0.0
 10
720.3061363663696
 20
171.5571832298159
 30
0.0
 10
720.6444314328523
 20
171.3834278234098
 30
0.0
 10
721.093891597398
 20
171.2055997399238
 30
0.0
 10
721.5609446790854
 20
171.0844744348866
 30
0.0
 10
721.9337917128482
 20
171.0265126214968
 30
0.0
 10
722.117091288868
 20
171.0110899642365
 30
0.0
 10
722.2071003579817
 20
171.0070817391865
 30
0.0
  0
SPLINE
  5
12CC
330
2
100
AcDbEntity
  8
0
100
AcDbSpline
210
0.0
220
0.0
230
1.0
 70
     8
 71
     3
 72
    21
 73
    17
 74
     0
 42
0.000000001
 43
0.0000000001
 40
0.0
 40
0.0
 40
0.0
 40
0.0
 40
0.0386941198
 40
0.0800735241
 40
0.1252496535
 40
0.1748685608
 40
0.2291781397
 40
0.2881098117
 40
0.3513453178
 40
0.4183865994
 40
0.4885929894
 40
0.5612176277000001
 40
0.7103356109000001
 40
0.8588551188
 40
0.9307898403999999
 40
1.0
 40
1.0
 40
1.0
 40
1.0
 10
718.8656428637503
 20
170.9635520213559
 30
0.0
 10
718.8588132855113
 20
170.9210711901727
 30
0.0
 10
718.8558992107178
 20
170.831082867573
 30
0.0
 10
718.8826750361711
 20
170.6934599498359
 30
0.0
 10
718.9393379782118
 20
170.5522194842008
 30
0.0
 10
719.0245918217001
 20
170.4093785131299
 30
0.0
 10
719.1369915714526
 20
170.2668470839533
 30
0.0
 10
719.2748077924011
 20
170.1266869212432
 30
0.0
 10
719.4359097361946
 20
169.9909509279776
 30
0.0
 10
719.6178360394927
 20
169.8617196040042
 30
0.0
 10
719.8177855309077
 20
169.7409864111503
 30
0.0
 10
720.1067459002111
 20
169.5925703348541
 30
0.0
 10
720.4906597907061
 20
169.4406755135198
 30
0.0
 10
720.8896009646621
 20
169.3372143154627
 30
0.0
 10
721.2080744727042
 20
169.2877052665448
 30
0.0
 10
721.3646428605542
 20
169.2745317467896
 30
0.0
 10
721.4415256070552
 20
169.2711080545675
 30
0.0
  0
SPLINE
  5
12CD
330
2
100
AcDbEntity
  8
0
100
AcDbSpline
210
0.0
220
0.0
230
1.0
 70
     8
 71
     3
 72
    24
 73
    20
 74
     0
 42
0.000000001
 43
0.0000000001
 40
0.0
 40
0.0
 40
0.0
 40
0.0
 40
0.0703929757
 40
0.1436024907
 40
0.2187130825
 40
0.2948030324
 40
0.3708915381
 40
0.4460068433
 40
0.5192054539999999
 40
0.5896046193
 40
0.6564158232000003
 40
0.7189823674
 40
0.7768270002
 40
0.8297123965999999
 40
0.8777181638
 40
0.9213366064
 40
0.9615645641
 40
0.9809032590999999
 40
1.0
 40
1.0
 40
1.0
 40
1.0
 10
727.1225309314908
 20
182.9844594689372
 30
0.0
 10
726.9621927234452
 20
182.9915995452422
 30
0.0
 10
726.6355930235014
 20
183.0196104800092
 30
0.0
 10
726.1427967735975
 20
183.0984001787372
 30
0.0
 10
725.6438957198956
 20
183.2136930521359
 30
0.0
 10
725.1474084259101
 20
183.363476824905
 30
0.0
 10
724.6617096400897
 20
183.5452625526865
 30
0.0
 10
724.1950426848233
 20
183.7559534014182
 30
0.0
 10
723.7552963819771
 20
183.9919761118854
 30
0.0
 10
723.3498875450486
 20
184.2493375478818
 30
0.0
 10
722.9856233432159
 20
184.5237086420606
 30
0.0
 10
722.6685850302987
 20
184.8105271658958
 30
0.0
 10
722.4040313437178
 20
185.1051214934963
 30
0.0
 10
722.196341874806
 20
185.4028340199931
 30
0.0
 10
722.0491396920287
 20
185.6992571355007
 30
0.0
 10
721.9654395771922
 20
185.9899821695391
 30
0.0
 10
721.9510093568946
 20
186.227251720805
 30
0.0
 10
721.9743363702701
 20
186.4055057596739
 30
0.0
 10
721.9969245987431
 20
186.4904902695816
 30
0.0
 10
722.010849024511
 20
186.5317445793764
 30
0.0
  0
SPLINE
  5
12CE
330
2
100
AcDbEntity
  8
0
100
AcDbSpline
210
0.0
220
0.0
230
1.0
 70
     8
 71
     3
 72
    24
 73
    20
 74
     0
 42
0.000000001
 43
0.0000000001
 40
0.0
 40
0.0
 40
0.0
 40
0.0
 40
0.0703929757
 40
0.1436024906
 40
0.2187130823
 40
0.2948030321
 40
0.3708915378
 40
0.4460068431000001
 40
0.5192054538000001
 40
0.5896046191
 40
0.6564158231000004
 40
0.7189823673000002
 40
0.7768270002
 40
0.8297123965
 40
0.8777181636999998
 40
0.9213366064
 40
0.9615645641
 40
0.9809032590999999
 40
1.0
 40
1.0
 40
1.0
 40
1.0
 10
725.6148366542262
 20
178.5183984967643
 30
0.0
 10
725.4544984462882
 20
178.5255385730841
 30
0.0
 10
725.1278987466055
 20
178.5535495077125
 30
0.0
 10
724.6351024972085
 20
178.6323392064231
 30
0.0
 10
724.1362014439662
 20
178.7476320795129
 30
0.0
 10
723.6397141502577
 20
178.8974158521881
 30
0.0
 10
723.1540153643892
 20
179.0792015798315
 30
0.0
 10
722.6873484088616
 20
179.2898924285491
 30
0.0
 10
722.2476021058318
 20
179.525915139079
 30
0.0
 10
721.842193268704
 20
179.7832765750906
 30
0.0
 10
721.4779290666714
 20
180.0576476692853
 30
0.0
 10
721.1608907535702
 20
180.3444661931828
 30
0.0
 10
720.8963370668056
 20
180.639060520846
 30
0.0
 10
720.6886475977712
 20
180.9367730474356
 30
0.0
 10
720.5414454148242
 20
181.2331961630516
 30
0.0
 10
720.4577452999106
 20
181.5239211971672
 30
0.0
 10
720.4433150796907
 20
181.7611907485094
 30
0.0
 10
720.4666420929282
 20
181.9394447874241
 30
0.0
 10
720.4892303214633
 20
182.0244292973624
 30
0.0
 10
720.5031547472303
 20
182.0656836071572
 30
0.0
  0
SPLINE
  5
12CF
330
2
100
AcDbEntity
  8
0
100
AcDbSpline
210
0.0
220
0.0
230
1.0
 70
     8
 71
     3
 72
    21
 73
    17
 74
     0
 42
0.000000001
 43
0.0000000001
 40
0.0
 40
0.0
 40
0.0
 40
0.0
 40
0.0388686461
 40
0.0805809235
 40
0.1261543655
 40
0.1761620531
 40
0.2308001369
 40
0.2899713891
 40
0.3533432992
 40
0.4204140027000002
 40
0.4905491504
 40
0.5630127923
 40
0.7116091291
 40
0.8594735528000001
 40
0.9310843679000001
 40
1.0
 40
1.0
 40
1.0
 40
1.0
 10
718.538326046201
 20
171.0340578607138
 30
0.0
 10
718.5323337852101
 20
170.9841690514404
 30
0.0
 10
718.5328622498897
 20
170.8788950346585
 30
0.0
 10
718.5690181809497
 20
170.7188312665674
 30
0.0
 10
718.6392229399
 20
170.5549153033898
 30
0.0
 10
718.742010795254
 20
170.3894439199457
 30
0.0
 10
718.8756896915649
 20
170.2245915415308
 30
0.0
 10
719.0382619737309
 20
170.0627188994846
 30
0.0
 10
719.2272642104752
 20
169.9061609282475
 30
0.0
 10
719.4398574397596
 20
169.7572660804524
 30
0.0
 10
719.6728380396526
 20
169.6182976144551
 30
0.0
 10
720.0086555020746
 20
169.4476684204186
 30
0.0
 10
720.4538939070312
 20
169.2731145111556
 30
0.0
 10
720.9160219151729
 20
169.1542226725152
 30
0.0
 10
721.2847032833113
 20
169.0973097177615
 30
0.0
 10
721.4659320852456
 20
169.0821347355495
 30
0.0
 10
721.5549344769604
 20
169.078171339196
 30
0.0
  0
LINE
  5
12D0
330
2
100
AcDbEntity
  8
0
100
AcDbLine
 10
725.465981734588
 20
178.3517660651568
 30
0.0
 11
725.4681030481854
 21
178.351666586126
 31
0.0
  0
LINE
  5
12D1
330
2
100
AcDbEntity
  8
0
100
AcDbLine
 10
725.4681030481235
 20
178.3516665860954
 30
0.0
 11
725.4738648354466
 21
178.3517078048268
 31
0.0
  0
DIMENSION
  5
147D
330
2
100
AcDbEntity
  8
DIM
100
AcDbDimension
280
     0
  2
*D12
 10
786.6022082120738
 20
219.5061837073299
 30
0.0
 11
785.1022082120738
 21
223.7561837073297
 31
0.0
 70
    32
  1
%%C<>
 71
     5
 42
5.200000000000328
 73
     0
 74
     0
 75
     0
  3
01
100
AcDbAlignedDimension
 13
770.6562807725097
 23
214.3061837073295
 33
0.0
 14
770.6562807725097
 24
219.5061837073298
 34
0.0
 50
90.0
100
AcDbRotatedDimension
  0
ENDSEC
  0
SECTION
  2
OBJECTS
  0
DICTIONARY
  5
B
330
0
100
AcDbDictionary
281
     1
  3
ACAD_CIP_PREVIOUS_PRODUCT_INFO
350
13BD
  3
ACAD_COLOR
350
1F4
  3
ACAD_DATALINK
350
14FA
  3
ACAD_DETAILVIEWSTYLE
350
13B2
  3
ACAD_GROUP
350
1E1
  3
ACAD_IMAGE_VARS
350
14FE
  3
ACAD_LAYOUT
350
1C2
  3
ACAD_MATERIAL
350
D
  3
ACAD_MLEADERSTYLE
350
255
  3
ACAD_MLINESTYLE
350
1E2
  3
ACAD_PLOTSETTINGS
350
1E3
  3
ACAD_PLOTSTYLENAME
350
A
  3
ACAD_SCALELIST
350
1F5
  3
ACAD_SECTIONVIEWSTYLE
350
13B0
  3
ACAD_TABLESTYLE
350
1F6
  3
ACAD_VISUALSTYLE
350
1DB
  3
ACDB_RECOMPOSE_DATA
350
14F9
  3
AcDbVariableDictionary
350
21E
  0
DICTIONARY
  5
1DC
330
1D8
100
AcDbDictionary
280
     1
281
     1
  0
DICTIONARY
  5
1CD
330
1CC
100
AcDbDictionary
280
     1
281
     1
  3
ACAD_LAYERFILTERS
360
3D5
  3
ACAD_LAYERSTATES
360
1CF
  3
ACLYDICTIONARY
360
3D4
  0
DICTIONARY
  5
7
330
6
100
AcDbDictionary
280
     1
281
     1
  3
ADSK_XREC_LAYER_RECONCILED
360
8
  0
DICTIONARY
  5
18
330
17
100
AcDbDictionary
280
     1
281
     1
  3
ADSK_XREC_LAYER_RECONCILED
360
19
  0
DICTIONARY
  5
26
330
25
100
AcDbDictionary
280
     1
281
     1
  3
ADSK_XREC_LAYER_RECONCILED
360
27
  0
DICTIONARY
  5
3
330
2
100
AcDbDictionary
280
     1
281
     1
  3
ACAD_SORTENTS
360
21D
  0
DICTIONARY
  5
13CE
330
13CD
100
AcDbDictionary
280
     1
281
     1
  0
DICTIONARY
  5
1413
330
1412
100
AcDbDictionary
280
     1
281
     1
  0
DICTIONARY
  5
1415
330
1414
100
AcDbDictionary
280
     1
281
     1
  0
DICTIONARY
  5
143B
330
143A
100
AcDbDictionary
280
     1
281
     1
  0
DICTIONARY
  5
143F
330
143E
100
AcDbDictionary
280
     1
281
     1
  0
DICTIONARY
  5
1441
330
1440
100
AcDbDictionary
280
     1
281
     1
  0
DICTIONARY
  5
144C
330
144B
100
AcDbDictionary
280
     1
281
     1
  0
DICTIONARY
  5
144E
330
144D
100
AcDbDictionary
280
     1
281
     1
  0
DICTIONARY
  5
1450
330
144F
100
AcDbDictionary
280
     1
281
     1
  0
DICTIONARY
  5
145F
330
145E
100
AcDbDictionary
280
     1
281
     1
  0
DICTIONARY
  5
1461
330
1460
100
AcDbDictionary
280
     1
281
     1
  0
DICTIONARY
  5
1463
330
1462
100
AcDbDictionary
280
     1
281
     1
  0
DICTIONARY
  5
137B
330
E6
100
AcDbDictionary
280
     1
281
     1
  0
DICTIONARY
  5
127C
330
127B
100
AcDbDictionary
280
     1
281
     1
  3
ACAD_DIMASSOC
360
127D
  0
DICTIONARY
  5
127F
330
127E
100
AcDbDictionary
280
     1
281
     1
  3
ACAD_DIMASSOC
360
1280
  0
XRECORD
  5
13BD
102
{ACAD_REACTORS
330
B
102
}
330
B
100
AcDbXrecord
280
     1
300
ACD
300
2018
300
ACD_F_S
  0
DICTIONARY
  5
1F4
102
{ACAD_REACTORS
330
B
102
}
330
B
100
AcDbDictionary
281
     1
  0
DICTIONARY
  5
14FA
102
{ACAD_REACTORS
330
B
102
}
330
B
100
AcDbDictionary
280
     1
281
     1
  0
DICTIONARY
  5
13B2
102
{ACAD_REACTORS
330
B
102
}
330
B
100
AcDbDictionary
281
     1
  3
Imperial24
350
13B3
  0
DICTIONARY
  5
1E1
102
{ACAD_REACTORS
330
B
102
}
330
B
100
AcDbDictionary
281
     1
  0
RASTERVARIABLES
  5
14FE
102
{ACAD_REACTORS
330
B
102
}
330
B
100
AcDbRasterVariables
 90
        0
 70
     1
 71
     1
 72
     1
  0
DICTIONARY
  5
1C2
102
{ACAD_REACTORS
330
B
102
}
330
B
100
AcDbDictionary
281
     1
  3
Layout1
350
1C7
  3
Layout2
350
1CB
  3
Model
350
1C1
  0
DICTIONARY
  5
D
102
{ACAD_REACTORS
330
B
102
}
330
B
100
AcDbDictionary
281
     1
  3
ByBlock
350
1EC
  3
ByLayer
350
1E4
  3
Global
350
C
  0
DICTIONARY
  5
255
102
{ACAD_REACTORS
330
B
102
}
330
B
100
AcDbDictionary
281
     1
  3
Standard
350
256
  0
DICTIONARY
  5
1E2
102
{ACAD_REACTORS
330
B
102
}
330
B
100
AcDbDictionary
281
     1
  3
Standard
350
1F7
  0
DICTIONARY
  5
1E3
102
{ACAD_REACTORS
330
B
102
}
330
B
100
AcDbDictionary
281
     1
  0
ACDBDICTIONARYWDFLT
  5
A
102
{ACAD_REACTORS
330
B
102
}
330
B
100
AcDbDictionary
281
     1
  3
Normal
350
9
100
AcDbDictionaryWithDefault
340
9
  0
DICTIONARY
  5
1F5
102
{ACAD_REACTORS
330
B
102
}
330
B
100
AcDbDictionary
281
     1
  3
A0
350
1FC
  3
A1
350
1FD
  3
A2
350
1FE
  3
A3
350
1FF
  3
A4
350
200
  3
A5
350
201
  3
A6
350
202
  3
A7
350
203
  3
A8
350
204
  3
A9
350
205
  3
B0
350
206
  3
B1
350
207
  3
B2
350
208
  3
B3
350
209
  3
B4
350
20A
  3
B5
350
20B
  3
B6
350
20C
  3
B7
350
20D
  3
B8
350
20E
  3
B9
350
20F
  3
C0
350
210
  3
C1
350
211
  3
C2
350
212
  3
C3
350
213
  3
C4
350
214
  3
C5
350
215
  3
C6
350
216
  3
C7
350
217
  3
C8
350
218
  3
C9
350
219
  3
D0
350
21A
  3
D1
350
21B
  3
D2
350
21C
  0
DICTIONARY
  5
13B0
102
{ACAD_REACTORS
330
B
102
}
330
B
100
AcDbDictionary
281
     1
  3
Imperial24
350
13B1
  0
DICTIONARY
  5
1F6
102
{ACAD_REACTORS
330
B
102
}
330
B
100
AcDbDictionary
281
     1
  3
Standard
350
1F8
  0
DICTIONARY
  5
1DB
102
{ACAD_REACTORS
330
B
102
}
330
B
100
AcDbDictionary
281
     1
  3
2dWireframe
350
1DA
  3
3D Hidden
350
24D
  3
3dWireframe
350
1FB
  3
Basic
350
24C
  3
Brighten
350
250
  3
ColorChange
350
254
  3
Conceptual
350
24E
  3
Dim
350
24F
  3
EdgeColorOff
350
13AF
  3
Facepattern
350
253
  3
Flat
350
248
  3
FlatWithEdges
350
249
  3
Gouraud
350
24A
  3
GouraudWithEdges
350
24B
  3
Hidden
350
13A7
  3
JitterOff
350
13AD
  3
Linepattern
350
252
  3
OverhangOff
350
13AE
  3
Realistic
350
1FA
  3
Shaded
350
13AC
  3
Shaded with edges
350
13AB
  3
Shades of Gray
350
13A8
  3
Sketchy
350
13A9
  3
Thicken
350
251
  3
Wireframe
350
13A6
  3
X-Ray
350
13AA
  0
XRECORD
  5
14F9
102
{ACAD_REACTORS
330
B
102
}
330
B
100
AcDbXrecord
280
     1
 90
        1
330
1F8
  0
DICTIONARY
  5
21E
102
{ACAD_REACTORS
330
B
102
}
330
B
100
AcDbDictionary
281
     1
  3
CANNOSCALE
350
221
  3
CMLEADERSTYLE
350
220
  3
CTABLESTYLE
350
21F
  3
CVIEWDETAILSTYLE
350
13C3
  3
CVIEWSECTIONSTYLE
350
13C4
  3
DIMASSOC
350
357
  3
HIDETEXT
350
356
  3
INDEXCTL
350
355
  3
LAYEREVAL
350
13C5
  3
LAYERNOTIFY
350
13C6
  3
LIGHTINGUNITS
350
222
  3
MSLTSCALE
350
353
  3
SORTENTS
350
354
  0
DICTIONARY
  5
3D5
102
{ACAD_REACTORS
330
1CD
102
}
330
1CD
100
AcDbDictionary
281
     1
  0
DICTIONARY
  5
1CF
102
{ACAD_REACTORS
330
1CD
102
}
330
1CD
100
AcDbDictionary
281
     1
  0
DICTIONARY
  5
3D4
102
{ACAD_REACTORS
330
1CD
102
}
330
1CD
100
AcDbDictionary
281
     1
1001
ACAD
1000
<All
  0
XRECORD
  5
8
102
{ACAD_REACTORS
330
7
102
}
330
7
100
AcDbXrecord
280
     1
290
     1
  0
XRECORD
  5
19
102
{ACAD_REACTORS
330
18
102
}
330
18
100
AcDbXrecord
280
     1
290
     1
  0
XRECORD
  5
27
102
{ACAD_REACTORS
330
26
102
}
330
26
100
AcDbXrecord
280
     1
290
     1
  0
SORTENTSTABLE
  5
21D
102
{ACAD_REACTORS
330
3
102
}
330
3
100
AcDbSortentsTable
330
2
331
30C
  5
39F
331
30A
  5
39D
331
30D
  5
3A0
331
309
  5
39C
331
30B
  5
39E
331
E6
  5
F6
  0
DIMASSOC
  5
127D
102
{ACAD_REACTORS
330
127C
102
}
330
127C
100
AcDbDimAssoc
330
127B
 90
        3
 70
     0
 71
     0
  1
AcDbOsnapPointRef
 72
    13
331
1276
 73
     2
 91
        0
 40
1.570796326794896
 10
0.0
 20
0.0
 30
1.999999999999999E+50
 75
     0
  1
AcDbOsnapPointRef
 72
     1
331
1277
 73
     2
 91
        0
 40
4.712388980384688
 10
0.0
 20
0.0
 30
1.999999999999999E+50
 75
     0
  0
DIMASSOC
  5
1280
102
{ACAD_REACTORS
330
127F
102
}
330
127F
100
AcDbDimAssoc
330
127E
 90
        3
 70
     0
 71
     0
  1
AcDbOsnapPointRef
 72
    13
331
1277
 73
     2
 91
        0
 40
3.141592653589792
 10
0.0
 20
0.0
 30
1.999999999999999E+50
 75
     0
  1
AcDbOsnapPointRef
 72
    13
331
1260
 73
     2
 91
        0
 40
0.0
 10
0.0
 20
0.0
 30
1.999999999999999E+50
 75
     0
  0
ACDBDETAILVIEWSTYLE
  5
13B3
102
{ACAD_REACTORS
330
13B2
102
}
330
13B2
100
AcDbModelDocViewStyle
 70
     0
  3
Imperial24
290
     0
300
Imperial24
 90
        0
100
AcDbDetailViewStyle
 70
     0
 71
     0
 90
        3
 71
     1
340
48
 62
   256
 40
0.24
340
0
 62
   256
 40
0.24
300

 40
0.36
280
     3
 71
     2
340
15
 90
       25
 62
   256
 71
     3
340
48
 62
   256
 40
0.24
 90
        1
 40
0.75
 90
        1
300
%<\AcVar ViewType \f "%tc1">% %<\AcVar ViewDetailId>%\PSCALE %<\AcVar ViewScale \f "%sn">%
 71
     4
340
15
 90
       25
 62
   256
340
15
 90
       25
 62
   256
280
     0
  0
LAYOUT
  5
1C7
102
{ACAD_REACTORS
330
1C2
102
}
330
1C2
100
AcDbPlotSettings
  1

  2
none_device
  4

  6

 40
0.0
 41
0.0
 42
0.0
 43
0.0
 44
0.0
 45
0.0
 46
0.0
 47
0.0
 48
0.0
 49
0.0
140
0.0
141
0.0
142
1.0
143
1.0
 70
   688
 72
     0
 73
     0
 74
     5
  7

 75
    16
 76
     0
 77
     2
 78
   300
147
1.0
148
0.0
149
0.0
100
AcDbLayout
  1
Layout1
 70
     1
 71
     1
 10
0.0
 20
0.0
 11
12.0
 21
9.0
 12
0.0
 22
0.0
 32
0.0
 14
1.000000000000000E+20
 24
1.000000000000000E+20
 34
1.000000000000000E+20
 15
-1.000000000000000E+20
 25
-1.000000000000000E+20
 35
-1.000000000000000E+20
146
0.0
 13
0.0
 23
0.0
 33
0.0
 16
1.0
 26
0.0
 36
0.0
 17
0.0
 27
1.0
 37
0.0
 76
     0
330
1C4
  0
LAYOUT
  5
1CB
102
{ACAD_REACTORS
330
1C2
102
}
330
1C2
100
AcDbPlotSettings
  1

  2
none_device
  4

  6

 40
0.0
 41
0.0
 42
0.0
 43
0.0
 44
0.0
 45
0.0
 46
0.0
 47
0.0
 48
0.0
 49
0.0
140
0.0
141
0.0
142
1.0
143
1.0
 70
   688
 72
     0
 73
     0
 74
     5
  7

 75
    16
 76
     0
 77
     2
 78
   300
147
1.0
148
0.0
149
0.0
100
AcDbLayout
  1
Layout2
 70
     1
 71
     2
 10
0.0
 20
0.0
 11
0.0
 21
0.0
 12
0.0
 22
0.0
 32
0.0
 14
0.0
 24
0.0
 34
0.0
 15
0.0
 25
0.0
 35
0.0
146
0.0
 13
0.0
 23
0.0
 33
0.0
 16
1.0
 26
0.0
 36
0.0
 17
0.0
 27
1.0
 37
0.0
 76
     0
330
1C8
  0
LAYOUT
  5
1C1
102
{ACAD_REACTORS
330
1C2
102
}
330
1C2
100
AcDbPlotSettings
  1

  2
Microsoft Print to PDF_3.pc5
  4
A4
  6

 40
0.0
 41
0.0
 42
0.0
 43
0.0
 44
297.0106666666667
 45
210.0156666666666
 46
0.0
 47
0.0036203314259353
 48
600.5828285799999
 49
9.60833492
140
749.08220355
141
114.60833492
142
1.0
143
0.4999799388910838
 70
  3764
 72
     1
 73
     0
 74
     4
  7
monochrome.ctb
 75
     0
 76
     1
 77
     2
 78
   300
147
2.000080247655378
148
-600.5828285799999
149
-9.60833492
100
AcDbLayout
  1
Model
 70
     1
 71
     0
 10
0.0
 20
0.0
 11
12.0
 21
9.0
 12
0.0
 22
0.0
 32
0.0
 14
1.000000000000000E+20
 24
1.000000000000000E+20
 34
1.000000000000000E+20
 15
-1.000000000000000E+20
 25
-1.000000000000000E+20
 35
-1.000000000000000E+20
146
0.0
 13
0.0
 23
0.0
 33
0.0
 16
1.0
 26
0.0
 36
0.0
 17
0.0
 27
1.0
 37
0.0
 76
     0
330
2
331
1D9
1001
ACAD_PSEXT
1000
Microsoft Print to PDF_3.pc5
1000
Microsoft Print to PDF_3
1000
PORTPROMPT:
1000

1070
     0
  0
MATERIAL
  5
1EC
102
{ACAD_XDICTIONARY
360
1ED
102
}
102
{ACAD_REACTORS
330
D
102
}
330
D
100
AcDbMaterial
  1
ByBlock
 72
     0
 73
     2
 43
0.0208333333333333
 43
0.0
 43
0.0
 43
0.0
 43
0.0
 43
0.0208333333333333
 43
0.0
 43
0.0
 43
0.0
 43
0.0
 43
1.0
 43
0.0
 43
0.0
 43
0.0
 43
0.0
 43
1.0
 77
     0
 78
     2
 47
0.0208333333333333
 47
0.0
 47
0.0
 47
0.0
 47
0.0
 47
0.0208333333333333
 47
0.0
 47
0.0
 47
0.0
 47
0.0
 47
1.0
 47
0.0
 47
0.0
 47
0.0
 47
0.0
 47
1.0
171
     0
172
     2
 49
0.0208333333333333
 49
0.0
 49
0.0
 49
0.0
 49
0.0
 49
0.0208333333333333
 49
0.0
 49
0.0
 49
0.0
 49
0.0
 49
1.0
 49
0.0
 49
0.0
 49
0.0
 49
0.0
 49
1.0
175
     0
176
     2
142
0.0208333333333333
142
0.0
142
0.0
142
0.0
142
0.0
142
0.0208333333333333
142
0.0
142
0.0
142
0.0
142
0.0
142
1.0
142
0.0
142
0.0
142
0.0
142
0.0
142
1.0
179
     0
270
     2
144
0.0208333333333333
144
0.0
144
0.0
144
0.0
144
0.0
144
0.0208333333333333
144
0.0
144
0.0
144
0.0
144
0.0
144
1.0
144
0.0
144
0.0
144
0.0
144
0.0
144
1.0
274
     2
147
0.0208333333333333
147
0.0
147
0.0
147
0.0
147
0.0
147
0.0208333333333333
147
0.0
147
0.0
147
0.0
147
0.0
147
1.0
147
0.0
147
0.0
147
0.0
147
0.0
147
1.0
 94
      127
  0
MATERIAL
  5
1E4
102
{ACAD_XDICTIONARY
360
1E5
102
}
102
{ACAD_REACTORS
330
D
102
}
330
D
100
AcDbMaterial
  1
ByLayer
 72
     0
 73
     2
 43
0.0208333333333333
 43
0.0
 43
0.0
 43
0.0
 43
0.0
 43
0.0208333333333333
 43
0.0
 43
0.0
 43
0.0
 43
0.0
 43
1.0
 43
0.0
 43
0.0
 43
0.0
 43
0.0
 43
1.0
 77
     0
 78
     2
 47
0.0208333333333333
 47
0.0
 47
0.0
 47
0.0
 47
0.0
 47
0.0208333333333333
 47
0.0
 47
0.0
 47
0.0
 47
0.0
 47
1.0
 47
0.0
 47
0.0
 47
0.0
 47
0.0
 47
1.0
171
     0
172
     2
 49
0.0208333333333333
 49
0.0
 49
0.0
 49
0.0
 49
0.0
 49
0.0208333333333333
 49
0.0
 49
0.0
 49
0.0
 49
0.0
 49
1.0
 49
0.0
 49
0.0
 49
0.0
 49
0.0
 49
1.0
175
     0
176
     2
142
0.0208333333333333
142
0.0
142
0.0
142
0.0
142
0.0
142
0.0208333333333333
142
0.0
142
0.0
142
0.0
142
0.0
142
1.0
142
0.0
142
0.0
142
0.0
142
0.0
142
1.0
179
     0
270
     2
144
0.0208333333333333
144
0.0
144
0.0
144
0.0
144
0.0
144
0.0208333333333333
144
0.0
144
0.0
144
0.0
144
0.0
144
1.0
144
0.0
144
0.0
144
0.0
144
0.0
144
1.0
274
     2
147
0.0208333333333333
147
0.0
147
0.0
147
0.0
147
0.0
147
0.0208333333333333
147
0.0
147
0.0
147
0.0
147
0.0
147
1.0
147
0.0
147
0.0
147
0.0
147
0.0
147
1.0
 94
      127
  0
MATERIAL
  5
C
102
{ACAD_XDICTIONARY
360
E
102
}
102
{ACAD_REACTORS
330
D
102
}
330
D
100
AcDbMaterial
  1
Global
 72
     0
 73
     2
 43
0.0208333333333333
 43
0.0
 43
0.0
 43
0.0
 43
0.0
 43
0.0208333333333333
 43
0.0
 43
0.0
 43
0.0
 43
0.0
 43
1.0
 43
0.0
 43
0.0
 43
0.0
 43
0.0
 43
1.0
 77
     0
 78
     2
 47
0.0208333333333333
 47
0.0
 47
0.0
 47
0.0
 47
0.0
 47
0.0208333333333333
 47
0.0
 47
0.0
 47
0.0
 47
0.0
 47
1.0
 47
0.0
 47
0.0
 47
0.0
 47
0.0
 47
1.0
171
     0
172
     2
 49
0.0208333333333333
 49
0.0
 49
0.0
 49
0.0
 49
0.0
 49
0.0208333333333333
 49
0.0
 49
0.0
 49
0.0
 49
0.0
 49
1.0
 49
0.0
 49
0.0
 49
0.0
 49
0.0
 49
1.0
175
     0
176
     2
142
0.0208333333333333
142
0.0
142
0.0
142
0.0
142
0.0
142
0.0208333333333333
142
0.0
142
0.0
142
0.0
142
0.0
142
1.0
142
0.0
142
0.0
142
0.0
142
0.0
142
1.0
179
     0
270
     2
144
0.0208333333333333
144
0.0
144
0.0
144
0.0
144
0.0
144
0.0208333333333333
144
0.0
144
0.0
144
0.0
144
0.0
144
1.0
144
0.0
144
0.0
144
0.0
144
0.0
144
1.0
274
     2
147
0.0208333333333333
147
0.0
147
0.0
147
0.0
147
0.0
147
0.0208333333333333
147
0.0
147
0.0
147
0.0
147
0.0
147
1.0
147
0.0
147
0.0
147
0.0
147
0.0
147
1.0
 94
      127
  0
MLEADERSTYLE
  5
256
102
{ACAD_REACTORS
330
255
102
}
330
255
100
AcDbMLeaderStyle
179
     2
170
     2
171
     1
172
     0
 90
        2
 40
0.0
 41
0.0
173
     1
 91
-1056964608
340
1D4
 92
       -2
290
     1
 42
0.09
291
     1
 43
0.36
  3
Standard
 44
0.18
300

342
48
174
     1
178
     6
175
     1
176
     0
 93
-1056964608
 45
0.18
292
     0
297
     0
 46
0.18
 94
-1056964608
 47
1.0
 49
1.0
140
1.0
293
     1
141
0.0
294
     1
177
     0
142
1.0
295
     0
296
     0
143
0.125
271
     0
272
     9
273
     9
298
     0
1001
ACAD_MLEADERVER
1070
     2
  0
MLINESTYLE
  5
1F7
102
{ACAD_REACTORS
330
1E2
102
}
330
1E2
100
AcDbMlineStyle
  2
STANDARD
 70
     0
  3

 62
   256
 51
90.0
 52
90.0
 71
     2
 49
0.5
 62
   256
  6
BYLAYER
 49
-0.5
 62
   256
  6
BYLAYER
  0
ACDBPLACEHOLDER
  5
9
102
{ACAD_REACTORS
330
A
102
}
330
A
  0
SCALE
  5
1FC
102
{ACAD_REACTORS
330
1F5
102
}
330
1F5
100
AcDbScale
 70
     0
300
1:1
140
1.0
141
1.0
290
     1
  0
SCALE
  5
1FD
102
{ACAD_REACTORS
330
1F5
102
}
330
1F5
100
AcDbScale
 70
     0
300
1:2
140
1.0
141
2.0
290
     0
  0
SCALE
  5
1FE
102
{ACAD_REACTORS
330
1F5
102
}
330
1F5
100
AcDbScale
 70
     0
300
1:4
140
1.0
141
4.0
290
     0
  0
SCALE
  5
1FF
102
{ACAD_REACTORS
330
1F5
102
}
330
1F5
100
AcDbScale
 70
     0
300
1:5
140
1.0
141
5.0
290
     0
  0
SCALE
  5
200
102
{ACAD_REACTORS
330
1F5
102
}
330
1F5
100
AcDbScale
 70
     0
300
1:8
140
1.0
141
8.0
290
     0
  0
SCALE
  5
201
102
{ACAD_REACTORS
330
1F5
102
}
330
1F5
100
AcDbScale
 70
     0
300
1:10
140
1.0
141
10.0
290
     0
  0
SCALE
  5
202
102
{ACAD_REACTORS
330
1F5
102
}
330
1F5
100
AcDbScale
 70
     0
300
1:16
140
1.0
141
16.0
290
     0
  0
SCALE
  5
203
102
{ACAD_REACTORS
330
1F5
102
}
330
1F5
100
AcDbScale
 70
     0
300
1:20
140
1.0
141
20.0
290
     0
  0
SCALE
  5
204
102
{ACAD_REACTORS
330
1F5
102
}
330
1F5
100
AcDbScale
 70
     0
300
1:30
140
1.0
141
30.0
290
     0
  0
SCALE
  5
205
102
{ACAD_REACTORS
330
1F5
102
}
330
1F5
100
AcDbScale
 70
     0
300
1:40
140
1.0
141
40.0
290
     0
  0
SCALE
  5
206
102
{ACAD_REACTORS
330
1F5
102
}
330
1F5
100
AcDbScale
 70
     0
300
1:50
140
1.0
141
50.0
290
     0
  0
SCALE
  5
207
102
{ACAD_REACTORS
330
1F5
102
}
330
1F5
100
AcDbScale
 70
     0
300
1:100
140
1.0
141
100.0
290
     0
  0
SCALE
  5
208
102
{ACAD_REACTORS
330
1F5
102
}
330
1F5
100
AcDbScale
 70
     0
300
2:1
140
2.0
141
1.0
290
     0
  0
SCALE
  5
209
102
{ACAD_REACTORS
330
1F5
102
}
330
1F5
100
AcDbScale
 70
     0
300
4:1
140
4.0
141
1.0
290
     0
  0
SCALE
  5
20A
102
{ACAD_REACTORS
330
1F5
102
}
330
1F5
100
AcDbScale
 70
     0
300
8:1
140
8.0
141
1.0
290
     0
  0
SCALE
  5
20B
102
{ACAD_REACTORS
330
1F5
102
}
330
1F5
100
AcDbScale
 70
     0
300
10:1
140
10.0
141
1.0
290
     0
  0
SCALE
  5
20C
102
{ACAD_REACTORS
330
1F5
102
}
330
1F5
100
AcDbScale
 70
     0
300
100:1
140
100.0
141
1.0
290
     0
  0
SCALE
  5
20D
102
{ACAD_REACTORS
330
1F5
102
}
330
1F5
100
AcDbScale
 70
     0
300
1/128" = 1'-0"
140
0.0078125
141
12.0
290
     0
  0
SCALE
  5
20E
102
{ACAD_REACTORS
330
1F5
102
}
330
1F5
100
AcDbScale
 70
     0
300
1/64" = 1'-0"
140
0.015625
141
12.0
290
     0
  0
SCALE
  5
20F
102
{ACAD_REACTORS
330
1F5
102
}
330
1F5
100
AcDbScale
 70
     0
300
1/32" = 1'-0"
140
0.03125
141
12.0
290
     0
  0
SCALE
  5
210
102
{ACAD_REACTORS
330
1F5
102
}
330
1F5
100
AcDbScale
 70
     0
300
1/16" = 1'-0"
140
0.0625
141
12.0
290
     0
  0
SCALE
  5
211
102
{ACAD_REACTORS
330
1F5
102
}
330
1F5
100
AcDbScale
 70
     0
300
3/32" = 1'-0"
140
0.09375
141
12.0
290
     0
  0
SCALE
  5
212
102
{ACAD_REACTORS
330
1F5
102
}
330
1F5
100
AcDbScale
 70
     0
300
1/8" = 1'-0"
140
0.125
141
12.0
290
     0
  0
SCALE
  5
213
102
{ACAD_REACTORS
330
1F5
102
}
330
1F5
100
AcDbScale
 70
     0
300
3/16" = 1'-0"
140
0.1875
141
12.0
290
     0
  0
SCALE
  5
214
102
{ACAD_REACTORS
330
1F5
102
}
330
1F5
100
AcDbScale
 70
     0
300
1/4" = 1'-0"
140
0.25
141
12.0
290
     0
  0
SCALE
  5
215
102
{ACAD_REACTORS
330
1F5
102
}
330
1F5
100
AcDbScale
 70
     0
300
3/8" = 1'-0"
140
0.375
141
12.0
290
     0
  0
SCALE
  5
216
102
{ACAD_REACTORS
330
1F5
102
}
330
1F5
100
AcDbScale
 70
     0
300
1/2" = 1'-0"
140
0.5
141
12.0
290
     0
  0
SCALE
  5
217
102
{ACAD_REACTORS
330
1F5
102
}
330
1F5
100
AcDbScale
 70
     0
300
3/4" = 1'-0"
140
0.75
141
12.0
290
     0
  0
SCALE
  5
218
102
{ACAD_REACTORS
330
1F5
102
}
330
1F5
100
AcDbScale
 70
     0
300
1" = 1'-0"
140
1.0
141
12.0
290
     0
  0
SCALE
  5
219
102
{ACAD_REACTORS
330
1F5
102
}
330
1F5
100
AcDbScale
 70
     0
300
1-1/2" = 1'-0"
140
1.5
141
12.0
290
     0
  0
SCALE
  5
21A
102
{ACAD_REACTORS
330
1F5
102
}
330
1F5
100
AcDbScale
 70
     0
300
3" = 1'-0"
140
3.0
141
12.0
290
     0
  0
SCALE
  5
21B
102
{ACAD_REACTORS
330
1F5
102
}
330
1F5
100
AcDbScale
 70
     0
300
6" = 1'-0"
140
6.0
141
12.0
290
     0
  0
SCALE
  5
21C
102
{ACAD_REACTORS
330
1F5
102
}
330
1F5
100
AcDbScale
 70
     0
300
1'-0" = 1'-0"
140
12.0
141
12.0
290
     0
  0
ACDBSECTIONVIEWSTYLE
  5
13B1
102
{ACAD_REACTORS
330
13B0
102
}
330
13B0
100
AcDbModelDocViewStyle
 70
     0
  3
Imperial24
290
     0
300
Imperial24
 90
        0
100
AcDbSectionViewStyle
 70
     0
 71
     0
 90
       78
 71
     1
340
48
 62
   256
 40
0.24
340
0
340
0
 62
   256
 40
0.24
300
I, O, Q, S, X, Z
 40
0.48
 90
        3
 40
0.18
 90
        1
 71
     2
340
15
 90
       25
 62
   256
340
15
 90
       50
 62
   256
 40
0.24
 40
0.0
 40
0.24
 71
     3
340
48
 62
   256
 40
0.24
 90
        1
 40
0.75
 90
        1
300
%<\AcVar ViewType \f "%tc1">% %<\AcVar ViewSectionStartId>%-%<\AcVar ViewSectionEndId>%\PSCALE %<\AcVar ViewScale \f "%sn">%
 71
     4
 62
   256
 62
   257
300
ANSI31
 40
1.0
 90
        0
290
     0
290
     0
 90
        6
 40
0.0
 40
1.570796326794896
 40
0.2617993877991494
 40
1.308996938995747
 40
-0.2617993877991494
 40
1.832595714594044
  0
TABLESTYLE
  5
1F8
102
{ACAD_XDICTIONARY
360
1F9
102
}
102
{ACAD_REACTORS
330
1F6
102
}
330
1F6
100
AcDbTableStyle
280
     0
  3
Standard
 70
     0
 71
     0
 40
0.06
 41
0.06
280
     0
281
     0
  7
Standard
140
0.18
170
     2
 62
     0
 63
     7
283
     0
 90
      512
 91
        0
  1

274
    -2
284
     1
 64
     0
275
    -2
285
     1
 65
     0
276
    -2
286
     1
 66
     0
277
    -2
287
     1
 67
     0
278
    -2
288
     1
 68
     0
279
    -2
289
     1
 69
     0
  7
Standard
140
0.25
170
     5
 62
     0
 63
     7
283
     0
 90
      512
 91
        0
  1

274
    -2
284
     1
 64
     0
275
    -2
285
     1
 65
     0
276
    -2
286
     1
 66
     0
277
    -2
287
     1
 67
     0
278
    -2
288
     1
 68
     0
279
    -2
289
     1
 69
     0
  7
Standard
140
0.18
170
     5
 62
     0
 63
     7
283
     0
 90
      512
 91
        0
  1

274
    -2
284
     1
 64
     0
275
    -2
285
     1
 65
     0
276
    -2
286
     1
 66
     0
277
    -2
287
     1
 67
     0
278
    -2
288
     1
 68
     0
279
    -2
289
     1
 69
     0
  0
VISUALSTYLE
  5
1DA
102
{ACAD_REACTORS
330
1DB
102
}
330
1DB
100
AcDbVisualStyle
  2

 70
     4
177
     3
291
     0
 70
    58
 90
        0
176
     1
 90
        2
176
     1
 90
        0
176
     1
 90
        0
176
     1
 40
0.6
176
     1
 40
30.0
176
     1
 62
     7
176
     1
 90
        1
176
     1
 90
        4
176
     1
 62
     7
176
     1
 62
   257
176
     1
 90
        1
176
     1
 90
        1
176
     1
 40
1.0
176
     1
 90
        0
176
     1
 62
   257
176
     1
 40
1.0
176
     1
 90
        1
176
     1
 90
        6
176
     1
 90
        2
176
     1
 62
     7
176
     1
 90
        5
176
     1
 90
        0
176
     1
 90
        0
176
     1
290
     0
176
     1
 90
        1
176
     1
 40
0.0
176
     1
 90
        0
176
     1
290
     1
176
     1
290
     1
176
     1
290
     0
176
     1
290
     0
176
     1
290
     0
176
     1
290
     0
176
     1
290
     0
176
     1
290
     0
176
     1
290
     0
176
     1
 90
       50
176
     1
 40
0.0
176
     1
 40
1.0
176
     1
 90
        0
176
     1
 62
    18
176
     1
 90
       50
176
     1
 90
        3
176
     1
 62
     5
420
      255
176
     1
290
     0
176
     1
 90
       50
176
     1
 90
       50
176
     1
 90
       50
176
     1
290
     0
176
     1
 90
       50
176
     1
 62
   256
176
     0
 40
1.0
176
     0
 90
        2
176
     1
  1
strokes_ogs.tif
176
     1
290
     0
176
     1
 40
1.0
176
     1
 40
1.0
176
     1
1001
ACAD
1000
AcDbSavedByObjectVersion
1070
     0
1000
AcDbSavedByObjectVersion
1070
     0
1000
AcDbSavedByObjectVersion
1070
     0
1000
AcDbSavedByObjectVersion
1070
     0
1000
AcDbSavedByObjectVersion
1070
     0
1000
AcDbSavedByObjectVersion
1070
     0
1000
AcDbSavedByObjectVersion
1070
     0
1000
AcDbSavedByObjectVersion
1070
     0
1000
AcDbSavedByObjectVersion
1070
     0
1000
AcDbSavedByObjectVersion
1070
     0
1000
AcDbSavedByObjectVersion
1070
     0
1000
AcDbSavedByObjectVersion
1070
     0
1000
AcDbSavedByObjectVersion
1070
     0
1000
AcDbSavedByObjectVersion
1070
     0
1000
AcDbSavedByObjectVersion
1070
     0
1000
AcDbSavedByObjectVersion
1070
     0
1000
AcDbSavedByObjectVersion
1070
     0
1000
AcDbSavedByObjectVersion
1070
     0
1000
AcDbSavedByObjectVersion
1070
     0
1000
AcDbSavedByObjectVersion
1070
     0
1000
AcDbSavedByObjectVersion
1070
     0
1000
AcDbSavedByObjectVersion
1070
     0
1000
AcDbSavedByObjectVersion
1070
     0
1000
AcDbSavedByObjectVersion
1070
     0
1000
AcDbSavedByObjectVersion
1070
     0
1000
AcDbSavedByObjectVersion
1070
     0
1000
AcDbSavedByObjectVersion
1070
     0
1000
AcDbSavedByObjectVersion
1070
     0
1000
AcDbSavedByObjectVersion
1070
     0
1000
AcDbSavedByObjectVersion
1070
     0
1000
AcDbSavedByObjectVersion
1070
     0
1000
AcDbSavedByObjectVersion
1070
     0
1000
AcDbSavedByObjectVersion
1070
     0
1000
AcDbSavedByObjectVersion
1070
     0
1000
AcDbSavedByObjectVersion
1070
     0
1000
AcDbSavedByObjectVersion
1070
     0
1000
AcDbSavedByObjectVersion
1070
     0
  0
VISUALSTYLE
  5
24D
102
{ACAD_REACTORS
330
1DB
102
}
330
1DB
100
AcDbVisualStyle
  2

 70
     6
177
     3
291
     0
 70
    58
 90
        1
176
     1
 90
        2
176
     1
 90
        2
176
     1
 90
        0
176
     1
 40
0.6
176
     1
 40
30.0
176
     1
 62
     7
176
     1
 90
        2
176
     1
 90
        2
176
     1
 62
     7
176
     1
 62
   257
176
     1
 90
        2
176
     1
 90
        1
176
     1
 40
40.0
176
     1
 90
        0
176
     1
 62
   257
176
     1
 40
1.0
176
     1
 90
        1
176
     1
 90
        6
176
     1
 90
        2
176
     1
 62
     7
176
     1
 90
        3
176
     1
 90
        0
176
     1
 90
        0
176
     1
290
     0
176
     1
 90
        1
176
     1
 40
0.0
176
     1
 90
        0
176
     1
290
     0
176
     1
290
     1
176
     1
290
     1
176
     1
290
     0
176
     1
290
     0
176
     1
290
     0
176
     1
290
     0
176
     1
290
     0
176
     1
290
     0
176
     1
 90
       50
176
     1
 40
0.0
176
     1
 40
1.0
176
     1
 90
        0
176
     1
 62
    18
176
     1
 90
       50
176
     1
 90
        3
176
     1
 62
     5
420
      255
176
     1
290
     0
176
     1
 90
       50
176
     1
 90
       50
176
     1
 90
       50
176
     1
290
     0
176
     1
 90
       50
176
     1
 62
   256
176
     0
 40
1.0
176
     0
 90
        2
176
     1
  1
strokes_ogs.tif
176
     1
290
     0
176
     1
 40
1.0
176
     1
 40
1.0
176
     1
1001
ACAD
1000
AcDbSavedByObjectVersion
1070
     0
1000
AcDbSavedByObjectVersion
1070
     0
1000
AcDbSavedByObjectVersion
1070
     0
1000
AcDbSavedByObjectVersion
1070
     0
  0
VISUALSTYLE
  5
1FB
102
{ACAD_REACTORS
330
1DB
102
}
330
1DB
100
AcDbVisualStyle
  2

 70
     5
177
     3
291
     0
 70
    58
 90
        0
176
     1
 90
        2
176
     1
 90
        0
176
     1
 90
        0
176
     1
 40
0.6
176
     1
 40
30.0
176
     1
 62
     7
176
     1
 90
        1
176
     1
 90
        4
176
     1
 62
     7
176
     1
 62
   257
176
     1
 90
        1
176
     1
 90
        1
176
     1
 40
1.0
176
     1
 90
        0
176
     1
 62
   257
176
     1
 40
1.0
176
     1
 90
        1
176
     1
 90
        6
176
     1
 90
        2
176
     1
 62
     7
176
     1
 90
        5
176
     1
 90
        0
176
     1
 90
        0
176
     1
290
     0
176
     1
 90
        1
176
     1
 40
0.0
176
     1
 90
        0
176
     1
290
     0
176
     1
290
     1
176
     1
290
     1
176
     1
290
     0
176
     1
290
     0
176
     1
290
     0
176
     1
290
     0
176
     1
290
     0
176
     1
290
     0
176
     1
 90
       50
176
     1
 40
0.0
176
     1
 40
1.0
176
     1
 90
        0
176
     1
 62
    18
176
     1
 90
       50
176
     1
 90
        3
176
     1
 62
     5
420
      255
176
     1
290
     0
176
     1
 90
       50
176
     1
 90
       50
176
     1
 90
       50
176
     1
290
     0
176
     1
 90
       50
176
     1
 62
   256
176
     0
 40
1.0
176
     0
 90
        2
176
     1
  1
strokes_ogs.tif
176
     1
290
     0
176
     1
 40
1.0
176
     1
 40
1.0
176
     1
1001
ACAD
1000
AcDbSavedByObjectVersion
1070
     0
1000
AcDbSavedByObjectVersion
1070
     0
1000
AcDbSavedByObjectVersion
1070
     0
1000
AcDbSavedByObjectVersion
1070
     0
1000
AcDbSavedByObjectVersion
1070
     0
1000
AcDbSavedByObjectVersion
1070
     0
1000
AcDbSavedByObjectVersion
1070
     0
1000
AcDbSavedByObjectVersion
1070
     0
1000
AcDbSavedByObjectVersion
1070
     0
1000
AcDbSavedByObjectVersion
1070
     0
1000
AcDbSavedByObjectVersion
1070
     0
1000
AcDbSavedByObjectVersion
1070
     0
1000
AcDbSavedByObjectVersion
1070
     0
1000
AcDbSavedByObjectVersion
1070
     0
1000
AcDbSavedByObjectVersion
1070
     0
1000
AcDbSavedByObjectVersion
1070
     0
1000
AcDbSavedByObjectVersion
1070
     0
1000
AcDbSavedByObjectVersion
1070
     0
1000
AcDbSavedByObjectVersion
1070
     0
1000
AcDbSavedByObjectVersion
1070
     0
1000
AcDbSavedByObjectVersion
1070
     0
1000
AcDbSavedByObjectVersion
1070
     0
1000
AcDbSavedByObjectVersion
1070
     0
1000
AcDbSavedByObjectVersion
1070
     0
1000
AcDbSavedByObjectVersion
1070
     0
1000
AcDbSavedByObjectVersion
1070
     0
1000
AcDbSavedByObjectVersion
1070
     0
1000
AcDbSavedByObjectVersion
1070
     0
1000
AcDbSavedByObjectVersion
1070
     0
1000
AcDbSavedByObjectVersion
1070
     0
1000
AcDbSavedByObjectVersion
1070
     0
1000
AcDbSavedByObjectVersion
1070
     0
1000
AcDbSavedByObjectVersion
1070
     0
1000
AcDbSavedByObjectVersion
1070
     0
1000
AcDbSavedByObjectVersion
1070
     0
1000
AcDbSavedByObjectVersion
1070
     0
1000
AcDbSavedByObjectVersion
1070
     0
  0
VISUALSTYLE
  5
24C
102
{ACAD_REACTORS
330
1DB
102
}
330
1DB
100
AcDbVisualStyle
  2

 70
     7
177
     3
291
     1
 70
    58
 90
        1
176
     1
 90
        0
176
     1
 90
        1
176
     1
 90
        0
176
     1
 40
0.6
176
     1
 40
30.0
176
     1
 62
     7
176
     1
 90
        0
176
     1
 90
        4
176
     1
 62
     7
176
     1
 62
   257
176
     1
 90
        1
176
     1
 90
        1
176
     1
 40
1.0
176
     1
 90
        8
176
     1
 62
     7
176
     1
 40
1.0
176
     1
 90
        1
176
     1
 90
        6
176
     1
 90
        2
176
     1
 62
     7
176
     1
 90
        5
176
     1
 90
        0
176
     1
 90
        0
176
     1
290
     0
176
     1
 90
        1
176
     1
 40
0.0
176
     1
 90
        0
176
     1
290
     0
176
     1
290
     1
176
     1
290
     1
176
     1
290
     0
176
     1
290
     0
176
     1
290
     0
176
     1
290
     0
176
     1
290
     0
176
     1
290
     0
176
     1
 90
       50
176
     1
 40
0.0
176
     1
 40
1.0
176
     1
 90
        0
176
     1
 62
    18
176
     1
 90
       50
176
     1
 90
        3
176
     1
 62
     5
420
      255
176
     1
290
     0
176
     1
 90
       50
176
     1
 90
       50
176
     1
 90
       50
176
     1
290
     0
176
     1
 90
       50
176
     1
 62
   256
176
     0
 40
1.0
176
     0
 90
        2
176
     1
  1
strokes_ogs.tif
176
     1
290
     0
176
     1
 40
1.0
176
     1
 40
1.0
176
     1
1001
ACAD
1000
AcDbSavedByObjectVersion
1070
     0
1000
AcDbSavedByObjectVersion
1070
     0
1000
AcDbSavedByObjectVersion
1070
     0
1000
AcDbSavedByObjectVersion
1070
     0
  0
VISUALSTYLE
  5
250
102
{ACAD_REACTORS
330
1DB
102
}
330
1DB
100
AcDbVisualStyle
  2

 70
    12
177
     3
291
     1
 70
    58
 90
        2
176
     1
 90
        2
176
     1
 90
        0
176
     1
 90
        0
176
     1
 40
0.6
176
     1
 40
30.0
176
     1
 62
     7
176
     1
 90
        1
176
     1
 90
        4
176
     1
 62
     7
176
     1
 62
   257
176
     1
 90
        1
176
     1
 90
        1
176
     1
 40
1.0
176
     1
 90
        8
176
     1
 62
     7
176
     1
 40
1.0
176
     1
 90
        1
176
     1
 90
        6
176
     1
 90
        2
176
     1
 62
     7
176
     1
 90
        5
176
     1
 90
        0
176
     1
 90
        0
176
     1
290
     0
176
     1
 90
        1
176
     1
 40
50.0
176
     1
 90
        0
176
     1
290
     0
176
     1
290
     1
176
     1
290
     1
176
     1
290
     0
176
     1
290
     0
176
     1
290
     0
176
     1
290
     0
176
     1
290
     0
176
     1
290
     0
176
     1
 90
       50
176
     1
 40
0.0
176
     1
 40
1.0
176
     1
 90
        0
176
     1
 62
    18
176
     1
 90
       50
176
     1
 90
        3
176
     1
 62
     5
420
      255
176
     1
290
     0
176
     1
 90
       50
176
     1
 90
       50
176
     1
 90
       50
176
     1
290
     0
176
     1
 90
       50
176
     1
 62
   256
176
     0
 40
1.0
176
     0
 90
        2
176
     1
  1
strokes_ogs.tif
176
     1
290
     0
176
     1
 40
1.0
176
     1
 40
1.0
176
     1
1001
ACAD
1000
AcDbSavedByObjectVersion
1070
     0
1000
AcDbSavedByObjectVersion
1070
     0
1000
AcDbSavedByObjectVersion
1070
     0
1000
AcDbSavedByObjectVersion
1070
     0
  0
VISUALSTYLE
  5
254
102
{ACAD_REACTORS
330
1DB
102
}
330
1DB
100
AcDbVisualStyle
  2

 70
    16
177
     3
291
     1
 70
    58
 90
        2
176
     1
 90
        2
176
     1
 90
        3
176
     1
 90
        0
176
     1
 40
0.6
176
     1
 40
30.0
176
     1
 62
     8
176
     1
 90
        1
176
     1
 90
        4
176
     1
 62
     7
176
     1
 62
   257
176
     1
 90
        1
176
     1
 90
        1
176
     1
 40
1.0
176
     1
 90
        8
176
     1
 62
     8
176
     1
 40
1.0
176
     1
 90
        1
176
     1
 90
        6
176
     1
 90
        2
176
     1
 62
     7
176
     1
 90
        5
176
     1
 90
        0
176
     1
 90
        0
176
     1
290
     0
176
     1
 90
        1
176
     1
 40
0.0
176
     1
 90
        0
176
     1
290
     0
176
     1
290
     1
176
     1
290
     1
176
     1
290
     0
176
     1
290
     0
176
     1
290
     0
176
     1
290
     0
176
     1
290
     0
176
     1
290
     0
176
     1
 90
       50
176
     1
 40
0.0
176
     1
 40
1.0
176
     1
 90
        0
176
     1
 62
    18
176
     1
 90
       50
176
     1
 90
        3
176
     1
 62
     5
420
      255
176
     1
290
     0
176
     1
 90
       50
176
     1
 90
       50
176
     1
 90
       50
176
     1
290
     0
176
     1
 90
       50
176
     1
 62
   256
176
     0
 40
1.0
176
     0
 90
        2
176
     1
  1
strokes_ogs.tif
176
     1
290
     0
176
     1
 40
1.0
176
     1
 40
1.0
176
     1
1001
ACAD
1000
AcDbSavedByObjectVersion
1070
     0
1000
AcDbSavedByObjectVersion
1070
     0
1000
AcDbSavedByObjectVersion
1070
     0
1000
AcDbSavedByObjectVersion
1070
     0
  0
VISUALSTYLE
  5
24E
102
{ACAD_REACTORS
330
1DB
102
}
330
1DB
100
AcDbVisualStyle
  2

 70
     9
177
     3
291
     0
 70
    58
 90
        3
176
     1
 90
        2
176
     1
 90
        0
176
     1
 90
        0
176
     1
 40
0.6
176
     1
 40
30.0
176
     1
 62
     7
176
     1
 90
        2
176
     1
 90
        2
176
     1
 62
     7
176
     1
 62
   257
176
     1
 90
        1
176
     1
 90
        1
176
     1
 40
40.0
176
     1
 90
        8
176
     1
 62
     7
176
     1
 40
1.0
176
     1
 90
        1
176
     1
 90
        6
176
     1
 90
        2
176
     1
 62
     7
176
     1
 90
        3
176
     1
 90
        0
176
     1
 90
        0
176
     1
290
     0
176
     1
 90
        1
176
     1
 40
0.0
176
     1
 90
        0
176
     1
290
     0
176
     1
290
     1
176
     1
290
     1
176
     1
290
     0
176
     1
290
     0
176
     1
290
     0
176
     1
290
     0
176
     1
290
     0
176
     1
290
     0
176
     1
 90
       50
176
     1
 40
0.0
176
     1
 40
1.0
176
     1
 90
        0
176
     1
 62
    18
176
     1
 90
       50
176
     1
 90
        3
176
     1
 62
     5
420
      255
176
     1
290
     0
176
     1
 90
       50
176
     1
 90
       50
176
     1
 90
       50
176
     1
290
     0
176
     1
 90
       50
176
     1
 62
   256
176
     0
 40
1.0
176
     0
 90
        2
176
     1
  1
strokes_ogs.tif
176
     1
290
     0
176
     1
 40
1.0
176
     1
 40
1.0
176
     1
1001
ACAD
1000
AcDbSavedByObjectVersion
1070
     0
1000
AcDbSavedByObjectVersion
1070
     0
1000
AcDbSavedByObjectVersion
1070
     0
1000
AcDbSavedByObjectVersion
1070
     0
  0
VISUALSTYLE
  5
24F
102
{ACAD_REACTORS
330
1DB
102
}
330
1DB
100
AcDbVisualStyle
  2

 70
    11
177
     3
291
     1
 70
    58
 90
        2
176
     1
 90
        2
176
     1
 90
        0
176
     1
 90
        0
176
     1
 40
0.6
176
     1
 40
30.0
176
     1
 62
     7
176
     1
 90
        1
176
     1
 90
        4
176
     1
 62
     7
176
     1
 62
   257
176
     1
 90
        1
176
     1
 90
        1
176
     1
 40
1.0
176
     1
 90
        8
176
     1
 62
     7
176
     1
 40
1.0
176
     1
 90
        1
176
     1
 90
        6
176
     1
 90
        2
176
     1
 62
     7
176
     1
 90
        5
176
     1
 90
        0
176
     1
 90
        0
176
     1
290
     0
176
     1
 90
        1
176
     1
 40
-50.0
176
     1
 90
        0
176
     1
290
     0
176
     1
290
     1
176
     1
290
     1
176
     1
290
     0
176
     1
290
     0
176
     1
290
     0
176
     1
290
     0
176
     1
290
     0
176
     1
290
     0
176
     1
 90
       50
176
     1
 40
0.0
176
     1
 40
1.0
176
     1
 90
        0
176
     1
 62
    18
176
     1
 90
       50
176
     1
 90
        3
176
     1
 62
     5
420
      255
176
     1
290
     0
176
     1
 90
       50
176
     1
 90
       50
176
     1
 90
       50
176
     1
290
     0
176
     1
 90
       50
176
     1
 62
   256
176
     0
 40
1.0
176
     0
 90
        2
176
     1
  1
strokes_ogs.tif
176
     1
290
     0
176
     1
 40
1.0
176
     1
 40
1.0
176
     1
1001
ACAD
1000
AcDbSavedByObjectVersion
1070
     0
1000
AcDbSavedByObjectVersion
1070
     0
1000
AcDbSavedByObjectVersion
1070
     0
1000
AcDbSavedByObjectVersion
1070
     0
  0
VISUALSTYLE
  5
13AF
102
{ACAD_REACTORS
330
1DB
102
}
330
1DB
100
AcDbVisualStyle
  2
EdgeColorOff
 70
    22
177
     3
291
     1
 70
    58
 90
        2
176
     0
 90
        2
176
     0
 90
        0
176
     0
 90
        0
176
     0
 40
0.6
176
     0
 40
30.0
176
     0
 62
     7
420
 16777215
176
     0
 90
        1
176
     0
 90
        4
176
     0
 62
     7
176
     0
 62
   257
176
     0
 90
        1
176
     0
 90
        1
176
     0
 40
1.0
176
     0
 90
        8
176
     2
 62
     7
176
     0
 40
1.0
176
     0
 90
        1
176
     0
 90
        6
176
     0
 90
        2
176
     0
 62
     7
176
     0
 90
        5
176
     0
 90
        0
176
     0
 90
        0
176
     0
290
     0
176
     0
 90
        1
176
     0
 40
0.0
176
     0
 90
        0
176
     0
290
     0
176
     1
290
     1
176
     1
290
     1
176
     1
290
     0
176
     1
290
     0
176
     1
290
     0
176
     1
290
     0
176
     1
290
     0
176
     1
290
     0
176
     1
 90
       50
176
     0
 40
0.0
176
     0
 40
1.0
176
     0
 90
        0
176
     0
 62
    18
176
     0
 90
       50
176
     0
 90
        3
176
     0
 62
     5
420
      255
176
     0
290
     0
176
     1
 90
       50
176
     0
 90
       50
176
     0
 90
       50
176
     0
290
     0
176
     1
 90
       50
176
     0
 62
   256
176
     0
 40
1.0
176
     0
 90
        2
176
     0
  1
strokes_ogs.tif
176
     0
290
     0
176
     1
 40
1.0
176
     0
 40
1.0
176
     0
  0
VISUALSTYLE
  5
253
102
{ACAD_REACTORS
330
1DB
102
}
330
1DB
100
AcDbVisualStyle
  2

 70
    15
177
     3
291
     1
 70
    58
 90
        2
176
     1
 90
        2
176
     1
 90
        0
176
     1
 90
        0
176
     1
 40
0.6
176
     1
 40
30.0
176
     1
 62
     7
176
     1
 90
        1
176
     1
 90
        4
176
     1
 62
     7
176
     1
 62
   257
176
     1
 90
        1
176
     1
 90
        1
176
     1
 40
1.0
176
     1
 90
        8
176
     1
 62
     7
176
     1
 40
1.0
176
     1
 90
        1
176
     1
 90
        6
176
     1
 90
        2
176
     1
 62
     7
176
     1
 90
        5
176
     1
 90
        0
176
     1
 90
        0
176
     1
290
     0
176
     1
 90
        1
176
     1
 40
0.0
176
     1
 90
        0
176
     1
290
     0
176
     1
290
     1
176
     1
290
     1
176
     1
290
     0
176
     1
290
     0
176
     1
290
     0
176
     1
290
     0
176
     1
290
     0
176
     1
290
     0
176
     1
 90
       50
176
     1
 40
0.0
176
     1
 40
1.0
176
     1
 90
        0
176
     1
 62
    18
176
     1
 90
       50
176
     1
 90
        3
176
     1
 62
     5
420
      255
176
     1
290
     0
176
     1
 90
       50
176
     1
 90
       50
176
     1
 90
       50
176
     1
290
     0
176
     1
 90
       50
176
     1
 62
   256
176
     0
 40
1.0
176
     0
 90
        2
176
     1
  1
strokes_ogs.tif
176
     1
290
     0
176
     1
 40
1.0
176
     1
 40
1.0
176
     1
1001
ACAD
1000
AcDbSavedByObjectVersion
1070
     0
1000
AcDbSavedByObjectVersion
1070
     0
1000
AcDbSavedByObjectVersion
1070
     0
1000
AcDbSavedByObjectVersion
1070
     0
  0
VISUALSTYLE
  5
248
102
{ACAD_REACTORS
330
1DB
102
}
330
1DB
100
AcDbVisualStyle
  2

 70
     0
177
     3
291
     1
 70
    58
 90
        2
176
     1
 90
        1
176
     1
 90
        1
176
     1
 90
        2
176
     1
 40
0.6
176
     1
 40
30.0
176
     1
 62
     7
176
     1
 90
        0
176
     1
 90
        4
176
     1
 62
     7
176
     1
 62
   257
176
     1
 90
        1
176
     1
 90
        1
176
     1
 40
1.0
176
     1
 90
        8
176
     1
 62
     7
176
     1
 40
1.0
176
     1
 90
        1
176
     1
 90
        6
176
     1
 90
        2
176
     1
 62
     7
176
     1
 90
        5
176
     1
 90
        0
176
     1
 90
        0
176
     1
290
     0
176
     1
 90
       13
176
     1
 40
0.0
176
     1
 90
        0
176
     1
290
     0
176
     1
290
     1
176
     1
290
     1
176
     1
290
     0
176
     1
290
     0
176
     1
290
     0
176
     1
290
     0
176
     1
290
     0
176
     1
290
     0
176
     1
 90
       50
176
     1
 40
0.0
176
     1
 40
1.0
176
     1
 90
        0
176
     1
 62
    18
176
     1
 90
       50
176
     1
 90
        3
176
     1
 62
     5
420
      255
176
     1
290
     0
176
     1
 90
       50
176
     1
 90
       50
176
     1
 90
       50
176
     1
290
     0
176
     1
 90
       50
176
     1
 62
   256
176
     0
 40
1.0
176
     0
 90
        2
176
     1
  1
strokes_ogs.tif
176
     1
290
     0
176
     1
 40
1.0
176
     1
 40
1.0
176
     1
1001
ACAD
1000
AcDbSavedByObjectVersion
1070
     0
1000
AcDbSavedByObjectVersion
1070
     0
1000
AcDbSavedByObjectVersion
1070
     0
1000
AcDbSavedByObjectVersion
1070
     0
  0
VISUALSTYLE
  5
249
102
{ACAD_REACTORS
330
1DB
102
}
330
1DB
100
AcDbVisualStyle
  2

 70
     1
177
     3
291
     1
 70
    58
 90
        2
176
     1
 90
        1
176
     1
 90
        1
176
     1
 90
        2
176
     1
 40
0.6
176
     1
 40
30.0
176
     1
 62
     7
176
     1
 90
        1
176
     1
 90
        4
176
     1
 62
     7
176
     1
 62
   257
176
     1
 90
        1
176
     1
 90
        1
176
     1
 40
1.0
176
     1
 90
        0
176
     1
 62
   257
176
     1
 40
1.0
176
     1
 90
        1
176
     1
 90
        6
176
     1
 90
        2
176
     1
 62
     7
176
     1
 90
        5
176
     1
 90
        0
176
     1
 90
        0
176
     1
290
     0
176
     1
 90
       13
176
     1
 40
0.0
176
     1
 90
        0
176
     1
290
     0
176
     1
290
     1
176
     1
290
     1
176
     1
290
     0
176
     1
290
     0
176
     1
290
     0
176
     1
290
     0
176
     1
290
     0
176
     1
290
     0
176
     1
 90
       50
176
     1
 40
0.0
176
     1
 40
1.0
176
     1
 90
        0
176
     1
 62
    18
176
     1
 90
       50
176
     1
 90
        3
176
     1
 62
     5
420
      255
176
     1
290
     0
176
     1
 90
       50
176
     1
 90
       50
176
     1
 90
       50
176
     1
290
     0
176
     1
 90
       50
176
     1
 62
   256
176
     0
 40
1.0
176
     0
 90
        2
176
     1
  1
strokes_ogs.tif
176
     1
290
     0
176
     1
 40
1.0
176
     1
 40
1.0
176
     1
1001
ACAD
1000
AcDbSavedByObjectVersion
1070
     0
1000
AcDbSavedByObjectVersion
1070
     0
1000
AcDbSavedByObjectVersion
1070
     0
1000
AcDbSavedByObjectVersion
1070
     0
  0
VISUALSTYLE
  5
24A
102
{ACAD_REACTORS
330
1DB
102
}
330
1DB
100
AcDbVisualStyle
  2

 70
     2
177
     3
291
     1
 70
    58
 90
        2
176
     1
 90
        2
176
     1
 90
        1
176
     1
 90
        2
176
     1
 40
0.6
176
     1
 40
30.0
176
     1
 62
     7
176
     1
 90
        0
176
     1
 90
        4
176
     1
 62
     7
176
     1
 62
   257
176
     1
 90
        1
176
     1
 90
        1
176
     1
 40
1.0
176
     1
 90
        0
176
     1
 62
     7
176
     1
 40
1.0
176
     1
 90
        1
176
     1
 90
        6
176
     1
 90
        2
176
     1
 62
     7
176
     1
 90
        5
176
     1
 90
        0
176
     1
 90
        0
176
     1
290
     0
176
     1
 90
       13
176
     1
 40
0.0
176
     1
 90
        0
176
     1
290
     0
176
     1
290
     1
176
     1
290
     1
176
     1
290
     0
176
     1
290
     0
176
     1
290
     0
176
     1
290
     0
176
     1
290
     0
176
     1
290
     0
176
     1
 90
       50
176
     1
 40
0.0
176
     1
 40
1.0
176
     1
 90
        0
176
     1
 62
    18
176
     1
 90
       50
176
     1
 90
        3
176
     1
 62
     5
420
      255
176
     1
290
     0
176
     1
 90
       50
176
     1
 90
       50
176
     1
 90
       50
176
     1
290
     0
176
     1
 90
       50
176
     1
 62
   256
176
     0
 40
1.0
176
     0
 90
        2
176
     1
  1
strokes_ogs.tif
176
     1
290
     0
176
     1
 40
1.0
176
     1
 40
1.0
176
     1
1001
ACAD
1000
AcDbSavedByObjectVersion
1070
     0
1000
AcDbSavedByObjectVersion
1070
     0
1000
AcDbSavedByObjectVersion
1070
     0
1000
AcDbSavedByObjectVersion
1070
     0
  0
VISUALSTYLE
  5
24B
102
{ACAD_REACTORS
330
1DB
102
}
330
1DB
100
AcDbVisualStyle
  2

 70
     3
177
     3
291
     1
 70
    58
 90
        2
176
     1
 90
        2
176
     1
 90
        1
176
     1
 90
        2
176
     1
 40
0.6
176
     1
 40
30.0
176
     1
 62
     7
176
     1
 90
        1
176
     1
 90
        4
176
     1
 62
     7
176
     1
 62
   257
176
     1
 90
        1
176
     1
 90
        1
176
     1
 40
1.0
176
     1
 90
        0
176
     1
 62
   257
176
     1
 40
1.0
176
     1
 90
        1
176
     1
 90
        6
176
     1
 90
        2
176
     1
 62
     7
176
     1
 90
        5
176
     1
 90
        0
176
     1
 90
        0
176
     1
290
     0
176
     1
 90
       13
176
     1
 40
0.0
176
     1
 90
        0
176
     1
290
     0
176
     1
290
     1
176
     1
290
     1
176
     1
290
     0
176
     1
290
     0
176
     1
290
     0
176
     1
290
     0
176
     1
290
     0
176
     1
290
     0
176
     1
 90
       50
176
     1
 40
0.0
176
     1
 40
1.0
176
     1
 90
        0
176
     1
 62
    18
176
     1
 90
       50
176
     1
 90
        3
176
     1
 62
     5
420
      255
176
     1
290
     0
176
     1
 90
       50
176
     1
 90
       50
176
     1
 90
       50
176
     1
290
     0
176
     1
 90
       50
176
     1
 62
   256
176
     0
 40
1.0
176
     0
 90
        2
176
     1
  1
strokes_ogs.tif
176
     1
290
     0
176
     1
 40
1.0
176
     1
 40
1.0
176
     1
1001
ACAD
1000
AcDbSavedByObjectVersion
1070
     0
1000
AcDbSavedByObjectVersion
1070
     0
1000
AcDbSavedByObjectVersion
1070
     0
1000
AcDbSavedByObjectVersion
1070
     0
  0
VISUALSTYLE
  5
13A7
102
{ACAD_REACTORS
330
1DB
102
}
330
1DB
100
AcDbVisualStyle
  2
Hidden
 70
     6
177
     3
291
     0
 70
    58
 90
        1
176
     1
 90
        2
176
     1
 90
        2
176
     1
 90
        0
176
     1
 40
0.6
176
     1
 40
30.0
176
     1
 62
     7
420
 16777215
176
     1
 90
        2
176
     1
 90
        2
176
     1
 62
     7
176
     1
 62
   257
176
     1
 90
        2
176
     1
 90
        1
176
     1
 40
40.0
176
     1
 90
        0
176
     1
 62
   257
176
     1
 40
1.0
176
     1
 90
        1
176
     1
 90
        6
176
     1
 90
        2
176
     1
 62
     7
176
     1
 90
        3
176
     1
 90
        0
176
     1
 90
        0
176
     1
290
     0
176
     1
 90
        1
176
     1
 40
0.0
176
     1
 90
        0
176
     1
290
     0
176
     1
290
     1
176
     1
290
     1
176
     1
290
     0
176
     1
290
     0
176
     1
290
     0
176
     1
290
     0
176
     1
290
     0
176
     1
290
     0
176
     1
 90
       50
176
     1
 40
0.0
176
     1
 40
1.0
176
     1
 90
        0
176
     1
 62
    18
176
     1
 90
       50
176
     1
 90
        3
176
     1
 62
     5
420
      255
176
     1
290
     0
176
     1
 90
       50
176
     1
 90
       50
176
     1
 90
       50
176
     1
290
     0
176
     1
 90
       50
176
     1
 62
   256
176
     0
 40
1.0
176
     0
 90
        2
176
     1
  1
strokes_ogs.tif
176
     1
290
     0
176
     1
 40
1.0
176
     1
 40
1.0
176
     1
  0
VISUALSTYLE
  5
13AD
102
{ACAD_REACTORS
330
1DB
102
}
330
1DB
100
AcDbVisualStyle
  2
JitterOff
 70
    20
177
     3
291
     1
 70
    58
 90
        2
176
     0
 90
        2
176
     0
 90
        0
176
     0
 90
        0
176
     0
 40
0.6
176
     0
 40
30.0
176
     0
 62
     7
420
 16777215
176
     0
 90
        1
176
     0
 90
        4
176
     0
 62
     7
176
     0
 62
   257
176
     0
 90
        1
176
     0
 90
        1
176
     0
 40
1.0
176
     0
 90
       10
176
     2
 62
     7
176
     0
 40
1.0
176
     0
 90
        1
176
     0
 90
        6
176
     0
 90
        2
176
     0
 62
     7
176
     0
 90
        5
176
     0
 90
        0
176
     0
 90
        0
176
     0
290
     0
176
     0
 90
        1
176
     0
 40
0.0
176
     0
 90
        0
176
     0
290
     0
176
     1
290
     1
176
     1
290
     1
176
     1
290
     0
176
     1
290
     0
176
     1
290
     0
176
     1
290
     0
176
     1
290
     0
176
     1
290
     0
176
     1
 90
       50
176
     0
 40
0.0
176
     0
 40
1.0
176
     0
 90
        0
176
     0
 62
    18
176
     0
 90
       50
176
     0
 90
        3
176
     0
 62
     5
420
      255
176
     0
290
     0
176
     1
 90
       50
176
     0
 90
       50
176
     0
 90
       50
176
     0
290
     0
176
     1
 90
       50
176
     0
 62
   256
176
     0
 40
1.0
176
     0
 90
        2
176
     0
  1
strokes_ogs.tif
176
     0
290
     0
176
     1
 40
1.0
176
     0
 40
1.0
176
     0
  0
VISUALSTYLE
  5
252
102
{ACAD_REACTORS
330
1DB
102
}
330
1DB
100
AcDbVisualStyle
  2

 70
    14
177
     3
291
     1
 70
    58
 90
        2
176
     1
 90
        2
176
     1
 90
        0
176
     1
 90
        0
176
     1
 40
0.6
176
     1
 40
30.0
176
     1
 62
     7
176
     1
 90
        1
176
     1
 90
        4
176
     1
 62
     7
176
     1
 62
   257
176
     1
 90
        7
176
     1
 90
        7
176
     1
 40
1.0
176
     1
 90
        8
176
     1
 62
     7
176
     1
 40
1.0
176
     1
 90
        1
176
     1
 90
        6
176
     1
 90
        2
176
     1
 62
     7
176
     1
 90
        5
176
     1
 90
        0
176
     1
 90
        0
176
     1
290
     0
176
     1
 90
        1
176
     1
 40
0.0
176
     1
 90
        0
176
     1
290
     0
176
     1
290
     1
176
     1
290
     1
176
     1
290
     0
176
     1
290
     0
176
     1
290
     0
176
     1
290
     0
176
     1
290
     0
176
     1
290
     0
176
     1
 90
       50
176
     1
 40
0.0
176
     1
 40
1.0
176
     1
 90
        0
176
     1
 62
    18
176
     1
 90
       50
176
     1
 90
        3
176
     1
 62
     5
420
      255
176
     1
290
     0
176
     1
 90
       50
176
     1
 90
       50
176
     1
 90
       50
176
     1
290
     0
176
     1
 90
       50
176
     1
 62
   256
176
     0
 40
1.0
176
     0
 90
        2
176
     1
  1
strokes_ogs.tif
176
     1
290
     0
176
     1
 40
1.0
176
     1
 40
1.0
176
     1
1001
ACAD
1000
AcDbSavedByObjectVersion
1070
     0
1000
AcDbSavedByObjectVersion
1070
     0
1000
AcDbSavedByObjectVersion
1070
     0
1000
AcDbSavedByObjectVersion
1070
     0
  0
VISUALSTYLE
  5
13AE
102
{ACAD_REACTORS
330
1DB
102
}
330
1DB
100
AcDbVisualStyle
  2
OverhangOff
 70
    21
177
     3
291
     1
 70
    58
 90
        2
176
     0
 90
        2
176
     0
 90
        0
176
     0
 90
        0
176
     0
 40
0.6
176
     0
 40
30.0
176
     0
 62
     7
420
 16777215
176
     0
 90
        1
176
     0
 90
        4
176
     0
 62
     7
176
     0
 62
   257
176
     0
 90
        1
176
     0
 90
        1
176
     0
 40
1.0
176
     0
 90
        9
176
     2
 62
     7
176
     0
 40
1.0
176
     0
 90
        1
176
     0
 90
        6
176
     0
 90
        2
176
     0
 62
     7
176
     0
 90
        5
176
     0
 90
        0
176
     0
 90
        0
176
     0
290
     0
176
     0
 90
        1
176
     0
 40
0.0
176
     0
 90
        0
176
     0
290
     0
176
     1
290
     1
176
     1
290
     1
176
     1
290
     0
176
     1
290
     0
176
     1
290
     0
176
     1
290
     0
176
     1
290
     0
176
     1
290
     0
176
     1
 90
       50
176
     0
 40
0.0
176
     0
 40
1.0
176
     0
 90
        0
176
     0
 62
    18
176
     0
 90
       50
176
     0
 90
        3
176
     0
 62
     5
420
      255
176
     0
290
     0
176
     1
 90
       50
176
     0
 90
       50
176
     0
 90
       50
176
     0
290
     0
176
     1
 90
       50
176
     0
 62
   256
176
     0
 40
1.0
176
     0
 90
        2
176
     0
  1
strokes_ogs.tif
176
     0
290
     0
176
     1
 40
1.0
176
     0
 40
1.0
176
     0
  0
VISUALSTYLE
  5
1FA
102
{ACAD_REACTORS
330
1DB
102
}
330
1DB
100
AcDbVisualStyle
  2

 70
     8
177
     3
291
     0
 70
    58
 90
        2
176
     1
 90
        2
176
     1
 90
        0
176
     1
 90
        0
176
     1
 40
0.6
176
     1
 40
30.0
176
     1
 62
     7
176
     1
 90
        1
176
     1
 90
        0
176
     1
 62
     7
176
     1
 62
   257
176
     1
 90
        1
176
     1
 90
        1
176
     1
 40
1.0
176
     1
 90
        8
176
     1
 62
     8
176
     1
 40
1.0
176
     1
 90
        1
176
     1
 90
        6
176
     1
 90
        2
176
     1
 62
     7
176
     1
 90
        5
176
     1
 90
        0
176
     1
 90
        0
176
     1
290
     0
176
     1
 90
       13
176
     1
 40
0.0
176
     1
 90
        0
176
     1
290
     0
176
     1
290
     1
176
     1
290
     1
176
     1
290
     0
176
     1
290
     0
176
     1
290
     0
176
     1
290
     0
176
     1
290
     0
176
     1
290
     0
176
     1
 90
       50
176
     1
 40
0.0
176
     1
 40
1.0
176
     1
 90
        0
176
     1
 62
    18
176
     1
 90
       50
176
     1
 90
        3
176
     1
 62
     5
420
      255
176
     1
290
     0
176
     1
 90
       50
176
     1
 90
       50
176
     1
 90
       50
176
     1
290
     0
176
     1
 90
       50
176
     1
 62
   256
176
     0
 40
1.0
176
     0
 90
        2
176
     1
  1
strokes_ogs.tif
176
     1
290
     0
176
     1
 40
1.0
176
     1
 40
1.0
176
     1
1001
ACAD
1000
AcDbSavedByObjectVersion
1070
     0
1000
AcDbSavedByObjectVersion
1070
     0
1000
AcDbSavedByObjectVersion
1070
     0
1000
AcDbSavedByObjectVersion
1070
     0
1000
AcDbSavedByObjectVersion
1070
     0
1000
AcDbSavedByObjectVersion
1070
     0
1000
AcDbSavedByObjectVersion
1070
     0
1000
AcDbSavedByObjectVersion
1070
     0
1000
AcDbSavedByObjectVersion
1070
     0
1000
AcDbSavedByObjectVersion
1070
     0
1000
AcDbSavedByObjectVersion
1070
     0
1000
AcDbSavedByObjectVersion
1070
     0
1000
AcDbSavedByObjectVersion
1070
     0
1000
AcDbSavedByObjectVersion
1070
     0
1000
AcDbSavedByObjectVersion
1070
     0
1000
AcDbSavedByObjectVersion
1070
     0
1000
AcDbSavedByObjectVersion
1070
     0
1000
AcDbSavedByObjectVersion
1070
     0
1000
AcDbSavedByObjectVersion
1070
     0
1000
AcDbSavedByObjectVersion
1070
     0
1000
AcDbSavedByObjectVersion
1070
     0
1000
AcDbSavedByObjectVersion
1070
     0
1000
AcDbSavedByObjectVersion
1070
     0
1000
AcDbSavedByObjectVersion
1070
     0
1000
AcDbSavedByObjectVersion
1070
     0
1000
AcDbSavedByObjectVersion
1070
     0
1000
AcDbSavedByObjectVersion
1070
     0
1000
AcDbSavedByObjectVersion
1070
     0
1000
AcDbSavedByObjectVersion
1070
     0
1000
AcDbSavedByObjectVersion
1070
     0
1000
AcDbSavedByObjectVersion
1070
     0
1000
AcDbSavedByObjectVersion
1070
     0
1000
AcDbSavedByObjectVersion
1070
     0
1000
AcDbSavedByObjectVersion
1070
     0
1000
AcDbSavedByObjectVersion
1070
     0
1000
AcDbSavedByObjectVersion
1070
     0
1000
AcDbSavedByObjectVersion
1070
     0
  0
VISUALSTYLE
  5
13AC
102
{ACAD_REACTORS
330
1DB
102
}
330
1DB
100
AcDbVisualStyle
  2
Shaded
 70
    27
177
     3
291
     0
 70
    58
 90
        2
176
     1
 90
        2
176
     1
 90
        1
176
     1
 90
        2
176
     1
 40
0.6
176
     1
 40
30.0
176
     1
 62
     7
420
 16777215
176
     1
 90
        0
176
     1
 90
        4
176
     1
 62
     7
176
     1
 62
   257
176
     1
 90
        1
176
     1
 90
        1
176
     1
 40
1.0
176
     1
 90
        8
176
     1
 62
   257
176
     1
 40
1.0
176
     1
 90
        1
176
     1
 90
        6
176
     1
 90
        2
176
     1
 62
     8
420
  7895160
176
     1
 90
        3
176
     1
 90
        0
176
     1
 90
        0
176
     1
290
     0
176
     1
 90
        5
176
     1
 40
0.0
176
     1
 90
        0
176
     1
290
     0
176
     1
290
     1
176
     1
290
     1
176
     1
290
     0
176
     1
290
     0
176
     1
290
     0
176
     1
290
     0
176
     1
290
     0
176
     1
290
     0
176
     1
 90
       50
176
     1
 40
0.0
176
     1
 40
1.0
176
     1
 90
        0
176
     1
 62
    18
176
     1
 90
       50
176
     1
 90
        3
176
     1
 62
     5
420
      255
176
     1
290
     0
176
     1
 90
       50
176
     1
 90
       50
176
     1
 90
       50
176
     1
290
     0
176
     1
 90
       50
176
     1
 62
   256
176
     0
 40
1.0
176
     0
 90
        2
176
     1
  1
strokes_ogs.tif
176
     1
290
     0
176
     1
 40
1.0
176
     1
 40
1.0
176
     1
  0
VISUALSTYLE
  5
13AB
102
{ACAD_REACTORS
330
1DB
102
}
330
1DB
100
AcDbVisualStyle
  2
Shaded with edges
 70
    26
177
     3
291
     0
 70
    58
 90
        2
176
     1
 90
        2
176
     1
 90
        1
176
     1
 90
        2
176
     1
 40
0.6
176
     1
 40
30.0
176
     1
 62
     7
420
 16777215
176
     1
 90
        1
176
     1
 90
        2
176
     1
 62
     7
176
     1
 62
   257
176
     1
 90
        2
176
     1
 90
        1
176
     1
 40
1.0
176
     1
 90
        8
176
     1
 62
   257
176
     1
 40
1.0
176
     1
 90
        1
176
     1
 90
        6
176
     1
 90
        2
176
     1
 62
     7
176
     1
 90
        3
176
     1
 90
        0
176
     1
 90
        0
176
     1
290
     0
176
     1
 90
        5
176
     1
 40
0.0
176
     1
 90
        0
176
     1
290
     0
176
     1
290
     1
176
     1
290
     1
176
     1
290
     0
176
     1
290
     0
176
     1
290
     0
176
     1
290
     0
176
     1
290
     0
176
     1
290
     0
176
     1
 90
       50
176
     1
 40
0.0
176
     1
 40
1.0
176
     1
 90
        0
176
     1
 62
    18
176
     1
 90
       50
176
     1
 90
        3
176
     1
 62
     5
420
      255
176
     1
290
     0
176
     1
 90
       50
176
     1
 90
       50
176
     1
 90
       50
176
     1
290
     0
176
     1
 90
       50
176
     1
 62
   256
176
     0
 40
1.0
176
     0
 90
        2
176
     1
  1
strokes_ogs.tif
176
     1
290
     0
176
     1
 40
1.0
176
     1
 40
1.0
176
     1
  0
VISUALSTYLE
  5
13A8
102
{ACAD_REACTORS
330
1DB
102
}
330
1DB
100
AcDbVisualStyle
  2
Shades of Gray
 70
    23
177
     3
291
     0
 70
    58
 90
        2
176
     1
 90
        2
176
     1
 90
        3
176
     1
 90
        0
176
     1
 40
0.6
176
     1
 40
30.0
176
     1
 62
     7
420
 16777215
176
     1
 90
        2
176
     1
 90
        2
176
     1
 62
     7
176
     1
 62
     7
176
     1
 90
        1
176
     1
 90
        1
176
     1
 40
40.0
176
     1
 90
        8
176
     1
 62
     7
176
     1
 40
1.0
176
     1
 90
        1
176
     1
 90
        6
176
     1
 90
        2
176
     1
 62
     7
176
     1
 90
        3
176
     1
 90
        0
176
     1
 90
        0
176
     1
290
     0
176
     1
 90
        1
176
     1
 40
0.0
176
     1
 90
        0
176
     1
290
     0
176
     1
290
     1
176
     1
290
     1
176
     1
290
     0
176
     1
290
     0
176
     1
290
     0
176
     1
290
     0
176
     1
290
     0
176
     1
290
     0
176
     1
 90
       50
176
     1
 40
0.0
176
     1
 40
1.0
176
     1
 90
        0
176
     1
 62
    18
176
     1
 90
       50
176
     1
 90
        3
176
     1
 62
     5
420
      255
176
     1
290
     0
176
     1
 90
       50
176
     1
 90
       50
176
     1
 90
       50
176
     1
290
     0
176
     1
 90
       50
176
     1
 62
   256
176
     0
 40
1.0
176
     0
 90
        2
176
     1
  1
strokes_ogs.tif
176
     1
290
     0
176
     1
 40
1.0
176
     1
 40
1.0
176
     1
  0
VISUALSTYLE
  5
13A9
102
{ACAD_REACTORS
330
1DB
102
}
330
1DB
100
AcDbVisualStyle
  2
Sketchy
 70
    24
177
     3
291
     0
 70
    58
 90
        1
176
     1
 90
        2
176
     1
 90
        2
176
     1
 90
        0
176
     1
 40
0.6
176
     1
 40
30.0
176
     1
 62
     7
420
 16777215
176
     1
 90
        2
176
     1
 90
        2
176
     1
 62
     7
176
     1
 62
     7
176
     1
 90
        1
176
     1
 90
        1
176
     1
 40
40.0
176
     1
 90
       11
176
     1
 62
     7
176
     1
 40
1.0
176
     1
 90
        1
176
     1
 90
        6
176
     1
 90
        2
176
     1
 62
     7
176
     1
 90
        6
176
     1
 90
        0
176
     1
 90
        0
176
     1
290
     0
176
     1
 90
        1
176
     1
 40
0.0
176
     1
 90
        0
176
     1
290
     0
176
     1
290
     1
176
     1
290
     1
176
     1
290
     0
176
     1
290
     0
176
     1
290
     0
176
     1
290
     0
176
     1
290
     0
176
     1
290
     0
176
     1
 90
       50
176
     1
 40
0.0
176
     1
 40
1.0
176
     1
 90
        0
176
     1
 62
    18
176
     1
 90
       50
176
     1
 90
        3
176
     1
 62
     5
420
      255
176
     1
290
     0
176
     1
 90
       50
176
     1
 90
       50
176
     1
 90
       50
176
     1
290
     0
176
     1
 90
       50
176
     1
 62
   256
176
     0
 40
1.0
176
     0
 90
        2
176
     1
  1
strokes_ogs.tif
176
     1
290
     0
176
     1
 40
1.0
176
     1
 40
1.0
176
     1
  0
VISUALSTYLE
  5
251
102
{ACAD_REACTORS
330
1DB
102
}
330
1DB
100
AcDbVisualStyle
  2

 70
    13
177
     3
291
     1
 70
    58
 90
        2
176
     1
 90
        2
176
     1
 90
        0
176
     1
 90
        0
176
     1
 40
0.6
176
     1
 40
30.0
176
     1
 62
     7
176
     1
 90
        1
176
     1
 90
        4
176
     1
 62
     7
176
     1
 62
   257
176
     1
 90
        1
176
     1
 90
        1
176
     1
 40
1.0
176
     1
 90
       12
176
     1
 62
     7
176
     1
 40
1.0
176
     1
 90
        1
176
     1
 90
        6
176
     1
 90
        2
176
     1
 62
     7
176
     1
 90
        5
176
     1
 90
        0
176
     1
 90
        0
176
     1
290
     0
176
     1
 90
        1
176
     1
 40
0.0
176
     1
 90
        0
176
     1
290
     0
176
     1
290
     1
176
     1
290
     1
176
     1
290
     0
176
     1
290
     0
176
     1
290
     0
176
     1
290
     0
176
     1
290
     0
176
     1
290
     0
176
     1
 90
       50
176
     1
 40
0.0
176
     1
 40
1.0
176
     1
 90
        0
176
     1
 62
    18
176
     1
 90
       50
176
     1
 90
        3
176
     1
 62
     5
420
      255
176
     1
290
     0
176
     1
 90
       50
176
     1
 90
       50
176
     1
 90
       50
176
     1
290
     0
176
     1
 90
       50
176
     1
 62
   256
176
     0
 40
1.0
176
     0
 90
        2
176
     1
  1
strokes_ogs.tif
176
     1
290
     0
176
     1
 40
1.0
176
     1
 40
1.0
176
     1
1001
ACAD
1000
AcDbSavedByObjectVersion
1070
     0
1000
AcDbSavedByObjectVersion
1070
     0
1000
AcDbSavedByObjectVersion
1070
     0
1000
AcDbSavedByObjectVersion
1070
     0
  0
VISUALSTYLE
  5
13A6
102
{ACAD_REACTORS
330
1DB
102
}
330
1DB
100
AcDbVisualStyle
  2
Wireframe
 70
     5
177
     3
291
     0
 70
    58
 90
        0
176
     1
 90
        2
176
     1
 90
        0
176
     1
 90
        0
176
     1
 40
0.6
176
     1
 40
30.0
176
     1
 62
     7
420
 16777215
176
     1
 90
        1
176
     1
 90
        4
176
     1
 62
     7
176
     1
 62
   257
176
     1
 90
        1
176
     1
 90
        1
176
     1
 40
1.0
176
     1
 90
        0
176
     1
 62
   257
176
     1
 40
1.0
176
     1
 90
        1
176
     1
 90
        6
176
     1
 90
        2
176
     1
 62
     7
176
     1
 90
        3
176
     1
 90
        0
176
     1
 90
        0
176
     1
290
     0
176
     1
 90
        1
176
     1
 40
0.0
176
     1
 90
        0
176
     1
290
     0
176
     1
290
     1
176
     1
290
     1
176
     1
290
     0
176
     1
290
     0
176
     1
290
     0
176
     1
290
     0
176
     1
290
     0
176
     1
290
     0
176
     1
 90
       50
176
     1
 40
0.0
176
     1
 40
1.0
176
     1
 90
        0
176
     1
 62
    18
176
     1
 90
       50
176
     1
 90
        3
176
     1
 62
     5
420
      255
176
     1
290
     0
176
     1
 90
       50
176
     1
 90
       50
176
     1
 90
       50
176
     1
290
     0
176
     1
 90
       50
176
     1
 62
   256
176
     0
 40
1.0
176
     0
 90
        2
176
     1
  1
strokes_ogs.tif
176
     1
290
     0
176
     1
 40
1.0
176
     1
 40
1.0
176
     1
  0
VISUALSTYLE
  5
13AA
102
{ACAD_REACTORS
330
1DB
102
}
330
1DB
100
AcDbVisualStyle
  2
X-Ray
 70
    25
177
     3
291
     0
 70
    58
 90
        2
176
     1
 90
        2
176
     1
 90
        1
176
     1
 90
        1
176
     1
 40
0.5
176
     1
 40
30.0
176
     1
 62
     7
420
 16777215
176
     1
 90
        1
176
     1
 90
        0
176
     1
 62
     7
176
     1
 62
   257
176
     1
 90
        1
176
     1
 90
        1
176
     1
 40
1.0
176
     1
 90
        8
176
     1
 62
     7
176
     1
 40
1.0
176
     1
 90
        1
176
     1
 90
        6
176
     1
 90
        2
176
     1
 62
     7
176
     1
 90
        3
176
     1
 90
        0
176
     1
 90
        0
176
     1
290
     0
176
     1
 90
       13
176
     1
 40
0.0
176
     1
 90
        0
176
     1
290
     0
176
     1
290
     1
176
     1
290
     1
176
     1
290
     0
176
     1
290
     0
176
     1
290
     0
176
     1
290
     0
176
     1
290
     0
176
     1
290
     0
176
     1
 90
       50
176
     1
 40
0.0
176
     1
 40
1.0
176
     1
 90
        0
176
     1
 62
    18
176
     1
 90
       50
176
     1
 90
        3
176
     1
 62
     5
420
      255
176
     1
290
     0
176
     1
 90
       50
176
     1
 90
       50
176
     1
 90
       50
176
     1
290
     0
176
     1
 90
       50
176
     1
 62
   256
176
     0
 40
1.0
176
     0
 90
        2
176
     1
  1
strokes_ogs.tif
176
     1
290
     0
176
     1
 40
1.0
176
     1
 40
1.0
176
     1
  0
DICTIONARYVAR
  5
221
102
{ACAD_REACTORS
330
21E
102
}
330
21E
100
DictionaryVariables
280
     0
  1
1:1
  0
DICTIONARYVAR
  5
220
102
{ACAD_REACTORS
330
21E
102
}
330
21E
100
DictionaryVariables
280
     0
  1
STANDARD
  0
DICTIONARYVAR
  5
21F
102
{ACAD_REACTORS
330
21E
102
}
330
21E
100
DictionaryVariables
280
     0
  1
STANDARD
  0
DICTIONARYVAR
  5
13C3
102
{ACAD_REACTORS
330
21E
102
}
330
21E
100
DictionaryVariables
280
     0
  1
Imperial24
  0
DICTIONARYVAR
  5
13C4
102
{ACAD_REACTORS
330
21E
102
}
330
21E
100
DictionaryVariables
280
     0
  1
Imperial24
  0
DICTIONARYVAR
  5
357
102
{ACAD_REACTORS
330
21E
102
}
330
21E
100
DictionaryVariables
280
     0
  1
1
  0
DICTIONARYVAR
  5
356
102
{ACAD_REACTORS
330
21E
102
}
330
21E
100
DictionaryVariables
280
     0
  1
1
  0
DICTIONARYVAR
  5
355
102
{ACAD_REACTORS
330
21E
102
}
330
21E
100
DictionaryVariables
280
     0
  1
0
  0
DICTIONARYVAR
  5
13C5
102
{ACAD_REACTORS
330
21E
102
}
330
21E
100
DictionaryVariables
280
     0
  1
1
  0
DICTIONARYVAR
  5
13C6
102
{ACAD_REACTORS
330
21E
102
}
330
21E
100
DictionaryVariables
280
     0
  1
15
  0
DICTIONARYVAR
  5
222
102
{ACAD_REACTORS
330
21E
102
}
330
21E
100
DictionaryVariables
280
     0
  1
0
  0
DICTIONARYVAR
  5
353
102
{ACAD_REACTORS
330
21E
102
}
330
21E
100
DictionaryVariables
280
     0
  1
1
  0
DICTIONARYVAR
  5
354
102
{ACAD_REACTORS
330
21E
102
}
330
21E
100
DictionaryVariables
280
     0
  1
127
  0
DICTIONARY
  5
1ED
330
1EC
100
AcDbDictionary
280
     1
281
     1
  3
ACAD_XREC_ROUNDTRIP
360
37F
  3
BUMPTILE
360
1EE
  3
DIFFUSETILE
360
1EF
  3
OPACITYTILE
360
1F0
  3
REFLECTIONTILE
360
1F1
  3
REFRACTIONTILE
360
1F2
  3
SPECULARTILE
360
1F3
  0
DICTIONARY
  5
1E5
330
1E4
100
AcDbDictionary
280
     1
281
     1
  3
ACAD_XREC_ROUNDTRIP
360
37E
  3
BUMPTILE
360
1E6
  3
DIFFUSETILE
360
1E7
  3
OPACITYTILE
360
1E8
  3
REFLECTIONTILE
360
1E9
  3
REFRACTIONTILE
360
1EA
  3
SPECULARTILE
360
1EB
  0
DICTIONARY
  5
E
330
C
100
AcDbDictionary
280
     1
281
     1
  3
ACAD_XREC_ROUNDTRIP
360
376
  3
BUMPTILE
360
F
  3
DIFFUSETILE
360
10
  3
FBXASSET
360
14C6
  3
OPACITYTILE
360
11
  3
REFLECTIONTILE
360
12
  3
REFRACTIONTILE
360
13
  3
SPECULARTILE
360
14
  0
DICTIONARY
  5
1F9
330
1F8
100
AcDbDictionary
280
     1
281
     1
  3
ACAD_ROUNDTRIP_2008_TABLESTYLE_CELLSTYLEMAP
360
1500
  0
XRECORD
  5
37F
102
{ACAD_REACTORS
330
1ED
102
}
330
1ED
100
AcDbXrecord
280
     1
102
MATERIAL
148
0.0
149
0.0
149
0.0
 93
        0
 94
      127
282
     0
 72
     0
 77
     0
171
     0
175
     0
179
     0
273
     0
  0
XRECORD
  5
1EE
102
{ACAD_REACTORS
330
1ED
102
}
330
1ED
100
AcDbXrecord
280
     1
270
     1
271
     1
  0
XRECORD
  5
1EF
102
{ACAD_REACTORS
330
1ED
102
}
330
1ED
100
AcDbXrecord
280
     1
270
     1
271
     1
  0
XRECORD
  5
1F0
102
{ACAD_REACTORS
330
1ED
102
}
330
1ED
100
AcDbXrecord
280
     1
270
     1
271
     1
  0
XRECORD
  5
1F1
102
{ACAD_REACTORS
330
1ED
102
}
330
1ED
100
AcDbXrecord
280
     1
270
     1
271
     1
  0
XRECORD
  5
1F2
102
{ACAD_REACTORS
330
1ED
102
}
330
1ED
100
AcDbXrecord
280
     1
270
     1
271
     1
  0
XRECORD
  5
1F3
102
{ACAD_REACTORS
330
1ED
102
}
330
1ED
100
AcDbXrecord
280
     1
270
     1
271
     1
  0
XRECORD
  5
37E
102
{ACAD_REACTORS
330
1E5
102
}
330
1E5
100
AcDbXrecord
280
     1
102
MATERIAL
148
0.0
149
0.0
149
0.0
 93
        0
 94
      127
282
     0
 72
     0
 77
     0
171
     0
175
     0
179
     0
273
     0
  0
XRECORD
  5
1E6
102
{ACAD_REACTORS
330
1E5
102
}
330
1E5
100
AcDbXrecord
280
     1
270
     1
271
     1
  0
XRECORD
  5
1E7
102
{ACAD_REACTORS
330
1E5
102
}
330
1E5
100
AcDbXrecord
280
     1
270
     1
271
     1
  0
XRECORD
  5
1E8
102
{ACAD_REACTORS
330
1E5
102
}
330
1E5
100
AcDbXrecord
280
     1
270
     1
271
     1
  0
XRECORD
  5
1E9
102
{ACAD_REACTORS
330
1E5
102
}
330
1E5
100
AcDbXrecord
280
     1
270
     1
271
     1
  0
XRECORD
  5
1EA
102
{ACAD_REACTORS
330
1E5
102
}
330
1E5
100
AcDbXrecord
280
     1
270
     1
271
     1
  0
XRECORD
  5
1EB
102
{ACAD_REACTORS
330
1E5
102
}
330
1E5
100
AcDbXrecord
280
     1
270
     1
271
     1
  0
XRECORD
  5
376
102
{ACAD_REACTORS
330
E
102
}
330
E
100
AcDbXrecord
280
     1
102
MATERIAL
148
0.0
149
0.0
149
0.0
 93
        0
 94
      127
282
     0
 72
     0
 77
     0
171
     0
175
     0
179
     0
273
     0
  0
XRECORD
  5
F
102
{ACAD_REACTORS
330
E
102
}
330
E
100
AcDbXrecord
280
     1
270
     1
271
     1
  0
XRECORD
  5
10
102
{ACAD_REACTORS
330
E
102
}
330
E
100
AcDbXrecord
280
     1
270
     1
271
     1
  0
XRECORD
  5
14C6
102
{ACAD_REACTORS
330
E
102
}
330
E
100
AcDbXrecord
280
     1
 70
     1
 90
652598616
 71
     1
  1
83BE053B-4270-4F13-8621-7B2BAF082297
311
504B0304140006080800137F84571475250C21010000A80100004F00000042304241324139422D313146452D343645432D383034342D3844423534343735463930412F4173736574446174612F446566696E6974696F6E4974657261746F7250726F706572746965732E62696E3550DD4AC330188D03D7898808DE89E285B7
311
B149932EA920D2F4C72B61E8034856E356C8DAB1B478BB4B9FC667D9DB78A9C99A054ECEF797F31DF20D00F8F3C786E0C8626BEF33CBCFAA519BBA7AAB966A25C1D855743B97FACE4614938C22C620CE130EA92018261CA530461923792A28CDE2919D0B2C72F5297BDD39C997DA544A6BD9A8B63717B6E077DCAE64677749
311
7DEF1E9D00E0686B010E0DE39416832367F2CB427EAC1F9EA431AA7B0C051269942602625C16904E8B0C724429E4B98829657199A0347C55A6ED3795322127A240311190460C415A6202F934C2908948A425E25194B0B05BF6EE6B2E9D8D79236B1DA2D05B785F378B1FEB63360E7EF71C0CBCBBF6F9C8F3B9AF1FE6AE7C3E
311
F17CECE726A77B9D5D30F0ECC6F7BDCE3F504B0304140006080800137F8457B211A3D312010000300200004500000042304241324139422D313146452D343645432D383034342D3844423534343735463930412F4173736574446174612F496E7374616E636550726F706572746965732E62696E6D51BB6E833014751F5297
311
A6CA476448155902DB04982026900F88D8B220404A8766882A75F5D8ADFFC11F74ED37347B3F81A5737AEC38D08A5CE9FA9E7BEE39D792FD460839DA00245748857384BAAA77F5FEA95C97DBFAB9988008B84C1D8F4B2A98EF5091B99C0673E6525F32B9C89C80B1D0BFEB8DDAC25DB14C9917524F084E8556CB4C2EA9EB73
311
27992749B84843C8CCBDE471F3FEF933FD8A50AFC129E4B937153DA28D4E6A42C631191BCA1C93B8C717118CA7E8C04519C84ED0DEA053486BFDB6F51ED430F43BF6936EC940587DC403EE1F31B4EAD5D33F9A36BA45A77FEB01B97E2D5ECA2D95FB6257D5959E1092370735D360A60E4DAE818DBC39F6138BCE3353AD133E
311
7D2BC40AAB54639A5F504B0304140006080800137F845788E57597CD3F0000904100006B00000042304241324139422D313146452D343645432D383034342D3844423534343735463930412F5265736F75726365732F38334245303533422D343237302D344631332D383632312D3742324241463038323239372F7468756D
311
626E61696C2F302F67656E657269635F706E67355B773CD4FF1FBF73E71C0E67EF7576C9DEF3EC995D46C6A1EC5046649CBDF79E192942562825CE965D8A868C2842C8DE9FDFD1F7E7F138F7078FCF6B3F5FCFD7EBFDFEC41B196891913091804020321D6D7513FC77D8C5070EC3FFEE51B21F068154CC75D455CC028A3EA6
311
8992803810109FDDE5D5CEC5521B28A1B422BF80741695D5B529DA1C2D058AD2388BDA9F476F7C2CADC939304173DBF48A452BF8A700C0C70C3D121C1AA15A5270C22E2B9E28763651F7DA0D12CE11077B2ECD0D560B5E3DE2368B1E65C5E1C87384A4CC5F2D9FB8BE39E9B77C753783A37998F5CEF1B4FEE553463245C971
311
2270880DF339E0B882A6BA713D865F6F384C842D440934EF264F4A304F8DE4EEFA1E2BF5E2D91F5ADD9613D6E31DDB33ED31DB1D7916CAF091286EA3D31B9CFECB78BB0060245B943C4C040119FF780A74DD308BA9D028678674EB5504ECF284EE814DAED07440BAF649BE4B55DA2890F4D73E2D489A59EE54FDB0A85B59F2
311
F52C4858A02705C4815A792B0C4A996A2023ECB195073E115E3E3647F64243A8338F2000BCB58DA5692C7E7C3D413F963FEDF3CF00FBB0F831A9D51360FECA43819F527B89FA260EB63C5DA676830AA3626A3693B23F1A17A0DFFCE3EE164E31B5365EDF0C89EF64D8E38AB0BA9A1117D7C3A0EC44F44F4023095E80BA610D
311
E336D0F99593A88BFC5306E72DF98F7FD132ED95878DF2964EA7E43071359FD83B2BDF9C6B5BDF768F0F3C0FC351199526F53D9460A34511F75D1B63E488178569472C91A94497807A3FD4A390C6558F26D416365C3656DE6E769DA9D8FC73774E1709812842DD8EF96AED1960F79D21B395CDDFE6F92CB4EB962A4668C769
311
90E2EF29798C8941D67DA50F4A5F947872460F1F6FDB794E8A29FD7AC0C0D6E0714339CE258FB17AE8535221E3464A10F29A0BE5EEECEFC5675926A89F49EB14E5711894F6586DB5754EB4D5DA9C6437EBA57DB97A24F8B8A8DB295FFD73266CF57E82694DF5166DDF93573AFE9C9C5EB05F8FEF8E89E0A8917B0B3724DB7B
311
EBB53252581EFC3E38166BA131A3A5B42FE2AD00A769BBFA4458D2DE7822F8C4F63D0B8E21B285AE13325F3410A435C648C9D91FDEB109E73CEDA7BC796961AF79175E1A3CE4C5E8B0D009B0C9E29EFD98BC8E97554E3D8D838424E270F7685226E5AC268E021EDE3522D583E8F20C0BDE2959EF5BBFEEDAB32FE9A3ED0E39
311
F211A86AA9DEBFC68182EDED132AB8BB794442D2D7EA9F4D8BFF52BC4D55BB165124EE90A42D101E67BBBB292FFB4F66DE5BF2300E44546757DA7CEF8932BFC9F92A0707953491A55C5A5ACEDABD9FA1AEA01BAC3DC5A24E22E7C47213493996EFBC369D086ED9397C9BA6C7F9855C7BD5E15BFC8C53DB3D2A4C5901A57ACD
311
2FBDF4D1676E95338B2C2BCE65FDA4C64F5FEFDC7D9CA5AA1FCF11E193F2FDABF0F4916BF13FB916A224380E6462A9815F2300DC49CC4DF8D055CEF76462F4B7A7ACA7365C2707891370BC1D0AA6203C44CCAB47084FEC057F27FFCD57F89B8B9852459798A675C66BD7CE572CAF71FF7E6D7ECF7BF62CAB7B3F1107DCD04D
311
C55A3F9961700286141C94A4F771FEB2BCDA2DDEE0CB0BAE402FF1DB0100F8E475DFFFC074DDB4498AB7D186A7654DDB1CB680D703D47CEB4E72F8CB13D86A4AA68116E26387B93FD6738779B34FEDB8E517EDF2BAF28D9BE93A1D3A164320E07D42E514725C29515FF361754213EDE06B079A2E99EB1CA82A02019EADEEB8
311
7B9AF005BD04BBCECB14AACD6B24EFBE482194A97DD32400685FF1FEF1544D1B14EFB1E7F08E6D2CD2AF52DE757F35F5E62332EE88EA26417AD5C3E0E319D68F25414E6D672BD4522B278C57D18F0113921C71D96527E091F00CEB15AE23D24667369BD3CEFA10C7549D930890BA4366F4EBC55F01F746109F98ABCDD5A3EE
311
06619C6AD78AB33E48E4C9BD21BF7478B385EC05C4F8987E2C1BFA0A60EBEDAA0AE0B015C2720ECE180FB6F2DEFBEB822D96338C9B63822183BBF52FB664A7AE57003AABCE512BF77E7E31BDA2E739AC4C131657DDFE5225E900FB56CC01CDE808FA4A9C9DA16AC679656BB64796283D89812B8F91136AE18EE5EBBAF47A73
311
BE3C153EB5D4CD491B4BFB4FE690A4CF9ABA08C0D8AA64220C438C96EA6CA80B58FE5761E697B3A292EB9FBDA502FA863E49FE694ADDFFF9D62C520BDD1A22014147A0903A05B9B729F54272EF83931FEEC057BFF8C8055C279EAC5C0011804828734024F6CFA319C9CC6867C727184465CD9BB7ED386AFFD96B294A85E380
311
2FAE47244602D8273615952B98C4F23F7EAE4463D9D638EEE374A20959E0FE519C4CFB0FBFE5DD80C2AA3F9DB961D1BDE57E67C9BB47B77FDD74EE3094F5DBBE3EBC1FBDB7393F5116263009E2EFE1AF9A221B2AE234C902BF70E9F280ED23E73908361565964333A3F01D0B006AF32FB21AA1316744B489D5A198E8529924
311
1735BE559675130955C902A8ED761FC0DBE337A9F91919AF5CE32AF902ADF9AB2615E00E8A94586BA1A90839B61832FF1BFB76D2EFADE6DB1BA04CCAD3DA649E7E2A0219F592E22F2AD54847EEA8E42271011E9074F8F3DD9FBA6CDF88FFC9FC7E811AD1CA8F4557CE4AFC7BBEDCF0114A48689F20A584520C74DA8127124B
311
767E2FB91A6B186246727BE63C9445BAE02088D58B8EFDC0F1072407CD9B89A13F6303B4A928F593AD489B58E6869325790ADC406036C591729FE14021F94B7796BB11848D463536A092A26F077F94639F7CEEE2A724C66EC885F4A24F8B8A0AC321F8FD149BA529460FAA34E4663C02D41FDF80BCA222D42F0ABFF8490F4F
311
A74C673807C2051D8E467B47B616072860069A9A303ABA9B319D58404461401B0A0F9BE5E1E151C14BC33B32ABE03DDE91708DFAEB15E7C0D593C86BB7D7EC17BE56E57975F077BFD5525F3A1A361D584A75E08CF29FC7B44B2B3085014F3A5A14517377C3F6B8F37E59514C3B12F8AACDEDDA4DFC49BE5710101534CD6FB6
311
DE15B50F11A09472AABA727F0C49D9CB906B158030065F48EB3625E010CEC1D511D0053474B11E6A4F01C0D6EF1BED3A944FDEC70E0DDCDC756C86545910E0DAE3BE3AA9A404574C2995CD5CAF9549226BC94B4F4F0F5F9086F418F6B32346464610D8BC7391D3C3A3CCF04CFC1FB2A3A3170E369511868F14EEA4E5E438CC
311
73DB1F3248AA94B6B2FF33B222FF3D1E7BF146CAD229770158063BCE4F5391964DF62F7E52A7BE0EEA829C9E13C4C147D6F93FE59E111DAB5E4594D6F3CD1AD375EE039930EFE5AF2BB2D41C83C7DABD8C659BAFBE8FAB392CA634F3D15C1D945DB4588D2B0824A4EC928AAC565557CA2F0DAA588CA5BE30B3A8004F7BF005
311
E96CBF891D7F18112A3619FDF530DC8AA64954258E1811789B5189B49B4EB53F5F89F7D37523894F3EB57B373763C91E502F52CC99EB7BDDF933FC324C4FFC2561DFFA7339FAFDD0A4BFBE6D3A8FF9ED1FC49898139864602458968913181918F719CCF5A68B2EE9C1FF050E34E63107003B8120FA982C21B30A874E4F5E4B
311
38D5A8290C4B8D9BE48A0BE31EA995BDC37AC6DE90BA17D259DEF53605D55922FEB1855D915B659FBEB350EE0DFB2F9F766E1C84CC8964B75D08667445EAB966015F63A18A9E0A325C1B3DC628C0D3CB60F767FA93CC65F25458BD23C3B312716E5F40E5858AC06EBA9AB14F95DB99147B832069201541D09A0D856E12C629
311
CF32683760EE855537D1901988D5EBC156676C7DD51D7207CF3267AF1D76C2AD867315E44618015313A98B19941C696FED3461CAA9B5415F918556D7802EDACEFD6B2E45853A9735DFC9DBF7E440F9319F8B6805A973BCCDC76C069A9144E51F187EDCC12FC31B5DEAAF0A76137199B106EC84ADA6B6EE697D4E6A96E00741
311
7F4E880E8B1E89B4BCE9D81EF611E2ED8F0C1A6C25F620FAFAAB656A7C42D464880E8AFAB0E0FC8EA38CA9A8AEEAEE3E4648BA4680270A89743CDD3E6C6CBF34B7B640EFA285ABC7EA0A1E28F3CC963D114A80123EE66D0AF7D5380EB41909B605AB4765B709B808590458157E69BA1378FEC4B48CAF6A730E3BE3C5EF2DD1
311
A5EAF94B1DDE50CEB55DDFD7EE9A16747FA4B223359FB1FCC69E1194892BABB93A1D5C4E807AC0EA2E30180811E77A2291F6E7F7FAA5E0F60215BC6024E48DE436C511F0628B8CA189982D4D83CCA17D305A7E923C37941CFDFDCD93ACAF735EF5F0E61BBD3E6C41A59B242790D3A3BAC7064DCD89AA2E37214EC839820949
311
D5CAA31E240D2948E48F690298974A96BA9A8432BC90F5071D6537C9666EA4564796B7AFFFA548077BEEA75F63083435074BA182F3699557397F71548383FDA8CA34D99B981E72835ECDA5DDDC151315173D05A21F651AAF8524E88209E2E7A737ED1045800CE3390050BCFB8BE588DF111617874C62575039CA588EEFDEFE
311
FE319B739DE2EDC147092A262611E159650E787917885EF08F1F51B8F2D8A71D60B58B190FEF9541A1BE94BC19FEA50784DA1419FE4B0FB51B8D36B5FF8E1286FD8AF42B91E59A5F1CC4D60174E764045FD8C57B18209B217F89A62252BD20BE0E63E12B8E8F029FE19E0E8D0870F58721A557082250D5424F7909369376E4
311
1666C0EE77CD87CB283F661D5FB6D0DA023CB67320A20DC7BE661E9E1BFE5463085C557DA1FF9BE835733766C3D139F2CF9E2208873AD0EB4814DE9E6BF2CAF81614D4D43906ED1C05A3265CABBFE192770FC2F64F940CB6B17B5F166F133C9AEEAD2641807C3E69515171DD74C4A85311513D6EC9530B3B601B6BA3EBFF3B
311
5C3D2F7D69765141E345F75433953D013ADDF8F6AA7DC3F4A7563FE5C7D367937E2900D7EAD0F9FC9A4A1A9B5BDF1FEF08532660C01C5D6DE22199AA774383E306DAB87E301ABB7D213887F9869D4942D0D71E94B27EDF216A318BD488D45DF84529EF575AF3C3938C0AAA0215B01994153E2054A0B894DA5C784980633AAD
311
48576957CF4AEAEAFADC7C587368551C73DBE1E57C58AC713303A8BFC258BD04B51724459FF9E24C03A81E0E0679CEB9B348C0DC998FEB9C6D6EFA77D247CC8F92D3848599ED89A23218D0636465AD1CEEB7DC140D7426F83491C4E8E8281C2FB35240918FFECE880CA2A42D70E8B20B34DF5221C7DB0CF90ECCB9C745B37A
311
47E9B716FF7A97B7A252C1F3814DC7B1E1A7F72B8751D524EF7CAE45B0C73B3BE7D08ED39781B380DDFC9AA4A4749C9493DB5BAD07A6EA6C092FBD0E85DB004DF06B8C9D3089C5320187E4CE1846158C7EA7DDAE8AD9AFFF21AA3A1026BB06A259845E8232DEE62811A4DA9CEAB3A4887320B76E2AE5615EAB7BDF738CBDD0
311
1F1E64064BC13D9EC53576751CA8CACD58B3CEB0E6CA585BD089B2A59B9FC101403387AADBDBE70586B93D64BF3AD4453EF9C3B6A93817E8346991798601344F79A83C51F3D50F7BF2683A3605F51A72449489E0EE6169C749C60B1035651103AEE24D24E51A759C840DD3FC6504DA6FE107510E447B43461C79D22970B75D
311
E5E1BD3007D1AFC619A4A4A69B5626AF5E9B8374E20677F77E2F8E73DF868E8BEC7EBA7B6A75EEF7205E1AB9486CB642741D6E03FF13FCCEDB1C4AC129886268B01CDF4B124AF797CF784F3C6DEC97A17D4B558070A0F1C04DA4FF9BDBF34159AEFE958479824B3F58EBD1E19088A2AFDE501B6F2052368A3FD0E650A179EF
311
AB1561E1D27527077136E652676C3670F42DCB3352F48F6BC86D2C3B0051727E41A0A4DC6CE2BE9D47F5CAA2935A3C0539AF080665997194ABECD723B08129CC5B6B21D2E7D54CD4D12610E7E9FB8306771A89576C7A982002775ED44F3F744CF21EEBB27A631671D921938AAEE3EB0D19CD1E083727F607823E817BF599DC
311
ED5394E37EEBC2E88782E638920CA641EF74D4CDFCDEF06F4278ECB18E31E7E9876F2D783C8BF429C75395F57E98C2B495A3DA077EB3AC3C158608B6B57FE3EA48484D9A480096FCEE0DE880950E7E5A5714131C5C41AAA29FD19AE81AC145FA1B9E85C7169A5AB837B213493DF7E9AA4B5FBF9CDEB36EBD21EF1181B7CF73
311
66AB2A951D01E37AF4EB835D1BE8C117CFBE7625D2EBCDB0B20C5A4B45CED0BCDE3EE8DA9DA78C2E21DEAAFFD1197E463C33CC6A80FB785669B856EFF7A8CCCA2841B5A5369173320B1170C368B2748D81062EA0296E5E2D95D7667A4A46D98A6FF475C76AAB0A8C8D45E226FAFC9FE0133EA9F60111F99CA81ACE03A1D14C
311
89E8B0D69079C91464FA1D99E651D0EAF606F345C42A8A1AA9BA391031582B96D5B4176A77AADB01F12FD298A75DEEBB2C82F0B8650E880722F8DDD90C56A7A058E5FDEF1AC93545BA27367C76F5D8F9690CB6F8DAE141EDD7971F0FB548A2AE435F224D6E5954CA155512F7332029D5A1230854B79F258EC5FFDB09F5F634
311
3A8EB193229B7F7E79B3E48F8E183860B38C8269D1B53738FF1E0BACF6AADA6D4869E9DE708E79B5DADCC09B1BC76F649731CFAF59A83FD8BAE4C749D66FA87A3810D4D62FFE826FA400C0F325D2BC0F3CA35F5847B82A2ACC7961745C823E4D863D54460AF792CE6F79B5C7A33B25C3AEA6CDE15A919B6367D781E9D44F61
311
BF828672594A3E1D9EDD6DF179A81F27EAC05B936575D73E05C209DDD2115CFB705DF9BBF3C911589B3640735E9E618FC9C36A7326C82B2205E244C55D56FDB9D5DC93CE958D4BF8174D2B3DA54CB3C09F2C2A6DFF73D23B2197355761AD421EC581284A7EF8DE2CE3497C0C804D49B41DFD6A7360844E5BEFFB495CFCDB97
311
A4595911CDBA623274CE852B5E278AF0BEB1770E9D37CD977B2766A7DED0E94B840E1E95E8C77DE5CB6354AF7871427C28ADBEEF7BA0A28E19DE9ACD75F379FE373EAE6DDDAE3834692F9C2B03B4FCA8FCA9ABE8EEEBEBB725B88A7C90941E850682CA04061A7DF0CE82ED49BFAFFD42C309818FAE14755CAAE78B0F73243E
311
CCCAD7DF58FCB9CDFAE7A4D3E6671A613639130D056C8383C8F4FCF4808C331E544DD26E4755D09EA05253B3049A1E32587CC25D72E073E2CD96D04A71BBCB0038FEC3F53D254199C3CDC67CD66640269431860225392B2CB3ECD0B4498AAE78BA1994246AE1EE78F2EDFB79F6C6CB6B5E279C4D373FBC21CB2698C9ACBBEB
311
6A4BB6B39E16AB0E421CCBFC7654D81ED86022F9BB522146F9F4772E2D0E4FA70120C95A85A417BF5078B232F4754363EB1750B2AC2148EB46B1EA72AD9B4D23ADCBC589D70106C3EC2ABEEED84DFE28E718C6C83502C28E9FDD3B09DA0A6F6F7B72B706A31C9E2A331EE70DA56A083D2177BFD63C55B11D8D949FAFCF90B2
311
3A1E24B9B5018B9A17E99F2890EC302F330FE7936E2C23F0D237EC8916F5166AB84B62A21BB0B950146962D754F92CC2C8877BED8FC7B7B25726DD19545392570B3A2C66B58F027BEF412E552D12A588C4A3CC5C3193FCB3485EFFF700D0B9EEC077754A33DC1FB9E25AF814628F91DDFECB667D3F7690803F38D13F8AE393
311
53523BB08FC6760144AFA2CE28236F65EDBB3D5F59A57D612B99E3D7E5F8A851666BF9B5A6658EFC96EEB37A378ABB0EB3FDDF1303AF32C41BD1C8560745D7BD81066B0D6313359CF488563D3BA3F8E2185D1FAA3EBA1397C9D0E3DD232180A4DCADB6AF25DB3AC3CC26589C8239E66E81547BC7E2F328F9884764CA37EB5D
311
BE390DFC03A5246B456A7C3684C4377D0EEF9A350680FA9A077E8B2957B489E09AB1AD41316944C2254B5984830F691C93CAA767EECF976FA5647538830B5E63236A6F0365C1E0F3E327F24FE35EDDBD7360B0F7374837409F7A6311BECC12B7026D4FA1AE204FA3F5FE904B1F420C7A9044AE58E403E7C4848E7DA25DC9ED
311
AC79DD756FAA26B9EA83ACE8A214A2612A22AFA19DAE7DBAC5F8CDE1292A485F98DAC731A29FE01A3966E96BCB9FB5A4C8830E1B9AF0C54B87FBE221A097036E5D28D1F869F810C06A9BB0AC0612F69AEBAF893C6E7AD59460208BAB3A6B09CA4F6BDDAB8CF0D1F84B72487498395A70DCD754796E271099A567A55CF242BB
311
ED64696378BB6CF25EF0FCDB589F3A82F1116D010A9AB9FA4358809EE0C973A2B4229BAA876A70B03AB49CBA7FBE71DB1832FFD32F9BF2C8E98075CACAFB36921235D0F552B6A67E94E094097A5D7DF681B40623DA535ADA7A9AD8E9A62407D7C9A5AE51D62A17A83A23728DE86BB56115804D3F2675F2C6B87541A0FC497B
311
F0CA86420F558C9859EBE9FAD62747E323E3AADC03FDCDDFE7407B09DA90B44E3185723C5381EAEF589765E2F7A099BA46695BAD60CEF3491B8A171F5F56444F7CE9455312C3498C74173AEA0214EC029833B34B650CBB5A5508D5091665309642791708ECF27CF11DB3D797D6CFE474453BD4BFADB768094B2147814D81C7
311
CBAF8228DCAF5564B5891F5EF6A860EB2E323CB82AB868D8EA048880D63B0DE5341F1B3D53297B928A11E15F25E5148990F710747C3509ED14909C552EBE3973246FCE55D00564D8310BC3EBC5085D08D806799B77D6C57FDF5E55837F9E934F09C03C729271B64F12D0A9F9E938107CAF7BF1EC8CF1BB9B42363D33070F4C
311
ACB425E605DDB0A34A12BB936DE286B9887A4E2E558F0886498BFF49C311D96C277CF6A9FC0D75AD0ECC5226D7E0E3572012E56D7FDE4410CEC7A6D0F997F225A2055B8B92E3956E875AE4993CB3D4C9063AF98FD45E1BAB165640A43439A2C9181A7C355B297C0A0CCFFAE19B6FA3C2BA238A885FBC98B8F6DAF4B94B9730
311
4878DF4D8BFF6A4AEDF79E90ED4E68F00CD7299F4E0D83E35601AF0CBEF18C1E870E74758FA91F5131075004DB3CFCF09AE1DABC11957FD9808C92E8A678CE9DBE40DDA0E0D1D505AAFBCBA208232BFB6FB3704E8985E61ADE53DE74152F5C7DE74B1DEDCD37DC3E8FB30D7EBA8B9EFFC3606BF90B8D438279CB7709FC7C00
311
D327F41817EEA71CD9E49FE9C8C9A81C70915D9F0F15958EC5AA4C3BBFAF46986B90F188BDB24B89DE3C6F29EC3E6F66D84856EE96A35E657CA41B41EFD8DBFA16AD6E91439EA92B40B21C053249F51AE50EB0B24C770FFAF40DF12C8436366819C48E36547D4E7B72FE2BBF10828583057814A668BDF183F6B2E58DFB1511
311
03E56303E63D00F39C27C4661605DB644D19175D02E3F0241E8FC3458D17AAAADB117CE9EEA690D0DB01E634878C04C2C9310B69FCAB831151E3AD293BEF6E46B0ABCECB50F5939B39C613D41E81FAE8D34CAE3C4566B761D37185FE864AC32FCB71AEF39DAA5BAB88609BB980CD2F07A8F941653B529567726E2B2A58D079
311
DD57E1E5E31426CF184A04D7B03B985F276D47406AF276FE32E3328BA866EB1FD39BEF57863A317634AA5FE467409B3873F5069EF0D71AF00AD189D17BA1974ECDB2D623E9E14086386A6AAB5807825C37B015BFE892AFD154920EC437EB945D958E18622E1E0FE2FA06557CE4BB9BBD05A2D40E774DA2B65473791E314B7D
311
6C886820B2FCFE4AA272B3B8B15E7344A145E8AF919B5454D89D36D413E87211186BF6F645E5EC94DCCE8E1C799022E4EC9BC86D7A0F2AFB1FC4B2CE48F84B3F49ECE65BAD24CADCC07EFF39AB06BE9E6B27A059938EA7208838455383DDBCFCD967DDE4650EF92A14FF933C975DB20BD7FEEBC4487576485963D757D16340
311
D9599FEB362F775F38CA4185A86F74B629C81B133644A3B18FD056E997E0734F9BE26D11C0AAFC669E2AC9FC41D281F8B2E1C35AE27BCE05F3DA295488096688719D974DF1B5D182DB7792288697F8763CFB43562C1CDEE11C4AABD5C22B6E33F6F389CFC3477C5919DC0D533F8A7A1846B7ADB60ABDC26C43D0CFC8910B7C
311
15EE22675BD02702ED39DB77A87A192CA7A543E6205B979B9F5A6B512A3CA799E198B2D5797C0AF8D1D872CA455D4D431A7879D4DD76110B5FF7F4176B54477A9EB5E4A5D11214FDA585F0382751D8E2582BA5D2075053298FEB8F1537304E32CB22C2E2B693DC0A760B1DFCA751BDC445AFDCBB12820ED85F6D5298933C7E
311
F1211E9E057684056CDA3FEF3BB6052355E162DF27C59E965A8DDB7F9437EB72CDDA3A090DE65A5B2F50326247B7EC67B73ACC7047FC9B353D6EE990F772207C6EC52B39DC2F3C0754821DAB559F7C1809C7D0DD5B0499D0442E0A6E391B3D5DB46D11E731E6794EC77523FBDAA242ED67F9FA1FB684255671F63C9BCFE6E7
311
E896D51001A6113EF2298BA494E0B0980D1FA5B9D60796554C02256B1E0345FB7C6186B6A19D2DCA270416262845FA4F42DB5D9B0A0B6F07FCA2E56C242522E001E0CEB734AF310FC8BFB57E38E03AACE93B3326A2197891E68452B26A6307FDABFEE0223D3C03C3C73D2D5BC054C8311F12004CAE488E5C29287F8156A2CA
311
A4AD0D7BE6B97264E4139F437CE73ADF52E5134C52B819777C18B323A5924E4F67AFD13B1CDC3A61793A79FAF5C0CEB718E441071E797C6DCCB9EFCF7E4A1E9F3DF3C2F9C9E8294E9586868788C972857FB0556D7A26941A7EEB9B580AD78EC40B85DC906B4120A563CA3B87797ED612D3B035962BB75F6515A393F4CB057F
311
564CDF54F2E5A024514E6A1F901DB80C7E70B1FC05E356A7E72FABF4775B3E3FB8F70A2A8E7B6A94542BB304157978CCC999E707A29CC795E67A59CC546A5D47B368954CA7B6E75EC9E1F6FC73CE3B4F71F8CB1A6B15923D61EAAEB14626AAA9D04A26EB9C66CD1BE86CA31A5D8703DE04CD1EBCE4F5CCB62F93909AD11E55
311
799A781A956ED27D3E738F4538CB04ADABC7DAEF20BC35BA6A90BCC1DC61BA05F20D8832FFB9BC9B15E2DB838A0AFBB7E0C82A562127E0446894F427794C3037186F622BF24DE1B00AA10A23BFA47B2A180D6DA5AD6F7326FEB8C100C2D7142EB2A0B2A9D1008A09BA343D70E054AB69E2A7EDB783CBD92537FAF4A44D1296
311
AC2792729104B3276C276C951D0CF3CF3F1E6B017720A7B8505A5FF9589365979678C36F1BAF759EAF57C60F1FF5FE9DCF5F8E764FF25A2D06CF25117A8FED51884C13B2B750DB0E4F5E3D64124FCF11F0AD8F1CC3B3DA4B38ED22BF1CB2585EE6BFEBBA63FBFD44F9537B9B37BDD6B358720F98A8125AED4349CCFEB0E135
311
F19E208A04CA7E2B10711185D72E381F448036EF57C9F874E54A971CA37A639E986AC0226DC5AA00D5B14FEA9192234B3DE617814FC221C92F33F1D392F297731B567FD98FD91D989379AF567A65B8ADF177591DB90FBEA99BF4ED11B16E50A0AB1DBF1156D034BBE04D69D08F939D8E92BF525A1DDAFF80ECBC95D8F45D3F
311
DD289FD23F7D8B452F8EBB34EC082DEEE68E18EDDF072060FAD2AB1504DD4879BF67099FC58F6E9DEFBF645D16334A3E9A127C6F1AF6132CF287E433B43A0EE93812B4AA0B194E03EE3FF91EF9C6ED0074A2F6EB18A96A7C9890B1FCDA1F2095E944DB911ED54C60DF16FB74C8CE9BDC7C54C4F14078CF73C2FFF1F1BBCCD7
311
CF64F71407EA1683DBC410D226627F66E509060D5C0AFD611DE681D509DB8DD12FB1265B03C6F5C55FF4C30BD94187FF692B4F152982502F193098A789526A038AB529A52BC0DC4FB6285CBAC10A8B8DB75DCD9BDABBB221E27D1F8DA9F5EE5926A1C8AA9BA9BC09239C6A7F12914EA3B59EFF7AAEC3FFCCE56F1C5C2980AD
311
072793527565E774F4631DB178CEEC691B1F367BEA0CF2907E1D6B854D527065979DDEF002D8B2ACEA7CE21AE297737EDE1D45B31233B73FEA35BCFDD0B09721FDBAF6432681F2FD10C3E9EFB246FD6E854B344ACC9D8A0EEF876A7314B49B6A499FC650B099D650DBFEC7638ADFD245E2B7839DA5AC5F7D5623FC0ECEEC86
311
53FC9B2BDD1AD4D00A566FBA7186DD3C9CD26512551637498CADB950FEC71ADB9A5524285DE328B8EC7EC75D2345AEC6A27C42AF6D9B92155315C80DBFCABBB7DA0FAE425C4FB896B15C9BFAC4FE67DF5A23D30C93DA4D8F36FB15D100050DA6062E22AEC5F4DAC4F6FEEF97AE05DE63C6D38F9E068A20BC5E3B6BCD75320C
311
5090924E7F93640A7735B1A43451C2D91EE62C6238B797349E59890AF3A520DF4A87095F3ABEC2E61F0593416CE46CDCBE0E00E2523FCCD04408588B5B6C9DB6459C786CE378770B54F51DA3A5E1DF2A3349BEAAC234A6CF8993B598B3B25B4B113E353A4D750FA7534749430F3EBF2512E7EA3FD43C6AB9A1F765A58463B3
311
06721A15D224FAFE8C6F5E3432D57EE697DA0DD5A9D4866A8BCCAAA9DFF1F06047851408FEC060471D0E3EB86BFAF46E4B5E60311DC3E3CEA147C75CF971BE74689507154FF2D2E92F15CDB2B9182B11459FD8ACAC5A85F174BC94A7F4EE4C4F5CAFA7C02E37BF0BC77B7DCD0C047BC316F562A01A441AFA7931CC84A28CB9
311
F4AA367EB515778F29BFE61195FA671F4352E5E46E3A64773F1F76EE5EB36D7BCE9BCEAD837A4D77F8DB8C92AEEF6711920D7C7D0F76B0FD0EB7AB83724CD35BCA7D36DDDF5FBB7FF6F04A91F3E2BB3B8F1A43CD659639507FF6331C5F697BCC782AE57D757A27D97F1AB9E0AEDB43F92F1B2AACDF5FEC8ADBAF9F814E2027
311
003BA2F9E144B1938A7A04050AE5D953B82C45619165C813A10E76DD6906B3C16438064D14CDA713AEC420034613E1AC7241904A49FBF87409AFB1FCB9B72FE7933A87D8FBEDACECE4EDCF6A4FE9FB94D5DEB74FAB7CFEAE17EE965DF980DCCA2D04134994F9A2E94D2265DA4FE6AA7B7AC15FACAC2B5ABBCD7DFF542C5314
311
FDAB2E1B9D8B65220B8E2B638BE008E8DCA22678C820C5053664D15E89F2D735B51A84955E81A443545E9FF787BE0FA700A76D136C27DA179A7C6E8939E01BE756E19CB292798063D8B97F44E8A27BCF3A614FEB8BE974A718E86F7EC99B53CA35FA24F61F2B07266684623A3D4CF073E511F3A10A8FDAFAF0078C577F4DF9
311
D339FE7862E5FA47CF4344209E5BF76D783B1B48E152AD281B15FCB934DCDA49CEC5706B1EE8B460F435324A5CAD154725E21AB8044B75A557A79F6C807B9340AA3D92503E866F4274412926C8C504E4D5EF8C0E68DD0B028781A6B4054F11CF18941F101C57CCC796773ABC8DED9CD91FE5788806C05E548895354AEAC965
311
46D55B0E94A59F148D061F42AA398D822CDECA4CDE79E13469BDCC44FDC990F366BA5978C15F97ED80CBFD73B0CD9B8B83A4F6845BDFBFAF034019473FB9A63BD55D3A4A7284757071574029A4D016DCCBE95DD679EF3C4880BF169422F8C89B68A988D2B13793CAED4F74DE7486C72DC94DF46B8E93D8E02EFCB1FF9B3BA1
311
0C8AE7F653DF94F4AF466CDDCEF5776687F7C4C14B63E4EED1719DC2EC482D7DBCC7AE518CDE3D5FF86D39000EC3673C0044E1D308BF05F74D1B5F033A7D1BE7F74BC55BBE3E4A20F920946CA0271EB17BD2B80E5660ACB8A29A79F5E4BBA49D4D945B6EEF4A7EFEAA65E5555BBB57A7E15D2F83C69F30BBB978D2B39F1F26
311
FC097424D39BB33CA3D87ABF64E307938B685BAD44F71556A30B7E712CA4FE600613C3E554B69ADE949A7CFE214DF1FFF05CB82151EC6FC31950239F94CF7AD39DC473F6EA356E5EC2C4EFA04383CEFE985A127484366FBEE3C0EC4FEA363E4F6632AE781392FD45D67B63FB8DF70E82734F431FD3443172A0E30A83D60982
311
D55FA6A2CF86DBA8382502ACC6CDEF3B907982EED1160E14863FA242F9757347E1544275CCDCF71ECD5F8621CBEA326B8BA884AD7F825781923E66971F04010D574C541D8427A438A37EEF8AF88240EED7362C953F5A81DE2D56109CDE2524EA0F5D2F87308C0C47BD97AD605878AB8589E17CA83930CB5E0DCCD75853D68B
311
1AB136594926DE426C367428E9334AFAFF90ECE221BB5DC9E5BB53D2CDEF954EAA9CD814F0E5725F1965DD458E5F8487683AD86B9D0076BE3EE91EB1CECC5331A67A3F79D8B27587C12EC2A6A70474749F27B4C0BBAFB94B34189E88DC18964BE4121B9137FD516C7755356E50D6714E31ACD222621EBBCD1CFF81D8747905
311
6A9DA0E0B8EA19D24CF937DA89F78E8650CCBDC110AAB6C4E46DCBFD0446BA9E2060E81F314AC2031E88135E5476AC0160EF5C0DD2EEF1B8B5CB2D198BE9A554A9093B5F7D7E4B5407DDFCA1D9C152FD97F55BFFFDFE802954DFEC8995B983E28AC92F1971E28F531DC407A1280EB125F64A72E617EFB27DFBCEDCDA2D6F2B
311
DADA36873EE46B9BE1782998C63DA7182BC383FB6FD15DA472B175D7E8B4FC88F38D6E07FEAA3FA3CBB8F6B449ECF14D2175E5C5CCA3A42ABF24CA6C9395AF74535F4DDB38CB84F56614B0FD32D7E19CA5CF988DB4449C40E23DF2B16772594554579094450F56F253CD25EA7F77366FB1CFE79696C428BB64D5A41E986189
311
427E5E4D7E2DAE3D5BB4972B3DC44EAABDDDD63A2264ECFA5C786EB0EE1FDC5BE34FA0F08376869FD1E61EA06CAE15191135445EE8F0394161C3266A596AA035572BB0C8876180D8B9C77D307DF9DCDF7365ABDA6F3A2366436457A4DFC1F259666569A9E4A79C817BDD5610E5200FCE894A358EC72858D50EF67545DA81C6
311
FACE3D457BAF70367E1E6BDD9A952FB4F56247F58F523B97E640246051A72F79BE42FFA0B3187F63097F91C48B868586F714B0EBD5A00A8412C1236E1298F60C72BE6C96B82B404CADAA304AE9F303176B14BA53FBC2D5E86377E35542019E24D97B96A49B2C0E5006E7795954DEAF5DA58958839043C6C70BD3B1B33B6DC5
311
C31316D8A6923F142E26F6711A2258AF977DDF1F970ECC4F1F2B434B96D81BEB6E89BF3BBB3C7C8CC80505070723D6D7D7D3C8CA27CA164A26024FED94B12A86031867241DA53D929636DA600F050BC40CE48B8BA03D69224720DEE2ED2127390BDF5E6EA64527BBD4C4C63FA76BB801FEEC0E61218EC98A8A86CD83137816
311
17877E66692839B9468CF4DB8E50A73986E558E309C0D6F676F921BE02F1185454DC75B111572FF9D27D85EA14C05AD7271225B391C4275659CA4A43759D0BA44639BE4C30A84DB7F67A41399FB95CBF923B1B1672ABC807C1590557FB18D811983FA97F5E609516D62281D38B1281F68FC75528C35E4CD7DF0F7DBB5E5DD6
311
9C414EBEA2F4A5B241B996BA77AE6C772E367408C633EA3E438B68563EA8BE7667F3A4C4FDEEA52ABD78A2820F443B7914A15F180018D231E64519C56A12F6CA7C8DAE18F06F6B769DBF92329EF6A5D18FBCE600F36BD8E8198DE5CDAA96181F3A756EBA5501CEE58F497EA4F418A2B82565B9BCC611713C0B708CCA1F398B
311
78C5F7D03B3437CC18F13061F55C7BEDADD5ACB1DB0E36D3CE47FF6EA1A563A57E9649EA5D14D1A50EAA457463381C073777EF1600607BAF6428A7DDC079D47A204EF1E1F1F0589FB054D45E02CE623B3823C317C601E589E22B1E88B448524B86A82828E32345EC18AE17214B42F8C41C6D428016D9BA31DDCB47572561E5
311
A402E5BA4FCE55F78AF7268524AA04130F3A20BA5D1E9F9948EA48FC8F5314FDB35E21898198060034ACE5E3E2BBCA34092518F275190AF65F45867FF0900AA4B81F25427414C372BF51DC29AA855C5428EE1EEDD6B849AD60F6E73475C2D2523F8A2772C840A478DED18A8C5C91B085F255DC4F54EA7AA8947354FD17ECF8
311
FB3B4A0DE7B483CAF3A1165EE05BBA413E5C1FEF3DE1D6B8F2F3F3251C17D9FCAB48A9AAF63AC773A0E413BBC46A9ADF84A566FC920E4D8C52C9769EE3301CADEEEDD92B312E02E2A7E35B7F1E7D203FE5A7D75578B06E99D0E46FFADB8FDA17ED8880390DA29094202D6F645F76F6F96409CDA05495A96E84B04A00D1A6C6
311
C81D7F3DE9376E828CCF144EE50E364ACCE7237EA0BFB5607ED1AC3CFE73794E5B61739D14DF1743441B1AC98F00ECEDE9E7301FA29755FBEFA68C91EF2B314CF510537EF1ABFC9A762496280B546F5EDAAF8A5B387D469FC9A878A92828C88608453ACEC6094DCA54111E7AD5B2663DFE2DD151B7F123B9F4FEF8EE36AB12
311
5FD7AD52A59B1B765B3E3F73E3F73DEA93875004D2AFFE3CDE9493B87A9904DD052028949041A91DC0E1BA47BA714343FD5B25E0A6A09503AFC17C790058A836A324FE31D7893512E28230332F153181C1E018E1124EBE1BA262AA428A518237D1EA7275E48C5C561BD19ED6912EDD8367DA0F31E40EEAE9683DA9257525AE
311
A7B632B97119E17145A90231768A4F3B9120FF32E8319B015E3CBE26F1A754177D8185345817C096B0CE443A955D13AC15E1FB5DEEA0239EC32A3C92241A237B0B02FFCB4F93CF2B02570C8D192E2F2A68CEEB42F12E6F8CEEFF46C251E22B4341C56FB08CCE550E7A9D6F4D6564B9EA52A83D5BF2C6E03FA19D2775E15A8A
311
7ACF30A13C259EE7F5EF2AC3BA354F1500E1A07FC63FB4686E2F12EC69719F9ECF5FE3F35598DF2CE944008CE78F0911BA5BE5D0A34E0098FF038669C26030BA9B300303039852A8F6F496341737CA7E0D2E3AAA36DE0A70AA7D9CA0D54D9AD84B18A44C9E625475E1C97B93BEBB38DCE7D227E67A2D00F531436136355F24
311
3D1FC0D712C5765754FA22FCFFAE97919161F46D6E61ACB37D83777B385889770B50765B127768443A5C4D3A4E35A3151111F146B7CA116F918A049F1C272F2CD7976C69A0068773451659A97E0F4A08FE604C3FF6CE7385DB19F4D3ABC8A0D80DA8A42096AC377DB49382B36E270B6FA7570188B4B7D1DDDDA82ACA487CCA
311
5D38BD3BD039ADBAFA4ACFF27809239B722081E2EB9F145320553D183F28471C388BC8814E5045676767AB58A8E72D1CED2CA731379515D2E533E4CF0B39DFC625F97AC4836831A4DE330E87A8126FA17EBE583D614E71E22A8DBF2825599743E0640037303E8E1B1E8EA4E1ABFA4F62907B5E4E0E5DCFDAB417C36C6848A2
311
B8D15F1E505434C0707E16B1CFC2A1C36A42BBF55734F8F4301DDC2A5110CEE8C0747F69519265012A2174BF4E955ECD4FDE095A3ABC70536B7AD0B9D7892F81287D667C108703C9B66A221E9A0929D030008F77FF6F5D2108EF5706FC87A3069B976F7C9FC3239D13D283CDEA83597461079FEEE049B0F392889898B7D87D
311
31F8D60ED7B56B91823A8E4EDDB36C6172ECEE42BD42B12CD67994FA0F0DFAE9389356F4CD4425A4B8AA55CBF7ECD585C6A2C2316791E43D5C06841ADBB226A87FD61515FFBB0167B74E56BD7F3E90A57A97FEDCBDF483A0D6699A8C0849CAEB4947FAA90D8E332D9DEBD9F4738C37DA0CAF9CF3DAA68BCB67C420459C7A64
311
498D6E848E5CADE92BB6901F607AA331104A67F7CD650EE169B1DAE94D2C31C2F993632259B6957E246EFE4C5481107B07118607700040E5812A2A2A38DA0076875258C753F60E0F2662C748EDD5F3F3686B8FC3BD6FE631ECCAA1E8B1C1E565AD117E54893E79F4672E32F9E46B2A183DFDCF3EECB4D4D077DBEA0DA254D2
311
56045109670050129E9B9B1A9E4A11344D61497A992778095151510C4BB7EF2009B63AA4360635312E4CF668B7E0D3D85A8688E2BD83B569439892ADB63461930D428E0DE42E4AC57CE48DA5CC1449530D8BD3D6A0F08DF20C8E8F570F2CFFFCEA286E30969B4654D498A58D9DA782E19FE3F002181838925592C4A1EF0B33
311
2D88B61A92C644547BED490D3A42CFFAB70E36D961F694F6307F72FF15A1C79D5B1B5CEFD353D9E2B52566DEC8F8F09CB3E8359C0F68EBBB7898243E34E12A015B2685AB303C04D3A9E00671FF3DFF0A184E4A2ABEB2B666AF5B3A209C73D8EF29DCDB069C9F391EEE9DD0F74C7BCDE16F8F02E3B8816122BBEB50665775B6
311
00549D8BB33A54A6BF940C028118BC6878C79958D6784F9DEAA6E26748386FFAF8D0D0101E2847B6563F5D8DC1D78F787BE00E2C941AE12148D4A81599FE8F68D4DA5CDED75530ADE138240300EE13B0FC13A1687FED6774662C05A2B7DFB186732F0D7A93545D8B0A6390AE5054D9CB582DA846D7A061B3358B45E2B52DDE
311
63E114397EDB7E09233A579155D795BE76102CF277F4DF8B188C4F2879BEAE3C08347124BF9ED23B128259FE107D31E34A652F090B30B39E0D9AF917B76A2806135621A8A60681F16AF216514BBD02711585B5B1AE823F4B2D0369EA5B6BCB863072727FFC871CA6C9AB79A814D989057E9470A3D238BC87CBB4A0EA49AFE2
311
B86F22E499793CAA9047080450166BDC357524561E258C77CB697F1ABB32562CF87C3B7AA12F911EF19FB3E5C02222E887D08202A60A17151F5E053A86B437771088B4FEE14D652C43E8D939995D34545E12E2FF93D4E366EAD25F10CB7DED141563C3D0C447AF06078A91135FD4B9611583CB4BF3BD167F2399CEAB0E0100
311
F8FFC305F00F1711717173138B4B48C83022295DE657EFEDD97F238ECA80F528AFB4F8D67AD4E2594B9A3AA86D7487EFC313BA95745C186F0CDD84CC12DC9CB0424B42203D351FD9C0A3AF10CC7F388E0329279087386421F194F4A29464C1DEF7EF8BE515E4A199DCD5B909342598D8FE6A231F71336248D5CEC5454455C7
311
BE383B3BC7B260FED27F703FDC39A170F3827239102F59D4DEE7FEF82EAA1A5E4BA94DCC4CC44E7E2EDE20F24244E4454369D2E87C3F823F193FD4FD27E1C23984B01898D15ABC20711A8A558054951A6AE280096BA36CBA439603B7B0B4C45F248C14B2383B4B5CD8ECECE4FF859AD4A6CA2326D020EF090F4041D28DB66E
311
5256B56232CC52829DE8060BAE6BBF37D4B7469B822454FE93210A3E8D15E69FFCF01123222611C51C4FD0A041A0CFA2471CF6BE38D2B20FA4C3525B5B8B586759475CF80ADFE67A284AC24651E52B8E683D24C2622642F27E7C3C22783BCF63648BC398BD6CD0D9C97E7E7E3EACB6126DB7A6C1FD9F1031302EE67ED96F22
311
B77C7CA0239BB324207559B105E4693EB26EC46182A92C9C0DBD24F29B31C5C5AC1F84300E0E17CEEAC15F5736FA4A98971E2F1423BFCD68D4BBD5F86E74B40A369F39507C88FCDB35D2DD8DEBEA4AF999E23CF2816D204200DF6E611781B9884C1AC8888B4DE397320472959434323A5A36B22A8E1F721A270DF3BD65E4A3
311
1C11FF048AFB0D8B7B6881423793963A23CFCE935FC189ED36FAE35C46DA3574C979E4394BE52084F3081837BE033396D2EBD80F1F691B273F660D2B32FA27A33B1DE4ADA5F0FA4651511102DFA410DDA86E065272CA314D5249DF91B06BB92807B28EFD54F08F7B525252782CD276DD02E6B0319B13DF87B1F6361AD6B28F
311
C0D711CF445429B9E5A433CD493051C49A9E03DDB1B147D880253514A5DED88009018620EE229101C041950E2D8AA8E1F5F5438E0C0C0C60EEDEE9E3E0C051948C69F84BB7B2A48A1F3C8EB9E6864687F4F4F6F6E2FA87608ADAF9C5E117B7C1A737E710769DA1D15ECE6A84502AA855398712D5FB51BE92E4EF824969CE18
311
278798AC303C2C7980DD2500ADF8FB1E6D6C2FAAFF9987178923334A244758BAA01A9A1B70FA5097D01E1CC2A58DAD0EC94CE6430AA9B0C10D75E3C6BAC670EFBADEE1607739CE0FC18A2587E3EC3058562014C64219C69BC269082D5C2F4A659278D585755912176D78A1B641719C2A394CED495A1AC5D583FD2F5EDD9330
311
8EA7EAE8A6DD396598BDBD3D4CFED62D18A5BDFDE0DD5C80D1A89BA62697B131AE7CE9A6594138582F1B37D68F1749AC7CB67A70695D48A4A056AC1FBD4E82358CEAE38F54B95A9016F9000F9879C0D9D131768635CA798895F27D6F1614F11F2838A83611AA51C9A3DDB539D42979C29F10465655C17BEC3E2760B80DCBF6
311
09198C7B171A531905F3EC218D696025975E986C6B4C666666787271F202805577DD5A3EF0CAFAF91B62DC4B2DB4217A7606282F31D8DDBC290593BAA93EA6353AFA9939B877978481E15CFC9F2755CDC00C538F63A4BA3E80AE009B73CA0185687D339A507D165B74290D6EE46D5C58148F020C3668ABE9EF2F7549170DC8
311
0DB41FFC1D678FF19AEB10C7133832B104B80F691B3138F97A92D26E551F1F110400D45AC71A9B9AC41A1A1B1DAEED0B0810638EFFB511D46B121C6FEA0F38CD00E03CFFEB9713FE1F9C263E4DDEC160D0497FA9A132BA608584057FB15380825DE6C7FC3C667EE947D488A09898D8E939C4953BF4EC9836344D2CC6B2971B
311
2A21A572B06096F4982D2CC7232D46E8EA69DC83722E267754D777F97F96D5DA74E1E75178084D0E70F12AD33E5F71EF2AFA599B2BEBF60A5BE475F444F240CBFE8143C334E7ED9150FEEFEF7EB020C4DBED388DD1D6A167A76F3CBF119B578AE8CFA7736ACAFA4440A1C47185638A0D2F3EB5BDDEFDA958FB13CE4AA4923D
311
5BF840392D45544329525749734866684BF7F8D9D54D892E19BCA9F829A0F8BFCBEEA6CFDFC61D74EA1A645ED7A1FF241739F15694BD835B66FEC5677E40FE69BD3F91AE402F036537218A401CB0828604AD189E575015C6F3F6BBC8AC79CF6C70653847254B31551EFCBEB5978B9DB85D58D0FA41A9DFE9C624834AA04949
311
D24B5AE6D299E072D152D12097920F14AA92C31C3B97E28B6C2E6E9C23D63043ECBBC0A60FDF5BD0C33C127EA8A3308B8B6AFFEB28B4455BF6E7AF4FC6222728357EB8E46E85053E6A8843AB23295BF838ABDA94658FEF3F832F147046B4ACD6F7D48E8FCC9618582961C898D1C7A253C91BFECBDA6BA18A1FCF70755DCCEE
311
2222F41B76D23CA98D0CB3D95F0CF66D57FFF65E2A90F5DF40FC3187621E981BD0BC1D992787212688976B94A8F0C6EF646624B570B78E068826F87CE27041A95C9A4871FF65CC17FCB1639629AD6A9517000D63AC231F3D741CB8430777E7ECF80CE7A3F73C0F162F7E56AA71F4DA80A33CD6ACEE78E2C11FAC03DAFCE929
311
B106F8F6B3ED2DC71FF994BD9CEF4E9A94896EF1B6E2B7B4978168BCF0847A3D2A4F1B0500B926E634B174548E9FBAD27153FB5FC36799B1E6C7C38A94E1F9E996796D7B485E635D5287A2AE76FBD11A341DB3F8F810385BB7296391973DC6C37C452A9305AEBBE0CDB6C566DB59FE60C8E94B1FD090354BF51439FFD1B48D
311
725228FFA88C84F686F547107A7A235665A4593B7C34D748C1AC8D56DD5DA861EEFBADDECBBD65117E65851F90351AEB65F0EFCFF4BCFEF24CB7A5879699FAC437A7AF9099186CF006BB923A59E37D7A36A29FD8D2CBB914A5E9D0A8FD212FBF796AE9A67958FF1D5D8B85F78F96219D4714EB919929241B6C018AAE0C0206
311
9F8D919961EC5DDFBFB7573E3AC8E08BFB7C8534BE6DE045B3CD63DBD71F7638BA2309CAE398EA3A7D8F98BBBC7AEB367EFA5CFA27A9F8F2F52FE878058E6209C026453F8E7E8A237DFC389E9590F6059B397CFD65183BBF936E86896612A5B5FEE49DAC8455D026218AFEBEC12B3523A45B57B82C9C97E02ACFA1184DB18E
311
48CF615DBF39C3CC6F0B4AE6BBEEA2E39D944E290302FA3DE33FA7E40296E2EF7BF1CD855BBECFAD0FD622BEE9746FC4FDFDE545AE6E3BC234CADF83A0FB76DFB145BF3828AE3436368AC24989454F8FF70A177672C711CAA1A76107218CF948CA01F873520E7A2B118EBB161ABAD432932029628B6761590C98AB590C8C8C
311
79798CE9F715BA696E839E9131A4BB68BE923F1747FBFF165331FFDD4D05997ACD168F12CA75348DAC04C7F509FE83898A8B421181AF492861CE81E4A2DD0A30850CFA95E05F097FF70F9E777310D584A75BA7018922E271DAB1D785671157685B7D383D3E074DDB4F1E44EF04B07BAAC75A062077C54B9752C738C9D804D4
311
02E02851F3F89605AF189738C18C021D2139EAF72513824E10DDD3047BACC8521ED7E98B257D1166903B1B08FA6F918FD7E162913FEC7D0EF4787E29C35FBA8C6E2C9C20E9AB30AE42CA2A01A090E7D010C1B5BF9CEE2A304BF3A987FB40D836979B79E18D70F257DA61E808472DD85B82761825779D6B90CAEB0F23360C6F
311
80A7D7D77545E95B3DFF0CF96A827F9B5BCECD2C9698718417EF80FEEDEE938AFF55859D0D540B7FE09435583A6F04874A0C7E8CF234DF4879722000167F5872CEC6BF3EF7E5A8CC8121E6A359227C8A29C95212F9F735BC72A887D56B8F309FC525BFB4FD767AAEC4AEFF249CFBBD2DE1AB9969A6155C7D8DABC307E47324
311
C1F916C7BCFF40ABA5644E9FFB9238D19ADADA49D9610F01ABBA57E4DFCBDCCBB2B93C8953206C91DE01B0E2651A6D6C31721915B31F7B7CBCE55466F6D70402788FA91D73BE4ADCBA99A35F17D6B83383704917D6833F0FA3CD45C926ADB8BC17999A4A0AFBCE2541F7B8CF4C2F5FBA611B3E626D64407CB32C122DFF4EF8
311
674D6EDBB86C8F7C6A16D50FA685E2CCA34F8F7D1D8265BB0042E9D7F1F666F7BE5FAA5184DF58E12122A42EF02F461B3F369AC746F96528AD208512AB56844CF75B97F352DF7995024FB02855385854F3798670D01CAC771AC3E1889EC25F61A20C1F8CAB46898817F9C47E2CDA1F286BF2F358298709FE567C91133E2638
311
C8B53975E753EA8BFD3578B5F7186B7BF084EBA3F77BAC3132A5779902EC22AF2D2E79F42D324E083386DAEE9810D1B44A5DAA54513C7A71E52A4AB9257D975B621308FE4D2141CC3DCFE946C154A3C1DFCCA7629EC69ACFA831634ADDA93C0388D2A9A2DDAFCF957C6995BCE7FBB6DC4EBAE79E63EB08E9A25F52F67076F7
311
093CA545CA3053B5BF576DEAD4E0017143C5F759F32B2D6F145B52B67B48909B7C7FCA6586EE385A2189C16932CB6DDFD9152AE317C430492A578ED27B72D85D40C7C93C097939E1B50F4D67F05334FE9DC362C30B7FF561B95259138ECFD9274C8D695C31B14D4EAA9F3D7FA8DDF652F8C5DEFA23284C799B7D94416DEE81
311
E05A866302DC70192A5368EA65E1CED8BF107A1E2D3119A71E85DC1A7B0C1E93274CE04DD0F2ABC8AC7C987FDB002B6F81757B43502EF7A0D92E416494FAEEA4C9C090CD9557AA4D532F4996A272B94355C5A0E4974EEA9627476F30809B94D8D8D860062E02204643BEC7D0438AF800FC7E2B26955D595421E83C69E1A07E
311
0E3122285835F014AD538188CF9737CE76D464A353FA55A001AB2526B84E985083693BC76FE211CA1D000679C889E3C009832C87E1AC2EDD05C302557422DF0800E316FCAC86978A371F025A6C7DAA9F333E7BD160403A1A06EA75AA9888FF01504B0304140006080800137F845728BB58AF800100009E0500003D00000042
311
304241324139422D313146452D343645432D383034342D3844423534343735463930412F536368656D61732F436F6D6D6F6E536368656D612E786D6CBD544D4FC23018BEFB2B96DE15493C78601010A34B880709DEDFB52FD0D8B54BD70DF6EFED3AC0B12E6442E2716BFB3CEFF3D18E26FB440405EA8C2B1992E1C3230950
311
52C5B8DC842437EBFB673219DF8DA659866649B798C078B48AE6410122242F2A4994AC7F93815DF85C049C8564CA0A901499DD886B2EB9B1E02448F358701A9235880C49A0119892A20C89D1B9FD768815CAD268CB5E0355B40B1E47F3E37A2020464BED06AA57CE8FCC20C3C3446D46761A2632A8C1283D07031EFF2AE7CC
311
B1BFEEE916E406DFAC8E36FFD99A9D60A6944090EEDC3B670C7DC13DE86B6B2C5C240D6E503BB85ACD579D513F1B9F9A69DC9CC22AFA80C426D40AF0B21EA168559156B6276F0F726A6BFF04DCD513A87A62CAD41FB24FCB2858B3952E3D852084DA25B9303C15687973CC8E8AAE11DF2836C38C6A9E765E8C1BA1BFB1DC29
311
CDFE518C8B5A7655A4ED7E77291ABEB80DBD82EC866ADE1B8D05AF9E35CF09D7A061F38A986D9EC412B8F0F65E5D81534D9B231D1E5A8FE577A241F3A5FD01504B0304140006080800137F8457E336299B9F040000341300003E00000042304241324139422D313146452D343645432D383034342D38444235343437354639
311
30412F536368656D61732F47656E65726963536368656D612E786D6CD5585B6FE238147EDF5F61E5BD1498E9A895A02398AA5D1E2A5665BAAF96710C78D6B9C87168D95FBFE7F81242134A968E469A4855437C72AEDFB965F4F53551642B7421B3741C0D7AFD88889467B14CD7E3A834AB8BEBE8EBED1FA3495108B3E01B91
311
B0DBD1F3EC8E6C991A470F22155A72F73CBABC1D4D5921DCD1934863A11F990102A6F61466977B8AC49FB13C174CB3940BE4504A22E3713489B7F82406516225536940BD88E4E552493E8E564C1522225AB0384BD56E1C195DC26FAB13882C2EBD62E1FF9E5B0FCC453132C99548446A1872B62267078F1EF14C3DB1DD1952
311
DDBBB384AD456779F387C51992E0ADCE12FED2622BC5CB1952FC9BDF3295E9206E961AB116DA7ACE45F76F07A26EFC3FD762FD7362FC3C0BAA4DB34C09E682CA5167BADCD16CF94370E331E2F1A3D852008AAD5D64BA2373478338AEB1583B905396D158182655E1B938D07926CF007CC7E85E6709999B0D3827C0BF406BEF
311
55C68CF5579DA32C8C85BE03EFE788787E8FEC95DC85C3E31A615658D81F9A34499612004CE69CAB12531B15A887ACA642C110F8C1A8C1974A85853F407794695C905C688E69B116550ACA946B9B4785FC179E0E229240B62665328E86D5BD2C800CF5D80289F35AC25E3DD51508F4BF9A74A0F5A557BB3D284BC6FF59312E
311
282F956A75C5D453906F48D11A876599E49425602400842995BDF02C4D012E226658F78A710416AC552831FDDEF0E6F0BABEBEA9DC36718CCEF4DAC5A0DF871AECBDD8F448F015F8DA113A473609D1751672B723874B2CAB21ECD6E284E51DCC7D1A47A00F60EC21DC4CC3CDC406DC03760A4E6C772F2F4D561A9AE58C4B03
311
F5B4838701472139EDCB36819A66C472B52AB1139C648956F43E0DAEC067B56B0818F5961D3D446B8F1E1E78C0EAD7EE02AF2895D813E88AC5014A7B436DBB20F778D40A1D9737EFE45B47D49CC8360F9966B15AABAC802C1005548A93EE469F5D55317CD8BF0AA86CABADB2A009D4D6F60CFE53AE370AFE8C45415B15D362
311
A5A038E766E34B00F8C2E3E7098E2093B1C96349FDAEA158903B4BDAEA665F473FECE72186E3BDDCACCADA31839CD6D4FA7D47DF5469006ED340EBE71DF960DDEE88A3E17557039B58C278A1795BA8079419DA8FC5BA1BAA1A66238BF69C7B2BE4E6274839122B7D00BE8B7D52CF61B2D63216046008C8B330FC10F8907787
311
DEF061F47965BBA02FD8F53BA12F9827614979F53563D0BB1AD67A03DC0E00E2FB2CF3EFB457E70E65A3D7C78E7D700DBB45132AE9BBA5E468CD861408961AD8B00A55C2FCC677F4456039FD9F1907A5B3E2D0EE845FDBA2DAFA88C64195671AD6D282DA2E45B1F50A0D632B0D0B6718757DCC7C84A70A3656F222CDA6DBF0
311
7E204AB358961D1BE31E53A82C2C0D56DBF61A5608B5A252A932A1DC6E32462430853353EA30417C8199A662E946A4EF352268B8CDB9A9C6762515ACE8E09BBC031C608A02C4BA89C9DDC074E46E0E26A17BCBD4ED43270D03E3645ADB81F6D62CC07A3243EB81C07E01681DDF2DB4730631E6DDA6CBBD048BE9F06AEB3CF0
311
6B31DD6C9575E37E9FF17161342C4C76D95519672A6509E0F5C4E71B4B1916440059F57D0921F496237E473A83E3E4E06353BD9D27593594D7B6707C08D22FEBDFBFFE03504B0304140006080800137F84578DFFFC99640100009B0300004500000042304241324139422D313146452D343645432D383034342D3844423534
311
343735463930412F536368656D61732F52656E6465724D6174657269616C536368656D612E786D6CA5535D6BC230147DDFAF08799F5FDB600FADA20EA430D968A7AF12D36B1B481349529DFF7EF9A85A718860DFDA73EFB987734EA3D16FC5D10E946652C4B8DFE9610482CA9C8922C6B5D93CBFE3D1F0291A6B0D26A32554
311
64182D920FB4233CC629881CD49C18508CF000E3EE309A100D61622AAB4A8A33B2483F11CB639C545B0E1508438C3D3C0361192846DB7ACD198DF186700D182920B914FC1063A36AFBEE8FBA03FFD3CC1D1F4FC9E151A2AF59F628C5B7821D83FDFD3489305080F2EE04BF962195FB285E9D2DD352320A9E827AE357594914
311
E42B1F5FE35F83688F60C4C91A6C946ED0668E8F244BC2EB0BA6E3BCCFC0B6A4B507F9F9F8D51EB315D9BA9E08D308E89F96931666E577837E2B4172199C68C4FE306156D47DF51C698C7B9D97FE5BEFE2190C3C38BB054E6E8163FB039CB4B993C80BF18D969203116D6BBD26238B821F9BB909AD6D9C71B85BCD8C33D66F
311
EA3D31B4BC0AD45BEA46BBEDDFEC0F504B0304140006080800137F845760890EB851000000570000004700000042304241324139422D313146452D343645432D383034342D3844423534343735463930412F4173736574446174612F41737365745461626C654F66436F6E74656E74732E62696E53616060B0307672353035
311
76D235313237D035713334D6B5303332D435773272727433B03032B2341702AACB4D2C492DCA4CCC492C28484D2C4ACC4B4E050A82012F90744FCD03CA26072767A4E6260200504B0304140006080800137F8457C55C663656000000680000004500000042304241324139422D313146452D343645432D383034342D384442
311
3534343735463930412F4173736574446174612F53747265616D56657273696F6E5461626C652E696E665D8CBD0A80300C06F73E4B29FE6CDD8A2E82A083B8B7F209014925C9FBA3AEAEC7DD2555D896CB85E51C2A1BD834F6A1F56EC4494C4695278364ABB24ABD2146F88CCEBB89D5321FF8F3F43D672A3B44DF3CB6A171
311
0F504B0304140006080800137F84578E90B87338010000A20400003600000042304241324139422D313146452D343645432D383034342D3844423534343735463930412F4173736574446174612F636E782E786D6CCD943F4FC33010C5BF4A648931CE9F520495E30AC1D209242A06B6AB7329561D3BB22F08BE3D769B0154
311
C4D421EBE97777CF4F7E27D69FBDC93ED007ED6CC32A5EB20CAD72ADB6FB868DD4E5B72C5B4BE19DA31F18CB2CF4D8B0546652ECBD1B87A9D46207A34955A3ED612ADE8780B4859DC1A7EEC159424B8165CA40080D0BEA1D7BE030926B311C780B04BCE21E831BBDC23889748FD324E511085B26EBB25EE4559D97D7DB6AB9
311
5ADEAC16776FA248A4143BE7CCC4EBB8CCBBE1AA2ED5692F93A5281220C5E8F544A5D730F9974ABED35614919422908FAE4C1DF435C40E1806A3155034AF708A90F20821F4A238C15214C9855F5E3C62A7AD4E2D9B280DC8F9E728103D699CA127FFA9BDBC371B1B08ACC2393B72AEF1F23EBC1C7FD1EB2996C7DCCC2F2DE7
311
1AB9B6DD05B2521CCF498C4EBA2EF21B504B0304140006080800137F8457CB44322DE8000000600100006700000042304241324139422D313146452D343645432D383034342D3844423534343735463930412F5265736F75726365732F38334245303533422D343237302D344631332D383632312D37423242414630383232
311
39372F7468756D626E61696C2F302F636E782E786D6C4D90C16EC32010447FC542EAD1C6769AAA8DD6E4277AEAA5A278E3A26016C152257F5F6839E434ABD9A7D5CEC0F9B6BBEE0763B2E417310DA3E8D01B5AADDF1691F9D2BF8AEEAC2012F103263AAF775C44B585822D520ECD5AF1A2B3ABAEB3FEDACC0D3D466B3E83DF
311
44679C4E6911C97CE3AE079D99564CD761D5AC87698898284783E500DB1DDB01135133AE42CDE37CE8A7B91F9FDFA7E3E9F8723ABC7D80ACA4822F22D778EB192385A7793454465FFE19415640418EB6513584500FCF812C4B058963C9DF20BE8702E9109C359A4B4D920C23F70542BD83FC8715C89AB7C85F19456B37EA17
311
504B0304140006080800137F8457A233C2345D000000800000006500000042304241324139422D313146452D343645432D383034342D3844423534343735463930412F5265736F75726365732F38334245303533422D343237302D344631332D383632312D3742324241463038323239372F7468756D626E61696C2F636E78
311
2E786D6C4D8B490E80201004BF42E6EE76F3C0F216234B883063108CCF170C074F95AE5473F5C4C06E932E4F28601967600677D21E9D8092EDB002539227A2FCCB80E1168D80A6417297A89C5D6963B7129A0D1E8F2EE73AA7B62BBEB8B27DE50B504B0304140006080800137F8457BE89762363000000880000005B000000
311
42304241324139422D313146452D343645432D383034342D3844423534343735463930412F5265736F75726365732F38334245303533422D343237302D344631332D383632312D3742324241463038323239372F636E782E786D6C4DCC3B0E80201004D0AB90EDFD75167CCE820A4A845D83603CBE602CAC26799919AEEEE0
311
D965E2E908050C6D0FCCE04C8BC355404EB6198129C92351FAD580A10E464065907C8D948F8F166375F655BDC3FDC3B4E530A176BE7057BDC43B2A593FE403504B0304140006080800137F84574BD3677E7E000000A30000003600000042304241324139422D313146452D343645432D383034342D38444235343437354639
311
30412F5265736F75726365732F636E782E786D6C4D8CDF0AC2201C465F457EF7967F561AA823A1BDC7686E484EC366F4F869ECA2AB0F0EDF39AAFFAC01BD5D7EF91435D00301E4E23D4D3E2E1ACA366309A8372AA7B4FDDD00C571751A1A06A3969CCA7347939BC7121A0D3E3E7628B9BD9113B7B86382E06EA01CCB33A358
311
5866AF03918C5D44358E4DA9F3EBD56D79F305504B0304140006080800137F84573F55A77C0C010000550300003400000042304241324139422D313146452D343645432D383034342D3844423534343735463930412F536368656D61732F636E782E786D6CCD93BD4E042114855F654262393033EB1ADD306C616165A35676
311
087757B2C09DF063F4ED85956237B1D3623B38F97273CE81CBB79FCE761F10A2413F93910EA403AF501BBF9F494EBBFE96745BC103623AC148E7A58399549908BE0F98972669D8C96CAB6A8D3F34F11E9D43FFACDEC149D2292B639C493C5EA9CC0935C403D532493AD200117350502624E3A04D500164024DC4344CAB7E9C
311
FAE1FA655C6FD6379BD5DD2B679514FC0DD136DEF8040197AB6950588EBE181A38AB80E0399846D514449CBAA3A50FCE0A21784CA1B4D0C8F4B514522E8B354AA652163B823F8CE0AC863D8BFC001E8251979AF9CCDEBF857E02AF213C96970A46DA4BCDFE9BCBBF55C08E1B50BE415D08F10D504B0304140006080800137F
311
8457E3603EBE7A000000C20000002C00000042304241324139422D313146452D343645432D383034342D3844423534343735463930412F636E782E786D6C6DCD410EC2201085E1AB90D9DBEACE05D09878023D01A1D34A8419C380F1F82DA68B9AB8FDFEC93C3D7C52546FCC12980C9CBA232824CF63A0D9402DD3E10C6AB0
311
3A3397DD192872090D3406ABE7CCF5B5D18893ABB1690CF4DCF02282E5EA8A5BB96FFE536F285CB347F95BEFFE81C9ED5AFF9D5B1FB575BB00504B0304140006080800137F84570A60A8777E000000A300000007000000636E782E786D6C4D8CD10AC22018465F45FE7B4BC3950375686DEF319A1B92D3B0193D7E1ABBE8EA
311
83C3778EE83EAB476F9B5E2E0609F44000D9708F930B8B84BCCD9803EA9448316E7F3740615CAD848A418925C5FCDCD164E731FB4ABD0B8F1D1A62F449B706533AF4989DFB2BE68431CC6FA661ECD20C2DD1C53856A5CCAF57B6E6D517504B0304140006080800137F8457CA1DF9C9A900000073010000130000005B436F6E
311
74656E745F54797065735D2E786D6CA590410EC2300C04BF12E5DEBA70400835E500FC800F84E0B411AD13252E2ABF27A55740421CEDDDD9B55CEFA7A117778CC979527255565220197F75D42A39B22DB652EC9BFAFC089844F65252B2630E3B80643A1C742A7D40CA8AF571D09CC7D842D0E6A65B8475556DC07862242E78
311
CE904D7D44ABC79EC569CAEBA537E3521C16DF5CA5A40EA17746733E0B6615DE7217475F386F18B9481C510F1F021CD9FF027EA0E1F5C4E609504B0304140006080800137F84573DEE336E64000000790000001B0000006175746F6465736B2D64657369676E2D7061636B6167652E786D6C35CBC10E83200C00D05F21DCA5
311
6CA76D41FC96062B120735B69A7DBE268BB7777961F8D5AF396893C2ADB70FE7ADA196782C2DF776D7A97B5933C430F15651E5469C55D70F80A4992A3ADC954792C525AE70A1E4D6AD9816CC044FEFDF01FE3FDE907802504B0304140006080800137F8457340542DCF8000000960100003700000042304241324139422D31
311
3146452D343645432D383034342D3844423534343735463930412F4173736574446174612F636F72652E786D6C8550CB6E833010FC15B47703C6404B641CA5A4F9829E7AB36C875A0936F2A3EAE7D70E546A4F3DED6A66767677E8F16BB9179FCA796DCD08B8ACA1504658A9CD3C420C57F40CC59151676DF82583C2F0458D
311
906160747636AE3B24AC09CA64D458A976907BAF0214E29E9A11BCF8500B2F790C49E16FE5CAC58DCFAAC4E5A66334462DF7512D939BBE6AE580E1E1B5C16772417D375D504B06828697134653269E5A5CF7534BAB3CCC68D0CBCF76E1140F4A026BEA8620DCA0BA7DC3DDA1EB0F6478A7555632EA834B3FEF4BF377C04EF9
311
EA330F9C561BFBC735AEF27FD7A84D20CDEEBA4DF8F4473AF241305AE594527944986A4E947D03504B0304140006080800137F8457D9387A7FF30000008E0100006800000042304241324139422D313146452D343645432D383034342D3844423534343735463930412F5265736F75726365732F38334245303533422D3432
311
37302D344631332D383632312D3742324241463038323239372F7468756D626E61696C2F302F636F72652E786D6C8550CB6E833010FC15B47703C6404B641C35B4F9829E7AB36C875A0936F223EAE7D70E546A4F3DED6A76667677E8F16BB91577E5BCB666045CD6502823ACD4661E21860B7A86E2C8A8B336FCA24161F8A2
311
46C830303A3B1BD71D12D60465326AAC543BC8BD57010A714BCD085E7CAA85973C86C4F0D772E5E2CA6755E272E3311AA396BB54CBE4A62F5A396078786BF02B39A3BE9BCEA8250341C3E905A3290F9E5A5CF7534BAB2C6634E8E567BB708A072581357543106E50DDBEE3EED0F507327CD02A3319F5C1A59FF7A5F93B6035
311
AD36F48F5B5CE5FF6E519B409ADD6D53F8747F3AEE3160B4CAE9A4F2882ED59C24FB06504B0304140006080800137F845754CB73DEF8000000960100006600000042304241324139422D313146452D343645432D383034342D3844423534343735463930412F5265736F75726365732F38334245303533422D343237302D34
311
4631332D383632312D3742324241463038323239372F7468756D626E61696C2F636F72652E786D6C8550CB6EC32010FC156BEFD8C6D86E1D61A2D66DBEA0A7DE281007C5068B47D5CF2F24AED49E7A5A343B33CB0C3D7EAD4BF1A99CD7D68C80CB1A0A658495DACC23C470468F501C1975D6865F34280C5FD5081906466767
311
E3B643C29AA04C468D956A07B9F72A402196F418C18B8B5A79C963480C7F2D372EAE7C56252EEF3C4663D472976A99DCF4592B070C0FAF0D7E2127D477D309B5642068787EC268CA8B8716D7FDD4D22A8B190D7AFDB92E9CE24149604DDD10841B54B76FB83B74FD810CEFB4CA4C467D7029F37E34A703162E71FD305C2FB4
311
BA6FFFB8C64DFEEF1AB509A4D95DEF0A9F72A44FDE168C56B9A5346E15A6991B65DF504B0304140006080800137F845795879E680B010000B10100005C00000042304241324139422D313146452D343645432D383034342D3844423534343735463930412F5265736F75726365732F38334245303533422D343237302D3446
311
31332D383632312D3742324241463038323239372F636F72652E786D6C85504B6EC32014BC8AC51E9B8FBF11268ADDF8045D75876CE2A0C46019A87AFC42EC4AEDAAAB87E6CD306F869DBF9667F22937AB8C6E014E1148A41ECDA4F4DC02EF6EB006C999B3CD18F78B06122D16D9820803CEE6CDF8F58046A39DD411D56692
311
0728AC950E24E3333C5A60C7BB5C442ABC0B0CFB4857313EC42C539CEE3CCEBC57D3215553F84DDD94DC00C7CD95E0373AC0B2E80798D386C2A6BB60D8C745956354F639CBA29833A7961FF77193C2C90970820885984094BFE3E2549427DA7CB02C3239B36E0B990FD3980EF09A765754D00EE6A442301F3085754930AC3A
311
D25D065413D2542CDB857F0CFD3AFD6FE89576941C86BBC28688E1FED782B32C1618C6ABDD3063D9FC1B504B0304140006080800137F8457A0592581F8000000960100003700000042304241324139422D313146452D343645432D383034342D3844423534343735463930412F5265736F75726365732F636F72652E786D6C
311
8550CB6EC32010FC158B3BB631B65B4798A8759B0FA87AEA0DC1C64189C1E251F5F30BB12BB5A79E16CDCECC32C38E5FCBADF804E7B5352322658D0A30D22A6DE611C570C68FA83872E6AC0DBF68A830628111651871363B1BD71D92D60430193556C10E0AEF21A042DED263445E5E6011A5882131FCB55C85BC8A194A526E
311
3CCE62D46A976A95DCF45983439C0CAF0D79A127DC77D309B774A078787E2278CA8B8796D4FDD4B22A8B390B7AF9B92E1D88000AF1A66E28260DAEDB77D21DBAFE40870F566526673EB894793F9AD321FE06DE4627C1B36ADBFE718DABFADF356A1368B3BB6E0A9F72A44FDE179C55B9A534EE15A6991BE5DF504B03041400
311
06080800137F8457C8675274F6000000940100003500000042304241324139422D313146452D343645432D383034342D3844423534343735463930412F536368656D61732F636F72652E786D6C8550CB4EC33010FC9568EF4EE23809A4725C41A03F00276E96EDA6561B3BF203F1F9D86990E0C4695733B3B3BB438F5FCBAD
311
F854CE6B6B46C0650D8532C24A6DE6116238A347288E8C3A6BC32F1914862F6A840C03A3B3B371DD21614D5026A3C64AB583DC7B15A010B7D48CE0C5452DBCE4312485BF962B17573EAB1297771DA3316AB98F6A99DCF4592B070C0FAF0D7E2127D477D309B5642068787EC268CAC4438BEB7E6A699587190D7AF9D92E9CE2
311
4149604DDD10841B54B7EFB83B74FD810C1FB4CA4A467D70E9E77D69FE0ED8DB76A7A7D59DFBE31957F9BF67D4269066F7BC4FF8F4453A712318AD7246A96C01A69AF364DF504B0304140006080800137F845742BEE76E03010000D80100002D00000042304241324139422D313146452D343645432D383034342D38444235
311
34343735463930412F636F72652E786D6C9591C172832010865FC5D93B2A8AA9C920196D9327E8A9372A1BC3248223D0E9E317AB9DB6B7F604F3F3FDBBFCBBFCF83EDE93379C9DB6A6019AE690A0E9ADD2666820F80BA921390A3E5BEB7F6090183962038B0C820FB30DD326F5D678348B6AACC24D94CEA187A4BFC74B03AE
311
BFE22853197C24DC2D9D647F9303A6345D39C1BD1EBFACFD8CD2A30251E44549684172F64CAB43B53B94FB179E2DA4E0411B5F165B331C5F512576F2311288AAE4D9FA1CB1A0D50669153FA92F1A67105DDEB545BBEF08A5E71361BBD323A973C648FDD4558C3D54E77DDEC622D12CB8F3731CCD566419C25FEDABF157B430
311
A97F465B1D0E04FD0E952D73163CFB5C423C979D880F504B0304140006080800137F84576D770E2B06010000B201000008000000636F72652E786D6C8D50CD6E8420187C15C21D15515B37C8A6B5DD27E8A9372AAC4B56C1F0B369DFBEB0D2A4BDF5F49199F9BE19861E3FD705DCA475CAE801E2A28240EAC908A5E701067F
311
468F101C19B5C6F85F3208345FE500130C199DAD095B8626A3BDD409D546C80C72E7A487605AE263806EBAC895173CF8A870D762E3D395CFB2C0C5AE63D4ABF56775B2927B2920ABAB9A205CA3AA79C3EDA1ED0EA47FA76552321A8212D94A89E8AECE4A5AC870FF5AE31772425D3B9E50437A82FAE7278CC6443C34B8EAC6
311
8696699951E76DFC733E12737AE0F82DF9D272A718FD3066C982184A00A3972FC82A5A26E24FE8B0897F8456DA933A1FDC375CCC1C03DD89689C1A8CE35E6F9CA96DF60D504B01021400140006080800137F84571475250C21010000A80100004F000000000000000000000000000000000042304241324139422D31314645
311
2D343645432D383034342D3844423534343735463930412F4173736574446174612F446566696E6974696F6E4974657261746F7250726F706572746965732E62696E504B01021400140006080800137F8457B211A3D3120100003002000045000000000000000000000000008E01000042304241324139422D313146452D34
311
3645432D383034342D3844423534343735463930412F4173736574446174612F496E7374616E636550726F706572746965732E62696E504B01021400140006080800137F845788E57597CD3F0000904100006B000000000000000000000000000303000042304241324139422D313146452D343645432D383034342D384442
311
3534343735463930412F5265736F75726365732F38334245303533422D343237302D344631332D383632312D3742324241463038323239372F7468756D626E61696C2F302F67656E657269635F706E67504B01021400140006080800137F845728BB58AF800100009E0500003D000000000000000000000000005943000042
311
304241324139422D313146452D343645432D383034342D3844423534343735463930412F536368656D61732F436F6D6D6F6E536368656D612E786D6C504B01021400140006080800137F8457E336299B9F040000341300003E000000000000000000000000003445000042304241324139422D313146452D343645432D3830
311
34342D3844423534343735463930412F536368656D61732F47656E65726963536368656D612E786D6C504B01021400140006080800137F84578DFFFC99640100009B03000045000000000000000000000000002F4A000042304241324139422D313146452D343645432D383034342D3844423534343735463930412F536368
311
656D61732F52656E6465724D6174657269616C536368656D612E786D6C504B01021400140006080800137F845760890EB851000000570000004700000000000000000000000000F64B000042304241324139422D313146452D343645432D383034342D3844423534343735463930412F4173736574446174612F4173736574
311
5461626C654F66436F6E74656E74732E62696E504B01021400140006080800137F8457C55C663656000000680000004500000000000000000000000000AC4C000042304241324139422D313146452D343645432D383034342D3844423534343735463930412F4173736574446174612F53747265616D56657273696F6E5461
311
626C652E696E66504B01021400140006080800137F84578E90B87338010000A20400003600000000000000000000000000654D000042304241324139422D313146452D343645432D383034342D3844423534343735463930412F4173736574446174612F636E782E786D6C504B01021400140006080800137F8457CB44322D
311
E8000000600100006700000000000000000000000000F14E000042304241324139422D313146452D343645432D383034342D3844423534343735463930412F5265736F75726365732F38334245303533422D343237302D344631332D383632312D3742324241463038323239372F7468756D626E61696C2F302F636E782E78
311
6D6C504B01021400140006080800137F8457A233C2345D0000008000000065000000000000000000000000005E50000042304241324139422D313146452D343645432D383034342D3844423534343735463930412F5265736F75726365732F38334245303533422D343237302D344631332D383632312D3742324241463038
311
323239372F7468756D626E61696C2F636E782E786D6C504B01021400140006080800137F8457BE89762363000000880000005B000000000000000000000000003E51000042304241324139422D313146452D343645432D383034342D3844423534343735463930412F5265736F75726365732F38334245303533422D343237
311
302D344631332D383632312D3742324241463038323239372F636E782E786D6C504B01021400140006080800137F84574BD3677E7E000000A300000036000000000000000000000000001A52000042304241324139422D313146452D343645432D383034342D3844423534343735463930412F5265736F75726365732F636E
311
782E786D6C504B01021400140006080800137F84573F55A77C0C010000550300003400000000000000000000000000EC52000042304241324139422D313146452D343645432D383034342D3844423534343735463930412F536368656D61732F636E782E786D6C504B01021400140006080800137F8457E3603EBE7A000000
311
C20000002C000000000000000000000000004A54000042304241324139422D313146452D343645432D383034342D3844423534343735463930412F636E782E786D6C504B01021400140006080800137F84570A60A8777E000000A300000007000000000000000000000000000E550000636E782E786D6C504B010214001400
311
06080800137F8457CA1DF9C9A9000000730100001300000000000000000000000000B15500005B436F6E74656E745F54797065735D2E786D6C504B01021400140006080800137F84573DEE336E64000000790000001B000000000000000000000000008B5600006175746F6465736B2D64657369676E2D7061636B6167652E
311
786D6C504B01021400140006080800137F8457340542DCF80000009601000037000000000000000000000000002857000042304241324139422D313146452D343645432D383034342D3844423534343735463930412F4173736574446174612F636F72652E786D6C504B01021400140006080800137F8457D9387A7FF30000
311
008E01000068000000000000000000000000007558000042304241324139422D313146452D343645432D383034342D3844423534343735463930412F5265736F75726365732F38334245303533422D343237302D344631332D383632312D3742324241463038323239372F7468756D626E61696C2F302F636F72652E786D6C
311
504B01021400140006080800137F845754CB73DEF8000000960100006600000000000000000000000000EE59000042304241324139422D313146452D343645432D383034342D3844423534343735463930412F5265736F75726365732F38334245303533422D343237302D344631332D383632312D37423242414630383232
311
39372F7468756D626E61696C2F636F72652E786D6C504B01021400140006080800137F845795879E680B010000B10100005C000000000000000000000000006A5B000042304241324139422D313146452D343645432D383034342D3844423534343735463930412F5265736F75726365732F38334245303533422D34323730
311
2D344631332D383632312D3742324241463038323239372F636F72652E786D6C504B01021400140006080800137F8457A0592581F8000000960100003700000000000000000000000000EF5C000042304241324139422D313146452D343645432D383034342D3844423534343735463930412F5265736F75726365732F636F
311
72652E786D6C504B01021400140006080800137F8457C8675274F60000009401000035000000000000000000000000003C5E000042304241324139422D313146452D343645432D383034342D3844423534343735463930412F536368656D61732F636F72652E786D6C504B01021400140006080800137F845742BEE76E0301
311
0000D80100002D00000000000000000000000000855F000042304241324139422D313146452D343645432D383034342D3844423534343735463930412F636F72652E786D6C504B01021400140006080800137F84576D770E2B06010000B20100000800000000000000000000000000D3600000636F72652E786D6C504B0506
311
000000001A001A00210B0000FF6100000000
310
504B0304140006080800137F8457000000000000000000000000370000006662782F38334530374541422D384438432D343538442D383945382D4332313931424443463133372F617474726962757465732E62696E504B0304140006080800137F8457000000000000000000000000350000006662782F3833453037454142
310
2D384438432D343538442D383945382D4332313931424443463133372F76657274696365732E62696E504B0304140006080800137F8457F270F1330600000004000000360000006662782F38334530374541422D384438432D343538442D383945382D4332313931424443463133372F747269616E676C65732E62696E6366
310
60600000504B0304140006080800137F845788E57597CD3F000090410000420000006662782F38334530374541422D384438432D343538442D383945382D4332313931424443463133372F7265736F75726365732F322F305F67656E657269632E706E67355B773CD4FF1FBF73E71C0E67EF7576C9DEF3EC995D46C6A1EC50
310
46649CBDF79E192942562825CE965D8A868C2842C8DE9FDFD1F7E7F138F7078FCF6B3F5FCFD7EBFDFEC41B196891913091804020321D6D7513FC77D8C5070EC3FFEE51B21F068154CC75D455CC028A3EA68992803810109FDDE5D5CEC5521B28A1B422BF80741695D5B529DA1C2D058AD2388BDA9F476F7C2CADC939304173
310
DBF48A452BF8A700C0C70C3D121C1AA15A5270C22E2B9E28763651F7DA0D12CE11077B2ECD0D560B5E3DE2368B1E65C5E1C87384A4CC5F2D9FB8BE39E9B77C753783A37998F5CEF1B4FEE553463245C9712270880DF339E0B882A6BA713D865F6F384C842D440934EF264F4A304F8DE4EEFA1E2BF5E2D91F5ADD9613D6E31D
310
DB33ED31DB1D7916CAF091286EA3D31B9CFECB78BB0060245B943C4C040119FF780A74DD308BA9D028678674EB5504ECF284EE814DAED07440BAF649BE4B55DA2890F4D73E2D489A59EE54FDB0A85B59F2F52C4858A02705C4815A792B0C4A996A2023ECB195073E115E3E3647F64243A8338F2000BCB58DA5692C7E7C3D41
310
3F963FEDF3CF00FBB0F831A9D51360FECA43819F527B89FA260EB63C5DA676830AA3626A3693B23F1A17A0DFFCE3EE164E31B5365EDF0C89EF64D8E38AB0BA9A1117D7C3A0EC44F44F4023095E80BA610DE336D0F99593A88BFC5306E72DF98F7FD132ED95878DF2964EA7E43071359FD83B2BDF9C6B5BDF768F0F3C0FC351
310
199526F53D9460A34511F75D1B63E488178569472C91A94497807A3FD4A390C6558F26D416365C3656DE6E769DA9D8FC73774E1709812842DD8EF96AED1960F79D21B395CDDFE6F92CB4EB962A4668C76990E2EF29798C8941D67DA50F4A5F947872460F1F6FDB794E8A29FD7AC0C0D6E0714339CE258FB17AE8535221E346
310
4A10F29A0BE5EEECEFC5675926A89F49EB14E5711894F6586DB5754EB4D5DA9C6437EBA57DB97A24F8B8A8DB295FFD73266CF57E82694DF5166DDF93573AFE9C9C5EB05F8FEF8E89E0A8917B0B3724DB7BEBB53252581EFC3E38166BA131A3A5B42FE2AD00A769BBFA4458D2DE7822F8C4F63D0B8E21B285AE13325F3410A4
310
35C648C9D91FDEB109E73CEDA7BC796961AF79175E1A3CE4C5E8B0D009B0C9E29EFD98BC8E97554E3D8D838424E270F7685226E5AC268E021EDE3522D583E8F20C0BDE2959EF5BBFEEDAB32FE9A3ED0E39F211A86AA9DEBFC68182EDED132AB8BB794442D2D7EA9F4D8BFF52BC4D55BB165124EE90A42D101E67BBBB292FFB
310
4F66DE5BF2300E44546757DA7CEF8932BFC9F92A0707953491A55C5A5ACEDABD9FA1AEA01BAC3DC5A24E22E7C47213493996EFBC369D086ED9397C9BA6C7F9855C7BD5E15BFC8C53DB3D2A4C5901A57ACD2FBDF4D1676E95338B2C2BCE65FDA4C64F5FEFDC7D9CA5AA1FCF11E193F2FDABF0F4916BF13FB916A224380E6462
310
A9815F2300DC49CC4DF8D055CEF76462F4B7A7ACA7365C2707891370BC1D0AA6203C44CCAB47084FEC057F27FFCD57F89B8B9852459798A675C66BD7CE572CAF71FF7E6D7ECF7BF62CAB7B3F1107DCD04DC55A3F9961700286141C94A4F771FEB2BCDA2DDEE0CB0BAE402FF1DB0100F8E475DFFFC074DDB4498AB7D186A765
310
4DDB1CB680D703D47CEB4E72F8CB13D86A4AA68116E26387B93FD6738779B34FEDB8E517EDF2BAF28D9BE93A1D3A164320E07D42E514725C29515FF361754213EDE06B079A2E99EB1CA82A02019EADEEB87B9AF005BD04BBCECB14AACD6B24EFBE482194A97DD32400685FF1FEF1544D1B14EFB1E7F08E6D2CD2AF52DE757F
310
35F5E62332EE88EA26417AD5C3E0E319D68F25414E6D672BD4522B278C57D18F0113921C71D96527E091F00CEB15AE23D24667369BD3CEFA10C7549D930890BA4366F4EBC55F01F746109F98ABCDD5A3EE06619C6AD78AB33E48E4C9BD21BF7478B385EC05C4F8987E2C1BFA0A60EBEDAA0AE0B015C2720ECE180FB6F2DEFB
310
EB822D96338C9B63822183BBF52FB664A7AE57003AABCE512BF77E7E31BDA2E739AC4C131657DDFE5225E900FB56CC01CDE808FA4A9C9DA16AC679656BB64796283D89812B8F91136AE18EE5EBBAF47A73BE3C153EB5D4CD491B4BFB4FE690A4CF9ABA08C0D8AA64220C438C96EA6CA80B58FE5761E697B3A292EB9FBDA502
310
FA863E49FE694ADDFFF9D62C520BDD1A22014147A0903A05B9B729F54272EF83931FEEC057BFF8C8055C279EAC5C0011804828734024F6CFA319C9CC6867C727184465CD9BB7ED386AFFD96B294A85E3802FAE47244602D8273615952B98C4F23F7EAE4463D9D638EEE374A20959E0FE519C4CFB0FBFE5DD80C2AA3F9DB961
310
D1BDE57E67C9BB47B77FDD74EE3094F5DBBE3EBC1FBDB7393F5116263009E2EFE1AF9A221B2AE234C902BF70E9F280ED23E73908361565964333A3F01D0B006AF32FB21AA1316744B489D5A198E85299241735BE559675130955C902A8ED761FC0DBE337A9F91919AF5CE32AF902ADF9AB2615E00E8A94586BA1A90839B618
310
32FF1BFB76D2EFADE6DB1BA04CCAD3DA649E7E2A0219F592E22F2AD54847EEA8E42271011E9074F8F3DD9FBA6CDF88FFC9FC7E811AD1CA8F4557CE4AFC7BBEDCF0114A48689F20A584520C74DA8127124B767E2FB91A6B186246727BE63C9445BAE02088D58B8EFDC0F1072407CD9B89A13F6303B4A928F593AD489B58E686
310
9325790ADC406036C591729FE14021F94B7796BB11848D463536A092A26F077F94639F7CEEE2A724C66EC885F4A24F8B8A0AC321F8FD149BA529460FAA34E4663C02D41FDF80BCA222D42F0ABFF8490F4FA74C673807C2051D8E467B47B616072860069A9A303ABA9B319D58404461401B0A0F9BE5E1E151C14BC33B32ABE0
310
3DDE91708DFAEB15E7C0D593C86BB7D7EC17BE56E57975F077BFD5525F3A1A361D584A75E08CF29FC7B44B2B3085014F3A5A14517377C3F6B8F37E59514C3B12F8AACDEDDA4DFC49BE5710101534CD6FB6DE15B50F11A09472AABA727F0C49D9CB906B158030065F48EB3625E010CEC1D511D0053474B11E6A4F01C0D6EF1B
310
ED3A944FDEC70E0DDCDC756C86545910E0DAE3BE3AA9A404574C2995CD5CAF9549226BC94B4F4F0F5F9086F418F6B32346464610D8BC7391D3C3A3CCF04CFC1FB2A3A3170E369511868F14EEA4E5E438CC73DB1F3248AA94B6B2FF33B222FF3D1E7BF146CAD229770158063BCE4F5391964DF62F7E52A7BE0EEA829C9E13C4
310
C147D6F93FE59E111DAB5E4594D6F3CD1AD375EE039930EFE5AF2BB2D41C83C7DABD8C659BAFBE8FAB392CA634F3D15C1D945DB4588D2B0824A4EC928AAC565557CA2F0DAA588CA5BE30B3A8004F7BF005E96CBF891D7F18112A3619FDF530DC8AA64954258E1811789B5189B49B4EB53F5F89F7D37523894F3EB57B373763
310
C91E502F52CC99EB7BDDF933FC324C4FFC2561DFFA7339FAFDD0A4BFBE6D3A8FF9ED1FC49898139864602458968913181918F719CCF5A68B2EE9C1FF050E34E63107003B8120FA982C21B30A874E4F5E4B38D5A8290C4B8D9BE48A0BE31EA995BDC37AC6DE90BA17D259DEF53605D55922FEB1855D915B659FBEB350EE0DFB
310
2F9F766E1C84CC8964B75D08667445EAB966015F63A18A9E0A325C1B3DC628C0D3CB60F767FA93CC65F25458BD23C3B312716E5F40E5858AC06EBA9AB14F95DB99147B832069201541D09A0D856E12C629CF32683760EE855537D1901988D5EBC156676C7DD51D7207CF3267AF1D76C2AD867315E44618015313A98B19941C
310
696FED3461CAA9B5415F918556D7802EDACEFD6B2E45853A9735DFC9DBF7E440F9319F8B6805A973BCCDC76C069A9144E51F187EDCC12FC31B5DEAAF0A76137199B106EC84ADA6B6EE697D4E6A96E007417F4E880E8B1E89B4BCE9D81EF611E2ED8F0C1A6C25F620FAFAAB656A7C42D464880E8AFAB0E0FC8EA38CA9A8AEEA
310
EE3E4648BA4680270A89743CDD3E6C6CBF34B7B640EFA285ABC7EA0A1E28F3CC963D114A80123EE66D0AF7D5380EB41909B605AB4765B709B808590458157E69BA1378FEC4B48CAF6A730E3BE3C5EF2DD1A5EAF94B1DDE50CEB55DDFD7EE9A16747FA4B223359FB1FCC69E1194892BABB93A1D5C4E807AC0EA2E30180811E7
310
7A2291F6E7F7FAA5E0F60215BC6024E48DE436C511F0628B8CA189982D4D83CCA17D305A7E923C37941CFDFDCD93ACAF735EF5F0E61BBD3E6C41A59B242790D3A3BAC7064DCD89AA2E37214EC839820949D5CAA31E240D2948E48F690298974A96BA9A8432BC90F5071D6537C9666EA4564796B7AFFFA548077BEEA75F6308
310
3435074BA182F3699557397F71548383FDA8CA34D99B981E72835ECDA5DDDC151315173D05A21F651AAF8524E88209E2E7A737ED1045800CE3390050BCFB8BE588DF111617874C62575039CA588EEFDEFEFE319B739DE2EDC147092A262611E159650E787917885EF08F1F51B8F2D8A71D60B58B190FEF9541A1BE94BC19FE
310
A50784DA1419FE4B0FB51B8D36B5FF8E1286FD8AF42B91E59A5F1CC4D60174E764045FD8C57B18209B217F89A62252BD20BE0E63E12B8E8F029FE19E0E8D0870F58721A557082250D5424F7909369376E41666C0EE77CD87CB283F661D5FB6D0DA023CB67320A20DC7BE661E9E1BFE5463085C557DA1FF9BE835733766C3D1
310
39F2CF9E2208873AD0EB4814DE9E6BF2CAF81614D4D43906ED1C05A3265CABBFE192770FC2F64F940CB6B17B5F166F133C9AEEAD2641807C3E69515171DD74C4A85311513D6EC9530B3B601B6BA3EBFF3B5C3D2F7D69765141E345F75433953D013ADDF8F6AA7DC3F4A7563FE5C7D367937E2900D7EAD0F9FC9A4A1A9B5BDF
310
1FEF08532660C01C5D6DE22199AA774383E306DAB87E301ABB7D213887F9869D4942D0D71E94B27EDF216A318BD488D45DF84529EF575AF3C3938C0AAA0215B01994153E2054A0B894DA5C784980633AAD48576957CF4AEAEAFADC7C587368551C73DBE1E57C58AC713303A8BFC258BD04B51724459FF9E24C03A81E0E0679
310
CEB9B348C0DC998FEB9C6D6EFA77D247CC8F92D3848599ED89A23218D0636465AD1CEEB7DC140D7426F83491C4E8E8281C2FB35240918FFECE880CA2A42D70E8B20B34DF5221C7DB0CF90ECCB9C745B37A47E9B716FF7A97B7A252C1F3814DC7B1E1A7F72B8751D524EF7CAE45B0C73B3BE7D08ED39781B380DDFC9AA4A474
310
9C9493DB5BAD07A6EA6C092FBD0E85DB004DF06B8C9D3089C5320187E4CE1846158C7EA7DDAE8AD9AFFF21AA3A1026BB06A259845E8232DEE62811A4DA9CEAB3A4887320B76E2AE5615EAB7BDF738CBDD01F1E64064BC13D9EC53576751CA8CACD58B3CEB0E6CA585BD089B2A59B9FC101403387AADBDBE70586B93D64BF3A
310
D4453EF9C3B6A93817E8346991798601344F79A83C51F3D50F7BF2683A3605F51A72449489E0EE6169C749C60B1035651103AEE24D24E51A759C840DD3FC6504DA6FE107510E447B43461C79D22970B75DE5E1BD3007D1AFC619A4A4A69B5626AF5E9B8374E20677F77E2F8E73DF868E8BEC7EBA7B6A75EEF7205E1AB9486C
310
B642741D6E03FF13FCCEDB1C4AC129886268B01CDF4B124AF797CF784F3C6DEC97A17D4B558070A0F1C04DA4FF9BDBF34159AEFE958479824B3F58EBD1E19088A2AFDE501B6F2052368A3FD0E650A179EFAB1561E1D27527077136E652676C3670F42DCB3352F48F6BC86D2C3B0051727E41A0A4DC6CE2BE9D47F5CAA2935A
310
3C0539AF080665997194ABECD723B08129CC5B6B21D2E7D54CD4D12610E7E9FB8306771A89576C7A982002775ED44F3F744CF21EEBB27A631671D921938AAEE3EB0D19CD1E083727F607823E817BF599DCED5394E37EEBC2E88782E638920CA641EF74D4CDFCDEF06F4278ECB18E31E7E9876F2D783C8BF429C75395F57E98
310
C2B495A3DA077EB3AC3C158608B6B57FE3EA48484D9A480096FCEE0DE880950E7E5A5714131C5C41AAA29FD19AE81AC145FA1B9E85C7169A5AB837B213493DF7E9AA4B5FBF9CDEB36EBD21EF1181B7CF7366AB2A951D01E37AF4EB835D1BE8C117CFBE7625D2EBCDB0B20C5A4B45CED0BCDE3EE8DA9DA78C2E21DEAAFFD119
310
7E463C33CC6A80FB785669B856EFF7A8CCCA2841B5A5369173320B1170C368B2748D81062EA0296E5E2D95D7667A4A46D98A6FF475C76AAB0A8C8D45E226FAFC9FE0133EA9F60111F99CA81ACE03A1D14C89E8B0D69079C91464FA1D99E651D0EAF606F345C42A8A1AA9BA391031582B96D5B4176A77AADB01F12FD298A75D
310
EEBB2C82F0B8650E880722F8DDD90C56A7A058E5FDEF1AC93545BA27367C76F5D8F9690CB6F8DAE141EDD7971F0FB548A2AE435F224D6E5954CA155512F7332029D5A1230854B79F258EC5FFDB09F5F6343A8EB193229B7F7E79B3E48F8E183860B38C8269D1B53738FF1E0BACF6AADA6D4869E9DE708E79B5DADCC09B1BC7
310
6F649731CFAF59A83FD8BAE4C749D66FA87A3810D4D62FFE826FA400C0F325D2BC0F3CA35F5847B82A2ACC7961745C823E4D863D54460AF792CE6F79B5C7A33B25C3AEA6CDE15A919B6367D781E9D44F61BF828672594A3E1D9EDD6DF179A81F27EAC05B936575D73E05C209DDD2115CFB705DF9BBF3C911589B3640735E9E
310
618FC9C36A7326C82B2205E244C55D56FDB9D5DC93CE958D4BF8174D2B3DA54CB3C09F2C2A6DFF73D23B2197355761AD421EC581284A7EF8DE2CE3497C0C804D49B41DFD6A7360844E5BEFFB495CFCDB97A4595911CDBA623274CE852B5E278AF0BEB1770E9D37CD977B2766A7DED0E94B840E1E95E8C77DE5CB6354AF7871
310
427C28ADBEEF7BA0A28E19DE9ACD75F379FE373EAE6DDDAE3834692F9C2B03B4FCA8FCA9ABE8EEEBEBB725B88A7C90941E850682CA04061A7DF0CE82ED49BFAFFD42C309818FAE14755CAAE78B0F73243ECCCAD7DF58FCB9CDFAE7A4D3E6671A613639130D056C8383C8F4FCF4808C331E544DD26E4755D09EA05253B3049A
310
1E32587CC25D72E073E2CD96D04A71BBCB0038FEC3F53D254199C3CDC67CD66640269431860225392B2CB3ECD0B4498AAE78BA1994246AE1EE78F2EDFB79F6C6CB6B5E279C4D373FBC21CB2698C9ACBBEB6A4BB6B39E16AB0E421CCBFC7654D81ED86022F9BB522146F9F4772E2D0E4FA70120C95A85A417BF5078B232F475
310
4363EB1750B2AC2148EB46B1EA72AD9B4D23ADCBC589D70106C3EC2ABEEED84DFE28E718C6C83502C28E9FDD3B09DA0A6F6F7B72B706A31C9E2A331EE70DA56A083D2177BFD63C55B11D8D949FAFCF90B23A1E24B9B5018B9A17E99F2890EC302F330FE7936E2C23F0D237EC8916F5166AB84B62A21BB0B950146962D754F9
310
2CC2C8877BED8FC7B7B25726DD19545392570B3A2C66B58F027BEF412E552D12A588C4A3CC5C3193FCB3485EFFF700D0B9EEC077754A33DC1FB9E25AF814628F91DDFECB667D3F7690803F38D13F8AE39353523BB08FC6760144AFA2CE28236F65EDBB3D5F59A57D612B99E3D7E5F8A851666BF9B5A6658EFC96EEB37A378A
310
BB0EB3FDDF1303AF32C41BD1C8560745D7BD81066B0D6313359CF488563D3BA3F8E2185D1FAA3EBA1397C9D0E3DD232180A4DCADB6AF25DB3AC3CC26589C8239E66E81547BC7E2F328F9884764CA37EB5DBE390DFC03A5246B456A7C3684C4377D0EEF9A350680FA9A077E8B2957B489E09AB1AD41316944C2254B5984830F
310
691C93CAA767EECF976FA5647538830B5E63236A6F0365C1E0F3E327F24FE35EDDBD7360B0F7374837409F7A6311BECC12B7026D4FA1AE204FA3F5FE904B1F420C7A9044AE58E403E7C4848E7DA25DC9EDAC79DD756FAA26B9EA83ACE8A214A2612A22AFA19DAE7DBAC5F8CDE1292A485F98DAC731A29FE01A3966E96BCB9F
310
B5A4C8830E1B9AF0C54B87FBE221A097036E5D28D1F869F810C06A9BB0AC0612F69AEBAF893C6E7AD59460208BAB3A6B09CA4F6BDDAB8CF0D1F84B72487498395A70DCD754796E271099A567A55CF242BBED64696378BB6CF25EF0FCDB589F3A82F1116D010A9AB9FA4358809EE0C973A2B4229BAA876A70B03AB49CBA7FBE
310
71DB1832FFD32F9BF2C8E98075CACAFB36921235D0F552B6A67E94E094097A5D7DF681B40623DA535ADA7A9AD8E9A62407D7C9A5AE51D62A17A83A23728DE86BB56115804D3F2675F2C6B87541A0FC497BF0CA86420F558C9859EBE9FAD62747E323E3AADC03FDCDDFE7407B09DA90B44E3185723C5381EAEF589765E2F7A0
310
99BA46695BAD60CEF3491B8A171F5F56444F7CE9455312C3498C74173AEA0214EC029833B34B650CBB5A5508D5091665309642791708ECF27CF11DB3D797D6CFE474453BD4BFADB768094B2147814D81C7CBAF8228DCAF5564B5891F5EF6A860EB2E323CB82AB868D8EA048880D63B0DE5341F1B3D53297B928A11E15F25E5
310
148990F710747C3509ED14909C552EBE3973246FCE55D00564D8310BC3EBC5085D08D806799B77D6C57FDF5E55837F9E934F09C03C729271B64F12D0A9F9E938107CAF7BF1EC8CF1BB9B42363D33070F4CACB425E605DDB0A34A12BB936DE286B9887A4E2E558F0886498BFF49C311D96C277CF6A9FC0D75AD0ECC5226D7E0
310
E3572012E56D7FDE4410CEC7A6D0F997F225A2055B8B92E3956E875AE4993CB3D4C9063AF98FD45E1BAB165640A43439A2C9181A7C355B297C0A0CCFFAE19B6FA3C2BA238A885FBC98B8F6DAF4B94B97304878DF4D8BFF6A4AEDF79E90ED4E68F00CD7299F4E0D83E35601AF0CBEF18C1E870E74758FA91F5131075004DB3C
310
FCF09AE1DABC11957FD9808C92E8A678CE9DBE40DDA0E0D1D505AAFBCBA208232BFB6FB3704E8985E61ADE53DE74152F5C7DE74B1DEDCD37DC3E8FB30D7EBA8B9EFFC3606BF90B8D438279CB7709FC7C00D327F41817EEA71CD9E49FE9C8C9A81C70915D9F0F15958EC5AA4C3BBFAF46986B90F188BDB24B89DE3C6F29EC3E
310
6F66D84856EE96A35E657CA41B41EFD8DBFA16AD6E91439EA92B40B21C053249F51AE50EB0B24C770FFAF40DF12C8436366819C48E36547D4E7B72FE2BBF10828583057814A668BDF183F6B2E58DFB151103E56303E63D00F39C27C4661605DB644D19175D02E3F0241E8FC3458D17AAAADB117CE9EEA690D0DB01E634878C
310
04C2C9310B69FCAB831151E3AD293BEF6E46B0ABCECB50F5939B39C613D41E81FAE8D34CAE3C4566B761D37185FE864AC32FCB71AEF39DAA5BAB88609BB980CD2F07A8F941653B529567726E2B2A58D079DD57E1E5E31426CF184A04D7B03B985F276D47406AF276FE32E3328BA866EB1FD39BEF57863A317634AA5FE46740
310
9B3873F5069EF0D71AF00AD189D17BA1974ECDB2D623E9E14086386A6AAB5807825C37B015BFE892AFD154920EC437EB945D958E18622E1E0FE2FA06557CE4BB9BBD05A2D40E774DA2B65473791E314B7D6C886820B2FCFE4AA272B3B8B15E7344A145E8AF919B5454D89D36D413E87211186BF6F645E5EC94DCCE8E1C7990
310
22E4EC9BC86D7A0F2AFB1FC4B2CE48F84B3F49ECE65BAD24CADCC07EFF39AB06BE9E6B27A059938EA7208838455383DDBCFCD967DDE4650EF92A14FF933C975DB20BD7FEEBC4487576485963D757D16340D9599FEB362F775F38CA4185A86F74B629C81B133644A3B18FD056E997E0734F9BE26D11C0AAFC669E2AC9FC41D2
310
81F8B2E1C35AE27BCE05F3DA295488096688719D974DF1B5D182DB7792288697F8763CFB43562C1CDEE11C4AABD5C22B6E33F6F389CFC3477C5919DC0D533F8A7A1846B7ADB60ABDC26C43D0CFC8910B7C15EE22675BD02702ED39DB77A87A192CA7A543E6205B979B9F5A6B512A3CA799E198B2D5797C0AF8D1D872CA455D
310
4D431A7879D4DD76110B5FF7F4176B54477A9EB5E4A5D11214FDA585F0382751D8E2582BA5D2075053298FEB8F1537304E32CB22C2E2B693DC0A760B1DFCA751BDC445AFDCBB12820ED85F6D5298933C7EF1211E9E057684056CDA3FEF3BB6052355E162DF27C59E965A8DDB7F9437EB72CDDA3A090DE65A5B2F50326247B7
310
EC67B73ACC7047FC9B353D6EE990F772207C6EC52B39DC2F3C0754821DAB559F7C1809C7D0DD5B0499D0442E0A6E391B3D5DB46D11E731E6794EC77523FBDAA242ED67F9FA1FB684255671F63C9BCFE6E7E896D51001A6113EF2298BA494E0B0980D1FA5B9D60796554C02256B1E0345FB7C6186B6A19D2DCA270416262845
310
FA4F42DB5D9B0A0B6F07FCA2E56C242522E001E0CEB734AF310FC8BFB57E38E03AACE93B3326A2197891E68452B26A6307FDABFEE0223D3C03C3C73D2D5BC054C8311F12004CAE488E5C29287F8156A2CAA4AD0D7BE6B97264E4139F437CE73ADF52E5134C52B819777C18B323A5924E4F67AFD13B1CDC3A61793A79FAF5C0
310
CEB718E441071E797C6DCCB9EFCF7E4A1E9F3DF3C2F9C9E8294E9586868788C972857FB0556D7A26941A7EEB9B580AD78EC40B85DC906B4120A563CA3B87797ED612D3B035962BB75F6515A393F4CB057F564CDF54F2E5A024514E6A1F901DB80C7E70B1FC05E356A7E72FABF4775B3E3FB8F70A2A8E7B6A94542BB3041579
310
78CCC999E707A29CC795E67A59CC546A5D47B368954CA7B6E75EC9E1F6FC73CE3B4F71F8CB1A6B15923D61EAAEB14626AAA9D04A26EB9C66CD1BE86CA31A5D8703DE04CD1EBCE4F5CCB62F93909AD11E55799A781A956ED27D3E738F4538CB04ADABC7DAEF20BC35BA6A90BCC1DC61BA05F20D8832FFB9BC9B15E2DB838A0A
310
FBB7E0C82A562127E0446894F427794C3037186F622BF24DE1B00AA10A23BFA47B2A180D6DA5AD6F7326FEB8C100C2D7142EB2A0B2A9D1008A09BA343D70E054AB69E2A7EDB783CBD92537FAF4A44D1296AC2792729104B3276C276C951D0CF3CF3F1E6B017720A7B8505A5FF9589365979678C36F1BAF759EAF57C60F1FF5
310
FE9DCF5F8E764FF25A2D06CF25117A8FED51884C13B2B750DB0E4F5E3D64124FCF11F0AD8F1CC3B3DA4B38ED22BF1CB2585EE6BFEBBA63FBFD44F9537B9B37BDD6B358720F98A8125AED4349CCFEB0E135F19E208A04CA7E2B10711185D72E381F448036EF57C9F874E54A971CA37A639E986AC0226DC5AA00D5B14FEA9192
310
234B3DE617814FC221C92F33F1D392F297731B567FD98FD91D989379AF567A65B8ADF177591DB90FBEA99BF4ED11B16E50A0AB1DBF1156D034BBE04D69D08F939D8E92BF525A1DDAFF80ECBC95D8F45D3FDD289FD23F7D8B452F8EBB34EC082DEEE68E18EDDF072060FAD2AB1504DD4879BF67099FC58F6E9DEFBF645D1633
310
4A3E9A127C6F1AF6132CF287E433B43A0EE93812B4AA0B194E03EE3FF91EF9C6ED0074A2F6EB18A96A7C9890B1FCDA1F2095E944DB911ED54C60DF16FB74C8CE9BDC7C54C4F14078CF73C2FFF1F1BBCCD7CF64F71407EA1683DBC410D226627F66E509060D5C0AFD611DE681D509DB8DD12FB1265B03C6F5C55FF4C30BD941
310
87FF692B4F152982502F193098A789526A038AB529A52BC0DC4FB6285CBAC10A8B8DB75DCD9BDABBB221E27D1F8DA9F5EE5926A1C8AA9BA9BC09239C6A7F12914EA3B59EFF7AAEC3FFCCE56F1C5C2980AD072793527565E774F4631DB178CEEC691B1F367BEA0CF2907E1D6B854D527065979DDEF002D8B2ACEA7CE21AE297
310
737EDE1D45B31233B73FEA35BCFDD0B09721FDBAF6432681F2FD10C3E9EFB246FD6E854B344ACC9D8A0EEF876A7314B49B6A499FC650B099D650DBFEC7638ADFD245E2B7839DA5AC5F7D5623FC0ECEEC8653FC9B2BDD1AD4D00A566FBA7186DD3C9CD26512551637498CADB950FEC71ADB9A5524285DE328B8EC7EC75D2345
310
AEC6A27C42AF6D9B92155315C80DBFCABBB7DA0FAE425C4FB896B15C9BFAC4FE67DF5A23D30C93DA4D8F36FB15D100050DA6062E22AEC5F4DAC4F6FEEF97AE05DE63C6D38F9E068A20BC5E3B6BCD75320C5090924E7F93640A7735B1A43451C2D91EE62C6238B797349E59890AF3A520DF4A87095F3ABEC2E61F0593416CE4
310
6CDCBE0E00E2523FCCD04408588B5B6C9DB6459C786CE378770B54F51DA3A5E1DF2A3349BEAAC234A6CF8993B598B3B25B4B113E353A4D750FA7534749430F3EBF2512E7EA3FD43C6AB9A1F765A58463B306721A15D224FAFE8C6F5E3432D57EE697DA0DD5A9D4866A8BCCAAA9DFF1F06047851408FEC060471D0E3EB86BFA
310
F46E4B5E60311DC3E3CEA147C75CF971BE74689507154FF2D2E92F15CDB2B9182B11459FD8ACAC5A85F174BC94A7F4EE4C4F5CAFA7C02E37BF0BC77B7DCD0C047BC316F562A01A441AFA7931CC84A28CB9F4AA367EB515778F29BFE61195FA671F4352E5E46E3A64773F1F76EE5EB36D7BCE9BCEAD837A4D77F8DB8C92AEEF
310
6711920D7C7D0F76B0FD0EB7AB83724CD35BCA7D36DDDF5FBB7FF6F04A91F3E2BB3B8F1A43CD659639507FF6331C5F697BCC782AE57D757A27D97F1AB9E0AEDB43F92F1B2AACDF5FEC8ADBAF9F814E2027003BA2F9E144B1938A7A04050AE5D953B82C45619165C813A10E76DD6906B3C16438064D14CDA713AEC420034613
310
E1AC7241904A49FBF87409AFB1FCB9B72FE7933A87D8FBEDACECE4EDCF6A4FE9FB94D5DEB74FAB7CFEAE17EE965DF980DCCA2D04134994F9A2E94D2265DA4FE6AA7B7AC15FACAC2B5ABBCD7DFF542C5314FDAB2E1B9D8B65220B8E2B638BE008E8DCA22678C820C5053664D15E89F2D735B51A84955E81A443545E9FF787BE
310
0FA700A76D136C27DA179A7C6E8939E01BE756E19CB292798063D8B97F44E8A27BCF3A614FEB8BE974A718E86F7EC99B53CA35FA24F61F2B07266684623A3D4CF073E511F3A10A8FDAFAF0078C577F4DF9D339FE7862E5FA47CF4344209E5BF76D783B1B48E152AD281B15FCB934DCDA49CEC5706B1EE8B460F435324A5CAD
310
154725E21AB8044B75A557A79F6C807B9340AA3D92503E866F4274412926C8C504E4D5EF8C0E68DD0B028781A6B4054F11CF18941F101C57CCC796773ABC8DED9CD91FE5788806C05E548895354AEAC96546D55B0E94A59F148D061F42AA398D822CDECA4CDE79E13469BDCC44FDC990F366BA5978C15F97ED80CBFD73B0CD
310
9B8B83A4F6845BDFBFAF034019473FB9A63BD55D3A4A7284757071574029A4D016DCCBE95DD679EF3C4880BF169422F8C89B68A988D2B13793CAED4F74DE7486C72DC94DF46B8E93D8E02EFCB1FF9B3BA10C8AE7F653DF94F4AF466CDDCEF5776687F7C4C14B63E4EED1719DC2EC482D7DBCC7AE518CDE3D5FF86D39000EC3
310
673C0044E1D308BF05F74D1B5F033A7D1BE7F74BC55BBE3E4A20F920946CA0271EB17BD2B80E5660ACB8A29A79F5E4BBA49D4D945B6EEF4A7EFEAA65E5555BBB57A7E15D2F83C69F30BBB978D2B39F1F26FC097424D39BB33CA3D87ABF64E307938B685BAD44F71556A30B7E712CA4FE600613C3E554B69ADE949A7CFE214D
310
F1FFF05CB82151EC6FC31950239F94CF7AD39DC473F6EA356E5EC2C4EFA04383CEFE985A127484366FBEE3C0EC4FEA363E4F6632AE781392FD45D67B63FB8DF70E82734F431FD3443172A0E30A83D60982D55FA6A2CF86DBA8382502ACC6CDEF3B907982EED1160E14863FA242F9757347E1544275CCDCF71ECD5F8621CBEA
310
326B8BA884AD7F825781923E66971F04010D574C541D8427A438A37EEF8AF88240EED7362C953F5A81DE2D56109CDE2524EA0F5D2F87308C0C47BD97AD605878AB8589E17CA83930CB5E0DCCD75853D68B1AB136594926DE426C367428E9334AFAFF90ECE221BB5DC9E5BB53D2CDEF954EAA9CD814F0E5725F1965DD458E5F
310
8487683AD86B9D0076BE3EE91EB1CECC5331A67A3F79D8B27587C12EC2A6A70474749F27B4C0BBAFB94B34189E88DC18964BE4121B9137FD516C7755356E50D6714E31ACD222621EBBCD1CFF81D87479056A9DA0E0B8EA19D24CF937DA89F78E8650CCBDC110AAB6C4E46DCBFD0446BA9E2060E81F314AC2031E88135E5476
310
AC0160EF5C0DD2EEF1B8B5CB2D198BE9A554A9093B5F7D7E4B5407DDFCA1D9C152FD97F55BFFFDFE802954DFEC8995B983E28AC92F1971E28F531DC407A1280EB125F64A72E617EFB27DFBCEDCDA2D6F2BDADA36873EE46B9BE1782998C63DA7182BC383FB6FD15DA472B175D7E8B4FC88F38D6E07FEAA3FA3CBB8F6B449EC
310
F14D2175E5C5CCA3A42ABF24CA6C9395AF74535F4DDB38CB84F56614B0FD32D7E19CA5CF988DB4449C40E23DF2B16772594554579094450F56F253CD25EA7F77366FB1CFE79696C428BB64D5A41E986189427E5E4D7E2DAE3D5BB4972B3DC44EAABDDDD63A2264ECFA5C786EB0EE1FDC5BE34FA0F08376869FD1E61EA06CAE
310
15191135445EE8F0394161C3266A596AA035572BB0C8876180D8B9C77D307DF9DCDF7365ABDA6F3A2366436457A4DFC1F259666569A9E4A79C817BDD5610E5200FCE894A358EC72858D50EF67545DA81C6FACE3D457BAF70367E1E6BDD9A952FB4F56247F58F523B97E640246051A72F79BE42FFA0B3187F63097F91C48B86
310
8586F714B0EBD5A00A8412C1236E1298F60C72BE6C96B82B404CADAA304AE9F303176B14BA53FBC2D5E86377E35542019E24D97B96A49B2C0E5006E7795954DEAF5DA58958839043C6C70BD3B1B33B6DC5C31316D8A6923F142E26F6711A2258AF977DDF1F970ECC4F1F2B434B96D81BEB6E89BF3BBB3C7C8CC80505070723
310
D6D7D7D3C8CA27CA164A26024FED94B12A86031867241DA53D929636DA600F050BC40CE48B8BA03D69224720DEE2ED2127390BDF5E6EA64527BBD4C4C63FA76BB801FEEC0E61218EC98A8A86CD8313781617877E66692839B9468CF4DB8E50A73986E558E309C0D6F676F921BE02F1185454DC75B111572FF9D27D85EA14C0
310
5AD7271225B391C4275659CA4A43759D0BA44639BE4C30A84DB7F67A41399FB95CBF923B1B1672ABC807C1590557FB18D811983FA97F5E609516D62281D38B1281F68FC75528C35E4CD7DF0F7DBB5E5DD69C414EBEA2F4A5B241B996BA77AE6C772E367408C633EA3E438B68563EA8BE7667F3A4C4FDEEA52ABD78A2820F44
310
3B7914A15F180018D231E64519C56A12F6CA7C8DAE18F06F6B769DBF92329EF6A5D18FBCE600F36BD8E8198DE5CDAA96181F3A756EBA5501CEE58F497EA4F418A2B82565B9BCC611713C0B708CCA1F398B78C5F7D03B3437CC18F13061F55C7BEDADD5ACB1DB0E36D3CE47FF6EA1A563A57E9649EA5D14D1A50EAA45746338
310
1C073777EF1600607BAF6428A7DDC079D47A204EF1E1F1F0589FB054D45E02CE623B3823C317C601E589E22B1E88B448524B86A82828E32345EC18AE17214B42F8C41C6D428016D9BA31DDCB47572561E5A402E5BA4FCE55F78AF7268524AA04130F3A20BA5D1E9F9948EA48FC8F5314FDB35E21898198060034ACE5E3E2BB
310
CA34092518F275190AF65F45867FF0900AA4B81F25427414C372BF51DC29AA855C5428EE1EEDD6B849AD60F6E73475C2D2523F8A2772C840A478DED18A8C5C91B085F255DC4F54EA7AA8947354FD17ECF8FB3B4A0DE7B483CAF3A1165EE05BBA413E5C1FEF3DE1D6B8F2F3F3251C17D9FCAB48A9AAF63AC773A0E413BBC46A
310
9ADF84A566FC920E4D8C52C9769EE3301CADEEEDD92B312E02E2A7E35B7F1E7D203FE5A7D75578B06E99D0E46FFADB8FDA17ED8880390DA29094202D6F645F76F6F96409CDA05495A96E84B04A00D1A6C6C81D7F3DE9376E828CCF144EE50E364ACCE7237EA0BFB5607ED1AC3CFE73794E5B61739D14DF1743441B1AC98F00
310
ECEDE9E7301FA29755FBEFA68C91EF2B314CF510537EF1ABFC9A762496280B546F5EDAAF8A5B387D469FC9A878A92828C88608453ACEC6094DCA54111E7AD5B2663DFE2DD151B7F123B9F4FEF8EE36AB125FD7AD52A59B1B765B3E3F73E3F73DEA93875004D2AFFE3CDE9493B87A9904DD052028949041A91DC0E1BA47BA71
310
4343FD5B25E0A6A09503AFC17C790058A836A324FE31D7893512E28230332F153181C1E018E1124EBE1BA262AA428A518237D1EA7275E48C5C561BD19ED6912EDD8367DA0F31E40EEAE9683DA9257525AEA7B632B97119E17145A90231768A4F3B9120FF32E8319B015E3CBE26F1A754177D8185345817C096B0CE443A955D
310
13AC15E1FB5DEEA0239EC32A3C92241A237B0B02FFCB4F93CF2B02570C8D192E2F2A68CEEB42F12E6F8CEEFF46C251E22B4341C56FB08CCE550E7A9D6F4D6564B9EA52A83D5BF2C6E03FA19D2775E15A8A7ACF30A13C259EE7F5EF2AC3BA354F1500E1A07FC63FB4686E2F12EC69719F9ECF5FE3F35598DF2CE944008CE78F
310
0911BA5BE5D0A34E0098FF038669C26030BA9B300303039852A8F6F496341737CA7E0D2E3AAA36DE0A70AA7D9CA0D54D9AD84B18A44C9E625475E1C97B93BEBB38DCE7D227E67A2D00F531436136355F243D1FC0D712C5765754FA22FCFFAE97919161F46D6E61ACB37D83777B385889770B50765B127768443A5C4D3A4E35
310
A3151111F146B7CA116F918A049F1C272F2CD7976C69A0068773451659A97E0F4A08FE604C3FF6CE7385DB19F4D3ABC8A0D80DA8A42096AC377DB49382B36E270B6FA7570188B4B7D1DDDDA82ACA487CCA5D38BD3BD039ADBAFA4ACFF27809239B722081E2EB9F145320553D183F28471C388BC8814E5045676767AB58A8E7
310
2D1CED2CA731379515D2E533E4CF0B39DFC625F97AC4836831A4DE330E87A8126FA17EBE583D614E71E22A8DBF2825599743E0640037303E8E1B1E8EA4E1ABFA4F62907B5E4E0E5DCFDAB417C36C6848A2B8D15F1E505434C0707E16B1CFC2A1C36A42BBF55734F8F4301DDC2A5110CEE8C0747F69519265012A2174BF4E95
310
5ECD4FDE095A3ABC70536B7AD0B9D7892F81287D667C108703C9B66A221E9A0929D030008F77FF6F5D2108EF5706FC87A3069B976F7C9FC3239D13D283CDEA83597461079FEEE049B0F392889898B7D87D31F8D60ED7B56B91823A8E4EDDB36C6172ECEE42BD42B12CD67994FA0F0DFAE9389356F4CD4425A4B8AA55CBF7EC
310
D585C6A2C2316791E43D5C06841ADBB226A87FD61515FFBB0167B74E56BD7F3E90A57A97FEDCBDF483A0D6699A8C0849CAEB4947FAA90D8E332D9DEBD9F4738C37DA0CAF9CF3DAA68BCB67C420459C7A64498D6E848E5CADE92BB6901F607AA331104A67F7CD650EE169B1DAE94D2C31C2F993632259B6957E246EFE4C5481
310
107B07118607700040E5812A2A2A38DA0076875258C753F60E0F2662C748EDD5F3F3686B8FC3BD6FE631ECCAA1E8B1C1E565AD117E54893E79F4672E32F9E46B2A183DFDCF3EECB4D4D077DBEA0DA254D256045109670050129E9B9B1A9E4A11344D61497A992778095151510C4BB7EF2009B63AA4360635312E4CF668B7E0
310
D3D85A8688E2BD83B569439892ADB63461930D428E0DE42E4AC57CE48DA5CC1449530D8BD3D6A0F08DF20C8E8F570F2CFFFCEA286E30969B4654D498A58D9DA782E19FE3F002181838925592C4A1EF0B332D88B61A92C644547BED490D3A42CFFAB70E36D961F694F6307F72FF15A1C79D5B1B5CEFD353D9E2B52566DEC8F8
310
F09CB3E8359C0F68EBBB7898243E34E12A015B2685AB303C04D3A9E00671FF3DFF0A184E4A2ABEB2B666AF5B3A209C73D8EF29DCDB069C9F391EEE9DD0F74C7BCDE16F8F02E3B8816122BBEB50665775B600549D8BB33A54A6BF940C028118BC6878C79958D6784F9DEAA6E26748386FFAF8D0D0101E2847B6563F5D8DC1D7
310
8F787BE00E2C941AE12148D4A81599FE8F68D4DA5CDED75530ADE138240300EE13B0FC13A1687FED6774662C05A2B7DFB186732F0D7A93545D8B0A6390AE5054D9CB582DA846D7A061B3358B45E2B52DDE63E114397EDB7E09233A579155D795BE76102CF277F4DF8B188C4F2879BEAE3C08347124BF9ED23B128259FE107D
310
31E34A652F090B30B39E0D9AF917B76A2806135621A8A60681F16AF216514BBD02711585B5B1AE823F4B2D0369EA5B6BCB863072727FFC871CA6C9AB79A814D989057E9470A3D238BC87CBB4A0EA49AFE2B86F22E499793CAA9047080450166BDC357524561E258C77CB697F1ABB32562CF87C3B7AA12F911EF19FB3E5C022
310
22E887D08202A60A17151F5E053A86B437771088B4FEE14D652C43E8D939995D34545E12E2FF93D4E366EAD25F10CB7DED141563C3D0C447AF06078A91135FD4B9611583CB4BF3BD167F2399CEAB0E0100F8FFC305F00F1711717173138B4B48C83022295DE657EFEDD97F238ECA80F528AFB4F8D67AD4E2594B9A3AA86D74
310
87EFC313BA95745C186F0CDD84CC12DC9CB0424B42203D351FD9C0A3AF10CC7F388E0329279087386421F194F4A29464C1DEF7EF8BE515E4A199DCD5B909342598D8FE6A231F71336248D5CEC5454455C7BE383B3BC7B260FED27F703FDC39A170F3827239102F59D4DEE7FEF82EAA1A5E4BA94DCC4CC44E7E2EDE20F24244
310
E4454369D2E87C3F823F193FD4FD27E1C23984B01898D15ABC20711A8A558054951A6AE280096BA36CBA439603B7B0B4C45F248C14B2383B4B5CD8ECECE4FF859AD4A6CA2326D020EF090F4041D28DB66E5256B56232CC52829DE8060BAE6BBF37D4B7469B822454FE93210A3E8D15E69FFCF01123222611C51C4FD0A041A0
310
CFA2471CF6BE38D2B20FA4C3525B5B8B586759475CF80ADFE67A284AC24651E52B8E683D24C2622642F27E7C3C22783BCF63648BC398BD6CD0D9C97E7E7E3EACB6126DB7A6C1FD9F1031302EE67ED96F22B77C7CA0239BB324207559B105E4693EB26EC46182A92C9C0DBD24F29B31C5C5AC1F84300E0E17CEEAC15F5736FA
310
4A98971E2F1423BFCD68D4BBD5F86E74B40A369F39507C88FCDB35D2DD8DEBEA4AF999E23CF2816D204200DF6E611781B9884C1AC8888B4DE397320472959434323A5A36B22A8E1F721A270DF3BD65E4A31C11FF048AFB0D8B7B6881423793963A23CFCE935FC189ED36FAE35C46DA3574C979E4394BE52084F3081837BE03
310
3396D2EBD80F1F691B273F660D2B32FA27A33B1DE4ADA5F0FA4651511102DFA410DDA86E065272CA314D5249DF91B06BB92807B28EFD54F08F7B525252782CD276DD02E6B0319B13DF87B1F6361AD6B28FC0D711CF445429B9E5A433CD493051C49A9E03DDB1B147D880253514A5DED88009018620EE229101C041950E2D8A
310
A8E1F5F5438E0C0C0C60EEDEE9E3E0C051948C69F84BB7B2A48A1F3C8EB9E6864687F4F4F6F6E2FA87608ADAF9C5E117B7C1A737E710769DA1D15ECE6A84502AA855398712D5FB51BE92E4EF824969CE18278798AC303C2C7980DD2500ADF8FB1E6D6C2FAAFF9987178923334A244758BAA01A9A1B70FA5097D01E1CC2A58D
310
AD0EC94CE6430AA9B0C10D75E3C6BAC670EFBADEE1607739CE0FC18A2587E3EC3058562014C64219C69BC269082D5C2F4A659278D585755912176D78A1B641719C2A394CED495A1AC5D583FD2F5EDD93308EA7EAE8A6DD396598BDBD3D4CFED62D18A5BDFDE0DD5C80D1A89BA62697B131AE7CE9A6594138582F1B37D68F17
310
49AC7CB67A70695D48A4A056AC1FBD4E82358CEAE38F54B95A9016F9000F9879C0D9D131768635CA798895F27D6F1614F11F2838A83611AA51C9A3DDB539D42979C29F10465655C17BEC3E2760B80DCBF609198C7B171A531905F3EC218D696025975E986C6B4C666666787271F202805577DD5A3EF0CAFAF91B62DC4B2DB4
310
217A7606282F31D8DDBC290593BAA93EA6353AFA9939B877978481E15CFC9F2755CDC00C538F63A4BA3E80AE009B73CA0185687D339A507D165B74290D6EE46D5C58148F020C3668ABE9EF2F7549170DC80DB41FFC1D678FF19AEB10C7133832B104B80F691B3138F97A92D26E551F1F110400D45AC71A9B9AC41A1A1B1DAE
310
ED0B0810638EFFB511D46B121C6FEA0F38CD00E03CFFEB9713FE1F9C263E4DDEC160D0497FA9A132BA608584057FB15380825DE6C7FC3C667EE947D488A09898D8E939C4953BF4EC9836344D2CC6B2971B2A21A572B06096F4982D2CC7232D46E8EA69DC83722E267754D777F97F96D5DA74E1E75178084D0E70F12AD33E5F
310
71EF2AFA599B2BEBF60A5BE475F444F240CBFE8143C334E7ED9150FEEFEF7EB020C4DBED388DD1D6A167A76F3CBF119B578AE8CFA7736ACAFA4440A1C47185638A0D2F3EB5BDDEFDA958FB13CE4AA4923D5BF840392D45544329525749734866684BF7F8D9D54D892E19BCA9F829A0F8BFCBEEA6CFDFC61D74EA1A645ED7A1
310
FF241739F15694BD835B66FEC5677E40FE69BD3F91AE402F036537218A401CB0828604AD189E575015C6F3F6BBC8AC79CF6C70653847254B31551EFCBEB5978B9DB85D58D0FA41A9DFE9C624834AA04949D24B5AE6D299E072D152D12097920F14AA92C31C3B97E28B6C2E6E9C23D63043ECBBC0A60FDF5BD0C33C127EA8A3
310
308B8B6AFFEB28B4455BF6E7AF4FC6222728357EB8E46E85053E6A8843AB23295BF838ABDA94658FEF3F832F147046B4ACD6F7D48E8FCC9618582961C898D1C7A253C91BFECBDA6BA18A1FCF70755DCCEE2222F41B76D23CA98D0CB3D95F0CF66D57FFF65E2A90F5DF40FC3187621E981BD0BC1D992787212688976B94A8F0
310
C6EF646624B570B78E068826F87CE27041A95C9A4871FF65CC17FCB1639629AD6A9517000D63AC231F3D741CB8430777E7ECF80CE7A3F73C0F162F7E56AA71F4DA80A33CD6ACEE78E2C11FAC03DAFCE929B106F8F6B3ED2DC71FF994BD9CEF4E9A94896EF1B6E2B7B4978168BCF0847A3D2A4F1B0500B926E634B174548E9F
310
BAD27153FB5FC36799B1E6C7C38A94E1F9E996796D7B485E635D5287A2AE76FBD11A341DB3F8F810385BB7296391973DC6C37C452A9305AEBBE0CDB6C566DB59FE60C8E94B1FD090354BF51439FFD1B48D725228FFA88C84F686F547107A7A235665A4593B7C34D748C1AC8D56DD5DA861EEFBADDECBBD65117E65851F9035
310
1AEB65F0EFCFF4BCFEF24CB7A5879699FAC437A7AF9099186CF006BB923A59E37D7A36A29FD8D2CBB914A5E9D0A8FD212FBF796AE9A67958FF1D5D8B85F78F96219D4714EB919929241B6C018AAE0C02069F8D919961EC5DDFBFB7573E3AC8E08BFB7C8534BE6DE045B3CD63DBD71F7638BA2309CAE398EA3A7D8F98BBBC7A
310
EB367EFA5CFA27A9F8F2F52FE878058E6209C026453F8E7E8A237DFC389E9590F6059B397CFD65183BBF936E86896612A5B5FEE49DAC8455D026218AFEBEC12B3523A45B57B82C9C97E02ACFA1184DB18E48CF615DBF39C3CC6F0B4AE6BBEEA2E39D944E290302FA3DE33FA7E40296E2EF7BF1CD855BBECFAD0FD622BEE974
310
6FC4FDFDE545AE6E3BC234CADF83A0FB76DFB145BF3828AE3436368AC24989454F8FF70A177672C711CAA1A76107218CF948CA01F873520E7A2B118EBB161ABAD432932029628B6761590C98AB590C8C8C79798CE9F715BA696E839E9131A4BB68BE923F1747FBFF165331FFDD4D05997ACD168F12CA75348DAC04C7F509FE
310
83898A8B421181AF492861CE81E4A2DD0A30850CFA95E05F097FF70F9E777310D584A75BA7018922E271DAB1D785671157685B7D383D3E074DDB4F1E44EF04B07BAAC75A062077C54B9752C738C9D804D402E02851F3F89605AF189738C18C021D2139EAF72513824E10DDD3047BACC8521ED7E98B257D1166903B1B08FA6F
310
918FD7E162913FEC7D0EF4787E29C35FBA8C6E2C9C20E9AB30AE42CA2A01A090E7D010C1B5BF9CEE2A304BF3A987FB40D836979B79E18D70F257DA61E808472DD85B82761825779D6B90CAEB0F23360C6F80A7D7D77545E95B3DFF0CF96A827F9B5BCECD2C9698718417EF80FEEDEE938AFF55859D0D540B7FE09435583A6F
310
04874A0C7E8CF234DF4879722000167F5872CEC6BF3EF7E5A8CC8121E6A359227C8A29C95212F9F735BC72A887D56B8F309FC525BFB4FD767AAEC4AEFF249CFBBD2DE1AB9969A6155C7D8DABC307E47324C1F916C7BCFF40ABA5644E9FFB9238D19ADADA49D9610F01ABBA57E4DFCBDCCBB2B93C8953206C91DE01B0E2651A
310
6D6C31721915B31F7B7CBCE55466F6D70402788FA91D73BE4ADCBA99A35F17D6B83383704917D6833F0FA3CD45C926ADB8BC17999A4A0AFBCE2541F7B8CF4C2F5FBA611B3E626D64407CB32C122DFF4EF8674D6EDBB86C8F7C6A16D50FA685E2CCA34F8F7D1D8265BB0042E9D7F1F666F7BE5FAA5184DF58E12122A42EF02F
310
461B3F369AC746F96528AD208512AB56844CF75B97F352DF7995024FB02855385854F3798670D01CAC771AC3E1889EC25F61A20C1F8CAB46898817F9C47E2CDA1F286BF2F358298709FE567C91133E2638C8B53975E753EA8BFD3578B5F7186B7BF084EBA3F77BAC3132A5779902EC22AF2D2E79F42D324E083386DAEE9810
310
D1B44A5DAA54513C7A71E52A4AB9257D975B621308FE4D2141CC3DCFE946C154A3C1DFCCA7629EC69ACFA831634ADDA93C0388D2A9A2DDAFCF957C6995BCE7FBB6DC4EBAE79E63EB08E9A25F52F67076F7093CA545CA3053B5BF576DEAD4E0017143C5F759F32B2D6F145B52B67B48909B7C7FCA6586EE385A2189C16932CB
310
6DDFD9152AE317C430492A578ED27B72D85D40C7C93C097939E1B50F4D67F05334FE9DC362C30B7FF561B95259138ECFD9274C8D695C31B14D4EAA9F3D7FA8DDF652F8C5DEFA23284C799B7D94416DEE81E05A866302DC70192A5368EA65E1CED8BF107A1E2D3119A71E85DC1A7B0C1E93274CE04DD0F2ABC8AC7C987FDB00
310
2B6F81757B43502EF7A0D92E416494FAEEA4C9C090CD9557AA4D532F4996A272B94355C5A0E4974EEA9627476F30809B94D8D8D860062E02204643BEC7D0438AF800FC7E2B26955D595421E83C69E1A07E0E3122285835F014AD538188CF9737CE76D464A353FA55A001AB2526B84E985083693BC76FE211CA1D000679C889
310
E3C009832C87E1AC2EDD05C302557422DF0800E316FCAC86978A371F025A6C7DAA9F333E7BD160403A1A06EA75AA9888FF01504B0304140006080800137F845751464CB48900000043010000360000006662782F38334530374541422D384438432D343538442D383945382D4332313931424443463133372F646972656374
310
6F72792E786D6C9D8F310EC2300C45AF127987122606C71DD918B841D4B851A43646695A717C52A85029031293A5A76FBF6FACEF7DA7264E43906840EF0FA03836E242F406C6DCEE4EA06AC22492573150D1F66C60C640E8938CB705396EEDD86DE9B5042FE27813D640EA63BB001C722AF6E55CB61E4863F58284D5D3F53D
310
D715CE1C3985E63FD7F1B7EBDD617E9F1E504B0304140006080800137F845773F052613F070000541C0000340000006662782F38334530374541422D384438432D343538442D383945382D4332313931424443463133372F6F626A656374732E786D6CDD596D4FE33810FE2B56EECBDD87BCB6857615BAA22DACAA15BB68AB
310
3DDDB7C84D9DE0236F721228F7EB6FECD86912D23670BBD2EA4082629CF1CC3333CF8C27EEC77D1CA127C2729A26579A6D581A22899FEE68125E696511E8530D7D9C2397A569D1D8A7A104C7E44AE3CBDADC0D595A66726947025C46DDD5DBC55F28F7494234E44738CFAFB4DC7F2031367059A43B923F1A3B5C60230CF686
310
6D541BDB624386B387CE51196624294055584F408AD4C06EFF09269973D7E41B5ADB9C61DB4627B699C2F0B6A234C90B9CF8AFB4EAC871866935B2C7AB1B6732D327E3F1481F5F38B6BEB85DAC74FB72642D2F96CBD9F5CD4C4373779BA651ED808C243BF0E28B36B75D93FFA7365FA2D0A7B79F2609F1259A7D1B7644CAA5
310
24EF62D202D616A6351C52D9DA58180D34FEC8B641A0B4546AA1AD8C53BF9BD19B6EFF0610F22151CA72C2A33C2F18F85A625FE583E59AD56ACB2F3447312E08A3384211DD32CCC041B0B572504B0CCF162E0A71CC841795BCA6AE10D8E773A94FCBA08C229EBFDA5C649A07F9488A5C6846FF21ECA07DF334D009AC2D6952
310
4CA5B1C54B062266AE2916ABFF8D1CF9CF0A4814443884680133F9A691D3C16BC9B960BDD2E69F6FB7FB0DE787FEC333966684153CF24432CBBC531E6C841604DF00502A5CDBBE3BA0F20DA0FF02C8D7BA20173CC7E87EBC1F2BDB194EF220653178075948B7E08785F8C7579F5CB37E788E508B2B8F610A69FB83306D99D1
310
3ABB01E9DC7D82A04FD9481AB7F17104317D47139EE71028284A6109F83ED8EEB5F91AC81416E1291C81F5F0ED9AFC23825F951CE09B8E87FAE87780A354C274F3ECE0AB4F10338CFAB5AB5A361EC377F243F0BD5E6D3E6F4A16609FDCC9C45E918026B48062DAAF500BF456CA7F5F7F1119F9CA9ED62E1FCE09534E1C3D7E
310
D948BF20E1185085D7E1CA3562E58E42BA47114E485AE672BD8FA8FC344A99B77DF1AA1CEE3DEB4F1504D56190DF3C027AC90CAABBCF68C641D1E6D2BC9A098D034E9C076500869553BD2DF61F39BC9E0F8CF51E3D206A31EB0A2DE3CCC3715A269CBE5F8777D7346364892FDB9E39D6CC99CE261319F0A0BB3840E58F2287
310
5A7D7E528CB323C72C5BFE92BCA180AC32690C7CD967830F5D53597869867D5AF44743C78C812AEF68109439D07A2F301D8D8D913DA9B0513F1D07596F58AD953A6DAD54CAA3310E8917605E137BF56B015A0B574EEA45328CD23CA709C9454FF38AEB3A285A06504715E94A6A4FD8D2DC8B4981DF13B1A2487602969120F2
310
A0FB2A78FF7B3E5E9582B2DE1E93C87BBD34F184FD2F5E8EE32CAAFABA7318D84EE7845E5CB9D2FC8827884F0F179EB523A24D3F27BD661285EF20E9B3778B3F020FC33F1D1E750485661DAAEA79CFDAC6C49EF1AF29D0D0C5C41E5D5CD6AE3887963AACE07D4B5442A7E5BF78CF84860FC34850B9FCE4393989028F465119
310
7B550D29480C6D1B2E4A3628632F804DBA074966E8A444E3A48046D0540FA659D1AFA88E050E130DCB319A6D1C0346D104EE75830C7965456F100B5F883B2CBFAA9DF7FFDBA5FE67C66CDE6D1EC9CB73CA76BD9AB65B0FD5B5A9268313A6AC89B57B85E4B9DB4CBF585C76CEE330564224C355370B19218C3C513ECC10B7A6
310
DE3B47FE8C0B1FA874237EEB0BC8881DD91DFA909638391AD1E670A892A67ADBE6ED08E88E179056B3B6E6941AC3840273A6BDE31FA26F185C0DDD626ECA4EC8ACD6D7BCB419308C39E87142D6D74F9B8E145819FCF43DC7883C7724C8D5256FFE4E88FABE3EF4B81D09D2A2EFEB138F170F65BC4D30E5B5918705DE651F3E
310
8AFBE79509970B733ABAB12E6FAE17FA74355DEAE3C974A54F6737537DE9D8337BB15ADEDAA34B93913C2D994F72D3312D4F755B5912AAC0A8A01B720B8149C4F9EBA28AE7AE83FFC7B79028DDE263B1F8AB5E42EA868FB7649D5C1C7A09E925EAEDDB6E0CF62BA2EE2F626FEAB5ABF9820AF0D3650BC848D5FBE1CD8512AD
310
2A7CBFCE8D8AF8C6C27BF47EF3D36B4C8BD07BEB436B471FE5B7B918E6553D554ADD8805AF4D478B1B6B325AE863E7D2D2C7405BFA940F6F2F17CEE2FAD69A3ACEECB2465CD6C2A175E597E050A56C63F40613E43C8D280CF2C90E8524853B104C2A06F02B8B492EEE36D000C832AEDE220C78FAA99AC316781BA9A7FD070C
310
C3EC4856E4D287412ADC3BAE34B98E7E83D1299F5E8A8196F108854746BB864A46AF34088182427D31B6300213034721BD33E204B7E124E4B7A6EAA9FAEFC3631C1D8895835DF59E21B848CB5AD109E3844CBC5B00B6530DC9FB4D57EA205CC0C76D59D4C61C160ED64810D44B84CA3898143E4A78F7403CA7EDB20DB1A705
310
C9A069FEC938A8A4EA0566A118C937F0BE5EDD9B7C9ABEFE8AB2A80CB93B4FD5FB96249DF71951590DAE5C080C696686F94D7CF9C1BC6729BC968AD12D852040BFEFA7177F98CB348ED3A45A32AFE5CB2DB4798057553B538D09A171B1ECA929FA1EF92A00665D3931F02E7F8405702DA37C9E5A41DC0A809A9E1A01A03CC2
310
7D018FB5F6AF57481681460BDB6C5D393CE23D008244E2EF7F78DA3437348696900BA05535DBAD3FA805D76430389FFF0B504B0304140006080800137F84577A4BDA32E2000000550100003C0000006662782F38334530374541422D384438432D343538442D383945382D4332313931424443463133372F7265736F757263
310
65732F322F636E782E786D6C4D90CD4E042110845F6542E2718099758D6E18F6253C79D920F42259A027FC187D7B61C5C45377AABE74AA4B9CBF829F3E21658771230BE56482A8D1B8683752CB757E26D3598A8458FE61648A2AC046BA4CA4B009EB3E240357557D57BD8BB721F28B8508C9E9CB1E2D99B457396F24EB0F08
310
8AAA5AD040BE51A38AA20B4D90B1260DED447101C6099D40153044AE7C3DCCCB3AF3C7D7E5783A3E9D0E2F6F8275528A77443F78170B24DC1F56AEB1ADB125E28275408A9ADCA0FA1BCDF88B475B3CC19A2D452EA97530B0F2BD37CC056581DD915F570AD69F6CE3DE409BBD10F903504B0304140006080800137F8457FF15
310
A4A45D000000800000003A0000006662782F38334530374541422D384438432D343538442D383945382D4332313931424443463133372F7265736F75726365732F636E782E786D6C4D8B3B0E80201005AF42B6F75B59F0390B113044D83508C6E30BC6C26AF226F3B8BA6360974DA7271430F523308B2B198F9B80925DB700
310
539227A2FCCB80A18E5640D320F996A81C9F32D6E9129A0D1EF74FCE750E6D57BC7165FBCA07504B0304140006080800137F845754AC4D2E4401000056050000300000006662782F38334530374541422D384438432D343538442D383945382D4332313931424443463133372F636E782E786D6CCD94414EC3301045AF1259
310
629938492982CA7125169C800562E738D3D4D4B1237B8CE8EDB14BDA8250058B4AEDCE1A3F4BFFCF7C0F5B7E0C3A7B07E795350DA98A926460A4ED94E91B127095DF936CC999B316BF612433628086A432E1AC77368C53A98395083A55B5329BA928109D6A03822799D4C2FB8678B986411422A0EDC06F8A4EA028AAC281B7
310
C14988EF510D30BD970E044247785DD6B3BCAAF3F2F6B99A2FE6778BD9C32BA389E4ACB5564FBC3208CE8E3775296D3C9A28A76434019C05A7262A7920FCA8AD68956134DE73E6A35ED34F1C6EC7C48DA35652606C14B51201F308811818FD8239A3C9F10FDF4F8F2F470DF1D4290712ADDB5EAC0DD5A9361CA4153111FFEB
310
C20EFCCBBC6DDFA2E5CBCDFDA4E149D8D9ECEE93EB63747F2721E649985E5FE30738483B7FFEE3624125AFD1F45ED9993CD3DD0A8C834F1B917F02504B0304140006080800137F8457CA24C1EA7F000000A30000000B0000006662782F636E782E786D6C4D8CD10E822018465F85FDF79464CDDF0D7009F41E2ED1B9101A49
310
EBF183E64557DF76F69DC3BBCFEAC8DBC6D712BC0076A880587F0FE3E26701699B2802E9248F216C7F37207E58AD808241F23986F4DCD168A721B942DDE21F3BC4DA548DB9F614352A7ABEA0A6D81AA4EAC45AD66B756375938D6351F2FC7A794B5E7E01504B0304140006080800137F8457A6D797065F0000008200000007
310
000000636E782E786D6C4DCB3B0E80201045D1AD90E9FD7516806B51190811670C8A61F982B1B0BAC9C97B72CA7B1037C6D3332918DA1E04D2CAC69353902EDB8C20262D23F3F59B81A079470595414B17391D1F19B4730A5583A7ED43BBE4025D9592775E5ADFFA01504B0304140006080800137F8457ECFD112DA8000000
310
26010000130000005B436F6E74656E745F54797065735D2E786D6C7D4F4B0EC22010BD0A61DF525D18634ABB506FE00510A79458060253536F2FD89D5197F3FED3F68B9BD80362B21E25DFD40D6780DADF2C1AC9671AAA3D677DD75E9E0112CB5A4C928F44E12044D22338956A1F003333F8E814E5331A1194BE2B0362DB34
310
3BA13D122055543278D79E6050F344ECBC6478EDCD76CE8EABAE5449AE4298AC56946789C28AAFBEABC53F3EAF09A84A1441B91F0101CD4780756578C173A578FFDDBD00504B0304140006080800137F84573DEE336E64000000790000001B0000006175746F6465736B2D64657369676E2D7061636B6167652E786D6C35CB
310
C10E83200C00D05F21DCA56CA76D41FC96062B120735B69A7DBE268BB7777961F8D5AF396893C2ADB70FE7ADA196782C2DF776D7A97B5933C430F15651E5469C55D70F80A4992A3ADC954792C525AE70A1E4D6AD9816CC044FEFDF01FE3FDE907802504B0304140006080800137F845753CCF2ADF30000008E0100003D0000
310
006662782F38334530374541422D384438432D343538442D383945382D4332313931424443463133372F7265736F75726365732F322F636F72652E786D6C8550CB6EC32010FC156BEFD8E057ED0813A969F2053DF58680382831583CAA7E7E2176A5F6D4D3AE66676677871EBF9647F1A99CD7D64C404A0C8532C24A6DE609
310
62B8A2018A23A3CEDAF08B0685E18B9A20C3C0E8EC6C5C7748581394C9A8B152ED20F75E0528C42335137871530B2F790C89E1EFE5CAC59DCFAA24E5C66334462D77A996C94D5FB572C0DAF389BCF45D8DCE2DEE508B871E8D98108409BE8CF8F5F2360C275A6531A3412F3FDB85533C2809ACC67583488D70FB4EBA43D71F
310
9AF1835699C9A80F2EFDBC2FCDDF253AAD36F48F5B5CE5FF6E519BD0D4BBDBA6F0C0483AEE3960B4CAE9A4F28C2ED59C24FB06504B0304140006080800137F84573566E2F9F9000000960100003B0000006662782F38334530374541422D384438432D343538442D383945382D4332313931424443463133372F7265736F75
310
726365732F636F72652E786D6C8550CB6EC32010FC156BEFD8E047EA4498484D932FE8A937041B0725868847D5CF2F24AED49E7ADAD5ECCCECEEF0FDD772AB3ED107E3EC04ACA650A1554E1B3B4F90E2998C50ED05F7CEC55F34A8AC5C70820283E0B377E9BE42CAD988B6A0D6695C41190246A8D42D37130475C145D632C5
310
CC08D7FA2ED555CE58B3FAC9133C25A357A9D1D9CD9C0D7A10FDF1C05E36434B8E3D1D484FC70DD952C60865F4B4A5AFA7B7713CF0A688058F66F9D9AE3CCA881A444BDB8EB096D0FE9D0DBB61B3EBB61FBC294CC143F4F9E77569F90E84C7E092571878F39CFE714D77FDBF6B323676EDEAFA5404102C1FF91808DE949472
310
7944986B49547C03504B0304140006080800137F84573373E0D5F3000000B1010000310000006662782F38334530374541422D384438432D343538442D383945382D4332313931424443463133372F636F72652E786D6C8D50CB6E833010FC15B4770386D098C8386A807E414FBD59C6A156828DFCA8FAF9B50395DA5B4E6B
310
CDCE7866879EBF977BF625AD53467780F31232A98599949E3B08FE8A08646746AD31FE0F0D32CD17D9418281D1D99AB0EE9030DA4B9D506D26B983DC39E92113F7F8E8C0894FB9F09C071F19EE96AF5CDCF82C739C6F3C46BD5A7EA5C24AEEE504AC2AAB1AE10A958777DC9C9A9753DD7ED02231190D414DBB959AA2BBBA2A
310
6981917A2C8FE3EB059181F4E8D09001917624A8AF708B2F43FF86EB232D929851E76DBC79FF245DF7AC7C13FECB1CD6E989CC4AFBBADA0D37850386639EC782D1221518C7A3DD3853D9EC07504B0304140006080800137F84577C3D3D1C53010000DD0200000C0000006662782F636F72652E786D6C8D52DB8E832014FC15
310
C33B0A56BBB6419A6CB7FD827DDA378AD425553008A69FBFE025AE0F7B89099239E7CC9C99404ECFB68906617AA95509708C402414D7955475099CBDC30244274A8CD6F65B1B88146B4509020C28A98D76DD0C71ADAC500155BA1233C8FA5E5810F1C65F4AD0F34FD1B29839EB3BFA47DC31FE60B588713CF551E29CACE651
310
5979367997C2009A5DCEF8659FA7F092A11C66A8D8C303C218228CAE07F47A7D2B8A3349C2302556B68B3A37825951019AA27407710A51F68EF363BE3FEE0E1F24099D94F4D678CFB3687007E8FDF624C9846FF85C57FDCDE7A4B2BB74E69B267A40B15F6F2C5092847CFC6F0C6F9BA117F6F959766B160B0F0F0D825B6D32
310
5FA9B45B4B036B9CF0D4281A3F924C55CF3C12FCC493FEC2F33B870F8AA9DAAFC6ACBFDE9C0DEADB9D3A61E0609F91D2A665CDBADCB4E27AAE421B4BCB38D78D36FF995EAC2E6126E161D22F504B0304140006080800137F845710321B9607010000B201000008000000636F72652E786D6C8D50CB6EC32010FC15B4776CF0
310
AB768489D434F9829E7AA386B828365880A3F6EF0BB12BB5B79E16CDCCEE0CC38E9FF384EECA796D4D0F3423809419ACD466EC610D57DC023A72E6AC0DBF64808C98550F0906CE4667D76587066B8232093556AA1D14DEAB006898E2A3073F7CA85964620D51E16FD922869B185546B34DC759D0F3CFEAE094084A022F4851
310
625A6052BDD2FA503787B27B63795272B6AE5AEE565A46777DD5CA01AFCE27FAD4D4053E57A4C615691BDC114A31A1E4D291E7CB4BDB9E589E9639F3C1C53FEF4762CE80BCB8275F966F1467EFD64EBB208692C89AE90B38617922FE845E17F98FD0DA84B2D80F6E1B1E388D811E44344E0DC6F1A837CED436FF06504B0102
310
1400140006080800137F84570000000000000000000000003700000000000000000000000000000000006662782F38334530374541422D384438432D343538442D383945382D4332313931424443463133372F617474726962757465732E62696E504B01021400140006080800137F84570000000000000000000000003500
310
000000000000000000000000550000006662782F38334530374541422D384438432D343538442D383945382D4332313931424443463133372F76657274696365732E62696E504B01021400140006080800137F8457F270F13306000000040000003600000000000000000000000000A80000006662782F3833453037454142
310
2D384438432D343538442D383945382D4332313931424443463133372F747269616E676C65732E62696E504B01021400140006080800137F845788E57597CD3F0000904100004200000000000000000000000000020100006662782F38334530374541422D384438432D343538442D383945382D4332313931424443463133
310
372F7265736F75726365732F322F305F67656E657269632E706E67504B01021400140006080800137F845751464CB4890000004301000036000000000000000000000000002F4100006662782F38334530374541422D384438432D343538442D383945382D4332313931424443463133372F6469726563746F72792E786D6C
310
504B01021400140006080800137F845773F052613F070000541C000034000000000000000000000000000C4200006662782F38334530374541422D384438432D343538442D383945382D4332313931424443463133372F6F626A656374732E786D6C504B01021400140006080800137F84577A4BDA32E2000000550100003C
310
000000000000000000000000009D4900006662782F38334530374541422D384438432D343538442D383945382D4332313931424443463133372F7265736F75726365732F322F636E782E786D6C504B01021400140006080800137F8457FF15A4A45D000000800000003A00000000000000000000000000D94A00006662782F
310
38334530374541422D384438432D343538442D383945382D4332313931424443463133372F7265736F75726365732F636E782E786D6C504B01021400140006080800137F845754AC4D2E440100005605000030000000000000000000000000008E4B00006662782F38334530374541422D384438432D343538442D38394538
310
2D4332313931424443463133372F636E782E786D6C504B01021400140006080800137F8457CA24C1EA7F000000A30000000B00000000000000000000000000204D00006662782F636E782E786D6C504B01021400140006080800137F8457A6D797065F000000820000000700000000000000000000000000C84D0000636E78
310
2E786D6C504B01021400140006080800137F8457ECFD112DA80000002601000013000000000000000000000000004C4E00005B436F6E74656E745F54797065735D2E786D6C504B01021400140006080800137F84573DEE336E64000000790000001B00000000000000000000000000254F00006175746F6465736B2D646573
310
69676E2D7061636B6167652E786D6C504B01021400140006080800137F845753CCF2ADF30000008E0100003D00000000000000000000000000C24F00006662782F38334530374541422D384438432D343538442D383945382D4332313931424443463133372F7265736F75726365732F322F636F72652E786D6C504B010214
310
00140006080800137F84573566E2F9F9000000960100003B00000000000000000000000000105100006662782F38334530374541422D384438432D343538442D383945382D4332313931424443463133372F7265736F75726365732F636F72652E786D6C504B01021400140006080800137F84573373E0D5F3000000B10100
310
003100000000000000000000000000625200006662782F38334530374541422D384438432D343538442D383945382D4332313931424443463133372F636F72652E786D6C504B01021400140006080800137F84577C3D3D1C53010000DD0200000C00000000000000000000000000A45300006662782F636F72652E786D6C50
310
4B01021400140006080800137F845710321B9607010000B2010000080000000000000000000000000021550000636F72652E786D6C504B050600000000120012002D0600004E5600000000
  0
XRECORD
  5
11
102
{ACAD_REACTORS
330
E
102
}
330
E
100
AcDbXrecord
280
     1
270
     1
271
     1
  0
XRECORD
  5
12
102
{ACAD_REACTORS
330
E
102
}
330
E
100
AcDbXrecord
280
     1
270
     1
271
     1
  0
XRECORD
  5
13
102
{ACAD_REACTORS
330
E
102
}
330
E
100
AcDbXrecord
280
     1
270
     1
271
     1
  0
XRECORD
  5
14
102
{ACAD_REACTORS
330
E
102
}
330
E
100
AcDbXrecord
280
     1
270
     1
271
     1
  0
CELLSTYLEMAP
  5
1500
102
{ACAD_REACTORS
330
1F9
102
}
330
1F9
100
AcDbCellStyleMap
 90
        3
300
CELLSTYLE
  1
TABLEFORMAT_BEGIN
 90
        5
170
     1
 91
        0
 92
    32768
 62
   257
 93
        1
300
CONTENTFORMAT
  1
CONTENTFORMAT_BEGIN
 90
        0
 91
        0
 92
      512
 93
        0
300

 40
0.0
140
1.0
 94
        5
 62
     0
340
48
144
0.25
309
CONTENTFORMAT_END
171
     1
301
MARGIN
  1
CELLMARGIN_BEGIN
 40
0.06
 40
0.06
 40
0.06
 40
0.06
 40
0.18
 40
0.18
309
CELLMARGIN_END
 94
        6
 95
        1
302
GRIDFORMAT
  1
GRIDFORMAT_BEGIN
 90
        0
 91
        1
 62
     0
 92
       -2
340
0
 93
        0
 40
0.045
309
GRIDFORMAT_END
 95
        2
302
GRIDFORMAT
  1
GRIDFORMAT_BEGIN
 90
        0
 91
        1
 62
     0
 92
       -2
340
0
 93
        0
 40
0.045
309
GRIDFORMAT_END
 95
        4
302
GRIDFORMAT
  1
GRIDFORMAT_BEGIN
 90
        0
 91
        1
 62
     0
 92
       -2
340
0
 93
        0
 40
0.045
309
GRIDFORMAT_END
 95
        8
302
GRIDFORMAT
  1
GRIDFORMAT_BEGIN
 90
        0
 91
        1
 62
     0
 92
       -2
340
0
 93
        0
 40
0.045
309
GRIDFORMAT_END
 95
       16
302
GRIDFORMAT
  1
GRIDFORMAT_BEGIN
 90
        0
 91
        1
 62
     0
 92
       -2
340
0
 93
        0
 40
0.045
309
GRIDFORMAT_END
 95
       32
302
GRIDFORMAT
  1
GRIDFORMAT_BEGIN
 90
        0
 91
        1
 62
     0
 92
       -2
340
0
 93
        0
 40
0.045
309
GRIDFORMAT_END
309
TABLEFORMAT_END
  1
CELLSTYLE_BEGIN
 90
        1
 91
        1
300
_TITLE
309
CELLSTYLE_END
300
CELLSTYLE
  1
TABLEFORMAT_BEGIN
 90
        5
170
     1
 91
        0
 92
        0
 62
   257
 93
        1
300
CONTENTFORMAT
  1
CONTENTFORMAT_BEGIN
 90
        0
 91
        0
 92
      512
 93
        0
300

 40
0.0
140
1.0
 94
        5
 62
     0
340
48
144
0.18
309
CONTENTFORMAT_END
171
     1
301
MARGIN
  1
CELLMARGIN_BEGIN
 40
0.06
 40
0.06
 40
0.06
 40
0.06
 40
0.18
 40
0.18
309
CELLMARGIN_END
 94
        6
 95
        1
302
GRIDFORMAT
  1
GRIDFORMAT_BEGIN
 90
        0
 91
        1
 62
     0
 92
       -2
340
0
 93
        0
 40
0.045
309
GRIDFORMAT_END
 95
        2
302
GRIDFORMAT
  1
GRIDFORMAT_BEGIN
 90
        0
 91
        1
 62
     0
 92
       -2
340
0
 93
        0
 40
0.045
309
GRIDFORMAT_END
 95
        4
302
GRIDFORMAT
  1
GRIDFORMAT_BEGIN
 90
        0
 91
        1
 62
     0
 92
       -2
340
0
 93
        0
 40
0.045
309
GRIDFORMAT_END
 95
        8
302
GRIDFORMAT
  1
GRIDFORMAT_BEGIN
 90
        0
 91
        1
 62
     0
 92
       -2
340
0
 93
        0
 40
0.045
309
GRIDFORMAT_END
 95
       16
302
GRIDFORMAT
  1
GRIDFORMAT_BEGIN
 90
        0
 91
        1
 62
     0
 92
       -2
340
0
 93
        0
 40
0.045
309
GRIDFORMAT_END
 95
       32
302
GRIDFORMAT
  1
GRIDFORMAT_BEGIN
 90
        0
 91
        1
 62
     0
 92
       -2
340
0
 93
        0
 40
0.045
309
GRIDFORMAT_END
309
TABLEFORMAT_END
  1
CELLSTYLE_BEGIN
 90
        2
 91
        1
300
_HEADER
309
CELLSTYLE_END
300
CELLSTYLE
  1
TABLEFORMAT_BEGIN
 90
        5
170
     1
 91
        0
 92
        0
 62
   257
 93
        1
300
CONTENTFORMAT
  1
CONTENTFORMAT_BEGIN
 90
        0
 91
        0
 92
      512
 93
        0
300

 40
0.0
140
1.0
 94
        2
 62
     0
340
48
144
0.18
309
CONTENTFORMAT_END
171
     1
301
MARGIN
  1
CELLMARGIN_BEGIN
 40
0.06
 40
0.06
 40
0.06
 40
0.06
 40
0.18
 40
0.18
309
CELLMARGIN_END
 94
        6
 95
        1
302
GRIDFORMAT
  1
GRIDFORMAT_BEGIN
 90
        0
 91
        1
 62
     0
 92
       -2
340
0
 93
        0
 40
0.045
309
GRIDFORMAT_END
 95
        2
302
GRIDFORMAT
  1
GRIDFORMAT_BEGIN
 90
        0
 91
        1
 62
     0
 92
       -2
340
0
 93
        0
 40
0.045
309
GRIDFORMAT_END
 95
        4
302
GRIDFORMAT
  1
GRIDFORMAT_BEGIN
 90
        0
 91
        1
 62
     0
 92
       -2
340
0
 93
        0
 40
0.045
309
GRIDFORMAT_END
 95
        8
302
GRIDFORMAT
  1
GRIDFORMAT_BEGIN
 90
        0
 91
        1
 62
     0
 92
       -2
340
0
 93
        0
 40
0.045
309
GRIDFORMAT_END
 95
       16
302
GRIDFORMAT
  1
GRIDFORMAT_BEGIN
 90
        0
 91
        1
 62
     0
 92
       -2
340
0
 93
        0
 40
0.045
309
GRIDFORMAT_END
 95
       32
302
GRIDFORMAT
  1
GRIDFORMAT_BEGIN
 90
        0
 91
        1
 62
     0
 92
       -2
340
0
 93
        0
 40
0.045
309
GRIDFORMAT_END
309
TABLEFORMAT_END
  1
CELLSTYLE_BEGIN
 90
        3
 91
        2
300
_DATA
309
CELLSTYLE_END
  0
ENDSEC
  0
SECTION
  2
ACDSDATA
 70
     2
 71
     2
  0
ACDSSCHEMA
 90
        0
  1
AcDb_Thumbnail_Schema
  2
AcDbDs::ID
280
    10
 91
        0
  2
Thumbnail_Data
280
    15
 91
        0
101
ACDSRECORD
 95
        0
 90
        2
  2
AcDbDs::TreatedAsObjectData
280
     1
291
     1
101
ACDSRECORD
 95
        0
 90
        3
  2
AcDbDs::Legacy
280
     1
291
     1
101
ACDSRECORD
  1
AcDbDs::ID
 90
        4
  2
AcDs:Indexable
280
     1
291
     1
101
ACDSRECORD
  1
AcDbDs::ID
 90
        5
  2
AcDbDs::HandleAttribute
280
     7
282
     1
  0
ACDSSCHEMA
 90
        1
  1
AcDb3DSolid_ASM_Data
  2
AcDbDs::ID
280
    10
 91
        0
  2
ASM_Data
280
    15
 91
        0
101
ACDSRECORD
 95
        1
 90
        2
  2
AcDbDs::TreatedAsObjectData
280
     1
291
     1
101
ACDSRECORD
 95
        1
 90
        3
  2
AcDbDs::Legacy
280
     1
291
     1
101
ACDSRECORD
  1
AcDbDs::ID
 90
        4
  2
AcDs:Indexable
280
     1
291
     1
101
ACDSRECORD
  1
AcDbDs::ID
 90
        5
  2
AcDbDs::HandleAttribute
280
     7
282
     1
  0
ACDSSCHEMA
 90
        2
  1
AcDbDs::TreatedAsObjectDataSchema
  2
AcDbDs::TreatedAsObjectData
280
     1
 91
        0
  0
ACDSSCHEMA
 90
        3
  1
AcDbDs::LegacySchema
  2
AcDbDs::Legacy
280
     1
 91
        0
  0
ACDSSCHEMA
 90
        4
  1
AcDbDs::IndexedPropertySchema
  2
AcDs:Indexable
280
     1
 91
        0
  0
ACDSSCHEMA
 90
        5
  1
AcDbDs::HandleAttributeSchema
  2
AcDbDs::HandleAttribute
280
     7
 91
        8
  0
ACDSRECORD
 90
        0
  2
AcDbDs::ID
280
    10
320
1C1
  2
Thumbnail_Data
280
    15
 94
     1919
310
89504E470D0A1A0A0000000D4948445200000100000000700803000000C6F95E2100000300504C5445000000FFFFFF0000000000000000000000000000000000000000000000000000000000330000660000990000CC0000FF0033000033330033660033990033CC0033FF0066000066330066660066990066CC0066FF0099
310
000099330099660099990099CC0099FF00CC0000CC3300CC6600CC9900CCCC00CCFF00FF0000FF3300FF6600FF9900FFCC00FFFF3300003300333300663300993300CC3300FF3333003333333333663333993333CC3333FF3366003366333366663366993366CC3366FF3399003399333399663399993399CC3399FF33CC00
310
33CC3333CC6633CC9933CCCC33CCFF33FF0033FF3333FF6633FF9933FFCC33FFFF6600006600336600666600996600CC6600FF6633006633336633666633996633CC6633FF6666006666336666666666996666CC6666FF6699006699336699666699996699CC6699FF66CC0066CC3366CC6666CC9966CCCC66CCFF66FF0066
310
FF3366FF6666FF9966FFCC66FFFF9900009900339900669900999900CC9900FF9933009933339933669933999933CC9933FF9966009966339966669966999966CC9966FF9999009999339999669999999999CC9999FF99CC0099CC3399CC6699CC9999CCCC99CCFF99FF0099FF3399FF6699FF9999FFCC99FFFFCC0000CC00
310
33CC0066CC0099CC00CCCC00FFCC3300CC3333CC3366CC3399CC33CCCC33FFCC6600CC6633CC6666CC6699CC66CCCC66FFCC9900CC9933CC9966CC9999CC99CCCC99FFCCCC00CCCC33CCCC66CCCC99CCCCCCCCCCFFCCFF00CCFF33CCFF66CCFF99CCFFCCCCFFFFFF0000FF0033FF0066FF0099FF00CCFF00FFFF3300FF3333
310
FF3366FF3399FF33CCFF33FFFF6600FF6633FF6666FF6699FF66CCFF66FFFF9900FF9933FF9966FF9999FF99CCFF99FFFFCC00FFCC33FFCC66FFCC99FFCCCCFFCCFFFFFF00FFFF33FFFF66FFFF99FFFFCCFFFFFF0000000D0D0D1A1A1A2828283535354343435050505D5D5D6B6B6B787878868686939393A1A1A1AEAEAEBB
310
BBBBC9C9C9D6D6D6E4E4E4F1F1F1FFFFFF0000000000000000000000000000000000000000000000000000000000003AE5ACE900000001624B47440088051D48000000097048597300000EC400000EC401952B0E1B0000041849444154789CED9D4982AC200C86731C36DE7FD71BCFC4FE2993018202CF62327F77E144A97C
310
26014AAC0228D5DFD02A2E4EB95A1CA35A6D00484F0D0E99AF4600C0FEEBC9406A07407E1E80D42903C802B0D76CAAD9D203C07536DE79ED7829BD05DE5DE8510B8CA4761630A618000360000D8EC20018C0D701EC37EDBABE923B03687014760106C0001A1CA54A0C80013080064761000C800134384A951800F706D9021A
310
1C8501300006D0E0285562000C60450042094446D669016CDB963EF3CF0328D0B4000E044F1660ECE05ED30278B080D100BCDF197ACD05C6BE352651EA2B2308E618C0C8BDC1FDC026EC48267AAF69E5031837069CC3B88D0528893D50462D271C8A6396A4312C006DE2C805D4004B29F5585BA9F79A12F200810110082603
310
60FED5EB76A07FE00042BDE60370FF9043C699EB026B43B88C016B6C00B516E0BBC032009084DE6B5AAEAC5781854BB0860590510BE4B5041F2AC38101EC22DD0E7868578950E9AC030338A50B7ABE793B15ACBF51500FA6334E01E0D40675009E4C607000AEDA5306B0B9C5874660E402DD01D47686E840F757E802771907
310
EE0CB5D1E02EF07BAD0940F77D6CDB47243A824AAB02A0446665004B02009A01956F4D00A8EBF74D0000206C04247A80586B027016F0D413581500C0E701A0E2DF7706D60460CA3E1080FEE30411020128300E7E6BAC5E642D6867D03D82657B8314800084CAB7660C8885C28070370A4EAD09005DEDF0F28791714D0000F7
310
00E00B00F4CD40707FA82A14285D1340D014B63354D63501003080ABC0C25F0CD40BC0CDC8971714BBC06800A41AEAF1CBEFD59B0000D8A12EBF57AAF4D00F00B42590569FDEA01AE49119057EF625625A7B937E5A6801329A494BFA09B515CF24865626BFCAB18F0BC8607AA75200B46585005C5098004095CC9BAF7226C0
310
F4AB05DC80AF2715BB006D016301489E0EA1770110B6D207803ED71CD5B9405C4E9DA85DBA5E3174B480EC36C04BB500B639DC34EC02A0C0017E0500BA5A40C1F52F7701AFBA8B6A01227F1F0B2803601D18FBB344EBC054F4F2AE1D8026DE860E4DE1A29E6018C882CB0D6E0670167A2F472EE1ABCB8D1159F4FDE299969F
310
A95E00BCF2967D1460BC055F5D9B827FD5D1B58F526FABBFFB0E004A62A0E93912D64FAFB641D0C6038A919FBF3980C2CF82326D1B033029E095F6D8D1EE7B0020CF2425696286715A370D4249D8140E2F3B6E0942DFDE60E14F2CD853A700E812993B3C7AE6C93EE2DDF78801259F8415BB808AED17AC018360992E1700DF
310
02CC56F0670C00C000CE240D6C780046D900FC54B898831FB840BB9F06C07FCA3C73133D7E3801006F124E6DD30E90655C0DA4ABA44739FF6605A06397A4A23DA898073E00B32106701010A1660170C56F19AE8E00A0B880019CCF5D11CFD3350330AC1A01404AFEE0CDDD6FE954BD296FA10980A1555C9C7F8632C276DB6E
310
30840000000049454E44AE426082
  0
ENDSEC
  0
EOF
