  0
SECTION
  2
HEADER
  9
$ACADVER
  1
AC1021
  9
$ACADMAINTVER
 70
    25
  9
$DWGCODEPAGE
  3
ANSI_936
  9
$LASTSAVEDBY
  1
14609
  9
$INSBASE
 10
0.0
 20
0.0
 30
0.0
  9
$EXTMIN
 10
322.6820467089912
 20
146.3945072874961
 30
0.0
  9
$EXTMAX
 10
619.6807966446957
 20
356.3945072875001
 30
0.0
  9
$LIMMIN
 10
0.0
 20
0.0
  9
$LIMMAX
 10
12.0
 20
9.0
  9
$ORTHOMODE
 70
     0
  9
$REGENMODE
 70
     1
  9
$FILLMODE
 70
     1
  9
$QTEXTMODE
 70
     0
  9
$MIRRTEXT
 70
     1
  9
$LTSCALE
 40
1.0
  9
$ATTMODE
 70
     1
  9
$TEXTSIZE
 40
0.2
  9
$TRACEWID
 40
0.05
  9
$TEXTSTYLE
  7
Standard
  9
$CLAYER
  8
0
  9
$CELTYPE
  6
ByLayer
  9
$CECOLOR
 62
   256
  9
$CELTSCALE
 40
1.0
  9
$DISPSILH
 70
     0
  9
$DIMSCALE
 40
1.0
  9
$DIMASZ
 40
3.0
  9
$DIMEXO
 40
0.2
  9
$DIMDLI
 40
0.2
  9
$DIMRND
 40
0.0
  9
$DIMDLE
 40
0.0
  9
$DIMEXE
 40
0.5
  9
$DIMTP
 40
0.0
  9
$DIMTM
 40
0.0
  9
$DIMTXT
 40
3.5
  9
$DIMCEN
 40
0.0
  9
$DIMTSZ
 40
0.0
  9
$DIMTOL
 70
     0
  9
$DIMLIM
 70
     0
  9
$DIMTIH
 70
     0
  9
$DIMTOH
 70
     0
  9
$DIMSE1
 70
     0
  9
$DIMSE2
 70
     0
  9
$DIMTAD
 70
     1
  9
$DIMZIN
 70
     8
  9
$DIMBLK
  1

  9
$DIMASO
 70
     1
  9
$DIMSHO
 70
     1
  9
$DIMPOST
  1

  9
$DIMAPOST
  1

  9
$DIMALT
 70
     0
  9
$DIMALTD
 70
     2
  9
$DIMALTF
 40
25.4
  9
$DIMLFAC
 40
1.0
  9
$DIMTOFL
 70
     0
  9
$DIMTVP
 40
0.0
  9
$DIMTIX
 70
     0
  9
$DIMSOXD
 70
     0
  9
$DIMSAH
 70
     0
  9
$DIMBLK1
  1

  9
$DIMBLK2
  1

  9
$DIMSTYLE
  2
01
  9
$DIMCLRD
 70
     1
  9
$DIMCLRE
 70
     6
  9
$DIMCLRT
 70
     4
  9
$DIMTFAC
 40
1.0
  9
$DIMGAP
 40
0.5
  9
$DIMJUST
 70
     0
  9
$DIMSD1
 70
     0
  9
$DIMSD2
 70
     0
  9
$DIMTOLJ
 70
     1
  9
$DIMTZIN
 70
     0
  9
$DIMALTZ
 70
     0
  9
$DIMALTTZ
 70
     0
  9
$DIMUPT
 70
     0
  9
$DIMDEC
 70
     1
  9
$DIMTDEC
 70
     1
  9
$DIMALTU
 70
     2
  9
$DIMALTTD
 70
     2
  9
$DIMTXSTY
  7
Romans字体
  9
$DIMAUNIT
 70
     0
  9
$DIMADEC
 70
     2
  9
$DIMALTRND
 40
0.0
  9
$DIMAZIN
 70
     2
  9
$DIMDSEP
 70
    46
  9
$DIMATFIT
 70
     3
  9
$DIMFRAC
 70
     0
  9
$DIMLDRBLK
  1

  9
$DIMLUNIT
 70
     2
  9
$DIMLWD
 70
    -2
  9
$DIMLWE
 70
    -2
  9
$DIMTMOVE
 70
     0
  9
$DIMFXL
 40
1.0
  9
$DIMFXLON
 70
     0
  9
$DIMJOGANG
 40
0.7853981633974483
  9
$DIMTFILL
 70
     0
  9
$DIMTFILLCLR
 70
     0
  9
$DIMARCSYM
 70
     0
  9
$DIMLTYPE
  6

  9
$DIMLTEX1
  6

  9
$DIMLTEX2
  6

  9
$LUNITS
 70
     2
  9
$LUPREC
 70
     4
  9
$SKETCHINC
 40
0.1
  9
$FILLETRAD
 40
0.5
  9
$AUNITS
 70
     0
  9
$AUPREC
 70
     0
  9
$MENU
  1
.
  9
$ELEVATION
 40
0.0
  9
$PELEVATION
 40
0.0
  9
$THICKNESS
 40
0.0
  9
$LIMCHECK
 70
     0
  9
$CHAMFERA
 40
0.5
  9
$CHAMFERB
 40
0.5
  9
$CHAMFERC
 40
1.0
  9
$CHAMFERD
 40
0.0
  9
$SKPOLY
 70
     0
  9
$TDCREATE
 40
2456524.383632987
  9
$TDUCREATE
 40
2456524.050299653
  9
$TDUPDATE
 40
2460346.549329861
  9
$TDUUPDATE
 40
2460346.215996528
  9
$TDINDWG
 40
1.1102478009
  9
$TDUSRTIMER
 40
1.1102269444
  9
$USRTIMER
 70
     1
  9
$ANGBASE
 50
0.0
  9
$ANGDIR
 70
     0
  9
$PDMODE
 70
     0
  9
$PDSIZE
 40
0.0
  9
$PLINEWID
 40
0.0
  9
$SPLFRAME
 70
     0
  9
$SPLINETYPE
 70
     6
  9
$SPLINESEGS
 70
     8
  9
$HANDSEED
  5
1912A
  9
$SURFTAB1
 70
     6
  9
$SURFTAB2
 70
     6
  9
$SURFTYPE
 70
     6
  9
$SURFU
 70
     6
  9
$SURFV
 70
     6
  9
$UCSBASE
  2

  9
$UCSNAME
  2

  9
$UCSORG
 10
0.0
 20
0.0
 30
0.0
  9
$UCSXDIR
 10
1.0
 20
0.0
 30
0.0
  9
$UCSYDIR
 10
0.0
 20
1.0
 30
0.0
  9
$UCSORTHOREF
  2

  9
$UCSORTHOVIEW
 70
     0
  9
$UCSORGTOP
 10
0.0
 20
0.0
 30
0.0
  9
$UCSORGBOTTOM
 10
0.0
 20
0.0
 30
0.0
  9
$UCSORGLEFT
 10
0.0
 20
0.0
 30
0.0
  9
$UCSORGRIGHT
 10
0.0
 20
0.0
 30
0.0
  9
$UCSORGFRONT
 10
0.0
 20
0.0
 30
0.0
  9
$UCSORGBACK
 10
0.0
 20
0.0
 30
0.0
  9
$PUCSBASE
  2

  9
$PUCSNAME
  2

  9
$PUCSORG
 10
0.0
 20
0.0
 30
0.0
  9
$PUCSXDIR
 10
1.0
 20
0.0
 30
0.0
  9
$PUCSYDIR
 10
0.0
 20
1.0
 30
0.0
  9
$PUCSORTHOREF
  2

  9
$PUCSORTHOVIEW
 70
     0
  9
$PUCSORGTOP
 10
0.0
 20
0.0
 30
0.0
  9
$PUCSORGBOTTOM
 10
0.0
 20
0.0
 30
0.0
  9
$PUCSORGLEFT
 10
0.0
 20
0.0
 30
0.0
  9
$PUCSORGRIGHT
 10
0.0
 20
0.0
 30
0.0
  9
$PUCSORGFRONT
 10
0.0
 20
0.0
 30
0.0
  9
$PUCSORGBACK
 10
0.0
 20
0.0
 30
0.0
  9
$USERI1
 70
     0
  9
$USERI2
 70
     0
  9
$USERI3
 70
     0
  9
$USERI4
 70
     0
  9
$USERI5
 70
     0
  9
$USERR1
 40
0.0
  9
$USERR2
 40
0.0
  9
$USERR3
 40
0.0
  9
$USERR4
 40
0.0
  9
$USERR5
 40
0.0
  9
$WORLDVIEW
 70
     1
  9
$SHADEDGE
 70
     3
  9
$SHADEDIF
 70
    70
  9
$TILEMODE
 70
     1
  9
$MAXACTVP
 70
    64
  9
$PINSBASE
 10
0.0
 20
0.0
 30
0.0
  9
$PLIMCHECK
 70
     0
  9
$PEXTMIN
 10
1.000000000000000E+20
 20
1.000000000000000E+20
 30
1.000000000000000E+20
  9
$PEXTMAX
 10
-1.000000000000000E+20
 20
-1.000000000000000E+20
 30
-1.000000000000000E+20
  9
$PLIMMIN
 10
0.0
 20
0.0
  9
$PLIMMAX
 10
12.0
 20
9.0
  9
$UNITMODE
 70
     0
  9
$VISRETAIN
 70
     1
  9
$PLINEGEN
 70
     0
  9
$PSLTSCALE
 70
     1
  9
$TREEDEPTH
 70
  3020
  9
$CMLSTYLE
  2
Standard
  9
$CMLJUST
 70
     0
  9
$CMLSCALE
 40
1.0
  9
$PROXYGRAPHICS
 70
     1
  9
$MEASUREMENT
 70
     0
  9
$CELWEIGHT
370
    -1
  9
$ENDCAPS
280
     0
  9
$JOINSTYLE
280
     0
  9
$LWDISPLAY
290
     0
  9
$INSUNITS
 70
     4
  9
$HYPERLINKBASE
  1

  9
$STYLESHEET
  1
MONOCHROME.CTB
  9
$XEDIT
290
     1
  9
$CEPSNTYPE
380
     0
  9
$PSTYLEMODE
290
     1
  9
$FINGERPRINTGUID
  2
{4A02065B-8BB3-4A96-9036-502DC906C165}
  9
$VERSIONGUID
  2
{D67E0B4D-DCB9-46F2-8F09-9B12981DB65A}
  9
$EXTNAMES
290
     1
  9
$PSVPSCALE
 40
0.0
  9
$OLESTARTUP
290
     0
  9
$SORTENTS
280
   127
  9
$INDEXCTL
280
     0
  9
$HIDETEXT
280
     0
  9
$XCLIPFRAME
290
     0
  9
$HALOGAP
280
     0
  9
$OBSCOLOR
 70
   257
  9
$OBSLTYPE
280
     0
  9
$INTERSECTIONDISPLAY
280
     0
  9
$INTERSECTIONCOLOR
 70
   257
  9
$DIMASSOC
280
     1
  9
$PROJECTNAME
  1

  9
$CAMERADISPLAY
290
     0
  9
$LENSLENGTH
 40
50.0
  9
$CAMERAHEIGHT
 40
0.0
  9
$STEPSPERSEC
 40
2.0
  9
$STEPSIZE
 40
6.0
  9
$3DDWFPREC
 40
2.0
  9
$PSOLWIDTH
 40
0.25
  9
$PSOLHEIGHT
 40
4.0
  9
$LOFTANG1
 40
1.570796326794896
  9
$LOFTANG2
 40
1.570796326794896
  9
$LOFTMAG1
 40
0.0
  9
$LOFTMAG2
 40
0.0
  9
$LOFTPARAM
 70
     7
  9
$LOFTNORMALS
280
     1
  9
$LATITUDE
 40
37.795
  9
$LONGITUDE
 40
-122.394
  9
$NORTHDIRECTION
 40
0.0
  9
$TIMEZONE
 70
 -8000
  9
$LIGHTGLYPHDISPLAY
280
     1
  9
$TILEMODELIGHTSYNCH
280
     1
  9
$CMATERIAL
347
4FE6
  9
$SOLIDHIST
280
     1
  9
$SHOWHIST
280
     1
  9
$DWFFRAME
280
     2
  9
$DGNFRAME
280
     0
  9
$REALWORLDSCALE
290
     1
  9
$INTERFERECOLOR
 62
     1
  9
$INTERFEREOBJVS
345
33
  9
$INTERFEREVPVS
346
30
  9
$CSHADOW
280
     0
  9
$SHADOWPLANELOCATION
 40
0.0
  0
ENDSEC
  0
SECTION
  2
CLASSES
  0
CLASS
  1
ACDBDICTIONARYWDFLT
  2
AcDbDictionaryWithDefault
  3
ObjectDBX Classes
 90
        0
 91
        1
280
     0
281
     0
  0
CLASS
  1
VISUALSTYLE
  2
AcDbVisualStyle
  3
ObjectDBX Classes
 90
     4095
 91
       16
280
     0
281
     0
  0
CLASS
  1
MATERIAL
  2
AcDbMaterial
  3
ObjectDBX Classes
 90
     1153
 91
        3
280
     0
281
     0
  0
CLASS
  1
TABLESTYLE
  2
AcDbTableStyle
  3
ObjectDBX Classes
 90
     4095
 91
        1
280
     0
281
     0
  0
CLASS
  1
SCALE
  2
AcDbScale
  3
ObjectDBX Classes
 90
     1153
 91
       33
280
     0
281
     0
  0
CLASS
  1
MLEADERSTYLE
  2
AcDbMLeaderStyle
  3
ACDB_MLEADERSTYLE_CLASS
 90
     4095
 91
        1
280
     0
281
     0
  0
CLASS
  1
CELLSTYLEMAP
  2
AcDbCellStyleMap
  3
ObjectDBX Classes
 90
     1152
 91
        2
280
     0
281
     0
  0
CLASS
  1
DICTIONARYVAR
  2
AcDbDictionaryVar
  3
ObjectDBX Classes
 90
        0
 91
        8
280
     0
281
     0
  0
CLASS
  1
SORTENTSTABLE
  2
AcDbSortentsTable
  3
ObjectDBX Classes
 90
        0
 91
        1
280
     0
281
     0
  0
CLASS
  1
ACAD_EVALUATION_GRAPH
  2
AcDbEvalGraph
  3
ObjectDBX Classes
 90
     1153
 91
        0
280
     0
281
     0
  0
CLASS
  1
ACAECUSTOBJ
  2
AcAeEditorObj
  3
AcAeEditorObj
 90
     1024
 91
        0
280
     0
281
     0
  0
CLASS
  1
ACDB_DYNAMICBLOCKPURGEPREVENTER_VERSION
  2
AcDbDynamicBlockPurgePreventer
  3
ObjectDBX Classes
 90
     1153
 91
        0
280
     0
281
     0
  0
CLASS
  1
MENTALRAYRENDERSETTINGS
  2
AcDbMentalRayRenderSettings
  3
SCENEOE
 90
     1024
 91
        1
280
     0
281
     0
  0
CLASS
  1
ACDB_BLOCKREPRESENTATION_DATA
  2
AcDbBlockRepresentationData
  3
ObjectDBX Classes
 90
     1153
 91
        0
280
     0
281
     0
  0
CLASS
  1
DIMASSOC
  2
AcDbDimAssoc
  3
"AcDbDimAssoc|Product Desc:     AcDim ARX App For Dimension|Company:          Autodesk, Inc.|WEB Address:      www.autodesk.com"
 90
        0
 91
        0
280
     0
281
     0
  0
ENDSEC
  0
SECTION
  2
TABLES
  0
TABLE
  2
VPORT
  5
8
102
{ACAD_XDICTIONARY
360
50EE
102
}
330
0
100
AcDbSymbolTable
 70
     1
  0
VPORT
  5
29
330
8
100
AcDbSymbolTableRecord
100
AcDbViewportTableRecord
  2
*Active
 70
     0
 10
0.0
 20
0.0
 11
1.0
 21
1.0
 12
369.2493960679517
 22
108.6400472321418
 13
0.0
 23
0.0
 14
0.5
 24
0.5
 15
0.5
 25
0.5
 16
0.0
 26
0.0
 36
1.0
 17
104.9654968719086
 27
148.5022307685978
 37
0.0
 40
261.0375110951683
 41
1.967136150234741
 42
50.0
 43
0.0
 44
0.0
 50
0.0
 51
0.0
 71
     0
 72
   100
 73
     1
 74
     3
 75
     0
 76
     0
 77
     0
 78
     0
281
     0
 65
     1
110
0.0
120
0.0
130
0.0
111
1.0
121
0.0
131
0.0
112
0.0
122
1.0
132
0.0
 79
     0
146
0.0
348
2F
 60
     3
 61
     5
292
     1
282
     1
141
0.0
142
0.0
 63
   250
421
  3355443
  0
ENDTAB
  0
TABLE
  2
LTYPE
  5
5
330
0
100
AcDbSymbolTable
 70
     2
  0
LTYPE
  5
14
330
5
100
AcDbSymbolTableRecord
100
AcDbLinetypeTableRecord
  2
ByBlock
 70
     0
  3

 72
    65
 73
     0
 40
0.0
  0
LTYPE
  5
15
330
5
100
AcDbSymbolTableRecord
100
AcDbLinetypeTableRecord
  2
ByLayer
 70
     0
  3

 72
    65
 73
     0
 40
0.0
  0
LTYPE
  5
16
330
5
100
AcDbSymbolTableRecord
100
AcDbLinetypeTableRecord
  2
Continuous
 70
     0
  3
Solid line
 72
    65
 73
     0
 40
0.0
  0
LTYPE
  5
67BA
330
5
100
AcDbSymbolTableRecord
100
AcDbLinetypeTableRecord
  2
CENTER
 70
     0
  3
Center ____ _ ____ _ ____ _ ____ _ ____ _ ____
 72
    65
 73
     4
 40
2.0
 49
1.25
 74
     0
 49
-0.25
 74
     0
 49
0.25
 74
     0
 49
-0.25
 74
     0
  0
ENDTAB
  0
TABLE
  2
LAYER
  5
2
102
{ACAD_XDICTIONARY
360
50B8
102
}
330
0
100
AcDbSymbolTable
 70
    10
  0
LAYER
  5
10
102
{ACAD_XDICTIONARY
360
50D0
102
}
330
2
100
AcDbSymbolTableRecord
100
AcDbLayerTableRecord
  2
0
 70
     0
 62
     7
  6
Continuous
370
    30
390
F
347
4FF6
  0
LAYER
  5
3B
102
{ACAD_XDICTIONARY
360
50D2
102
}
330
2
100
AcDbSymbolTableRecord
100
AcDbLayerTableRecord
  2
图层 1
 70
     0
 62
     7
  6
Continuous
370
    -3
390
F
347
4FF6
  0
LAYER
  5
50AE
102
{ACAD_XDICTIONARY
360
50AF
102
}
330
2
100
AcDbSymbolTableRecord
100
AcDbLayerTableRecord
  2
图框
 70
     0
 62
     7
  6
Continuous
370
    20
390
F
347
4FF6
  0
LAYER
  5
5141
330
2
100
AcDbSymbolTableRecord
100
AcDbLayerTableRecord
  2
Defpoints
 70
     0
 62
     7
  6
Continuous
290
     0
370
    -3
390
F
347
4FF6
  0
LAYER
  5
5144
330
2
100
AcDbSymbolTableRecord
100
AcDbLayerTableRecord
  2
DIM
 70
     0
 62
     3
  6
Continuous
370
    15
390
F
347
4FF6
1001
AcAecLayerStandard
1000

1000

  0
LAYER
  5
52F3
330
2
100
AcDbSymbolTableRecord
100
AcDbLayerTableRecord
  2
打标文字
 70
     0
 62
     3
  6
Continuous
370
    20
390
F
347
4FF6
  0
LAYER
  5
67B7
330
2
100
AcDbSymbolTableRecord
100
AcDbLayerTableRecord
  2
CEN
 70
     0
 62
     1
  6
CENTER
370
    15
390
F
347
4FF6
1001
AcAecLayerStandard
1000

1000

  0
LAYER
  5
11B6B
330
2
100
AcDbSymbolTableRecord
100
AcDbLayerTableRecord
  2
hat
 70
     0
 62
     6
  6
Continuous
370
    15
390
F
347
4FF6
1001
AcAecLayerStandard
1000

1000

  0
LAYER
  5
17660
330
2
100
AcDbSymbolTableRecord
100
AcDbLayerTableRecord
  2
5
 70
     0
 62
     7
  6
Continuous
370
    -3
390
F
347
4FF6
  0
LAYER
  5
18D6B
102
{ACAD_XDICTIONARY
360
18D6C
102
}
330
2
100
AcDbSymbolTableRecord
100
AcDbLayerTableRecord
  2
02___PRT_ALL_AXES
 70
     0
 62
     7
  6
Continuous
370
    -3
390
F
347
4FF6
  0
ENDTAB
  0
TABLE
  2
STYLE
  5
3
330
0
100
AcDbSymbolTable
 70
     4
  0
STYLE
  5
11
330
3
100
AcDbSymbolTableRecord
100
AcDbTextStyleTableRecord
  2
Standard
 70
     0
 40
0.0
 41
0.75
 50
0.0
 71
     0
 42
0.2
  3

  4

1001
ACAD
1000
仿宋_GB2312
1071
    34353
  0
STYLE
  5
FD48
330
3
100
AcDbSymbolTableRecord
100
AcDbTextStyleTableRecord
  2
Romans字体
 70
     0
 40
0.0
 41
0.75
 50
0.0
 71
     0
 42
0.2
  3
romans.shx
  4

  0
STYLE
  5
11080
330
3
100
AcDbSymbolTableRecord
100
AcDbTextStyleTableRecord
  2
工程字
 70
     0
 40
0.0
 41
1.0
 50
0.0
 71
     0
 42
3.5
  3
gbenor.shx
  4
gbcbig.shx
  0
STYLE
  5
11081
330
3
100
AcDbSymbolTableRecord
100
AcDbTextStyleTableRecord
  2
Chinese
 70
     0
 40
0.0
 41
1.0
 50
0.0
 71
     0
 42
2.5
  3

  4

1001
ACAD
1000
PMingLiU
1071
    34834
  0
ENDTAB
  0
TABLE
  2
VIEW
  5
6
330
0
100
AcDbSymbolTable
 70
     0
  0
ENDTAB
  0
TABLE
  2
UCS
  5
7
330
0
100
AcDbSymbolTable
 70
     0
  0
ENDTAB
  0
TABLE
  2
APPID
  5
9
330
0
100
AcDbSymbolTable
 70
    17
  0
APPID
  5
12
330
9
100
AcDbSymbolTableRecord
100
AcDbRegAppTableRecord
  2
ACAD
 70
     0
  0
APPID
  5
5024
330
9
100
AcDbSymbolTableRecord
100
AcDbRegAppTableRecord
  2
ACAD_MLEADERVER
 70
     0
  0
APPID
  5
50B5
330
9
100
AcDbSymbolTableRecord
100
AcDbRegAppTableRecord
  2
AcDbDynamicBlockGUID
 70
     0
  0
APPID
  5
50B6
330
9
100
AcDbSymbolTableRecord
100
AcDbRegAppTableRecord
  2
AcDbBlockRepETag
 70
     0
  0
APPID
  5
50B7
330
9
100
AcDbSymbolTableRecord
100
AcDbRegAppTableRecord
  2
ACAD_PSEXT
 70
     0
  0
APPID
  5
50CF
330
9
100
AcDbSymbolTableRecord
100
AcDbRegAppTableRecord
  2
AcadAnnoPO
 70
     0
  0
APPID
  5
5146
330
9
100
AcDbSymbolTableRecord
100
AcDbRegAppTableRecord
  2
AcAecLayerStandard
 70
     0
  0
APPID
  5
5147
330
9
100
AcDbSymbolTableRecord
100
AcDbRegAppTableRecord
  2
ACAD_DSTYLE_DIMJAG
 70
     0
  0
APPID
  5
5148
330
9
100
AcDbSymbolTableRecord
100
AcDbRegAppTableRecord
  2
ACAD_DSTYLE_DIMTALN
 70
     0
  0
APPID
  5
52AD
330
9
100
AcDbSymbolTableRecord
100
AcDbRegAppTableRecord
  2
ACAUTHENVIRON
 70
     0
  0
APPID
  5
52B0
330
9
100
AcDbSymbolTableRecord
100
AcDbRegAppTableRecord
  2
AcDbDynamicBlockTrueName
 70
     0
  0
APPID
  5
67C6
330
9
100
AcDbSymbolTableRecord
100
AcDbRegAppTableRecord
  2
ACAD_EXEMPT_FROM_CAD_STANDARDS
 70
     0
  0
APPID
  5
6838
330
9
100
AcDbSymbolTableRecord
100
AcDbRegAppTableRecord
  2
ACAD_NAV_VCDISPLAY
 70
     0
  0
APPID
  5
70A9
330
9
100
AcDbSymbolTableRecord
100
AcDbRegAppTableRecord
  2
DCO15
 70
     0
  0
APPID
  5
8725
330
9
100
AcDbSymbolTableRecord
100
AcDbRegAppTableRecord
  2
AcDbBlockRepBTag
 70
     0
  0
APPID
  5
FE64
330
9
100
AcDbSymbolTableRecord
100
AcDbRegAppTableRecord
  2
ACAD_DSTYLE_DIMRADIAL_EXTENSION
 70
     0
  0
APPID
  5
FF93
330
9
100
AcDbSymbolTableRecord
100
AcDbRegAppTableRecord
  2
ACAD_DSTYLE_DIMBREAK
 70
     0
  0
ENDTAB
  0
TABLE
  2
DIMSTYLE
  5
A
330
0
100
AcDbSymbolTable
 70
     5
100
AcDbDimStyleTable
 71
     2
340
5145
340
27
  0
DIMSTYLE
105
27
330
A
100
AcDbSymbolTableRecord
100
AcDbDimStyleTableRecord
  2
Standard
 70
     0
340
11
  0
DIMSTYLE
105
5145
102
{ACAD_REACTORS
330
18BC1
330
18BC2
330
18BC3
330
18BC4
330
18BC5
330
18BC6
330
18E15
102
}
330
A
100
AcDbSymbolTableRecord
100
AcDbDimStyleTableRecord
  2
01
 70
     0
 41
3.0
 42
0.2
 43
0.2
 44
0.5
 73
     0
 74
     0
 77
     1
 78
     8
 79
     2
140
3.5
141
0.0
147
0.5
176
     1
177
     6
178
     4
179
     2
271
     1
272
     1
340
FD48
1001
ACAD_DSTYLE_DIMJAG
1070
   388
1040
1.5
1001
ACAD_DSTYLE_DIMTALN
1070
   392
1070
     0
  0
DIMSTYLE
105
18EFE
330
A
100
AcDbSymbolTableRecord
100
AcDbDimStyleTableRecord
  2
02
 70
     0
 40
0.65
 41
3.5
 42
1.0
 43
0.1
 44
1.0
 47
0.01
 48
0.000000001
 73
     0
 74
     0
 77
     1
 78
     8
 79
     2
140
4.5
141
0.0
146
0.7
147
1.5
176
     1
177
     6
178
     4
179
     2
271
     2
272
     2
284
     8
340
11
1001
ACAD_DSTYLE_DIMJAG
1070
   388
1040
1.5
1001
ACAD_DSTYLE_DIMTALN
1070
   392
1070
     0
  0
DIMSTYLE
105
18EFF
330
A
100
AcDbSymbolTableRecord
100
AcDbDimStyleTableRecord
  2
lin01-1-1
 70
     0
 41
1.5
 42
0.5
 44
0.8
 47
0.01
 48
0.01
 73
     0
 74
     0
 77
     1
 78
     8
 79
     2
140
1.5
147
0.3
176
     1
177
     6
178
     4
179
     1
271
     1
272
     1
284
     8
340
11
1001
ACAD_DSTYLE_DIMBREAK
1070
   391
1040
3.75
1001
ACAD_DSTYLE_DIMJAG
1070
   388
1040
1.5
1001
ACAD_DSTYLE_DIMTALN
1070
   392
1070
     0
  0
DIMSTYLE
105
18F00
330
A
100
AcDbSymbolTableRecord
100
AcDbDimStyleTableRecord
  2
02-1
 70
     0
 40
0.65
 41
2.5
 42
0.0
 43
0.1
 44
2.0
 47
0.01
 48
0.000000001
 73
     0
 74
     0
 77
     1
 78
     8
 79
     2
140
3.5
141
0.0
146
0.7
147
1.5
176
     6
177
     6
178
     2
179
     2
271
     2
272
     2
284
     8
340
11
371
     0
372
     0
1001
ACAD_DSTYLE_DIMBREAK
1070
   391
1040
3.75
1001
ACAD_DSTYLE_DIMJAG
1070
   388
1040
1.5
1001
ACAD_DSTYLE_DIMTALN
1070
   392
1070
     0
  0
ENDTAB
  0
TABLE
  2
BLOCK_RECORD
  5
1
330
0
100
AcDbSymbolTable
 70
    55
  0
BLOCK_RECORD
  5
1F
102
{ACAD_XDICTIONARY
360
67C0
102
}
330
1
100
AcDbSymbolTableRecord
100
AcDbBlockTableRecord
  2
*Model_Space
340
22
 70
     0
280
     1
281
     0
  0
BLOCK_RECORD
  5
1B
330
1
100
AcDbSymbolTableRecord
100
AcDbBlockTableRecord
  2
*Paper_Space
340
1E
 70
     0
280
     1
281
     0
  0
BLOCK_RECORD
  5
23
330
1
100
AcDbSymbolTableRecord
100
AcDbBlockTableRecord
  2
*Paper_Space0
340
26
 70
     0
280
     1
281
     0
  0
BLOCK_RECORD
  5
10FE8
102
{ACAD_XDICTIONARY
360
190E1
102
}
330
1
100
AcDbSymbolTableRecord
100
AcDbBlockTableRecord
  2
A4图框-NEW
340
0
310
2800000020000000200000000100080000000000000400000000000000000000000000000000000000000000000080000080000000808000800000008000800080800000C0C0C000C0DCC000F0CAA6000020400000206000002080000020A0000020C0000020E00000400000004020000040400000406000004080000040A0
310
000040C0000040E00000600000006020000060400000606000006080000060A0000060C0000060E00000800000008020000080400000806000008080000080A0000080C0000080E00000A0000000A0200000A0400000A0600000A0800000A0A00000A0C00000A0E00000C0000000C0200000C0400000C0600000C0800000C0
310
A00000C0C00000C0E00000E0000000E0200000E0400000E0600000E0800000E0A00000E0C00000E0E00040000000400020004000400040006000400080004000A0004000C0004000E00040200000402020004020400040206000402080004020A0004020C0004020E000404000004040200040404000404060004040800040
310
40A0004040C0004040E00040600000406020004060400040606000406080004060A0004060C0004060E00040800000408020004080400040806000408080004080A0004080C0004080E00040A0000040A0200040A0400040A0600040A0800040A0A00040A0C00040A0E00040C0000040C0200040C0400040C0600040C08000
310
40C0A00040C0C00040C0E00040E0000040E0200040E0400040E0600040E0800040E0A00040E0C00040E0E00080000000800020008000400080006000800080008000A0008000C0008000E00080200000802020008020400080206000802080008020A0008020C0008020E00080400000804020008040400080406000804080
310
008040A0008040C0008040E00080600000806020008060400080606000806080008060A0008060C0008060E00080800000808020008080400080806000808080008080A0008080C0008080E00080A0000080A0200080A0400080A0600080A0800080A0A00080A0C00080A0E00080C0000080C0200080C0400080C0600080C0
310
800080C0A00080C0C00080C0E00080E0000080E0200080E0400080E0600080E0800080E0A00080E0C00080E0E000C0000000C0002000C0004000C0006000C0008000C000A000C000C000C000E000C0200000C0202000C0204000C0206000C0208000C020A000C020C000C020E000C0400000C0402000C0404000C0406000C0
310
408000C040A000C040C000C040E000C0600000C0602000C0604000C0606000C0608000C060A000C060C000C060E000C0800000C0802000C0804000C0806000C0808000C080A000C080C000C080E000C0A00000C0A02000C0A04000C0A06000C0A08000C0A0A000C0A0C000C0A0E000C0C00000C0C02000C0C04000C0C06000
310
C0C08000C0C0A000F0FBFF00A4A0A000808080000000FF0000FF000000FFFF00FF000000FF00FF00FFFF0000FFFFFF0000000000000000000000000000000000000000000000000000000000000000000000000000000000000000000000000000000000000000000000000000000000000000000000000000000000000000
310
000000000000000000000000000000000000000000000000000000000000000000000000000000000000000000000000000000000000000000000000000000000000000000000000000000000000000000000000000000000000000000000000000000000000000000000000000000000000F9F9F9F9F9F9F9F9F9F9F9F9F9
310
F9F9F9F9F9F9F9F9F9F9F9F9F9F9FF00000000F9FF000000000000000000FFFFFFFFFFFFFFFFFFFFFFFFF9FAFAFAFF00000000F9FF000000000000000000FFFFFFFFFFFFFFFFFFFFFFFFFFFFFFFFFF00000000F9FD000000000000000000FFFFFFFFFFFFFFFFFFFFFFFFFFFFFFFFFF00000000F9FF000000000000000000FF
310
FFFFFFFFFFFFFFFFFFFFFFFFFFFFFFFF00000000F9FD000000000000000000FFFFFFFFFFFFFFFFFFFFFFFFFFFFFFFFFF00000000F9FF00000000000000000000000000000000000000000000000000FF00000000F9FD00000000000000000000000000000000000000000000000000FF00000000F9FF000000000000000000
310
00000000000000000000000000000000FF00000000F9FD00000000000000000000000000000000000000000000000000FF00000000F9FF00000000000000000000000000000000000000000000000000FF00000000F9FD00000000000000000000000000000000000000000000000000FF00000000F9FD0000000000000000
310
0000000000000000000000000000000000FF00000000F9FF00000000000000000000000000000000000000000000000000FF00000000F9FD00000000000000000000000000000000000000000000000000FF00000000F9FF00000000000000000000000000000000000000000000000000FF00000000F9FD00000000000000
310
000000000000000000000000000000000000FF00000000F9FF00000000000000000000000000000000000000000000000000FF00000000F9FFFFFFFFFFFFFFFFFFFFFFFFFFFFFFFFFFFFFFFFFFFFFFFFFFFFFF00000000F9FFFFFFF9F9F9F9F9F9F9F9F9F9F9F9F9F9F9F9F9F9F9F9F9F9F9F9000000000000000000000000
310
00000000000000000000000000000000000000000000000000000000000000000000000000000000000000000000000000000000000000000000000000000000000000000000000000000000000000000000000000000000000000000000000000000000000000000000000000000000000000000000000000000000000000
310
0000000000000000000000000000000000000000000000000000000000000000000000000000000000000000000000000000000000000000
102
{BLKREFS
331
1382D
102
}
 70
     4
280
     1
281
     0
1001
AcDbDynamicBlockGUID
1000
{F946D7D5-93AB-4A6A-A638-1333C8B655FC}
1001
AcDbBlockRepETag
1070
     1
1071
      149
  0
BLOCK_RECORD
  5
1889D
330
1
100
AcDbSymbolTableRecord
100
AcDbBlockTableRecord
  2
*X39
340
0
102
{BLKREFS
331
18A7A
102
}
 70
     0
280
     1
281
     0
  0
BLOCK_RECORD
  5
18BCA
330
1
100
AcDbSymbolTableRecord
100
AcDbBlockTableRecord
  2
*D47
340
0
 70
     0
280
     1
281
     0
  0
BLOCK_RECORD
  5
18BD6
330
1
100
AcDbSymbolTableRecord
100
AcDbBlockTableRecord
  2
*D48
340
0
 70
     0
280
     1
281
     0
  0
BLOCK_RECORD
  5
18BE3
330
1
100
AcDbSymbolTableRecord
100
AcDbBlockTableRecord
  2
*D49
340
0
 70
     0
280
     1
281
     0
  0
BLOCK_RECORD
  5
18BEF
330
1
100
AcDbSymbolTableRecord
100
AcDbBlockTableRecord
  2
*D50
340
0
 70
     0
280
     1
281
     0
  0
BLOCK_RECORD
  5
18BFB
330
1
100
AcDbSymbolTableRecord
100
AcDbBlockTableRecord
  2
*D51
340
0
 70
     0
280
     1
281
     0
  0
BLOCK_RECORD
  5
18C07
330
1
100
AcDbSymbolTableRecord
100
AcDbBlockTableRecord
  2
*D52
340
0
 70
     0
280
     1
281
     0
  0
BLOCK_RECORD
  5
18E16
330
1
100
AcDbSymbolTableRecord
100
AcDbBlockTableRecord
  2
*D54
340
0
 70
     0
280
     1
281
     0
  0
ENDTAB
  0
ENDSEC
  0
SECTION
  2
BLOCKS
  0
BLOCK
  5
20
330
1F
100
AcDbEntity
  8
0
100
AcDbBlockBegin
  2
*Model_Space
 70
     0
 10
0.0
 20
0.0
 30
0.0
  3
*Model_Space
  1

  0
ENDBLK
  5
21
330
1F
100
AcDbEntity
  8
0
100
AcDbBlockEnd
  0
BLOCK
  5
1C
330
1B
100
AcDbEntity
 67
     1
  8
0
100
AcDbBlockBegin
  2
*Paper_Space
 70
     0
 10
0.0
 20
0.0
 30
0.0
  3
*Paper_Space
  1

  0
ENDBLK
  5
1D
330
1B
100
AcDbEntity
 67
     1
  8
0
100
AcDbBlockEnd
  0
BLOCK
  5
24
330
23
100
AcDbEntity
 67
     1
  8
0
100
AcDbBlockBegin
  2
*Paper_Space0
 70
     0
 10
0.0
 20
0.0
 30
0.0
  3
*Paper_Space0
  1

  0
ENDBLK
  5
25
330
23
100
AcDbEntity
 67
     1
  8
0
100
AcDbBlockEnd
  0
BLOCK
  5
10FEA
330
10FE8
100
AcDbEntity
  8
0
100
AcDbBlockBegin
  2
A4图框-NEW
 70
     0
 10
0.0
 20
0.0
 30
0.0
  3
A4图框-NEW
  1

  0
MTEXT
  5
1904C
102
{ACAD_XDICTIONARY
360
19112
102
}
330
10FE8
100
AcDbEntity
  8
图框
 62
     3
100
AcDbMText
 10
967.6594956750133
 20
499.7664151964293
 30
0.0
 40
2.985513575034151
 41
15.50176341157864
 46
6.292658374511018
 71
     5
 72
     5
  1
BQ LUO
  7
Romans字体
 73
     1
 44
1.0
1001
AcDbBlockRepETag
1070
     1
1071
        0
1005
1904C
1001
ACAD
1000
ACAD_MTEXT_DEFINED_HEIGHT_BEGIN
1070
    46
1040
6.292658374511018
1000
ACAD_MTEXT_DEFINED_HEIGHT_END
  0
MTEXT
  5
1904D
330
10FE8
100
AcDbEntity
  8
图框
 62
     3
100
AcDbMText
 10
983.041569333247
 20
499.7664151964293
 30
0.0
 40
2.487927979195124
 41
15.26238390489051
 46
6.292658374511042
 71
     5
 72
     5
  1
{\W0.7;18.10.2010}
  7
Romans字体
 73
     1
 44
1.0
1001
AcDbBlockRepETag
1070
     1
1071
        1
1005
1904D
1001
ACAD
1000
ACAD_MTEXT_DEFINED_HEIGHT_BEGIN
1070
    46
1040
6.292658374511042
1000
ACAD_MTEXT_DEFINED_HEIGHT_END
  0
MTEXT
  5
1904E
330
10FE8
100
AcDbEntity
  8
图框
 62
     3
100
AcDbMText
 10
1012.477254728976
 20
487.1810984474071
 30
0.0
 40
2.985513575034151
 41
17.64876416884615
 46
6.292658374511455
 71
     5
 72
     5
  1
YY LIN
  7
Romans字体
 73
     1
 44
1.0
1001
AcDbBlockRepETag
1070
     1
1071
        2
1005
1904E
1001
ACAD
1000
ACAD_MTEXT_DEFINED_HEIGHT_BEGIN
1070
    46
1040
6.292658374511455
1000
ACAD_MTEXT_DEFINED_HEIGHT_END
  0
MTEXT
  5
1904F
330
10FE8
100
AcDbEntity
  8
图框
 62
     3
100
AcDbMText
 10
1028.977802139886
 20
487.1810984474071
 30
0.0
 40
2.487927979195124
 41
15.35233065297276
 46
6.292658374511495
 71
     5
 72
     5
  1
{\W0.7;18.10.2010}
  7
Romans字体
 73
     1
 44
1.0
1001
AcDbBlockRepETag
1070
     1
1071
        3
1005
1904F
1001
ACAD
1000
ACAD_MTEXT_DEFINED_HEIGHT_BEGIN
1070
    46
1040
6.292658374511495
1000
ACAD_MTEXT_DEFINED_HEIGHT_END
  0
MTEXT
  5
19050
330
10FE8
100
AcDbEntity
  8
图框
 62
     3
100
AcDbMText
 10
1063.722665487208
 20
525.4145966538831
 30
0.0
 40
2.985513575034151
 41
32.4973914334545
 46
11.82914190181707
 71
     5
 72
     5
  1
-
  7
Romans字体
 73
     1
 44
1.0
1001
AcDbBlockRepETag
1070
     1
1071
        4
1005
19050
1001
ACAD
1000
ACAD_MTEXT_DEFINED_HEIGHT_BEGIN
1070
    46
1040
11.82914190181707
1000
ACAD_MTEXT_DEFINED_HEIGHT_END
  0
MTEXT
  5
19051
330
10FE8
100
AcDbEntity
  8
图框
 62
     3
100
AcDbMText
 10
1063.727338552349
 20
513.5854547520641
 30
0.0
 40
2.985513575034151
 41
32.48804530317308
 46
11.82914190182139
 71
     5
 72
     5
  1
-
  7
Romans字体
 73
     1
 44
1.0
1001
AcDbBlockRepETag
1070
     1
1071
        5
1005
19051
1001
ACAD
1000
ACAD_MTEXT_DEFINED_HEIGHT_BEGIN
1070
    46
1040
11.82914190182139
1000
ACAD_MTEXT_DEFINED_HEIGHT_END
  0
MTEXT
  5
19052
330
10FE8
100
AcDbEntity
  8
图框
 62
     3
100
AcDbMText
 10
1110.122306614152
 20
526.8006839312707
 30
0.0
 40
2.985513575034151
 41
33.61239199242139
 46
9.05696734704178
 71
     5
 72
     5
  1
-
  7
Romans字体
 73
     1
 44
1.0
1001
AcDbBlockRepETag
1070
     1
1071
        6
1005
19052
1001
ACAD
1000
ACAD_MTEXT_DEFINED_HEIGHT_BEGIN
1070
    46
1040
9.05696734704178
1000
ACAD_MTEXT_DEFINED_HEIGHT_END
  0
MTEXT
  5
19053
330
10FE8
100
AcDbEntity
  8
图框
 62
     3
100
AcDbMText
 10
1110.122306614152
 20
500.2775205517162
 30
0.0
 40
2.985513575034151
 41
33.61239199242139
 46
8.871557304763419
 71
     5
 72
     5
  1
-
  7
Romans字体
 73
     1
 44
1.0
1001
AcDbBlockRepETag
1070
     1
1071
        7
1005
19053
1001
ACAD
1000
ACAD_MTEXT_DEFINED_HEIGHT_BEGIN
1070
    46
1040
8.871557304763419
1000
ACAD_MTEXT_DEFINED_HEIGHT_END
  0
MTEXT
  5
19054
330
10FE8
100
AcDbEntity
  8
图框
 62
     3
100
AcDbMText
 10
967.6594956750133
 20
493.4737568219182
 30
0.0
 40
2.985513575034151
 41
15.50176341157864
 46
6.292658374510335
 71
     5
 72
     5
  1
P RAO
  7
Romans字体
 73
     1
 44
1.0
1001
AcDbBlockRepETag
1070
     1
1071
        8
1005
19054
1001
ACAD
1000
ACAD_MTEXT_DEFINED_HEIGHT_BEGIN
1070
    46
1040
6.292658374510335
1000
ACAD_MTEXT_DEFINED_HEIGHT_END
  0
MTEXT
  5
19055
330
10FE8
100
AcDbEntity
  8
图框
 62
     3
100
AcDbMText
 10
983.041569333247
 20
493.2441970450405
 30
0.0
 40
2.487927979195124
 41
15.26238390489051
 46
6.751777928266487
 71
     5
 72
     5
  1
{\W0.7;18.10.2010}
  7
Romans字体
 73
     1
 44
1.0
1001
AcDbBlockRepETag
1070
     1
1071
        9
1005
19055
1001
ACAD
1000
ACAD_MTEXT_DEFINED_HEIGHT_BEGIN
1070
    46
1040
6.751777928266487
1000
ACAD_MTEXT_DEFINED_HEIGHT_END
  0
MTEXT
  5
19056
330
10FE8
100
AcDbEntity
  8
图框
 62
     3
100
AcDbMText
 10
1012.477254728976
 20
499.7664151964291
 30
0.0
 40
2.985513575034151
 41
17.64876416884615
 46
6.292658374511397
 71
     5
 72
     5
  1
-
  7
Romans字体
 73
     1
 44
1.0
1001
AcDbBlockRepETag
1070
     1
1071
       10
1005
19056
1001
ACAD
1000
ACAD_MTEXT_DEFINED_HEIGHT_BEGIN
1070
    46
1040
6.292658374511397
1000
ACAD_MTEXT_DEFINED_HEIGHT_END
  0
MTEXT
  5
19057
330
10FE8
100
AcDbEntity
  8
图框
 62
     3
100
AcDbMText
 10
1028.977802139886
 20
499.7664151964289
 30
0.0
 40
2.487927979195124
 41
15.35233065297265
 46
6.292658374511382
 71
     5
 72
     5
  1
-
  7
Romans字体
 73
     1
 44
1.0
1001
AcDbBlockRepETag
1070
     1
1071
       11
1005
19057
1001
ACAD
1000
ACAD_MTEXT_DEFINED_HEIGHT_BEGIN
1070
    46
1040
6.292658374511382
1000
ACAD_MTEXT_DEFINED_HEIGHT_END
  0
MTEXT
  5
19058
330
10FE8
100
AcDbEntity
  8
图框
 62
     3
100
AcDbMText
 10
967.6594956750133
 20
487.1810984474071
 30
0.0
 40
2.985513575034151
 41
15.50176341157863
 46
6.292658374511478
 71
     5
 72
     5
  1
-
  7
Romans字体
 73
     1
 44
1.0
1001
AcDbBlockRepETag
1070
     1
1071
       12
1005
19058
1001
ACAD
1000
ACAD_MTEXT_DEFINED_HEIGHT_BEGIN
1070
    46
1040
6.292658374511478
1000
ACAD_MTEXT_DEFINED_HEIGHT_END
  0
MTEXT
  5
19059
330
10FE8
100
AcDbEntity
  8
图框
 62
     3
100
AcDbMText
 10
983.041569333247
 20
487.1810984474071
 30
0.0
 40
2.487927979195124
 41
15.26238390489062
 46
6.292658374511495
 71
     5
 72
     5
  1
-
  7
Romans字体
 73
     1
 44
1.0
1001
AcDbBlockRepETag
1070
     1
1071
       13
1005
19059
1001
ACAD
1000
ACAD_MTEXT_DEFINED_HEIGHT_BEGIN
1070
    46
1040
6.292658374511495
1000
ACAD_MTEXT_DEFINED_HEIGHT_END
  0
MTEXT
  5
1905A
330
10FE8
100
AcDbEntity
  8
图框
 62
     3
100
AcDbMText
 10
1074.556686986741
 20
495.8417418993361
 30
0.0
 40
2.985513575034151
 41
10.82934843438978
 46
7.886094601210427
 71
     5
 72
     5
  1
-
  7
Romans字体
 73
     1
 44
1.0
1001
AcDbBlockRepETag
1070
     1
1071
       14
1005
1905A
1001
ACAD
1000
ACAD_MTEXT_DEFINED_HEIGHT_BEGIN
1070
    46
1040
7.886094601210427
1000
ACAD_MTEXT_DEFINED_HEIGHT_END
  0
LINE
  5
1905B
330
10FE8
100
AcDbEntity
  8
图框
370
    -3
100
AcDbLine
 10
1036.653967466372
 20
499.7847891999413
 30
0.0
 11
1079.971361203936
 21
499.7847891999413
 31
0.0
1001
AcDbBlockRepETag
1070
     1
1071
       15
1005
1905B
  0
MTEXT
  5
1905C
330
10FE8
100
AcDbEntity
  8
图框
 62
     1
370
    20
100
AcDbMText
 10
1108.26336443907
 20
491.5162596080882
 30
0.0
 40
2.699054613030988
 41
82.30831305643079
 46
0.0
 71
     5
 72
     5
  1
{\fSimHei|b0|i0|c134|p2;厦门唯恩电气有限公司}
 73
     1
 44
1.0
1001
AcDbBlockRepETag
1070
     1
1071
       16
1005
1905C
  0
MTEXT
  5
1905D
330
10FE8
100
AcDbEntity
  8
图框
 62
     3
370
    20
100
AcDbMText
 10
1108.435451459908
 20
487.298967726064
 30
0.0
 40
1.652482416141417
 41
68.08558693693567
 46
0.0
 71
     5
 72
     5
  1
{\fArial Narrow|b0|i0|c0|p34;XIAMEN WAIN ELECTRICAL CO.LTD}
  7
工程字
 73
     1
 44
1.0
1001
AcDbBlockRepETag
1070
     1
1071
       17
1005
1905D
  0
MTEXT
  5
1905E
330
10FE8
100
AcDbEntity
  8
图框
 62
     1
370
    20
100
AcDbMText
 10
1085.711816899387
 20
491.0944802995856
 30
0.0
 40
2.005930044038334
 41
5.047240019334847
 46
0.0
 71
     1
 72
     5
  1
{\fArial|b0|i0|c0|p34;A}
  7
Chinese
 73
     1
 44
1.0
1001
AcDbBlockRepETag
1070
     1
1071
       18
1005
1905E
  0
MTEXT
  5
1905F
330
10FE8
100
AcDbEntity
  8
图框
 62
     1
370
    20
100
AcDbMText
 10
1088.213485935716
 20
491.0944802995856
 30
0.0
 40
2.005930044038334
 41
5.047240019334847
 46
0.0
 71
     1
 72
     5
  1
{\fArial|b0|i0|c0|p34;I}
  7
Chinese
 73
     1
 44
1.0
1001
AcDbBlockRepETag
1070
     1
1071
       19
1005
1905F
  0
MTEXT
  5
19060
330
10FE8
100
AcDbEntity
  8
图框
 62
     1
370
    20
100
AcDbMText
 10
1089.142375222864
 20
491.0822866326808
 30
0.0
 40
2.005930044038334
 41
5.047240019334847
 46
0.0
 71
     1
 72
     5
  1
{\fArial|b0|i0|c0|p34;N}
  7
Chinese
 73
     1
 44
1.0
1001
AcDbBlockRepETag
1070
     1
1071
       20
1005
19060
  0
MTEXT
  5
19061
330
10FE8
100
AcDbEntity
  8
图框
100
AcDbMText
 10
1069.142012769545
 20
487.9667319294409
 30
0.0
 40
2.252848170144607
 41
21.65869686878327
 46
7.863925338579296
 71
     5
 72
     5
  1
{\W0.5;\C1;All Dimensions in mm\POriginal Size DIN A 4}
  7
Romans字体
 73
     1
 44
1.0
1001
AcDbBlockRepETag
1070
     1
1071
       21
1005
19061
1001
ACAD
1000
ACAD_MTEXT_DEFINED_HEIGHT_BEGIN
1070
    46
1040
7.863925338579296
1000
ACAD_MTEXT_DEFINED_HEIGHT_END
  0
MTEXT
  5
19062
330
10FE8
100
AcDbEntity
  8
图框
  6
ByBlock
 62
     6
370
    18
100
AcDbMText
 10
1127.40434942308
 20
508.7896535755975
 30
0.0
 40
2.651776162684904
 41
2.557913877927211
 46
0.0
 71
     1
 72
     5
  1
A
  7
Romans字体
 11
0.0000000000000001
 21
1.0
 31
0.0
 73
     1
 44
1.0
1001
AcDbBlockRepETag
1070
     1
1071
       22
1005
19062
  0
MTEXT
  5
19063
330
10FE8
100
AcDbEntity
  8
图框
 62
     6
100
AcDbMText
 10
1127.40434942308
 20
556.3746573232886
 30
0.0
 40
2.651776162684904
 41
2.557913877927211
 46
0.0
 71
     1
 72
     5
  1
B
  7
Romans字体
 11
0.0000000000000001
 21
1.0
 31
0.0
 73
     1
 44
1.0
1001
AcDbBlockRepETag
1070
     1
1071
       23
1005
19063
  0
MTEXT
  5
19064
330
10FE8
100
AcDbEntity
  8
图框
 62
     6
100
AcDbMText
 10
1127.40434942308
 20
607.5539372630998
 30
0.0
 40
2.651776162684904
 41
2.557913877927211
 46
0.0
 71
     1
 72
     5
  1
C
  7
Romans字体
 11
0.0000000000000001
 21
1.0
 31
0.0
 73
     1
 44
1.0
1001
AcDbBlockRepETag
1070
     1
1071
       24
1005
19064
  0
MTEXT
  5
19065
330
10FE8
100
AcDbEntity
  8
图框
 62
     6
100
AcDbMText
 10
1127.40434942308
 20
658.7332172029115
 30
0.0
 40
2.651776162684904
 41
2.557913877927211
 46
0.0
 71
     1
 72
     5
  1
D
  7
Romans字体
 11
0.0000000000000001
 21
1.0
 31
0.0
 73
     1
 44
1.0
1001
AcDbBlockRepETag
1070
     1
1071
       25
1005
19065
  0
LINE
  5
19066
330
10FE8
100
AcDbEntity
  8
图框
 62
     6
100
AcDbLine
 10
1130.411601781241
 20
634.0726090796082
 30
0.0
 11
1126.928502610363
 21
634.0726090796082
 31
0.0
1001
AcDbBlockRepETag
1070
     1
1071
       26
1005
19066
  0
LINE
  5
19067
330
10FE8
100
AcDbEntity
  8
图框
 62
     6
100
AcDbLine
 10
1130.411601781241
 20
582.89332913979
 30
0.0
 11
1126.928502610363
 21
582.89332913979
 31
0.0
1001
AcDbBlockRepETag
1070
     1
1071
       27
1005
19067
  0
MTEXT
  5
19068
330
10FE8
100
AcDbEntity
  8
图框
 62
     6
100
AcDbMText
 10
1105.329704038389
 20
483.6164543011163
 30
0.0
 40
2.651776162684904
 41
2.557913877927211
 46
0.0
 71
     1
 72
     5
  1
6
  7
Romans字体
 73
     1
 44
1.0
1001
AcDbBlockRepETag
1070
     1
1071
       28
1005
19068
  0
LINE
  5
19069
330
10FE8
100
AcDbEntity
  8
图框
 62
     6
100
AcDbLine
 10
1081.088565155284
 20
484.0347692601515
 30
0.0
 11
1081.088565155284
 21
480.5347692601475
 31
0.0
1001
AcDbBlockRepETag
1070
     1
1071
       29
1005
19069
  0
MTEXT
  5
1906A
330
10FE8
100
AcDbEntity
  8
图框
 62
     6
100
AcDbMText
 10
1055.900596365941
 20
483.520053108993
 30
0.0
 40
2.651776162684904
 41
2.557913877927211
 46
0.0
 71
     1
 72
     5
  1
5
  7
Romans字体
 73
     1
 44
1.0
1001
AcDbBlockRepETag
1070
     1
1071
       30
1005
1906A
  0
LINE
  5
1906B
330
10FE8
100
AcDbEntity
  8
图框
 62
     6
100
AcDbLine
 10
1031.553386436349
 20
484.0347692601515
 30
0.0
 11
1031.553386436349
 21
480.5347692601475
 31
0.0
1001
AcDbBlockRepETag
1070
     1
1071
       31
1005
1906B
  0
MTEXT
  5
1906C
330
10FE8
100
AcDbEntity
  8
图框
 62
     6
100
AcDbMText
 10
1006.383180575197
 20
483.5687958215896
 30
0.0
 40
2.651776162684904
 41
2.557913877927211
 46
0.0
 71
     1
 72
     5
  1
4
  7
Romans字体
 73
     1
 44
1.0
1001
AcDbBlockRepETag
1070
     1
1071
       32
1005
1906C
  0
LINE
  5
1906D
330
10FE8
100
AcDbEntity
  8
图框
 62
     6
100
AcDbLine
 10
982.0182077173887
 20
484.0347692601515
 30
0.0
 11
982.0182077173887
 21
480.5347692601475
 31
0.0
1001
AcDbBlockRepETag
1070
     1
1071
       33
1005
1906D
  0
MTEXT
  5
1906E
330
10FE8
100
AcDbEntity
  8
图框
 62
     6
100
AcDbMText
 10
956.8302389280352
 20
483.5989680297948
 30
0.0
 40
2.651776162684904
 41
2.557913877927211
 46
0.0
 71
     1
 72
     5
  1
3
  7
Romans字体
 73
     1
 44
1.0
1001
AcDbBlockRepETag
1070
     1
1071
       34
1005
1906E
  0
LINE
  5
1906F
330
10FE8
100
AcDbEntity
  8
图框
 62
     6
100
AcDbLine
 10
932.4830289984245
 20
484.0347692601515
 30
0.0
 11
932.4830289984245
 21
480.5347692601475
 31
0.0
1001
AcDbBlockRepETag
1070
     1
1071
       35
1005
1906F
  0
MTEXT
  5
19070
330
10FE8
100
AcDbEntity
  8
图框
 62
     6
100
AcDbMText
 10
906.0252349826365
 20
483.6475250013156
 30
0.0
 40
2.651776162684904
 41
2.557913877927211
 46
0.0
 71
     1
 72
     5
  1
2
  7
Romans字体
 73
     1
 44
1.0
1001
AcDbBlockRepETag
1070
     1
1071
       36
1005
19070
  0
LINE
  5
19071
330
10FE8
100
AcDbEntity
  8
图框
 62
     6
100
AcDbLine
 10
882.9478502794648
 20
484.0347692601515
 30
0.0
 11
882.9478502794648
 21
480.5347692601475
 31
0.0
1001
AcDbBlockRepETag
1070
     1
1071
       37
1005
19071
  0
MTEXT
  5
19072
330
10FE8
100
AcDbEntity
  8
图框
 62
     6
100
AcDbMText
 10
857.7598814901191
 20
483.651829494754
 30
0.0
 40
2.651776162684904
 41
2.557913877927211
 46
0.0
 71
     1
 72
     5
  1
1
  7
Romans字体
 73
     1
 44
1.0
1001
AcDbBlockRepETag
1070
     1
1071
       38
1005
19072
  0
LINE
  5
19073
330
10FE8
100
AcDbEntity
  8
图框
370
    50
100
AcDbLine
 10
836.8548209370597
 20
484.0347692601515
 30
0.0
 11
1126.928502610363
 21
484.0347692601515
 31
0.0
1001
AcDbBlockRepETag
1070
     1
1071
       39
1005
19073
  0
LINE
  5
19074
330
10FE8
100
AcDbEntity
  8
图框
370
    50
100
AcDbLine
 10
836.9128518455362
 20
484.0178684310246
 30
0.0
 11
836.9128518455394
 21
675.0207195125422
 31
0.0
1001
AcDbBlockRepETag
1070
     1
1071
       40
1005
19074
  0
MTEXT
  5
19075
330
10FE8
100
AcDbEntity
  8
图框
 62
     6
100
AcDbMText
 10
833.8475685789031
 20
658.7332172029115
 30
0.0
 40
2.651776162684904
 41
2.557913877927211
 46
0.0
 71
     1
 72
     5
  1
D
  7
Romans字体
 11
0.0000000000000001
 21
1.0
 31
0.0
 73
     1
 44
1.0
1001
AcDbBlockRepETag
1070
     1
1071
       41
1005
19075
  0
LINE
  5
19076
330
10FE8
100
AcDbEntity
  8
图框
 62
     6
100
AcDbLine
 10
836.9128518455386
 20
634.0726090796082
 30
0.0
 11
833.4128518455365
 21
634.0726090796082
 31
0.0
1001
AcDbBlockRepETag
1070
     1
1071
       42
1005
19076
  0
MTEXT
  5
19077
330
10FE8
100
AcDbEntity
  8
图框
 62
     6
100
AcDbMText
 10
833.9039177480142
 20
607.5539372630998
 30
0.0
 40
2.651776162684904
 41
2.557913877927211
 46
0.0
 71
     1
 72
     5
  1
C
  7
Romans字体
 11
0.0000000000000001
 21
1.0
 31
0.0
 73
     1
 44
1.0
1001
AcDbBlockRepETag
1070
     1
1071
       43
1005
19077
  0
LINE
  5
19078
330
10FE8
100
AcDbEntity
  8
图框
 62
     6
100
AcDbLine
 10
836.9128518455378
 20
582.89332913979
 30
0.0
 11
833.4128518455365
 21
582.89332913979
 31
0.0
1001
AcDbBlockRepETag
1070
     1
1071
       44
1005
19078
  0
MTEXT
  5
19079
330
10FE8
100
AcDbEntity
  8
图框
 62
     6
100
AcDbMText
 10
833.9039177480142
 20
556.3746573232886
 30
0.0
 40
2.651776162684904
 41
2.557913877927211
 46
0.0
 71
     1
 72
     5
  1
B
  7
Romans字体
 11
0.0000000000000001
 21
1.0
 31
0.0
 73
     1
 44
1.0
1001
AcDbBlockRepETag
1070
     1
1071
       45
1005
19079
  0
LINE
  5
1907A
330
10FE8
100
AcDbEntity
  8
图框
 62
     6
100
AcDbLine
 10
836.9128518455367
 20
531.714049199969
 30
0.0
 11
833.4128518455365
 21
531.714049199969
 31
0.0
1001
AcDbBlockRepETag
1070
     1
1071
       46
1005
1907A
  0
MTEXT
  5
1907B
330
10FE8
100
AcDbEntity
  8
图框
 62
     6
100
AcDbMText
 10
833.9039177480142
 20
508.7896535755975
 30
0.0
 40
2.651776162684904
 41
2.557913877927211
 46
0.0
 71
     1
 72
     5
  1
A
  7
Romans字体
 11
0.0000000000000001
 21
1.0
 31
0.0
 73
     1
 44
1.0
1001
AcDbBlockRepETag
1070
     1
1071
       47
1005
1907B
  0
LINE
  5
1907C
330
10FE8
100
AcDbEntity
  8
图框
370
    -3
100
AcDbLine
 10
836.9128518455394
 20
675.0207195125422
 30
0.0
 11
836.9128518455394
 21
684.5021384922564
 31
0.0
1001
AcDbBlockRepETag
1070
     1
1071
       48
1005
1907C
  0
LINE
  5
1907D
330
10FE8
100
AcDbEntity
  8
图框
370
    -3
100
AcDbLine
 10
842.6237321475781
 20
675.5347692601515
 30
0.0
 11
842.6237321475781
 21
685.0161882398658
 31
0.0
1001
AcDbBlockRepETag
1070
     1
1071
       49
1005
1907D
  0
LINE
  5
1907E
330
10FE8
100
AcDbEntity
  8
图框
370
    -3
100
AcDbLine
 10
848.3346124496179
 20
675.5347692601515
 30
0.0
 11
848.3346124496179
 21
685.0161882398658
 31
0.0
1001
AcDbBlockRepETag
1070
     1
1071
       50
1005
1907E
  0
LINE
  5
1907F
330
10FE8
100
AcDbEntity
  8
图框
370
    -3
100
AcDbLine
 10
854.0454927516588
 20
675.5347692601515
 30
0.0
 11
854.0454927516588
 21
685.0161882398658
 31
0.0
1001
AcDbBlockRepETag
1070
     1
1071
       51
1005
1907F
  0
LINE
  5
19080
330
10FE8
100
AcDbEntity
  8
图框
370
    -3
100
AcDbLine
 10
861.5351874539182
 20
675.5347692601515
 30
0.0
 11
861.5351874539182
 21
686.7901958362482
 31
0.0
1001
AcDbBlockRepETag
1070
     1
1071
       52
1005
19080
  0
MTEXT
  5
19081
330
10FE8
100
AcDbEntity
  8
图框
 62
     6
100
AcDbMText
 10
1105.329704038389
 20
678.859919059449
 30
0.0
 40
2.651776162684904
 41
2.557913877927211
 46
0.0
 71
     1
 72
     5
  1
6
  7
Romans字体
 73
     1
 44
1.0
1001
AcDbBlockRepETag
1070
     1
1071
       53
1005
19081
  0
LINE
  5
19082
330
10FE8
100
AcDbEntity
  8
图框
 62
     6
100
AcDbLine
 10
1081.088565155284
 20
679.0347692601516
 30
0.0
 11
1081.088565155284
 21
675.5347692601515
 31
0.0
1001
AcDbBlockRepETag
1070
     1
1071
       54
1005
19082
  0
MTEXT
  5
19083
330
10FE8
100
AcDbEntity
  8
图框
 62
     6
100
AcDbMText
 10
1055.900596365941
 20
678.859919059449
 30
0.0
 40
2.651776162684904
 41
2.557913877927211
 46
0.0
 71
     1
 72
     5
  1
5
  7
Romans字体
 73
     1
 44
1.0
1001
AcDbBlockRepETag
1070
     1
1071
       55
1005
19083
  0
LINE
  5
19084
330
10FE8
100
AcDbEntity
  8
图框
 62
     6
100
AcDbLine
 10
1031.553386436349
 20
679.0347692601516
 30
0.0
 11
1031.553386436349
 21
675.5347692601515
 31
0.0
1001
AcDbBlockRepETag
1070
     1
1071
       56
1005
19084
  0
MTEXT
  5
19085
330
10FE8
100
AcDbEntity
  8
图框
 62
     6
100
AcDbMText
 10
1006.36541764698
 20
678.7312083656147
 30
0.0
 40
2.651776162684904
 41
2.557913877927211
 46
0.0
 71
     1
 72
     5
  1
4
  7
Romans字体
 73
     1
 44
1.0
1001
AcDbBlockRepETag
1070
     1
1071
       57
1005
19085
  0
LINE
  5
19086
330
10FE8
100
AcDbEntity
  8
图框
 62
     6
100
AcDbLine
 10
982.0182077173887
 20
679.0347692601516
 30
0.0
 11
982.0182077173887
 21
675.5347692601515
 31
0.0
1001
AcDbBlockRepETag
1070
     1
1071
       58
1005
19086
  0
MTEXT
  5
19087
330
10FE8
100
AcDbEntity
  8
图框
 62
     6
100
AcDbMText
 10
956.8302389280352
 20
678.859919059449
 30
0.0
 40
2.651776162684904
 41
2.557913877927211
 46
0.0
 71
     1
 72
     5
  1
3
  7
Romans字体
 73
     1
 44
1.0
1001
AcDbBlockRepETag
1070
     1
1071
       59
1005
19087
  0
LINE
  5
19088
330
10FE8
100
AcDbEntity
  8
图框
 62
     6
100
AcDbLine
 10
932.4830289984245
 20
679.0347692601516
 30
0.0
 11
932.4830289984245
 21
675.5347692601515
 31
0.0
1001
AcDbBlockRepETag
1070
     1
1071
       60
1005
19088
  0
MTEXT
  5
19089
330
10FE8
100
AcDbEntity
  8
图框
 62
     6
100
AcDbMText
 10
907.295060209082
 20
678.859919059449
 30
0.0
 40
2.651776162684904
 41
2.557913877927211
 46
0.0
 71
     1
 72
     5
  1
2
  7
Romans字体
 73
     1
 44
1.0
1001
AcDbBlockRepETag
1070
     1
1071
       61
1005
19089
  0
LINE
  5
1908A
330
10FE8
100
AcDbEntity
  8
图框
 62
     6
100
AcDbLine
 10
882.9478502794648
 20
678.7962435131815
 30
0.0
 11
882.9478502794648
 21
675.5347692601515
 31
0.0
1001
AcDbBlockRepETag
1070
     1
1071
       62
1005
1908A
  0
MTEXT
  5
1908B
330
10FE8
100
AcDbEntity
  8
图框
 62
     6
100
AcDbMText
 10
862.6286629643733
 20
678.859919059449
 30
0.0
 40
2.651776162684904
 41
2.557913877927211
 46
0.0
 71
     1
 72
     5
  1
1
  7
Romans字体
 73
     1
 44
1.0
1001
AcDbBlockRepETag
1070
     1
1071
       63
1005
1908B
  0
LINE
  5
1908C
330
10FE8
100
AcDbEntity
  8
图框
370
    -3
100
AcDbLine
 10
836.9128518455394
 20
675.0207195125422
 30
0.0
 11
836.9128518455394
 21
686.7901958362482
 31
0.0
1001
AcDbBlockRepETag
1070
     1
1071
       64
1005
1908C
  0
LINE
  5
1908D
330
10FE8
100
AcDbEntity
  8
图框
370
    50
100
AcDbLine
 10
836.9128518455394
 20
675.5347692601515
 30
0.0
 11
1126.928502610363
 21
675.5347692601515
 31
0.0
1001
AcDbBlockRepETag
1070
     1
1071
       65
1005
1908D
  0
LINE
  5
1908E
330
10FE8
100
AcDbEntity
  8
图框
370
    -3
100
AcDbLine
 10
842.6237321475781
 20
675.5347692601515
 30
0.0
 11
842.6237321475781
 21
686.7901958362482
 31
0.0
1001
AcDbBlockRepETag
1070
     1
1071
       66
1005
1908E
  0
LINE
  5
1908F
330
10FE8
100
AcDbEntity
  8
图框
370
    -3
100
AcDbLine
 10
848.3346124496179
 20
675.5347692601515
 30
0.0
 11
848.3346124496179
 21
686.7901958362482
 31
0.0
1001
AcDbBlockRepETag
1070
     1
1071
       67
1005
1908F
  0
MTEXT
  5
19090
102
{ACAD_XDICTIONARY
360
19114
102
}
330
10FE8
100
AcDbEntity
  8
图框
100
AcDbMText
 10
857.7903401027889
 20
686.7901958362482
 30
0.0
 40
1.958998408821398
 41
11.25542657609672
 46
7.489694702258906
 71
     4
 72
     5
  1
\pi2.8203;档案员{\H0.7x;\P\pi1.4159;\Fromans|c134;Filing Clerk\fFangSong_GB2312|b0|i0|c134|p49; }
 11
-0.0000000000000002
 21
-1.0
 31
0.0
 73
     1
 44
1.0
1001
AcDbBlockRepETag
1070
     1
1071
       68
1005
19090
1001
ACAD
1000
ACAD_MTEXT_DEFINED_HEIGHT_BEGIN
1070
    46
1040
7.489694702258906
1000
ACAD_MTEXT_DEFINED_HEIGHT_END
  0
MTEXT
  5
19091
102
{ACAD_XDICTIONARY
360
19116
102
}
330
10FE8
100
AcDbEntity
  8
图框
100
AcDbMText
 10
845.479172298598
 20
686.7901958362482
 30
0.0
 40
1.958998408821398
 41
11.25542657609672
 46
5.710880302039671
 71
     4
 72
     5
  1
\pi0.7115;日期{\Fromans|c134;/Date}
 11
-0.0000000000000002
 21
-1.0
 31
0.0
 73
     1
 44
1.0
1001
AcDbBlockRepETag
1070
     1
1071
       69
1005
19091
1001
ACAD
1000
ACAD_MTEXT_DEFINED_HEIGHT_BEGIN
1070
    46
1040
5.710880302039671
1000
ACAD_MTEXT_DEFINED_HEIGHT_END
  0
LINE
  5
19092
330
10FE8
100
AcDbEntity
  8
图框
370
    -3
100
AcDbLine
 10
854.0454927516588
 20
675.5347692601515
 30
0.0
 11
854.0454927516588
 21
686.7901958362482
 31
0.0
1001
AcDbBlockRepETag
1070
     1
1071
       70
1005
19092
  0
LINE
  5
19093
330
10FE8
100
AcDbEntity
  8
图框
370
    -3
100
AcDbLine
 10
1036.653967466372
 20
531.3291676047914
 30
0.0
 11
1036.653967466372
 21
484.0126019753161
 31
0.0
1001
AcDbBlockRepETag
1070
     1
1071
       71
1005
19093
  0
LINE
  5
19094
330
10FE8
100
AcDbEntity
  8
图框
370
    -3
100
AcDbLine
 10
1047.483315900763
 20
507.6708838011533
 30
0.0
 11
1047.483315900763
 21
491.8986945987308
 31
0.0
1001
AcDbBlockRepETag
1070
     1
1071
       72
1005
19094
  0
LINE
  5
19095
330
10FE8
100
AcDbEntity
  8
图框
370
    -3
100
AcDbLine
 10
1058.312664335153
 20
507.6708838011533
 30
0.0
 11
1058.312664335153
 21
484.0347692601515
 31
0.0
1001
AcDbBlockRepETag
1070
     1
1071
       73
1005
19095
  0
LINE
  5
19096
330
10FE8
100
AcDbEntity
  8
图框
370
    25
100
AcDbLine
 10
1048.474135214456
 20
488.1095628329926
 30
0.0
 11
1054.946420288459
 21
488.1095628329926
 31
0.0
1001
AcDbBlockRepETag
1070
     1
1071
       74
1005
19096
  0
LINE
  5
19097
330
10FE8
100
AcDbEntity
  8
图框
370
    25
100
AcDbLine
 10
1054.232527365989
 20
487.0761716842634
 30
0.0
 11
1049.156490914508
 21
486.4576273751
 31
0.0
1001
AcDbBlockRepETag
1070
     1
1071
       75
1005
19097
  0
LINE
  5
19098
330
10FE8
100
AcDbEntity
  8
图框
370
    25
100
AcDbLine
 10
1054.232527365989
 20
489.1429539817209
 30
0.0
 11
1049.156490914508
 21
489.7614982908846
 31
0.0
1001
AcDbBlockRepETag
1070
     1
1071
       76
1005
19098
  0
LINE
  5
19099
330
10FE8
100
AcDbEntity
  8
图框
370
    25
100
AcDbLine
 10
1049.156490914508
 20
489.7614982908846
 30
0.0
 11
1049.156490914508
 21
486.4576273751
 31
0.0
1001
AcDbBlockRepETag
1070
     1
1071
       77
1005
19099
  0
LINE
  5
1909A
330
10FE8
100
AcDbEntity
  8
图框
370
    25
100
AcDbLine
 10
1054.232527365989
 20
489.1429539817209
 30
0.0
 11
1054.232527365989
 21
487.0761716842634
 31
0.0
1001
AcDbBlockRepETag
1070
     1
1071
       78
1005
1909A
  0
CIRCLE
  5
1909B
330
10FE8
100
AcDbEntity
  8
图框
370
    25
100
AcDbCircle
 10
1042.502700458579
 20
488.1095628329926
 30
0.0
 40
1.651935457891863
1001
AcDbBlockRepETag
1070
     1
1071
       79
1005
1909B
  0
CIRCLE
  5
1909C
330
10FE8
100
AcDbEntity
  8
图框
370
    25
100
AcDbCircle
 10
1042.502700458579
 20
488.1095628329926
 30
0.0
 40
1.033391148728775
1001
AcDbBlockRepETag
1070
     1
1071
       80
1005
1909C
  0
LINE
  5
1909D
330
10FE8
100
AcDbEntity
  8
图框
370
    25
100
AcDbLine
 10
1040.136872078216
 20
488.1095628329926
 30
0.0
 11
1044.868528838943
 21
488.1095628329926
 31
0.0
1001
AcDbBlockRepETag
1070
     1
1071
       81
1005
1909D
  0
LINE
  5
1909E
330
10FE8
100
AcDbEntity
  8
图框
370
    25
100
AcDbLine
 10
1042.502700458579
 20
490.475391213355
 30
0.0
 11
1042.502700458579
 21
485.743734452629
 31
0.0
1001
AcDbBlockRepETag
1070
     1
1071
       82
1005
1909E
  0
LINE
  5
1909F
330
10FE8
100
AcDbEntity
  8
图框
370
    -3
100
AcDbLine
 10
1069.142012769546
 20
507.6708838011533
 30
0.0
 11
1069.142012769546
 21
491.8986945987308
 31
0.0
1001
AcDbBlockRepETag
1070
     1
1071
       83
1005
1909F
  0
MTEXT
  5
190A0
330
10FE8
100
AcDbEntity
  8
图框
100
AcDbMText
 10
1086.643735910939
 20
526.8006839312707
 30
0.0
 40
2.154898249703542
 41
13.34474941400573
 46
9.056967347041775
 71
     5
 72
     5
  1
图号{\Ftxt|c134;\P\Fromans|c134;\W0.65;Drawing No.}
 73
     1
 44
1.0
1001
AcDbBlockRepETag
1070
     1
1071
       84
1005
190A0
1001
ACAD
1000
ACAD_MTEXT_DEFINED_HEIGHT_BEGIN
1070
    46
1040
9.056967347041775
1000
ACAD_MTEXT_DEFINED_HEIGHT_END
  0
LINE
  5
190A1
330
10FE8
100
AcDbEntity
  8
图框
370
    -3
100
AcDbLine
 10
1093.316110617942
 20
531.3291676047914
 30
0.0
 11
1093.316110617942
 21
495.8417418993347
 31
0.0
1001
AcDbBlockRepETag
1070
     1
1071
       85
1005
190A1
  0
LINE
  5
190A2
330
10FE8
100
AcDbEntity
  8
图框
370
    -3
100
AcDbLine
 10
1047.473969770481
 20
531.3291676047914
 30
0.0
 11
1047.473969770481
 21
507.6708838011533
 31
0.0
1001
AcDbBlockRepETag
1070
     1
1071
       86
1005
190A2
  0
MTEXT
  5
190A3
330
10FE8
100
AcDbEntity
  8
图框
100
AcDbMText
 10
1063.72733855235
 20
503.7278365005473
 30
0.0
 40
2.252848170144607
 41
10.82934843439208
 46
7.886094601212128
 71
     5
 72
     5
  1
重量\P{\Fromans|c134;Weight}
 73
     1
 44
1.0
1001
AcDbBlockRepETag
1070
     1
1071
       87
1005
190A3
1001
ACAD
1000
ACAD_MTEXT_DEFINED_HEIGHT_BEGIN
1070
    46
1040
7.886094601212128
1000
ACAD_MTEXT_DEFINED_HEIGHT_END
  0
LINE
  5
190A4
330
10FE8
100
AcDbEntity
  8
图框
370
    -3
100
AcDbLine
 10
1036.653967466372
 20
519.5000257029746
 30
0.0
 11
1079.971361203936
 21
519.5000257029746
 31
0.0
1001
AcDbBlockRepETag
1070
     1
1071
       88
1005
190A4
  0
MTEXT
  5
190A5
330
10FE8
100
AcDbEntity
  8
图框
100
AcDbMText
 10
1074.556686986741
 20
503.7278365005473
 30
0.0
 40
2.252848170144607
 41
10.82934843438984
 46
7.886094601212141
 71
     5
 72
     5
  1
数量\P{\Fromans|c134;Qty.}
 73
     1
 44
1.0
1001
AcDbBlockRepETag
1070
     1
1071
       89
1005
190A5
1001
ACAD
1000
ACAD_MTEXT_DEFINED_HEIGHT_BEGIN
1070
    46
1040
7.886094601212141
1000
ACAD_MTEXT_DEFINED_HEIGHT_END
  0
LINE
  5
190A6
330
10FE8
100
AcDbEntity
  8
图框
370
    -3
100
AcDbLine
 10
1079.971361203936
 20
495.8417418993347
 30
0.0
 11
1126.928502610363
 21
495.8417418993342
 31
0.0
1001
AcDbBlockRepETag
1070
     1
1071
       90
1005
190A6
  0
LINE
  5
190A7
330
10FE8
100
AcDbEntity
  8
图框
370
    -3
100
AcDbLine
 10
1079.971361203936
 20
504.7132992040975
 30
0.0
 11
1126.928502610363
 21
504.7132992040975
 31
0.0
1001
AcDbBlockRepETag
1070
     1
1071
       91
1005
190A7
  0
MTEXT
  5
190A8
330
10FE8
100
AcDbEntity
  8
图框
100
AcDbMText
 10
1052.893317052817
 20
503.7278365005473
 30
0.0
 40
2.252848170144607
 41
10.83869456467139
 46
7.886094601212101
 71
     5
 72
     5
  1
版本\P{\Fromans|c134;REV.}
 73
     1
 44
1.0
1001
AcDbBlockRepETag
1070
     1
1071
       92
1005
190A8
1001
ACAD
1000
ACAD_MTEXT_DEFINED_HEIGHT_BEGIN
1070
    46
1040
7.886094601212101
1000
ACAD_MTEXT_DEFINED_HEIGHT_END
  0
MTEXT
  5
190A9
330
10FE8
100
AcDbEntity
  8
图框
100
AcDbMText
 10
1042.068641683568
 20
503.7278365005473
 30
0.0
 40
2.252848170144607
 41
10.8293484343908
 46
7.886094601212136
 71
     5
 72
     5
  1
比例\P{\Fromans|c134;Scale}
 73
     1
 44
1.0
1001
AcDbBlockRepETag
1070
     1
1071
       93
1005
190A9
1001
ACAD
1000
ACAD_MTEXT_DEFINED_HEIGHT_BEGIN
1070
    46
1040
7.886094601212136
1000
ACAD_MTEXT_DEFINED_HEIGHT_END
  0
LINE
  5
190AA
330
10FE8
100
AcDbEntity
  8
图框
370
    -3
100
AcDbLine
 10
1036.653967466372
 20
507.6708838011533
 30
0.0
 11
1079.971361203936
 21
507.6708838011533
 31
0.0
1001
AcDbBlockRepETag
1070
     1
1071
       94
1005
190AA
  0
LINE
  5
190AB
330
10FE8
100
AcDbEntity
  8
图框
370
    -3
100
AcDbLine
 10
1036.653967466372
 20
491.8986945987308
 30
0.0
 11
1079.971361203936
 21
491.8986945987308
 31
0.0
1001
AcDbBlockRepETag
1070
     1
1071
       95
1005
190AB
  0
LINE
  5
190AC
330
10FE8
100
AcDbEntity
  8
图框
370
    -3
100
AcDbLine
 10
1079.971361203936
 20
531.3291676047914
 30
0.0
 11
1079.971361203936
 21
484.0125999975168
 31
0.0
1001
AcDbBlockRepETag
1070
     1
1071
       96
1005
190AC
  0
MTEXT
  5
190AD
330
10FE8
100
AcDbEntity
  8
图框
100
AcDbMText
 10
1042.063968618426
 20
525.4145966538832
 30
0.0
 40
2.252848170144607
 41
10.82000230410933
 46
11.82914190181708
 71
     5
 72
     5
  1
表面处理\P{\Fromans|c134;Finish}
 73
     1
 44
1.0
1001
AcDbBlockRepETag
1070
     1
1071
       97
1005
190AD
1001
ACAD
1000
ACAD_MTEXT_DEFINED_HEIGHT_BEGIN
1070
    46
1040
11.82914190181708
1000
ACAD_MTEXT_DEFINED_HEIGHT_END
  0
MTEXT
  5
190AE
330
10FE8
100
AcDbEntity
  8
图框
100
AcDbMText
 10
1042.063968618426
 20
513.5854547520639
 30
0.0
 40
2.252848170144607
 41
10.82000230410933
 46
11.8291419018212
 71
     5
 72
     5
  1
材料\P{\Fromans|c134;Material}
 73
     1
 44
1.0
1001
AcDbBlockRepETag
1070
     1
1071
       98
1005
190AE
1001
ACAD
1000
ACAD_MTEXT_DEFINED_HEIGHT_BEGIN
1070
    46
1040
11.8291419018212
1000
ACAD_MTEXT_DEFINED_HEIGHT_END
  0
LINE
  5
190AF
330
10FE8
100
AcDbEntity
  8
图框
370
    -3
100
AcDbLine
 10
1079.971361203936
 20
522.27220025775
 30
0.0
 11
1126.928502610363
 21
522.27220025775
 31
0.0
1001
AcDbBlockRepETag
1070
     1
1071
       99
1005
190AF
  0
LINE
  5
190B0
330
10FE8
100
AcDbEntity
  8
图框
370
    -3
100
AcDbLine
 10
1079.971361203936
 20
513.5854547520641
 30
0.0
 11
1126.928502610363
 21
513.5854547520639
 31
0.0
1001
AcDbBlockRepETag
1070
     1
1071
      100
1005
190B0
  0
MTEXT
  5
190B1
330
10FE8
100
AcDbEntity
  8
图框
100
AcDbMText
 10
1086.643735910939
 20
517.9288275049072
 30
0.0
 40
1.958998408821398
 41
13.34474941400573
 46
8.686745505685811
 71
     5
 72
     5
  1
产品代号\P{\Fromans|c134;Part Code}
 73
     1
 44
1.0
1001
AcDbBlockRepETag
1070
     1
1071
      101
1005
190B1
1001
ACAD
1000
ACAD_MTEXT_DEFINED_HEIGHT_BEGIN
1070
    46
1040
8.686745505685811
1000
ACAD_MTEXT_DEFINED_HEIGHT_END
  0
LINE
  5
190B2
330
10FE8
100
AcDbEntity
  8
图框
370
    -3
100
AcDbLine
 10
946.9285026103634
 20
525.7982263931411
 30
0.0
 11
1036.653967466372
 21
525.7982263931411
 31
0.0
1001
AcDbBlockRepETag
1070
     1
1071
      102
1005
190B2
  0
LINE
  5
190B3
330
10FE8
100
AcDbEntity
  8
图框
370
    -3
100
AcDbLine
 10
946.9285026103634
 20
520.2672851814959
 30
0.0
 11
1036.653967466372
 21
520.2672851814959
 31
0.0
1001
AcDbBlockRepETag
1070
     1
1071
      103
1005
190B3
  0
LINE
  5
190B4
330
10FE8
100
AcDbEntity
  8
图框
370
    35
100
AcDbLine
 10
946.9285026103634
 20
531.3291676047914
 30
0.0
 11
1126.928502610363
 21
531.3291676047914
 31
0.0
1001
AcDbBlockRepETag
1070
     1
1071
      104
1005
190B4
  0
LINE
  5
190B5
330
10FE8
100
AcDbEntity
  8
图框
370
    -3
100
AcDbLine
 10
990.6727612856927
 20
509.2054027581959
 30
0.0
 11
990.6727612856927
 21
484.0347692601515
 31
0.0
1001
AcDbBlockRepETag
1070
     1
1071
      105
1005
190B5
  0
MTEXT
  5
190B6
102
{ACAD_XDICTIONARY
360
19118
102
}
330
10FE8
100
AcDbEntity
  8
图框
100
AcDbMText
 10
997.1628169651232
 20
499.816589978722
 30
0.0
 40
2.252848170144607
 41
12.98011135886052
 46
6.19230880992475
 71
     5
 72
     5
  1
{\fSimSun|b0|i0|c134|p2;标准化}\PStand.
  7
Romans字体
 73
     1
 44
1.0
1001
AcDbBlockRepETag
1070
     1
1071
      106
1005
190B6
1001
ACAD
1000
ACAD_MTEXT_DEFINED_HEIGHT_BEGIN
1070
    46
1040
6.19230880992475
1000
ACAD_MTEXT_DEFINED_HEIGHT_END
  0
LINE
  5
190B7
330
10FE8
100
AcDbEntity
  8
图框
370
    -3
100
AcDbLine
 10
975.4103773808022
 20
509.2054027581959
 30
0.0
 11
975.4103773808022
 21
484.0347692601515
 31
0.0
1001
AcDbBlockRepETag
1070
     1
1071
      107
1005
190B7
  0
MTEXT
  5
190B8
330
10FE8
100
AcDbEntity
  8
图框
100
AcDbMText
 10
984.5089229802068
 20
511.9708733640202
 30
0.0
 40
2.448748011026752
 41
38.287899328693
 46
5.530941211648832
 71
     5
 72
     5
  1
  变更描述{\Fromans|c134;/Description}
 73
     1
 44
1.0
1001
AcDbBlockRepETag
1070
     1
1071
      108
1005
190B8
1001
ACAD
1000
ACAD_MTEXT_DEFINED_HEIGHT_BEGIN
1070
    46
1040
5.530941211648832
1000
ACAD_MTEXT_DEFINED_HEIGHT_END
  0
MTEXT
  5
190B9
102
{ACAD_XDICTIONARY
360
1911A
102
}
330
10FE8
100
AcDbEntity
  8
图框
100
AcDbMText
 10
1012.477254728976
 20
511.9708733640202
 30
0.0
 40
1.958998408821398
 41
17.64876416884548
 46
5.530941211648825
 71
     5
 72
     5
  1
签名\P{\Fromans|c134;Signature} 
 73
     1
 44
1.0
1001
AcDbBlockRepETag
1070
     1
1071
      109
1005
190B9
1001
ACAD
1000
ACAD_MTEXT_DEFINED_HEIGHT_BEGIN
1070
    46
1040
5.530941211648825
1000
ACAD_MTEXT_DEFINED_HEIGHT_END
  0
MTEXT
  5
190BA
102
{ACAD_XDICTIONARY
360
1911C
102
}
330
10FE8
100
AcDbEntity
  8
图框
100
AcDbMText
 10
960.7558556394856
 20
511.9708733640202
 30
0.0
 40
1.958998408821398
 41
9.218235352749283
 46
5.530941211648841
 71
     5
 72
     5
  1
处数\P{\Fromans|c134;Number }
 73
     1
 44
1.0
1001
AcDbBlockRepETag
1070
     1
1071
      110
1005
190BA
1001
ACAD
1000
ACAD_MTEXT_DEFINED_HEIGHT_BEGIN
1070
    46
1040
5.530941211648841
1000
ACAD_MTEXT_DEFINED_HEIGHT_END
  0
LINE
  5
190BB
330
10FE8
100
AcDbEntity
  8
图框
370
    -3
100
AcDbLine
 10
946.9285026103634
 20
514.7363439698449
 30
0.0
 11
1036.653967466372
 21
514.7363439698449
 31
0.0
1001
AcDbBlockRepETag
1070
     1
1071
      111
1005
190BB
  0
LINE
  5
190BC
330
10FE8
100
AcDbEntity
  8
图框
370
    -3
100
AcDbLine
 10
946.9285026103634
 20
509.2054027581959
 30
0.0
 11
1036.653967466372
 21
509.2054027581959
 31
0.0
1001
AcDbBlockRepETag
1070
     1
1071
      112
1005
190BC
  0
LINE
  5
190BD
330
10FE8
100
AcDbEntity
  8
图框
370
    -3
100
AcDbLine
 10
946.9285026103634
 20
502.9127443836848
 30
0.0
 11
1036.653967466372
 21
502.9127443836848
 31
0.0
1001
AcDbBlockRepETag
1070
     1
1071
      113
1005
190BD
  0
LINE
  5
190BE
330
10FE8
100
AcDbEntity
  8
图框
370
    -3
100
AcDbLine
 10
946.9285026103634
 20
496.620086009173
 30
0.0
 11
1036.653967466372
 21
496.620086009173
 31
0.0
1001
AcDbBlockRepETag
1070
     1
1071
      114
1005
190BE
  0
LINE
  5
190BF
330
10FE8
100
AcDbEntity
  8
图框
370
    35
380
     1
100
AcDbLine
 10
946.9285026103634
 20
531.3291676047914
 30
0.0
 11
946.9285026103634
 21
484.0347692601515
 31
0.0
1001
AcDbBlockRepETag
1070
     1
1071
      115
1005
190BF
  0
LINE
  5
190C0
330
10FE8
100
AcDbEntity
  8
图框
370
    -3
100
AcDbLine
 10
1021.301636813399
 20
531.3291676047914
 30
0.0
 11
1021.301636813399
 21
484.0347692601515
 31
0.0
1001
AcDbBlockRepETag
1070
     1
1071
      116
1005
190C0
  0
LINE
  5
190C1
330
10FE8
100
AcDbEntity
  8
图框
370
    -3
100
AcDbLine
 10
1003.652872644553
 20
531.3291676047914
 30
0.0
 11
1003.652872644553
 21
484.0347692601515
 31
0.0
1001
AcDbBlockRepETag
1070
     1
1071
      117
1005
190C1
  0
LINE
  5
190C2
330
10FE8
100
AcDbEntity
  8
图框
370
    -3
100
AcDbLine
 10
965.3649733158603
 20
531.3291676047914
 30
0.0
 11
965.3649733158603
 21
509.2054027581959
 31
0.0
1001
AcDbBlockRepETag
1070
     1
1071
      118
1005
190C2
  0
LINE
  5
190C3
330
10FE8
100
AcDbEntity
  8
图框
370
    -3
100
AcDbLine
 10
956.1467379631109
 20
531.3291676047914
 30
0.0
 11
956.1467379631109
 21
509.2054027581959
 31
0.0
1001
AcDbBlockRepETag
1070
     1
1071
      119
1005
190C3
  0
MTEXT
  5
190C4
102
{ACAD_XDICTIONARY
360
1911E
102
}
330
10FE8
100
AcDbEntity
  8
图框
100
AcDbMText
 10
951.537620286737
 20
511.9708733640202
 30
0.0
 40
1.958998408821398
 41
9.218235352747692
 46
5.530941211648832
 71
     5
 72
     5
  1
标记\P{\Fromans|c134;Mark}
 73
     1
 44
1.0
1001
AcDbBlockRepETag
1070
     1
1071
      120
1005
190C4
1001
ACAD
1000
ACAD_MTEXT_DEFINED_HEIGHT_BEGIN
1070
    46
1040
5.530941211648832
1000
ACAD_MTEXT_DEFINED_HEIGHT_END
  0
MTEXT
  5
190C5
102
{ACAD_XDICTIONARY
360
19120
102
}
330
10FE8
100
AcDbEntity
  8
图框
100
AcDbMText
 10
953.4185582897936
 20
493.4737568219182
 30
0.0
 40
2.252848170144607
 41
12.98011135886041
 46
6.292658374510382
 71
     5
 72
     5
  1
审核\P{\Fromans|c134;Checked}
 73
     1
 44
1.0
1001
AcDbBlockRepETag
1070
     1
1071
      121
1005
190C5
1001
ACAD
1000
ACAD_MTEXT_DEFINED_HEIGHT_BEGIN
1070
    46
1040
6.292658374510382
1000
ACAD_MTEXT_DEFINED_HEIGHT_END
  0
MTEXT
  5
190C6
102
{ACAD_XDICTIONARY
360
19122
102
}
330
10FE8
100
AcDbEntity
  8
图框
100
AcDbMText
 10
953.4185582897936
 20
499.8775635376777
 30
0.0
 40
2.252848170144607
 41
12.98011135886041
 46
6.070361692014189
 71
     5
 72
     5
  1
绘图\P{\Fromans|c134;Drawn\Ftxt|c134; }
 73
     1
 44
1.0
1001
AcDbBlockRepETag
1070
     1
1071
      122
1005
190C6
1001
ACAD
1000
ACAD_MTEXT_DEFINED_HEIGHT_BEGIN
1070
    46
1040
6.070361692014189
1000
ACAD_MTEXT_DEFINED_HEIGHT_END
  0
ARC
  5
190C7
330
10FE8
100
AcDbEntity
  8
图框
 62
     4
370
    35
100
AcDbCircle
 10
1086.900627017421
 20
490.0179944151195
 30
0.0
 40
4.063310408393665
100
AcDbArc
 50
18.95237904564806
 51
161.0476209543519
1001
AcDbBlockRepETag
1070
     1
1071
      123
1005
190C7
  0
ARC
  5
190C8
330
10FE8
100
AcDbEntity
  8
图框
 62
     4
370
    35
100
AcDbCircle
 10
1086.900627017421
 20
490.0179944151195
 30
0.0
 40
4.063310408393665
100
AcDbArc
 50
198.952379045648
 51
341.0476209543519
1001
AcDbBlockRepETag
1070
     1
1071
      124
1005
190C8
  0
LINE
  5
190C9
330
10FE8
100
AcDbEntity
  8
图框
 62
     4
370
    35
100
AcDbLine
 10
1083.057593369548
 20
488.6983035966752
 30
0.0
 11
1090.74366066529
 21
488.6983035966752
 31
0.0
1001
AcDbBlockRepETag
1070
     1
1071
      125
1005
190C9
  0
LINE
  5
190CA
330
10FE8
100
AcDbEntity
  8
图框
 62
     4
370
    35
100
AcDbLine
 10
1083.057593369548
 20
491.3376852335652
 30
0.0
 11
1090.74366066529
 21
491.3376852335652
 31
0.0
1001
AcDbBlockRepETag
1070
     1
1071
      126
1005
190CA
  0
MTEXT
  5
190CB
330
10FE8
100
AcDbEntity
  8
图框
 62
     1
370
    20
100
AcDbMText
 10
1083.034582879669
 20
491.0506288081688
 30
0.0
 40
2.005930044038334
 41
5.047240019334847
 46
0.0
 71
     1
 72
     5
  1
{\fArial|b0|i0|c0|p34;W}
  7
Chinese
 73
     1
 44
1.0
1001
AcDbBlockRepETag
1070
     1
1071
      127
1005
190CB
  0
LINE
  5
190CC
330
10FE8
100
AcDbEntity
  8
图框
370
    -3
100
AcDbLine
 10
946.9285026103634
 20
490.327427634663
 30
0.0
 11
1036.653967466372
 21
490.327427634663
 31
0.0
1001
AcDbBlockRepETag
1070
     1
1071
      128
1005
190CC
  0
LINE
  5
190CD
330
10FE8
100
AcDbEntity
  8
图框
370
    -3
100
AcDbLine
 10
959.9086139692238
 20
509.2054027581959
 30
0.0
 11
959.9086139692238
 21
484.0347692601515
 31
0.0
1001
AcDbBlockRepETag
1070
     1
1071
      129
1005
190CD
  0
MTEXT
  5
190CE
330
10FE8
100
AcDbEntity
  8
图框
100
AcDbMText
 10
967.6594956750129
 20
506.0590735709403
 30
0.0
 40
2.252848170144607
 41
15.50176341157869
 46
6.292658374511246
 71
     5
 72
     5
  1
姓名{\Fromans|c134;/Name\Ftxt|c134; }
 73
     1
 44
1.0
1001
AcDbBlockRepETag
1070
     1
1071
      130
1005
190CE
1001
ACAD
1000
ACAD_MTEXT_DEFINED_HEIGHT_BEGIN
1070
    46
1040
6.292658374511246
1000
ACAD_MTEXT_DEFINED_HEIGHT_END
  0
MTEXT
  5
190CF
330
10FE8
100
AcDbEntity
  8
图框
100
AcDbMText
 10
983.0415693332477
 20
506.0590735709403
 30
0.0
 40
2.252848170144607
 41
15.26238390489042
 46
6.2926583745112
 71
     5
 72
     5
  1
日期{\Fromans|c134;/Date}
 73
     1
 44
1.0
1001
AcDbBlockRepETag
1070
     1
1071
      131
1005
190CF
1001
ACAD
1000
ACAD_MTEXT_DEFINED_HEIGHT_BEGIN
1070
    46
1040
6.2926583745112
1000
ACAD_MTEXT_DEFINED_HEIGHT_END
  0
LINE
  5
190D0
330
10FE8
100
AcDbEntity
  8
图框
370
    -3
100
AcDbLine
 10
946.9285026103634
 20
509.2054027581959
 30
0.0
 11
959.9086139692238
 21
502.9127443836848
 31
0.0
1001
AcDbBlockRepETag
1070
     1
1071
      132
1005
190D0
  0
MTEXT
  5
190D1
330
10FE8
100
AcDbEntity
  8
图框
100
AcDbMText
 10
1012.931405110086
 20
506.0185715840725
 30
0.0
 40
2.252848170144607
 41
16.93492221063566
 46
0.0
 71
     5
 72
     5
  1
姓名{\Fromans|c134;/Name}
 73
     1
 44
1.0
1001
AcDbBlockRepETag
1070
     1
1071
      133
1005
190D1
  0
MTEXT
  5
190D2
330
10FE8
100
AcDbEntity
  8
图框
100
AcDbMText
 10
1028.977802139886
 20
506.0590735709403
 30
0.0
 40
2.252848170144607
 41
15.35233065297283
 46
6.292658374511256
 71
     5
 72
     5
  1
日期{\Fromans|c134;/Date}
 73
     1
 44
1.0
1001
AcDbBlockRepETag
1070
     1
1071
      134
1005
190D2
1001
ACAD
1000
ACAD_MTEXT_DEFINED_HEIGHT_BEGIN
1070
    46
1040
6.292658374511256
1000
ACAD_MTEXT_DEFINED_HEIGHT_END
  0
LINE
  5
190D3
330
10FE8
100
AcDbEntity
  8
图框
370
    -3
100
AcDbLine
 10
1003.652872644553
 20
502.9127443836848
 30
0.0
 11
990.6727612856927
 21
509.2054027581959
 31
0.0
1001
AcDbBlockRepETag
1070
     1
1071
      135
1005
190D3
  0
MTEXT
  5
190D4
102
{ACAD_XDICTIONARY
360
19124
102
}
330
10FE8
100
AcDbEntity
  8
图框
100
AcDbMText
 10
997.1628169651232
 20
487.1810984474071
 30
0.0
 40
2.252848170144607
 41
12.98011135886052
 46
6.292658374511517
 71
     5
 72
     5
  1
批准\P{\Fromans|c134;Approved}
 73
     1
 44
1.0
1001
AcDbBlockRepETag
1070
     1
1071
      136
1005
190D4
1001
ACAD
1000
ACAD_MTEXT_DEFINED_HEIGHT_BEGIN
1070
    46
1040
6.292658374511517
1000
ACAD_MTEXT_DEFINED_HEIGHT_END
  0
MTEXT
  5
190D5
102
{ACAD_XDICTIONARY
360
19126
102
}
330
10FE8
100
AcDbEntity
  8
图框
100
AcDbMText
 10
953.4185582897936
 20
487.1810984474071
 30
0.0
 40
2.252848170144607
 41
12.98011135886041
 46
6.292658374511495
 71
     5
 72
     5
  1
工艺\P{\Fromans|c134;Process}
 73
     1
 44
1.0
1001
AcDbBlockRepETag
1070
     1
1071
      137
1005
190D5
1001
ACAD
1000
ACAD_MTEXT_DEFINED_HEIGHT_BEGIN
1070
    46
1040
6.292658374511495
1000
ACAD_MTEXT_DEFINED_HEIGHT_END
  0
MTEXT
  5
190D6
102
{ACAD_XDICTIONARY
360
19128
102
}
330
10FE8
100
AcDbEntity
  8
图框
100
AcDbMText
 10
1028.977802139886
 20
511.9708733640202
 30
0.0
 40
1.958998408821398
 41
15.3523306529728
 46
5.530941211648912
 71
     5
 72
     5
  1
日期\P{\Fromans|c134;Date}
 73
     1
 44
1.0
1001
AcDbBlockRepETag
1070
     1
1071
      138
1005
190D6
1001
ACAD
1000
ACAD_MTEXT_DEFINED_HEIGHT_BEGIN
1070
    46
1040
5.530941211648912
1000
ACAD_MTEXT_DEFINED_HEIGHT_END
  0
MTEXT
  5
190D7
330
10FE8
100
AcDbEntity
  8
图框
100
AcDbMText
 10
1086.643735910939
 20
509.1493769780809
 30
0.0
 40
2.154898249703542
 41
13.34474941400573
 46
8.87215554796615
 71
     5
 72
     5
  1
产品料号\P{\Fromans|c134;Part No.}
 73
     1
 44
1.0
1001
AcDbBlockRepETag
1070
     1
1071
      139
1005
190D7
1001
ACAD
1000
ACAD_MTEXT_DEFINED_HEIGHT_BEGIN
1070
    46
1040
8.87215554796615
1000
ACAD_MTEXT_DEFINED_HEIGHT_END
  0
MTEXT
  5
190D8
330
10FE8
100
AcDbEntity
  8
图框
100
AcDbMText
 10
1086.643735910939
 20
500.2775205517163
 30
0.0
 40
1.958998408821398
 41
13.34474941400573
 46
8.871557304763321
 71
     5
 72
     5
  1
产品名称\P{\Fromans|c134;Part Name}
 73
     1
 44
1.0
1001
AcDbBlockRepETag
1070
     1
1071
      140
1005
190D8
1001
ACAD
1000
ACAD_MTEXT_DEFINED_HEIGHT_BEGIN
1070
    46
1040
8.871557304763321
1000
ACAD_MTEXT_DEFINED_HEIGHT_END
  0
LINE
  5
190D9
330
10FE8
100
AcDbEntity
  8
图框
 62
     1
370
    18
100
AcDbLine
 10
833.4128518455365
 20
690.5347692601515
 30
0.0
 11
833.4128518455365
 21
480.5347692601515
 31
0.0
1001
AcDbBlockRepETag
1070
     1
1071
      141
1005
190D9
  0
LINE
  5
190DA
330
10FE8
100
AcDbEntity
  8
图框
 62
     1
370
    18
100
AcDbLine
 10
833.4128518455365
 20
480.5347692601515
 30
0.0
 11
1130.411601781236
 21
480.5347692601515
 31
0.0
1001
AcDbBlockRepETag
1070
     1
1071
      142
1005
190DA
  0
LINE
  5
190DB
330
10FE8
100
AcDbEntity
  8
图框
 62
     1
370
    18
100
AcDbLine
 10
833.4128518455365
 20
690.5347692601515
 30
0.0
 11
1130.411601781236
 21
690.5347692601515
 31
0.0
1001
AcDbBlockRepETag
1070
     1
1071
      143
1005
190DB
  0
LINE
  5
190DC
330
10FE8
100
AcDbEntity
  8
图框
 62
     1
370
    18
100
AcDbLine
 10
1130.411601781236
 20
480.5347692601515
 30
0.0
 11
1130.411601781236
 21
690.5347692601515
 31
0.0
1001
AcDbBlockRepETag
1070
     1
1071
      144
1005
190DC
  0
LINE
  5
190DD
330
10FE8
100
AcDbEntity
  8
图框
370
    18
100
AcDbLine
 10
836.9128518455394
 20
686.7901958362482
 30
0.0
 11
861.5351874539182
 21
686.7901958362482
 31
0.0
1001
AcDbBlockRepETag
1070
     1
1071
      145
1005
190DD
  0
LINE
  5
190DE
330
10FE8
100
AcDbEntity
  8
图框
370
    50
100
AcDbLine
 10
1126.928502610363
 20
484.3410054693078
 30
0.0
 11
1126.928502610363
 21
675.5347692601515
 31
0.0
1001
AcDbBlockRepETag
1070
     1
1071
      146
1005
190DE
  0
MTEXT
  5
190DF
330
10FE8
100
AcDbEntity
  8
图框
 62
     3
100
AcDbMText
 10
1052.897990117958
 20
495.8417418993364
 30
0.0
 40
2.985513575034151
 41
10.82934843439114
 46
7.886094601211307
 71
     5
 72
     5
  1
V1.1
  7
Romans字体
 73
     1
 44
1.0
1001
AcDbBlockRepETag
1070
     1
1071
      147
1005
190DF
1001
ACAD
1000
ACAD_MTEXT_DEFINED_HEIGHT_BEGIN
1070
    46
1040
7.886094601211307
1000
ACAD_MTEXT_DEFINED_HEIGHT_END
  0
LINE
  5
190E0
330
10FE8
100
AcDbEntity
  8
图框
 62
     6
100
AcDbLine
 10
1126.911601781236
 20
531.714049199969
 30
0.0
 11
1130.411601781236
 21
531.714049199969
 31
0.0
1001
AcDbBlockRepETag
1070
     1
1071
      148
1005
190E0
  0
ENDBLK
  5
1107F
330
10FE8
100
AcDbEntity
  8
0
100
AcDbBlockEnd
  0
BLOCK
  5
1889E
330
1889D
100
AcDbEntity
  8
0
100
AcDbBlockBegin
  2
*X39
 70
     1
 10
0.0
 20
0.0
 30
0.0
  3
*X39
  1

  0
LINE
  5
1889F
330
1889D
100
AcDbEntity
  8
5
  6
Continuous
 62
     1
100
AcDbLine
 10
-1.021841699999997
 20
-1.021841699999997
 30
0.0
 11
1.021841699999997
 21
1.021841699999997
 31
0.0
  0
LINE
  5
188A0
330
1889D
100
AcDbEntity
  8
5
  6
Continuous
 62
     1
100
AcDbLine
 10
-2.186845499999999
 20
-0.065525109
 30
0.0
 11
0.097071102
 21
2.218391399999998
 31
0.0
  0
LINE
  5
188A1
330
1889D
100
AcDbEntity
  8
5
  6
Continuous
 62
     1
100
AcDbLine
 10
-4.308165799999998
 20
-0.065525109
 30
0.0
 11
-1.5581658
 21
2.6844749
 31
0.0
  0
LINE
  5
188A2
330
1889D
100
AcDbEntity
  8
5
  6
Continuous
 62
     1
100
AcDbLine
 10
-6.4294861
 20
-0.065525109
 30
0.0
 11
-3.6794861
 21
2.6844749
 31
0.0
  0
LINE
  5
188A3
330
1889D
100
AcDbEntity
  8
5
  6
Continuous
 62
     1
100
AcDbLine
 10
-8.5508065
 20
-0.065525109
 30
0.0
 11
-5.8008065
 21
2.6844749
 31
0.0
  0
LINE
  5
188A4
330
1889D
100
AcDbEntity
  8
5
  6
Continuous
 62
     1
100
AcDbLine
 10
-10.672127
 20
-0.065525109
 30
0.0
 11
-7.9221268
 21
2.6844749
 31
0.0
  0
LINE
  5
188A5
330
1889D
100
AcDbEntity
  8
5
  6
Continuous
 62
     1
100
AcDbLine
 10
-12.793447
 20
-0.065525109
 30
0.0
 11
-10.043447
 21
2.6844749
 31
0.0
  0
LINE
  5
188A6
330
1889D
100
AcDbEntity
  8
5
  6
Continuous
 62
     1
100
AcDbLine
 10
-14.914768
 20
-0.065525109
 30
0.0
 11
-12.164768
 21
2.6844749
 31
0.0
  0
LINE
  5
188A7
330
1889D
100
AcDbEntity
  8
5
  6
Continuous
 62
     1
100
AcDbLine
 10
-17.036088
 20
-0.065525109
 30
0.0
 11
-14.286088
 21
2.6844749
 31
0.0
  0
LINE
  5
188A8
330
1889D
100
AcDbEntity
  8
5
  6
Continuous
 62
     1
100
AcDbLine
 10
-0.78608786
 20
16.184475
 30
0.0
 11
1.021841699999997
 21
17.992404
 31
0.0
  0
LINE
  5
188A9
330
1889D
100
AcDbEntity
  8
5
  6
Continuous
 62
     1
100
AcDbLine
 10
-19.157408
 20
-0.065525109
 30
0.0
 11
-16.407408
 21
2.6844749
 31
0.0
  0
LINE
  5
188AA
330
1889D
100
AcDbEntity
  8
5
  6
Continuous
 62
     1
100
AcDbLine
 10
-2.907408199999998
 20
16.184475
 30
0.0
 11
0.8425917999999999
 21
19.934475
 31
0.0
  0
LINE
  5
188AB
330
1889D
100
AcDbEntity
  8
5
  6
Continuous
 62
     1
100
AcDbLine
 10
-21.278729
 20
-0.065525109
 30
0.0
 11
-18.528729
 21
2.6844749
 31
0.0
  0
LINE
  5
188AC
330
1889D
100
AcDbEntity
  8
5
  6
Continuous
 62
     1
100
AcDbLine
 10
-5.028728499999997
 20
16.184475
 30
0.0
 11
-2.2787285
 21
18.934475
 31
0.0
  0
LINE
  5
188AD
330
1889D
100
AcDbEntity
  8
5
  6
Continuous
 62
     1
100
AcDbLine
 10
-23.400049
 20
-0.065525109
 30
0.0
 11
-20.650049
 21
2.6844749
 31
0.0
  0
LINE
  5
188AE
330
1889D
100
AcDbEntity
  8
5
  6
Continuous
 62
     1
100
AcDbLine
 10
-7.150048899999998
 20
16.184475
 30
0.0
 11
-4.400048899999998
 21
18.934475
 31
0.0
  0
LINE
  5
188AF
330
1889D
100
AcDbEntity
  8
5
  6
Continuous
 62
     1
100
AcDbLine
 10
-27.021369
 20
-1.565525099999999
 30
0.0
 11
-26.978158
 21
-1.5223142
 31
0.0
  0
LINE
  5
188B0
330
1889D
100
AcDbEntity
  8
5
  6
Continuous
 62
     1
100
AcDbLine
 10
-25.521369
 20
-0.065525109
 30
0.0
 11
-22.771369
 21
2.6844749
 31
0.0
  0
LINE
  5
188B1
330
1889D
100
AcDbEntity
  8
5
  6
Continuous
 62
     1
100
AcDbLine
 10
-9.271369199999996
 20
16.184475
 30
0.0
 11
-6.521369199999997
 21
18.934475
 31
0.0
  0
LINE
  5
188B2
330
1889D
100
AcDbEntity
  8
5
  6
Continuous
 62
     1
100
AcDbLine
 10
-29.14269
 20
-1.565525099999999
 30
0.0
 11
-24.89269
 21
2.6844749
 31
0.0
  0
LINE
  5
188B3
330
1889D
100
AcDbEntity
  8
5
  6
Continuous
 62
     1
100
AcDbLine
 10
-11.39269
 20
16.184475
 30
0.0
 11
-8.642689599999997
 21
18.934475
 31
0.0
  0
LINE
  5
188B4
330
1889D
100
AcDbEntity
  8
5
  6
Continuous
 62
     1
100
AcDbLine
 10
-31.121084
 20
-1.422599299999999
 30
0.0
 11
-27.01401
 21
2.6844749
 31
0.0
  0
LINE
  5
188B5
330
1889D
100
AcDbEntity
  8
5
  6
Continuous
 62
     1
100
AcDbLine
 10
-13.51401
 20
16.184475
 30
0.0
 11
-10.76401
 21
18.934475
 31
0.0
  0
LINE
  5
188B6
330
1889D
100
AcDbEntity
  8
5
  6
Continuous
 62
     1
100
AcDbLine
 10
-31.978158
 20
-0.15835314
 30
0.0
 11
-29.13533
 21
2.6844749
 31
0.0
  0
LINE
  5
188B7
330
1889D
100
AcDbEntity
  8
5
  6
Continuous
 62
     1
100
AcDbLine
 10
-15.63533
 20
16.184475
 30
0.0
 11
-12.88533
 21
18.934475
 31
0.0
  0
LINE
  5
188B8
330
1889D
100
AcDbEntity
  8
5
  6
Continuous
 62
     1
100
AcDbLine
 10
-32.031646
 20
1.9094793
 30
0.0
 11
-30.129132
 21
3.811993799999998
 31
0.0
  0
LINE
  5
188B9
330
1889D
100
AcDbEntity
  8
5
  6
Continuous
 62
     1
100
AcDbLine
 10
-17.756651
 20
16.184475
 30
0.0
 11
-15.006651
 21
18.934475
 31
0.0
  0
LINE
  5
188BA
330
1889D
100
AcDbEntity
  8
5
  6
Continuous
 62
     1
100
AcDbLine
 10
-33.877971
 20
2.1844749
 30
0.0
 11
-30.905589
 21
5.156856999999996
 31
0.0
  0
LINE
  5
188BB
330
1889D
100
AcDbEntity
  8
5
  6
Continuous
 62
     1
100
AcDbLine
 10
-19.877971
 20
16.184475
 30
0.0
 11
-17.127971
 21
18.934475
 31
0.0
  0
LINE
  5
188BC
330
1889D
100
AcDbEntity
  8
5
  6
Continuous
 62
     1
100
AcDbLine
 10
-34.912962
 20
3.2708039
 30
0.0
 11
-31.68204600000001
 21
6.501720299999997
 31
0.0
  0
LINE
  5
188BD
330
1889D
100
AcDbEntity
  8
5
  6
Continuous
 62
     1
100
AcDbLine
 10
-21.999291
 20
16.184475
 30
0.0
 11
-19.249291
 21
18.934475
 31
0.0
  0
LINE
  5
188BE
330
1889D
100
AcDbEntity
  8
5
  6
Continuous
 62
     1
100
AcDbLine
 10
-34.912962
 20
5.392124199999997
 30
0.0
 11
-32.458503
 21
7.8465835
 31
0.0
  0
LINE
  5
188BF
330
1889D
100
AcDbEntity
  8
5
  6
Continuous
 62
     1
100
AcDbLine
 10
-24.120612
 20
16.184475
 30
0.0
 11
-21.370612
 21
18.934475
 31
0.0
  0
LINE
  5
188C0
330
1889D
100
AcDbEntity
  8
5
  6
Continuous
 62
     1
100
AcDbLine
 10
-34.912962
 20
7.513444599999997
 30
0.0
 11
-33.23496
 21
9.191446699999998
 31
0.0
  0
LINE
  5
188C1
330
1889D
100
AcDbEntity
  8
5
  6
Continuous
 62
     1
100
AcDbLine
 10
-26.24193200000001
 20
16.184475
 30
0.0
 11
-23.491932
 21
18.934475
 31
0.0
  0
LINE
  5
188C2
330
1889D
100
AcDbEntity
  8
5
  6
Continuous
 62
     1
100
AcDbLine
 10
-34.912962
 20
9.6347649
 30
0.0
 11
-31.001148
 21
13.546579
 31
0.0
  0
LINE
  5
188C3
330
1889D
100
AcDbEntity
  8
5
  6
Continuous
 62
     1
100
AcDbLine
 10
-28.363252
 20
16.184475
 30
0.0
 11
-25.613252
 21
18.934475
 31
0.0
  0
LINE
  5
188C4
330
1889D
100
AcDbEntity
  8
5
  6
Continuous
 62
     1
100
AcDbLine
 10
-34.912962
 20
11.756085
 30
0.0
 11
-26.978158
 21
19.690889
 31
0.0
  0
LINE
  5
188C5
330
1889D
100
AcDbEntity
  8
5
  6
Continuous
 62
     1
100
AcDbLine
 10
-34.912962
 20
13.877406
 30
0.0
 11
-28.355893
 21
20.434475
 31
0.0
  0
LINE
  5
188C6
330
1889D
100
AcDbEntity
  8
5
  6
Continuous
 62
     1
100
AcDbLine
 10
-34.912962
 20
15.998726
 30
0.0
 11
-34.227213
 21
16.684475
 31
0.0
  0
LINE
  5
188C7
330
1889D
100
AcDbEntity
  8
5
  6
Continuous
 62
     1
100
AcDbLine
 10
-31.978158
 20
18.93353
 30
0.0
 11
-30.477213
 21
20.434475
 31
0.0
  0
ENDBLK
  5
188C8
330
1889D
100
AcDbEntity
  8
0
100
AcDbBlockEnd
  0
BLOCK
  5
18BCB
330
18BCA
100
AcDbEntity
  8
0
100
AcDbBlockBegin
  2
*D47
 70
     1
 10
0.0
 20
0.0
 30
0.0
  3
*D47
  1

  0
LINE
  5
18C8A
330
18BCA
100
AcDbEntity
  8
DIM
 62
     6
370
    -2
100
AcDbLine
 10
471.2151843191064
 20
275.4472547320409
 30
0.0
 11
479.4079143191066
 21
275.4472547320409
 31
0.0
  0
LINE
  5
18C8B
330
18BCA
100
AcDbEntity
  8
DIM
 62
     6
370
    -2
100
AcDbLine
 10
471.2151843191064
 20
261.9472547320409
 30
0.0
 11
479.4079143191066
 21
261.9472547320409
 31
0.0
  0
LINE
  5
18C8C
330
18BCA
100
AcDbEntity
  8
DIM
 62
     1
370
    -2
100
AcDbLine
 10
478.9079143191067
 20
272.4472547320409
 30
0.0
 11
478.9079143191067
 21
264.9472547320409
 31
0.0
  0
SOLID
  5
18C8D
330
18BCA
100
AcDbEntity
  8
DIM
 62
     1
100
AcDbTrace
 10
478.4079143191068
 20
272.4472547320409
 30
0.0
 11
479.4079143191066
 21
272.4472547320409
 31
0.0
 12
478.9079143191067
 22
275.4472547320409
 32
0.0
 13
478.9079143191067
 23
275.4472547320409
 33
0.0
  0
SOLID
  5
18C8E
330
18BCA
100
AcDbEntity
  8
DIM
 62
     1
100
AcDbTrace
 10
478.4079143191068
 20
264.9472547320409
 30
0.0
 11
479.4079143191066
 21
264.9472547320409
 31
0.0
 12
478.9079143191067
 22
261.9472547320409
 32
0.0
 13
478.9079143191067
 23
261.9472547320409
 33
0.0
  0
MTEXT
  5
18C8F
330
18BCA
100
AcDbEntity
  8
DIM
 62
     4
100
AcDbMText
 10
476.6579143191068
 20
268.6972547320416
 30
0.0
 40
3.5
 41
0.0
 46
0.0
 71
     5
 72
     1
  1
\A1;%%C13.5 
  7
Romans字体
 11
0.0000000000000001
 21
1.0
 31
0.0
 73
     1
 44
1.0
  0
POINT
  5
18C90
330
18BCA
100
AcDbEntity
  8
Defpoints
 62
     0
100
AcDbPoint
 10
471.0151843191063
 20
275.4472547320409
 30
0.0
  0
POINT
  5
18C91
330
18BCA
100
AcDbEntity
  8
Defpoints
 62
     0
100
AcDbPoint
 10
471.0151843191063
 20
261.9472547320409
 30
0.0
  0
POINT
  5
18C92
330
18BCA
100
AcDbEntity
  8
Defpoints
 62
     0
100
AcDbPoint
 10
478.9079143191067
 20
261.9472547320409
 30
0.0
  0
ENDBLK
  5
18BCC
330
18BCA
100
AcDbEntity
  8
0
100
AcDbBlockEnd
  0
BLOCK
  5
18BD7
330
18BD6
100
AcDbEntity
  8
0
100
AcDbBlockBegin
  2
*D48
 70
     1
 10
0.0
 20
0.0
 30
0.0
  3
*D48
  1

  0
LINE
  5
18C93
330
18BD6
100
AcDbEntity
  8
DIM
 62
     6
370
    -2
100
AcDbLine
 10
418.5472543191062
 20
275.9472547320409
 30
0.0
 11
406.6479943191064
 21
275.9472547320409
 31
0.0
  0
LINE
  5
18C94
330
18BD6
100
AcDbEntity
  8
DIM
 62
     6
370
    -2
100
AcDbLine
 10
418.5472543191062
 20
261.4472547320409
 30
0.0
 11
406.6479943191064
 21
261.4472547320409
 31
0.0
  0
LINE
  5
18C95
330
18BD6
100
AcDbEntity
  8
DIM
 62
     1
370
    -2
100
AcDbLine
 10
407.1479943191063
 20
264.4472547320409
 30
0.0
 11
407.1479943191063
 21
272.9472547320409
 31
0.0
  0
LINE
  5
18C96
330
18BD6
100
AcDbEntity
  8
DIM
 62
     1
370
    -2
100
AcDbLine
 10
407.1479943191063
 20
275.9472547320409
 30
0.0
 11
407.1479943191063
 21
295.7236727143283
 31
0.0
  0
SOLID
  5
18C97
330
18BD6
100
AcDbEntity
  8
DIM
 62
     1
100
AcDbTrace
 10
406.6479943191064
 20
264.4472547320409
 30
0.0
 11
407.6479943191062
 21
264.4472547320409
 31
0.0
 12
407.1479943191063
 22
261.4472547320409
 32
0.0
 13
407.1479943191063
 23
261.4472547320409
 33
0.0
  0
SOLID
  5
18C98
330
18BD6
100
AcDbEntity
  8
DIM
 62
     1
100
AcDbTrace
 10
406.6479943191064
 20
272.9472547320409
 30
0.0
 11
407.6479943191062
 21
272.9472547320409
 31
0.0
 12
407.1479943191063
 22
275.9472547320409
 32
0.0
 13
407.1479943191063
 23
275.9472547320409
 33
0.0
  0
MTEXT
  5
18C99
330
18BD6
100
AcDbEntity
  8
DIM
 62
     4
100
AcDbMText
 10
404.8979943191064
 20
290.0361727143284
 30
0.0
 40
3.5
 41
0.0
 46
0.0
 71
     5
 72
     1
  1
\A1;%%C14.5
  7
Romans字体
 11
0.0000000000000001
 21
1.0
 31
0.0
 73
     1
 44
1.0
  0
POINT
  5
18C9A
330
18BD6
100
AcDbEntity
  8
Defpoints
 62
     0
100
AcDbPoint
 10
418.7472543191064
 20
275.9472547320409
 30
0.0
  0
POINT
  5
18C9B
330
18BD6
100
AcDbEntity
  8
Defpoints
 62
     0
100
AcDbPoint
 10
418.7472543191064
 20
261.4472547320409
 30
0.0
  0
POINT
  5
18C9C
330
18BD6
100
AcDbEntity
  8
Defpoints
 62
     0
100
AcDbPoint
 10
407.1479943191063
 20
261.4472547320409
 30
0.0
  0
ENDBLK
  5
18BD8
330
18BD6
100
AcDbEntity
  8
0
100
AcDbBlockEnd
  0
BLOCK
  5
18BE4
330
18BE3
100
AcDbEntity
  8
0
100
AcDbBlockBegin
  2
*D49
 70
     1
 10
0.0
 20
0.0
 30
0.0
  3
*D49
  1

  0
LINE
  5
18C9D
330
18BE3
100
AcDbEntity
  8
DIM
 62
     6
370
    -2
100
AcDbLine
 10
472.9472343191068
 20
279.1972547320409
 30
0.0
 11
484.8378143191061
 21
279.1972547320409
 31
0.0
  0
LINE
  5
18C9E
330
18BE3
100
AcDbEntity
  8
DIM
 62
     6
370
    -2
100
AcDbLine
 10
470.9472343191069
 20
258.1972547320409
 30
0.0
 11
484.8378143191061
 21
258.1972547320409
 31
0.0
  0
LINE
  5
18C9F
330
18BE3
100
AcDbEntity
  8
DIM
 62
     1
370
    -2
100
AcDbLine
 10
484.3378143191061
 20
276.1972547320409
 30
0.0
 11
484.3378143191061
 21
261.1972547320409
 31
0.0
  0
SOLID
  5
18CA0
330
18BE3
100
AcDbEntity
  8
DIM
 62
     1
100
AcDbTrace
 10
483.8378143191061
 20
276.1972547320409
 30
0.0
 11
484.8378143191061
 21
276.1972547320409
 31
0.0
 12
484.3378143191061
 22
279.1972547320409
 32
0.0
 13
484.3378143191061
 23
279.1972547320409
 33
0.0
  0
SOLID
  5
18CA1
330
18BE3
100
AcDbEntity
  8
DIM
 62
     1
100
AcDbTrace
 10
483.8378143191061
 20
261.1972547320409
 30
0.0
 11
484.8378143191061
 21
261.1972547320409
 31
0.0
 12
484.3378143191061
 22
258.1972547320409
 32
0.0
 13
484.3378143191061
 23
258.1972547320409
 33
0.0
  0
MTEXT
  5
18CA2
330
18BE3
100
AcDbEntity
  8
DIM
 62
     4
100
AcDbMText
 10
482.0878143191061
 20
268.6972547320409
 30
0.0
 40
3.5
 41
0.0
 46
0.0
 71
     5
 72
     1
  1
\A1;%%C21
  7
Romans字体
 11
0.0000000000000001
 21
1.0
 31
0.0
 73
     1
 44
1.0
  0
POINT
  5
18CA3
330
18BE3
100
AcDbEntity
  8
Defpoints
 62
     0
100
AcDbPoint
 10
472.7472343191069
 20
279.1972547320409
 30
0.0
  0
POINT
  5
18CA4
330
18BE3
100
AcDbEntity
  8
Defpoints
 62
     0
100
AcDbPoint
 10
470.7472343191069
 20
258.1972547320409
 30
0.0
  0
POINT
  5
18CA5
330
18BE3
100
AcDbEntity
  8
Defpoints
 62
     0
100
AcDbPoint
 10
484.3378143191061
 20
258.1972547320409
 30
0.0
  0
ENDBLK
  5
18BE5
330
18BE3
100
AcDbEntity
  8
0
100
AcDbBlockEnd
  0
BLOCK
  5
18BF0
330
18BEF
100
AcDbEntity
  8
0
100
AcDbBlockBegin
  2
*D50
 70
     1
 10
0.0
 20
0.0
 30
0.0
  3
*D50
  1

  0
LINE
  5
18CA6
330
18BEF
100
AcDbEntity
  8
DIM
 62
     6
370
    -2
100
AcDbLine
 10
440.5472343191068
 20
279.6972547320409
 30
0.0
 11
401.4310243191061
 21
279.6972547320409
 31
0.0
  0
LINE
  5
18CA7
330
18BEF
100
AcDbEntity
  8
DIM
 62
     6
370
    -2
100
AcDbLine
 10
444.5472343191068
 20
257.6972547320409
 30
0.0
 11
401.4310243191061
 21
257.6972547320409
 31
0.0
  0
LINE
  5
18CA8
330
18BEF
100
AcDbEntity
  8
DIM
 62
     1
370
    -2
100
AcDbLine
 10
401.9310243191061
 20
276.6972547320409
 30
0.0
 11
401.9310243191061
 21
260.6972547320409
 31
0.0
  0
SOLID
  5
18CA9
330
18BEF
100
AcDbEntity
  8
DIM
 62
     1
100
AcDbTrace
 10
401.4310243191061
 20
276.6972547320409
 30
0.0
 11
402.431024319106
 21
276.6972547320409
 31
0.0
 12
401.9310243191061
 22
279.6972547320409
 32
0.0
 13
401.9310243191061
 23
279.6972547320409
 33
0.0
  0
SOLID
  5
18CAA
330
18BEF
100
AcDbEntity
  8
DIM
 62
     1
100
AcDbTrace
 10
401.4310243191061
 20
260.6972547320409
 30
0.0
 11
402.431024319106
 21
260.6972547320409
 31
0.0
 12
401.9310243191061
 22
257.6972547320409
 32
0.0
 13
401.9310243191061
 23
257.6972547320409
 33
0.0
  0
MTEXT
  5
18CAB
330
18BEF
100
AcDbEntity
  8
DIM
 62
     4
100
AcDbMText
 10
399.6810243191061
 20
268.6972547320409
 30
0.0
 40
3.5
 41
0.0
 46
0.0
 71
     5
 72
     1
  1
\A1;%%C22
  7
Romans字体
 11
0.0000000000000001
 21
1.0
 31
0.0
 73
     1
 44
1.0
  0
POINT
  5
18CAC
330
18BEF
100
AcDbEntity
  8
Defpoints
 62
     0
100
AcDbPoint
 10
440.7472343191066
 20
279.6972547320409
 30
0.0
  0
POINT
  5
18CAD
330
18BEF
100
AcDbEntity
  8
Defpoints
 62
     0
100
AcDbPoint
 10
444.7472343191066
 20
257.6972547320409
 30
0.0
  0
POINT
  5
18CAE
330
18BEF
100
AcDbEntity
  8
Defpoints
 62
     0
100
AcDbPoint
 10
401.9310243191061
 20
257.6972547320409
 30
0.0
  0
ENDBLK
  5
18BF1
330
18BEF
100
AcDbEntity
  8
0
100
AcDbBlockEnd
  0
BLOCK
  5
18BFC
330
18BFB
100
AcDbEntity
  8
0
100
AcDbBlockBegin
  2
*D51
 70
     1
 10
0.0
 20
0.0
 30
0.0
  3
*D51
  1

  0
LINE
  5
18D88
330
18BFB
100
AcDbEntity
  8
DIM
 62
     6
370
    -2
100
AcDbLine
 10
472.7472343191069
 20
260.7472547320409
 30
0.0
 11
472.7472343191069
 21
250.2707520612212
 31
0.0
  0
LINE
  5
18D89
330
18BFB
100
AcDbEntity
  8
DIM
 62
     6
370
    -2
100
AcDbLine
 10
442.2472343191069
 20
261.7472547320409
 30
0.0
 11
442.2472343191069
 21
250.2707520612212
 31
0.0
  0
LINE
  5
18D8A
330
18BFB
100
AcDbEntity
  8
DIM
 62
     1
370
    -2
100
AcDbLine
 10
469.7472343191068
 20
250.7707520612212
 30
0.0
 11
445.2472343191068
 21
250.7707520612212
 31
0.0
  0
SOLID
  5
18D8B
330
18BFB
100
AcDbEntity
  8
DIM
 62
     1
100
AcDbTrace
 10
469.7472343191068
 20
251.2707520612212
 30
0.0
 11
469.7472343191068
 21
250.2707520612212
 31
0.0
 12
472.7472343191069
 22
250.7707520612212
 32
0.0
 13
472.7472343191069
 23
250.7707520612212
 33
0.0
  0
SOLID
  5
18D8C
330
18BFB
100
AcDbEntity
  8
DIM
 62
     1
100
AcDbTrace
 10
445.2472343191068
 20
251.2707520612212
 30
0.0
 11
445.2472343191068
 21
250.2707520612212
 31
0.0
 12
442.2472343191069
 22
250.7707520612212
 32
0.0
 13
442.2472343191069
 23
250.7707520612212
 33
0.0
  0
MTEXT
  5
18D8D
330
18BFB
100
AcDbEntity
  8
DIM
 62
     4
100
AcDbMText
 10
457.497234319107
 20
253.0207520612212
 30
0.0
 40
3.5
 41
0.0
 46
0.0
 71
     5
 72
     1
  1
\A1;30.5
  7
Romans字体
 73
     1
 44
1.0
  0
POINT
  5
18D8E
330
18BFB
100
AcDbEntity
  8
Defpoints
 62
     0
100
AcDbPoint
 10
472.7472343191069
 20
260.9472547320409
 30
0.0
  0
POINT
  5
18D8F
330
18BFB
100
AcDbEntity
  8
Defpoints
 62
     0
100
AcDbPoint
 10
442.2472343191069
 20
261.9472547320409
 30
0.0
  0
POINT
  5
18D90
330
18BFB
100
AcDbEntity
  8
Defpoints
 62
     0
100
AcDbPoint
 10
442.2472343191069
 20
250.7707520612212
 30
0.0
  0
ENDBLK
  5
18BFD
330
18BFB
100
AcDbEntity
  8
0
100
AcDbBlockEnd
  0
BLOCK
  5
18C08
330
18C07
100
AcDbEntity
  8
0
100
AcDbBlockBegin
  2
*D52
 70
     1
 10
0.0
 20
0.0
 30
0.0
  3
*D52
  1

  0
LINE
  5
18D91
330
18C07
100
AcDbEntity
  8
DIM
 62
     6
370
    -2
100
AcDbLine
 10
472.7472343191069
 20
260.7472547320409
 30
0.0
 11
472.7472343191069
 21
244.3658157587476
 31
0.0
  0
LINE
  5
18D92
330
18C07
100
AcDbEntity
  8
DIM
 62
     6
370
    -2
100
AcDbLine
 10
412.7472343191069
 20
263.2472547320409
 30
0.0
 11
412.7472343191069
 21
244.3658157587476
 31
0.0
  0
LINE
  5
18D93
330
18C07
100
AcDbEntity
  8
DIM
 62
     1
370
    -2
100
AcDbLine
 10
469.7472343191068
 20
244.8658157587477
 30
0.0
 11
415.7472343191068
 21
244.8658157587477
 31
0.0
  0
SOLID
  5
18D94
330
18C07
100
AcDbEntity
  8
DIM
 62
     1
100
AcDbTrace
 10
469.7472343191068
 20
245.3658157587477
 30
0.0
 11
469.7472343191068
 21
244.3658157587476
 31
0.0
 12
472.7472343191069
 22
244.8658157587477
 32
0.0
 13
472.7472343191069
 23
244.8658157587477
 33
0.0
  0
SOLID
  5
18D95
330
18C07
100
AcDbEntity
  8
DIM
 62
     1
100
AcDbTrace
 10
415.7472343191068
 20
245.3658157587477
 30
0.0
 11
415.7472343191068
 21
244.3658157587476
 31
0.0
 12
412.7472343191069
 22
244.8658157587477
 32
0.0
 13
412.7472343191069
 23
244.8658157587477
 33
0.0
  0
MTEXT
  5
18D96
330
18C07
100
AcDbEntity
  8
DIM
 62
     4
100
AcDbMText
 10
443.9725905261028
 20
247.1158157587477
 30
0.0
 40
3.5
 41
0.0
 46
0.0
 71
     5
 72
     1
  1
\A1;60
  7
Romans字体
 73
     1
 44
1.0
  0
POINT
  5
18D97
330
18C07
100
AcDbEntity
  8
Defpoints
 62
     0
100
AcDbPoint
 10
472.7472343191069
 20
260.9472547320409
 30
0.0
  0
POINT
  5
18D98
330
18C07
100
AcDbEntity
  8
Defpoints
 62
     0
100
AcDbPoint
 10
412.7472343191069
 20
263.4472547320409
 30
0.0
  0
POINT
  5
18D99
330
18C07
100
AcDbEntity
  8
Defpoints
 62
     0
100
AcDbPoint
 10
412.7472343191069
 20
244.8658157587477
 30
0.0
  0
ENDBLK
  5
18C09
330
18C07
100
AcDbEntity
  8
0
100
AcDbBlockEnd
  0
BLOCK
  5
18E17
330
18E16
100
AcDbEntity
  8
0
100
AcDbBlockBegin
  2
*D54
 70
     1
 10
0.0
 20
0.0
 30
0.0
  3
*D54
  1

  0
LINE
  5
18E2C
330
18E16
100
AcDbEntity
  8
0
 62
     6
370
    -2
100
AcDbLine
 10
458.7319524281065
 20
259.1972547320409
 30
0.0
 11
457.3720917280218
 21
259.1972547320409
 31
0.0
  0
LINE
  5
18E2D
330
18E16
100
AcDbEntity
  8
0
 62
     6
370
    -2
100
AcDbLine
 10
458.7319524281065
 20
278.1972547320409
 30
0.0
 11
457.3720917280218
 21
278.1972547320409
 31
0.0
  0
LINE
  5
18E2E
330
18E16
100
AcDbEntity
  8
0
 62
     1
370
    -2
100
AcDbLine
 10
457.872091728022
 20
262.1972547320408
 30
0.0
 11
457.872091728022
 21
275.1972547320408
 31
0.0
  0
LINE
  5
18E2F
330
18E16
100
AcDbEntity
  8
0
 62
     1
370
    -2
100
AcDbLine
 10
457.872091728022
 20
278.1972547320409
 30
0.0
 11
457.872091728022
 21
288.6972547320409
 31
0.0
  0
SOLID
  5
18E30
330
18E16
100
AcDbEntity
  8
0
 62
     1
100
AcDbTrace
 10
457.3720917280218
 20
262.1972547320408
 30
0.0
 11
458.372091728022
 21
262.1972547320408
 31
0.0
 12
457.872091728022
 22
259.1972547320409
 32
0.0
 13
457.872091728022
 23
259.1972547320409
 33
0.0
  0
SOLID
  5
18E31
330
18E16
100
AcDbEntity
  8
0
 62
     1
100
AcDbTrace
 10
457.3720917280218
 20
275.1972547320408
 30
0.0
 11
458.372091728022
 21
275.1972547320408
 31
0.0
 12
457.872091728022
 22
278.1972547320409
 32
0.0
 13
457.872091728022
 23
278.1972547320409
 33
0.0
  0
MTEXT
  5
18E32
330
18E16
100
AcDbEntity
  8
0
 62
     4
100
AcDbMText
 10
455.6220917280218
 20
284.9472547320408
 30
0.0
 40
3.5
 41
0.0
 46
0.0
 71
     5
 72
     1
  1
\A1;%%C19
  7
Romans字体
 11
0.0000000000000001
 21
1.0
 31
0.0
 73
     1
 44
1.0
  0
POINT
  5
18E33
330
18E16
100
AcDbEntity
  8
Defpoints
 62
     0
100
AcDbPoint
 10
458.9319524281065
 20
259.1972547320409
 30
0.0
  0
POINT
  5
18E34
330
18E16
100
AcDbEntity
  8
Defpoints
 62
     0
100
AcDbPoint
 10
458.9319524281065
 20
278.1972547320409
 30
0.0
  0
POINT
  5
18E35
330
18E16
100
AcDbEntity
  8
Defpoints
 62
     0
100
AcDbPoint
 10
457.872091728022
 20
278.1972547320409
 30
0.0
  0
ENDBLK
  5
18E18
330
18E16
100
AcDbEntity
  8
0
100
AcDbBlockEnd
  0
ENDSEC
  0
SECTION
  2
ENTITIES
  0
HATCH
  5
28AE
330
1F
100
AcDbEntity
  8
图层 1
 62
     7
100
AcDbHatch
 10
0.0
 20
0.0
 30
0.0
210
0.0
220
0.0
230
1.0
  2
SOLID
 70
     1
 71
     0
 91
        1
 92
        1
 93
        2
 72
     4
 94
        3
 73
     0
 74
     0
 95
       17
 96
       13
 40
0.0
 40
0.0
 40
0.0
 40
0.0
 40
0.3527780104152769
 40
0.3527780104152769
 40
0.3527780104152769
 40
0.7055560208305538
 40
0.7055560208305538
 40
0.7055560208305538
 40
1.058334031245828
 40
1.058334031245828
 40
1.058334031245828
 40
1.411112041661104
 40
1.411112041661104
 40
1.411112041661104
 40
1.411112041661104
 10
11.07013262565829
 20
29.50312817963231
 10
11.07013262565829
 20
29.50312817963231
 10
10.9431807732774
 20
29.50312817963231
 10
10.9431807732774
 20
29.50312817963231
 10
10.9431807732774
 20
29.50312817963231
 10
10.85843136843155
 20
29.22786486877117
 10
10.85843136843155
 20
29.22786486877117
 10
10.85843136843155
 20
29.22786486877117
 10
10.90080607085448
 20
29.2068497724476
 10
10.90080607085448
 20
29.2068497724476
 10
10.94455881238059
 20
29.31571486159919
 10
11.00346998404173
 20
29.40907701083995
 10
11.07013262565829
 20
29.50312817963231
 72
     1
 10
11.07013262565829
 20
29.50312817963231
 11
11.07013262565829
 21
29.50312817963231
 97
        0
 75
     0
 76
     1
 98
        0
450
        0
451
        0
460
0.0
461
0.0
452
        0
462
0.0
453
        0
470

  0
HATCH
  5
2C65
330
1F
100
AcDbEntity
  8
图层 1
 62
     7
100
AcDbHatch
 10
0.0
 20
0.0
 30
0.0
210
0.0
220
0.0
230
1.0
  2
SOLID
 70
     1
 71
     0
 91
        1
 92
        1
 93
        2
 72
     4
 94
        3
 73
     0
 74
     0
 95
       47
 96
       43
 40
0.0
 40
0.0
 40
0.0
 40
0.0
 40
0.3527780104152769
 40
0.3527780104152769
 40
0.3527780104152769
 40
0.7055560208305538
 40
0.7055560208305538
 40
0.7055560208305538
 40
1.058334031245828
 40
1.058334031245828
 40
1.058334031245828
 40
1.411112041661104
 40
1.411112041661104
 40
1.411112041661104
 40
1.763890052076384
 40
1.763890052076384
 40
1.763890052076384
 40
2.116668062491659
 40
2.116668062491659
 40
2.116668062491659
 40
2.469446072906936
 40
2.469446072906936
 40
2.469446072906936
 40
2.822224083322215
 40
2.822224083322215
 40
2.822224083322215
 40
3.175002093737492
 40
3.175002093737492
 40
3.175002093737492
 40
3.527780104152768
 40
3.527780104152768
 40
3.527780104152768
 40
3.880558114568044
 40
3.880558114568044
 40
3.880558114568044
 40
4.233336124983321
 40
4.233336124983321
 40
4.233336124983321
 40
4.586114135398599
 40
4.586114135398599
 40
4.586114135398599
 40
4.938892145813873
 40
4.938892145813873
 40
4.938892145813873
 40
4.938892145813873
 10
162.8986914070121
 20
257.4895347631509
 10
162.8986914070121
 20
257.4895347631509
 10
162.9200510131114
 20
257.4471600607279
 10
162.9200510131114
 20
257.4471600607279
 10
162.9200510131114
 20
257.4471600607279
 10
162.9200510131114
 20
257.404785358305
 10
162.9200510131114
 20
257.404785358305
 10
162.9200510131114
 20
257.404785358305
 10
162.8986914070121
 20
257.36258291077
 10
162.8986914070121
 20
257.36258291077
 10
162.8986914070121
 20
257.36258291077
 10
162.8986914070121
 20
257.320208208347
 10
162.8986914070121
 20
257.320208208347
 10
162.8986914070121
 20
257.320208208347
 10
162.8563167045891
 20
257.2990208571356
 10
162.8563167045891
 20
257.2990208571356
 10
162.8563167045891
 20
257.2990208571356
 10
162.8139420021662
 20
257.2563016449369
 10
162.8139420021662
 20
257.2563016449369
 10
162.8139420021662
 20
257.2563016449369
 10
162.7295371070961
 20
257.2563016449369
 10
162.7295371070961
 20
257.2563016449369
 10
162.7295371070961
 20
257.2563016449369
 10
162.6658027985738
 20
257.2778335059241
 10
162.6658027985738
 20
257.2778335059241
 10
162.6658027985738
 20
257.2778335059241
 10
162.6237726059267
 20
257.2990208571356
 10
162.6237726059267
 20
257.2990208571356
 10
162.6237726059267
 20
257.2990208571356
 10
162.5813979035038
 20
257.3413955595585
 10
162.5813979035038
 20
257.3413955595585
 10
162.5813979035038
 20
257.3413955595585
 10
162.5813979035038
 20
257.4895347631509
 10
162.5813979035038
 20
257.4895347631509
 10
162.5813979035038
 20
257.4895347631509
 10
162.6447877022503
 20
257.5525800521216
 10
162.6447877022503
 20
257.5525800521216
 10
162.6447877022503
 20
257.5525800521216
 10
162.7081775009967
 20
257.5525800521216
 10
162.7081775009967
 20
257.5525800521216
 10
162.8749202324821
 20
257.5424170137356
 10
162.7918933765152
 20
257.5939212252171
 10
162.8986914070121
 20
257.4895347631509
 72
     1
 10
162.8986914070121
 20
257.4895347631509
 11
162.8986914070121
 21
257.4895347631509
 97
        0
 75
     0
 76
     1
 98
        0
450
        0
451
        0
460
0.0
461
0.0
452
        0
462
0.0
453
        0
470

  0
HATCH
  5
2EE7
330
1F
100
AcDbEntity
  8
图层 1
 62
     7
100
AcDbHatch
 10
0.0
 20
0.0
 30
0.0
210
0.0
220
0.0
230
1.0
  2
SOLID
 70
     1
 71
     0
 91
        1
 92
        1
 93
        2
 72
     4
 94
        3
 73
     0
 74
     0
 95
       56
 96
       52
 40
0.0
 40
0.0
 40
0.0
 40
0.0
 40
0.3527780104152769
 40
0.3527780104152769
 40
0.3527780104152769
 40
0.7055560208305538
 40
0.7055560208305538
 40
0.7055560208305538
 40
1.058334031245828
 40
1.058334031245828
 40
1.058334031245828
 40
1.411112041661104
 40
1.411112041661104
 40
1.411112041661104
 40
1.763890052076384
 40
1.763890052076384
 40
1.763890052076384
 40
2.116668062491659
 40
2.116668062491659
 40
2.116668062491659
 40
2.469446072906936
 40
2.469446072906936
 40
2.469446072906936
 40
2.822224083322215
 40
2.822224083322215
 40
2.822224083322215
 40
3.175002093737492
 40
3.175002093737492
 40
3.175002093737492
 40
3.527780104152768
 40
3.527780104152768
 40
3.527780104152768
 40
3.880558114568044
 40
3.880558114568044
 40
3.880558114568044
 40
4.233336124983321
 40
4.233336124983321
 40
4.233336124983321
 40
4.586114135398599
 40
4.586114135398599
 40
4.586114135398599
 40
4.938892145813873
 40
4.938892145813873
 40
4.938892145813873
 40
5.291670156229153
 40
5.291670156229153
 40
5.291670156229153
 40
5.64444816664443
 40
5.64444816664443
 40
5.64444816664443
 40
5.997226177059705
 40
5.997226177059705
 40
5.997226177059705
 40
5.997226177059705
 10
185.4837187788815
 20
241.4451977396596
 10
185.4837187788815
 20
241.4451977396596
 10
185.4837187788815
 20
241.4028230372367
 10
185.4837187788815
 20
241.4028230372367
 10
185.4837187788815
 20
241.4028230372367
 10
185.5047338752051
 20
241.3604483348137
 10
185.5047338752051
 20
241.3604483348137
 10
185.4520238795082
 20
241.2782827532863
 10
185.4671823096433
 20
241.1897437409066
 10
185.335579575289
 20
241.2119646214456
 10
185.335579575289
 20
241.2119646214456
 10
185.2932048728662
 20
241.2119646214456
 10
185.2932048728662
 20
241.2119646214456
 10
185.2932048728662
 20
241.2119646214456
 10
185.2294705643439
 20
241.2334964824328
 10
185.2294705643439
 20
241.2334964824328
 10
185.2294705643439
 20
241.2334964824328
 10
185.1660807655974
 20
241.2543393238685
 10
185.1660807655974
 20
241.2543393238685
 10
185.1660807655974
 20
241.2543393238685
 10
185.1450656692739
 20
241.2758711848558
 10
185.1450656692739
 20
241.2758711848558
 10
185.1450656692739
 20
241.2758711848558
 10
185.1450656692739
 20
241.2967140262914
 10
185.1450656692739
 20
241.2967140262914
 10
185.1450656692739
 20
241.2967140262914
 10
185.1237060631745
 20
241.3604483348137
 10
185.1237060631745
 20
241.3604483348137
 10
185.1237060631745
 20
241.3604483348137
 10
185.1237060631745
 20
241.4028230372367
 10
185.1237060631745
 20
241.4028230372367
 10
185.1237060631745
 20
241.4028230372367
 10
185.1660807655974
 20
241.4875724420825
 10
185.1660807655974
 20
241.4875724420825
 10
185.1660807655974
 20
241.4875724420825
 10
185.2084554680203
 20
241.5085875384061
 10
185.2084554680203
 20
241.5085875384061
 10
185.2084554680203
 20
241.5085875384061
 10
185.2718452667668
 20
241.5297748896175
 10
185.2718452667668
 20
241.5297748896175
 10
185.2718452667668
 20
241.5297748896175
 10
185.3565946716127
 20
241.5297748896175
 10
185.3565946716127
 20
241.5297748896175
 10
185.3565946716127
 20
241.5297748896175
 10
185.4199844703592
 20
241.5085875384061
 10
185.4199844703592
 20
241.5085875384061
 10
185.4199844703592
 20
241.5085875384061
 10
185.4623591727821
 20
241.4875724420825
 10
185.4623591727821
 20
241.4875724420825
 10
185.4623591727821
 20
241.4875724420825
 10
185.4837187788815
 20
241.4451977396596
 10
185.4837187788815
 20
241.4451977396596
 72
     1
 10
185.4837187788815
 20
241.4451977396596
 11
185.4837187788815
 21
241.4451977396596
 97
        0
 75
     0
 76
     1
 98
        0
450
        0
451
        0
460
0.0
461
0.0
452
        0
462
0.0
453
        0
470

  0
HATCH
  5
2F93
330
1F
100
AcDbEntity
  8
图层 1
 62
     7
100
AcDbHatch
 10
0.0
 20
0.0
 30
0.0
210
0.0
220
0.0
230
1.0
  2
SOLID
 70
     1
 71
     0
 91
        1
 92
        1
 93
        2
 72
     4
 94
        3
 73
     0
 74
     0
 95
       38
 96
       34
 40
0.0
 40
0.0
 40
0.0
 40
0.0
 40
0.3527780104152769
 40
0.3527780104152769
 40
0.3527780104152769
 40
0.7055560208305538
 40
0.7055560208305538
 40
0.7055560208305538
 40
1.058334031245828
 40
1.058334031245828
 40
1.058334031245828
 40
1.411112041661104
 40
1.411112041661104
 40
1.411112041661104
 40
1.763890052076384
 40
1.763890052076384
 40
1.763890052076384
 40
2.116668062491659
 40
2.116668062491659
 40
2.116668062491659
 40
2.469446072906936
 40
2.469446072906936
 40
2.469446072906936
 40
2.822224083322215
 40
2.822224083322215
 40
2.822224083322215
 40
3.175002093737492
 40
3.175002093737492
 40
3.175002093737492
 40
3.527780104152768
 40
3.527780104152768
 40
3.527780104152768
 40
3.880558114568044
 40
3.880558114568044
 40
3.880558114568044
 40
3.880558114568044
 10
185.907121293335
 20
220.1937677098971
 10
185.9005756075949
 20
220.0449394867532
 10
185.9329595265197
 20
220.1136691870245
 10
185.864746590912
 20
219.9817219428946
 10
185.864746590912
 20
219.9817219428946
 10
185.822371888489
 20
219.9605345916831
 10
185.822371888489
 20
219.9605345916831
 10
185.822371888489
 20
219.9605345916831
 10
185.6528730787974
 20
219.9605345916831
 10
185.6528730787974
 20
219.9605345916831
 10
185.6528730787974
 20
219.9605345916831
 10
185.5894832800509
 20
220.002909294106
 10
185.5894832800509
 20
220.002909294106
 10
185.5894832800509
 20
220.002909294106
 10
185.5681236739515
 20
220.0240966453175
 10
185.5681236739515
 20
220.0240966453175
 10
185.5681236739515
 20
220.0240966453175
 10
185.5681236739515
 20
220.045283996529
 10
185.5681236739515
 20
220.045283996529
 10
185.5681236739515
 20
220.045283996529
 10
185.547108577628
 20
220.0876586989519
 10
185.547108577628
 20
220.0876586989519
 10
185.547108577628
 20
220.0876586989519
 10
185.547108577628
 20
220.1513930074742
 10
185.547108577628
 20
220.1513930074742
 10
185.547108577628
 20
220.1513930074742
 10
185.5894832800509
 20
220.23614241232
 10
185.5894832800509
 20
220.23614241232
 10
185.5894832800509
 20
220.23614241232
 10
185.6318579824738
 20
220.2573297635315
 10
185.6318579824738
 20
220.2573297635315
 10
185.7055830744942
 20
220.2566407439799
 10
185.8416644359337
 20
220.3310548555519
 10
185.907121293335
 20
220.1937677098971
 72
     1
 10
185.907121293335
 20
220.1937677098971
 11
185.907121293335
 21
220.1937677098971
 97
        0
 75
     0
 76
     1
 98
        0
450
        0
451
        0
460
0.0
461
0.0
452
        0
462
0.0
453
        0
470

  0
HATCH
  5
2FDE
330
1F
100
AcDbEntity
  8
图层 1
 62
     7
100
AcDbHatch
 10
0.0
 20
0.0
 30
0.0
210
0.0
220
0.0
230
1.0
  2
SOLID
 70
     1
 71
     0
 91
        1
 92
        1
 93
        2
 72
     4
 94
        3
 73
     0
 74
     0
 95
       50
 96
       46
 40
0.0
 40
0.0
 40
0.0
 40
0.0
 40
0.3527780104152769
 40
0.3527780104152769
 40
0.3527780104152769
 40
0.7055560208305538
 40
0.7055560208305538
 40
0.7055560208305538
 40
1.058334031245828
 40
1.058334031245828
 40
1.058334031245828
 40
1.411112041661104
 40
1.411112041661104
 40
1.411112041661104
 40
1.763890052076384
 40
1.763890052076384
 40
1.763890052076384
 40
2.116668062491659
 40
2.116668062491659
 40
2.116668062491659
 40
2.469446072906936
 40
2.469446072906936
 40
2.469446072906936
 40
2.822224083322215
 40
2.822224083322215
 40
2.822224083322215
 40
3.175002093737492
 40
3.175002093737492
 40
3.175002093737492
 40
3.527780104152768
 40
3.527780104152768
 40
3.527780104152768
 40
3.880558114568044
 40
3.880558114568044
 40
3.880558114568044
 40
4.233336124983321
 40
4.233336124983321
 40
4.233336124983321
 40
4.586114135398599
 40
4.586114135398599
 40
4.586114135398599
 40
4.938892145813873
 40
4.938892145813873
 40
4.938892145813873
 40
5.291670156229153
 40
5.291670156229153
 40
5.291670156229153
 40
5.291670156229153
 10
180.9117295442905
 20
208.9327766684477
 10
180.9117295442905
 20
208.9327766684477
 10
180.9117295442905
 20
208.7637946234197
 10
180.9117295442905
 20
208.7637946234197
 10
181.2273004989198
 20
208.6749111012643
 10
181.3833634273555
 20
208.6776671794706
 10
181.6948002646751
 20
208.5097186637701
 10
181.9542161258496
 20
208.4294478860095
 10
182.1388733656765
 20
208.2134402565853
 10
182.3297317814676
 20
208.02292635057
 10
182.3297317814676
 20
208.02292635057
 10
182.435496282637
 20
208.065301052993
 10
182.435496282637
 20
208.065301052993
 10
182.288390608372
 20
208.2733849575739
 10
182.3752070718726
 20
208.2134402565853
 10
182.1605774815516
 20
208.3824223016133
 10
182.1605774815516
 20
208.3824223016133
 10
182.1182027791287
 20
208.4247970040363
 10
182.1182027791287
 20
208.4247970040363
 10
182.1182027791287
 20
208.4247970040363
 10
182.0968431730294
 20
208.467516216235
 10
182.0968431730294
 20
208.467516216235
 10
182.0968431730294
 20
208.467516216235
 10
182.0544684706064
 20
208.4883590576707
 10
182.0544684706064
 20
208.4883590576707
 10
182.0544684706064
 20
208.4883590576707
 10
181.9910786718599
 20
208.5305615052057
 10
181.9910786718599
 20
208.5305615052057
 10
181.9910786718599
 20
208.5305615052057
 10
181.948703969437
 20
208.552093366193
 10
181.948703969437
 20
208.552093366193
 10
181.948703969437
 20
208.552093366193
 10
181.9063292670141
 20
208.5729362076286
 10
181.9063292670141
 20
208.5729362076286
 10
181.9063292670141
 20
208.5729362076286
 10
181.8639545645911
 20
208.6156554198274
 10
181.8639545645911
 20
208.6156554198274
 10
181.8639545645911
 20
208.6156554198274
 10
181.821924371944
 20
208.6368427710388
 10
181.821924371944
 20
208.6368427710388
 10
181.6637943848536
 20
208.6742220817127
 10
181.5452830219797
 20
208.8092699138248
 10
181.3771622513911
 20
208.8061693258427
 10
181.2803550043924
 20
208.8573290275484
 10
181.0126709085988
 20
208.8971199066528
 10
180.9117295442905
 20
208.9327766684477
 72
     1
 10
180.9117295442905
 20
208.9327766684477
 11
180.9117295442905
 21
208.9327766684477
 97
        0
 75
     0
 76
     1
 98
        0
450
        0
451
        0
460
0.0
461
0.0
452
        0
462
0.0
453
        0
470

  0
HATCH
  5
35C8
330
1F
100
AcDbEntity
  8
图层 1
 62
     7
100
AcDbHatch
 10
0.0
 20
0.0
 30
0.0
210
0.0
220
0.0
230
1.0
  2
SOLID
 70
     1
 71
     0
 91
        1
 92
        1
 93
        2
 72
     4
 94
        3
 73
     0
 74
     0
 95
       38
 96
       34
 40
0.0
 40
0.0
 40
0.0
 40
0.0
 40
0.3527780104152769
 40
0.3527780104152769
 40
0.3527780104152769
 40
0.7055560208305538
 40
0.7055560208305538
 40
0.7055560208305538
 40
1.058334031245828
 40
1.058334031245828
 40
1.058334031245828
 40
1.411112041661104
 40
1.411112041661104
 40
1.411112041661104
 40
1.763890052076384
 40
1.763890052076384
 40
1.763890052076384
 40
2.116668062491659
 40
2.116668062491659
 40
2.116668062491659
 40
2.469446072906936
 40
2.469446072906936
 40
2.469446072906936
 40
2.822224083322215
 40
2.822224083322215
 40
2.822224083322215
 40
3.175002093737492
 40
3.175002093737492
 40
3.175002093737492
 40
3.527780104152768
 40
3.527780104152768
 40
3.527780104152768
 40
3.880558114568044
 40
3.880558114568044
 40
3.880558114568044
 40
3.880558114568044
 10
189.145513185819
 20
166.8326485368285
 10
189.207869455238
 20
166.740492171803
 10
189.1317327947871
 20
166.6833035490209
 10
189.103138483396
 20
166.6209472796017
 10
189.103138483396
 20
166.6209472796017
 10
189.0607637809731
 20
166.5997599283903
 10
189.0607637809731
 20
166.5997599283903
 10
189.0607637809731
 20
166.5997599283903
 10
188.9973739822266
 20
166.5785725771788
 10
188.9973739822266
 20
166.5785725771788
 10
188.9973739822266
 20
166.5785725771788
 10
188.9549992798037
 20
166.5997599283903
 10
188.9549992798037
 20
166.5997599283903
 10
188.9549992798037
 20
166.5997599283903
 10
188.8916094810572
 20
166.5997599283903
 10
188.8916094810572
 20
166.5997599283903
 10
188.8916094810572
 20
166.5997599283903
 10
188.8492347786343
 20
166.6209472796017
 10
188.8492347786343
 20
166.6209472796017
 10
188.8492347786343
 20
166.6209472796017
 10
188.8278751725349
 20
166.6633219820247
 10
188.8278751725349
 20
166.6633219820247
 10
188.8278751725349
 20
166.6633219820247
 10
188.8068600762114
 20
166.6845093332361
 10
188.8068600762114
 20
166.6845093332361
 10
188.8068600762114
 20
166.6845093332361
 10
188.8068600762114
 20
166.8326485368285
 10
188.8068600762114
 20
166.8326485368285
 10
188.8068600762114
 20
166.8326485368285
 10
188.8702498749578
 20
166.896038335575
 10
188.8702498749578
 20
166.896038335575
 10
189.0228677056355
 20
166.8819134347673
 10
189.0686875058164
 20
166.9411691162043
 10
189.145513185819
 20
166.8326485368285
 72
     1
 10
189.145513185819
 20
166.8326485368285
 11
189.145513185819
 21
166.8326485368285
 97
        0
 75
     0
 76
     1
 98
        0
450
        0
451
        0
460
0.0
461
0.0
452
        0
462
0.0
453
        0
470

  0
HATCH
  5
35D8
330
1F
100
AcDbEntity
  8
图层 1
 62
     7
100
AcDbHatch
 10
0.0
 20
0.0
 30
0.0
210
0.0
220
0.0
230
1.0
  2
SOLID
 70
     1
 71
     0
 91
        1
 92
        1
 93
        2
 72
     4
 94
        3
 73
     0
 74
     0
 95
       68
 96
       64
 40
0.0
 40
0.0
 40
0.0
 40
0.0
 40
0.3527780104152769
 40
0.3527780104152769
 40
0.3527780104152769
 40
0.7055560208305538
 40
0.7055560208305538
 40
0.7055560208305538
 40
1.058334031245828
 40
1.058334031245828
 40
1.058334031245828
 40
1.411112041661104
 40
1.411112041661104
 40
1.411112041661104
 40
1.763890052076384
 40
1.763890052076384
 40
1.763890052076384
 40
2.116668062491659
 40
2.116668062491659
 40
2.116668062491659
 40
2.469446072906936
 40
2.469446072906936
 40
2.469446072906936
 40
2.822224083322215
 40
2.822224083322215
 40
2.822224083322215
 40
3.175002093737492
 40
3.175002093737492
 40
3.175002093737492
 40
3.527780104152768
 40
3.527780104152768
 40
3.527780104152768
 40
3.880558114568044
 40
3.880558114568044
 40
3.880558114568044
 40
4.233336124983321
 40
4.233336124983321
 40
4.233336124983321
 40
4.586114135398599
 40
4.586114135398599
 40
4.586114135398599
 40
4.938892145813873
 40
4.938892145813873
 40
4.938892145813873
 40
5.291670156229153
 40
5.291670156229153
 40
5.291670156229153
 40
5.64444816664443
 40
5.64444816664443
 40
5.64444816664443
 40
5.997226177059705
 40
5.997226177059705
 40
5.997226177059705
 40
6.350004187474984
 40
6.350004187474984
 40
6.350004187474984
 40
6.702782197890257
 40
6.702782197890257
 40
6.702782197890257
 40
7.055560208305537
 40
7.055560208305537
 40
7.055560208305537
 40
7.408338218720808
 40
7.408338218720808
 40
7.408338218720808
 40
7.408338218720808
 10
174.7732543591544
 20
135.4846705078077
 10
174.7732543591544
 20
135.4846705078077
 10
174.7732543591544
 20
135.3789060066383
 10
174.7732543591544
 20
135.3789060066383
 10
174.7732543591544
 20
135.3789060066383
 10
174.8156290615773
 20
135.3789060066383
 10
174.8156290615773
 20
135.3789060066383
 10
174.8156290615773
 20
135.3789060066383
 10
174.8580037640002
 20
135.3578909103147
 10
174.8580037640002
 20
135.3578909103147
 10
174.8580037640002
 20
135.3578909103147
 10
174.9213935627468
 20
135.3578909103147
 10
174.9213935627468
 20
135.3578909103147
 10
174.9213935627468
 20
135.3578909103147
 10
174.9637682651697
 20
135.3365313042154
 10
174.9637682651697
 20
135.3365313042154
 10
174.9637682651697
 20
135.3365313042154
 10
174.9847833614933
 20
135.3365313042154
 10
174.9847833614933
 20
135.3365313042154
 10
174.9847833614933
 20
135.3365313042154
 10
175.0271580639162
 20
135.3155162078918
 10
175.0271580639162
 20
135.3155162078918
 10
175.0271580639162
 20
135.3155162078918
 10
175.0485176700155
 20
135.2941566017924
 10
175.0485176700155
 20
135.2941566017924
 10
175.0485176700155
 20
135.2941566017924
 10
175.0695327663391
 20
135.2941566017924
 10
175.0695327663391
 20
135.2941566017924
 10
175.0695327663391
 20
135.2941566017924
 10
175.0908923724385
 20
135.2731415054689
 10
175.0908923724385
 20
135.2731415054689
 10
175.0908923724385
 20
135.2731415054689
 10
175.1332670748614
 20
135.2731415054689
 10
175.1332670748614
 20
135.2731415054689
 10
175.1332670748614
 20
135.2731415054689
 10
175.154282171185
 20
135.2517818993695
 10
175.154282171185
 20
135.2517818993695
 10
175.154282171185
 20
135.2517818993695
 10
175.154282171185
 20
135.3578909103147
 10
175.154282171185
 20
135.3578909103147
 10
175.154282171185
 20
135.3578909103147
 10
175.1332670748614
 20
135.3789060066383
 10
175.1332670748614
 20
135.3789060066383
 10
175.1332670748614
 20
135.3789060066383
 10
175.0908923724385
 20
135.3789060066383
 10
175.0908923724385
 20
135.3789060066383
 10
175.0908923724385
 20
135.3789060066383
 10
175.0908923724385
 20
135.3999211029619
 10
175.0908923724385
 20
135.3999211029619
 10
175.0908923724385
 20
135.3999211029619
 10
175.0695327663391
 20
135.3999211029619
 10
175.0695327663391
 20
135.3999211029619
 10
175.0695327663391
 20
135.3999211029619
 10
175.0271580639162
 20
135.4212807090612
 10
175.0271580639162
 20
135.4212807090612
 10
175.0271580639162
 20
135.4212807090612
 10
175.0061429675926
 20
135.4212807090612
 10
175.0061429675926
 20
135.4212807090612
 10
175.0061429675926
 20
135.4212807090612
 10
174.9637682651697
 20
135.4422958053848
 10
174.9637682651697
 20
135.4422958053848
 10
174.8996894468716
 20
135.4498750204523
 10
174.8394002361073
 20
135.4860485469109
 10
174.7732543591544
 20
135.4846705078077
 72
     1
 10
174.7732543591544
 20
135.4846705078077
 11
174.7732543591544
 21
135.4846705078077
 97
        0
 75
     0
 76
     1
 98
        0
450
        0
451
        0
460
0.0
461
0.0
452
        0
462
0.0
453
        0
470

  0
HATCH
  5
3807
330
1F
100
AcDbEntity
  8
图层 1
 62
     7
100
AcDbHatch
 10
0.0
 20
0.0
 30
0.0
210
0.0
220
0.0
230
1.0
  2
SOLID
 70
     1
 71
     0
 91
        1
 92
        1
 93
        2
 72
     4
 94
        3
 73
     0
 74
     0
 95
       29
 96
       25
 40
0.0
 40
0.0
 40
0.0
 40
0.0
 40
0.3527780104152769
 40
0.3527780104152769
 40
0.3527780104152769
 40
0.7055560208305538
 40
0.7055560208305538
 40
0.7055560208305538
 40
1.058334031245828
 40
1.058334031245828
 40
1.058334031245828
 40
1.411112041661104
 40
1.411112041661104
 40
1.411112041661104
 40
1.763890052076384
 40
1.763890052076384
 40
1.763890052076384
 40
2.116668062491659
 40
2.116668062491659
 40
2.116668062491659
 40
2.469446072906936
 40
2.469446072906936
 40
2.469446072906936
 40
2.822224083322215
 40
2.822224083322215
 40
2.822224083322215
 40
2.822224083322215
 10
175.4929352807925
 20
164.0174869039101
 10
175.4929352807925
 20
164.0174869039101
 10
175.5139503771161
 20
163.9751122014871
 10
175.5139503771161
 20
163.9751122014871
 10
175.5139503771161
 20
163.9751122014871
 10
175.5139503771161
 20
163.9327374990642
 10
175.5139503771161
 20
163.9327374990642
 10
175.5139503771161
 20
163.9327374990642
 10
175.4929352807925
 20
163.8903627966413
 10
175.4929352807925
 20
163.8903627966413
 10
175.4929352807925
 20
163.8903627966413
 10
175.471920184469
 20
163.8691754454298
 10
175.471920184469
 20
163.8691754454298
 10
175.471920184469
 20
163.8691754454298
 10
175.4505605783696
 20
163.8269729978948
 10
175.4505605783696
 20
163.8269729978948
 10
175.3571984291289
 20
163.7715069239916
 10
175.272449024283
 20
163.8195660377152
 10
175.1966568736079
 20
163.8691754454298
 10
175.208370205985
 20
163.9930267098286
 10
175.1563492298397
 20
164.0216210212197
 10
175.2600466723544
 20
164.0596893514451
 10
175.3330827448232
 20
164.1094710140476
 10
175.4357466580104
 20
164.0753645462439
 10
175.4929352807925
 20
164.0174869039101
 72
     1
 10
175.4929352807925
 20
164.0174869039101
 11
175.4929352807925
 21
164.0174869039101
 97
        0
 75
     0
 76
     1
 98
        0
450
        0
451
        0
460
0.0
461
0.0
452
        0
462
0.0
453
        0
470

  0
HATCH
  5
3895
330
1F
100
AcDbEntity
  8
图层 1
 62
     7
100
AcDbHatch
 10
0.0
 20
0.0
 30
0.0
210
0.0
220
0.0
230
1.0
  2
SOLID
 70
     1
 71
     0
 91
        1
 92
        1
 93
        2
 72
     4
 94
        3
 73
     0
 74
     0
 95
       11
 96
        7
 40
0.0
 40
0.0
 40
0.0
 40
0.0
 40
0.3527780104152769
 40
0.3527780104152769
 40
0.3527780104152769
 40
0.7055560208305538
 40
0.7055560208305538
 40
0.7055560208305538
 40
0.7055560208305538
 10
174.9213935627468
 20
174.5369206529582
 10
174.9213935627468
 20
174.5369206529582
 10
174.9213935627468
 20
174.3043765542958
 10
174.9213935627468
 20
174.3043765542958
 10
174.9213935627468
 20
174.3043765542958
 10
174.9213935627468
 20
174.5369206529582
 10
174.9213935627468
 20
174.5369206529582
 72
     1
 10
174.9213935627468
 20
174.5369206529582
 11
174.9213935627468
 21
174.5369206529582
 97
        0
 75
     0
 76
     1
 98
        0
450
        0
451
        0
460
0.0
461
0.0
452
        0
462
0.0
453
        0
470

  0
HATCH
  5
3943
330
1F
100
AcDbEntity
  8
图层 1
 62
     7
100
AcDbHatch
 10
0.0
 20
0.0
 30
0.0
210
0.0
220
0.0
230
1.0
  2
SOLID
 70
     1
 71
     0
 91
        1
 92
        1
 93
        2
 72
     4
 94
        3
 73
     0
 74
     0
 95
      131
 96
      127
 40
0.0
 40
0.0
 40
0.0
 40
0.0
 40
0.3527780104152769
 40
0.3527780104152769
 40
0.3527780104152769
 40
0.7055560208305538
 40
0.7055560208305538
 40
0.7055560208305538
 40
1.058334031245828
 40
1.058334031245828
 40
1.058334031245828
 40
1.411112041661104
 40
1.411112041661104
 40
1.411112041661104
 40
1.763890052076384
 40
1.763890052076384
 40
1.763890052076384
 40
2.116668062491659
 40
2.116668062491659
 40
2.116668062491659
 40
2.469446072906936
 40
2.469446072906936
 40
2.469446072906936
 40
2.822224083322215
 40
2.822224083322215
 40
2.822224083322215
 40
3.175002093737492
 40
3.175002093737492
 40
3.175002093737492
 40
3.527780104152768
 40
3.527780104152768
 40
3.527780104152768
 40
3.880558114568044
 40
3.880558114568044
 40
3.880558114568044
 40
4.233336124983321
 40
4.233336124983321
 40
4.233336124983321
 40
4.586114135398599
 40
4.586114135398599
 40
4.586114135398599
 40
4.938892145813873
 40
4.938892145813873
 40
4.938892145813873
 40
5.291670156229153
 40
5.291670156229153
 40
5.291670156229153
 40
5.64444816664443
 40
5.64444816664443
 40
5.64444816664443
 40
5.997226177059705
 40
5.997226177059705
 40
5.997226177059705
 40
6.350004187474984
 40
6.350004187474984
 40
6.350004187474984
 40
6.702782197890257
 40
6.702782197890257
 40
6.702782197890257
 40
7.055560208305537
 40
7.055560208305537
 40
7.055560208305537
 40
7.408338218720808
 40
7.408338218720808
 40
7.408338218720808
 40
7.76111622913609
 40
7.76111622913609
 40
7.76111622913609
 40
8.113894239551369
 40
8.113894239551369
 40
8.113894239551369
 40
8.466672249966642
 40
8.466672249966642
 40
8.466672249966642
 40
8.819450260381922
 40
8.819450260381922
 40
8.819450260381922
 40
9.172228270797198
 40
9.172228270797198
 40
9.172228270797198
 40
9.525006281212476
 40
9.525006281212476
 40
9.525006281212476
 40
9.877784291627751
 40
9.877784291627751
 40
9.877784291627751
 40
10.23056230204303
 40
10.23056230204303
 40
10.23056230204303
 40
10.58334031245831
 40
10.58334031245831
 40
10.58334031245831
 40
10.93611832287358
 40
10.93611832287358
 40
10.93611832287358
 40
11.28889633328886
 40
11.28889633328886
 40
11.28889633328886
 40
11.64167434370414
 40
11.64167434370414
 40
11.64167434370414
 40
11.99445235411941
 40
11.99445235411941
 40
11.99445235411941
 40
12.34723036453469
 40
12.34723036453469
 40
12.34723036453469
 40
12.70000837494997
 40
12.70000837494997
 40
12.70000837494997
 40
13.05278638536524
 40
13.05278638536524
 40
13.05278638536524
 40
13.40556439578052
 40
13.40556439578052
 40
13.40556439578052
 40
13.7583424061958
 40
13.7583424061958
 40
13.7583424061958
 40
14.11112041661107
 40
14.11112041661107
 40
14.11112041661107
 40
14.46389842702635
 40
14.46389842702635
 40
14.46389842702635
 40
14.81667643744163
 40
14.81667643744163
 40
14.81667643744163
 40
14.81667643744163
 10
173.3972823146245
 20
126.8274843518258
 10
173.3972823146245
 20
126.8274843518258
 10
173.3972823146245
 20
126.7217198506564
 10
173.3972823146245
 20
126.7217198506564
 10
173.3972823146245
 20
126.7217198506564
 10
173.4186419207238
 20
126.7217198506564
 10
173.4186419207238
 20
126.7217198506564
 10
173.4186419207238
 20
126.7217198506564
 10
173.4820317194703
 20
126.7007047543328
 10
173.4820317194703
 20
126.7007047543328
 10
173.4820317194703
 20
126.7007047543328
 10
173.5244064218933
 20
126.6793451482334
 10
173.5244064218933
 20
126.6793451482334
 10
173.5244064218933
 20
126.6793451482334
 10
173.5877962206398
 20
126.6793451482334
 10
173.5877962206398
 20
126.6793451482334
 10
173.5877962206398
 20
126.6793451482334
 10
173.6301709230627
 20
126.6583300519099
 10
173.6301709230627
 20
126.6583300519099
 10
173.7955356154449
 20
126.5911506456296
 10
173.759706598762
 20
126.6380039751379
 10
173.9478089363468
 20
126.5525655507404
 10
173.9478089363468
 20
126.5525655507404
 10
173.9688240326703
 20
126.4464565397952
 10
173.9688240326703
 20
126.4464565397952
 10
173.9688240326703
 20
126.4464565397952
 10
174.0325583411926
 20
126.5101908483175
 10
174.0325583411926
 20
126.5101908483175
 10
174.0325583411926
 20
126.5101908483175
 10
174.0749330436156
 20
126.5101908483175
 10
174.0749330436156
 20
126.5101908483175
 10
174.0749330436156
 20
126.5101908483175
 10
174.1593379386856
 20
126.4678161458946
 10
174.1593379386856
 20
126.4678161458946
 10
174.1593379386856
 20
126.4678161458946
 10
174.180697544785
 20
126.4464565397952
 10
174.180697544785
 20
126.4464565397952
 10
174.2464989119621
 20
126.3982251711837
 10
174.3298702777047
 20
126.3716979184474
 10
174.3922265471239
 20
126.3196769423022
 10
174.608234176548
 20
126.2059887162895
 10
174.7749769080334
 20
126.0278771622029
 10
174.9637682651697
 20
125.8749148217494
 10
174.9637682651697
 20
125.8749148217494
 10
175.0061429675926
 20
125.9172895241723
 10
175.0061429675926
 20
125.9172895241723
 10
174.961356696739
 20
125.9631093243532
 10
174.782211613325
 20
126.1246844092016
 10
174.7308796567315
 20
126.1501781326105
 10
174.7308796567315
 20
126.1501781326105
 10
174.6885049543085
 20
126.1925528350335
 10
174.6885049543085
 20
126.1925528350335
 10
174.6885049543085
 20
126.1925528350335
 10
174.667489857985
 20
126.2349275374564
 10
174.667489857985
 20
126.2349275374564
 10
174.667489857985
 20
126.2349275374564
 10
174.625115155562
 20
126.2559426337799
 10
174.625115155562
 20
126.2559426337799
 10
174.625115155562
 20
126.2559426337799
 10
174.5827404531391
 20
126.2983173362029
 10
174.5827404531391
 20
126.2983173362029
 10
174.5827404531391
 20
126.2983173362029
 10
174.5403657507162
 20
126.3196769423022
 10
174.5403657507162
 20
126.3196769423022
 10
174.5403657507162
 20
126.3196769423022
 10
174.4979910482932
 20
126.3620516447252
 10
174.4979910482932
 20
126.3620516447252
 10
174.4735308542117
 20
126.3875453681341
 10
174.3247026310678
 20
126.4695386947736
 10
174.2864620459544
 20
126.4888312422181
 10
174.2864620459544
 20
126.4888312422181
 10
174.2654469496308
 20
126.5101908483175
 10
174.2654469496308
 20
126.5101908483175
 10
174.2654469496308
 20
126.5101908483175
 10
174.2230722472079
 20
126.5312059446411
 10
174.2230722472079
 20
126.5312059446411
 10
174.2230722472079
 20
126.5312059446411
 10
174.2017126411085
 20
126.5525655507404
 10
174.2017126411085
 20
126.5525655507404
 10
174.2017126411085
 20
126.5525655507404
 10
174.1383228423621
 20
126.573580647064
 10
174.1383228423621
 20
126.573580647064
 10
174.1383228423621
 20
126.573580647064
 10
174.1169632362627
 20
126.5945957433876
 10
174.1169632362627
 20
126.5945957433876
 10
174.1169632362627
 20
126.5945957433876
 10
174.0959481399391
 20
126.7007047543328
 10
174.0959481399391
 20
126.7007047543328
 10
174.0959481399391
 20
126.7007047543328
 10
174.0325583411926
 20
126.6369704458105
 10
174.0325583411926
 20
126.6369704458105
 10
174.0325583411926
 20
126.6369704458105
 10
173.9901836387697
 20
126.6369704458105
 10
173.9901836387697
 20
126.6369704458105
 10
173.9901836387697
 20
126.6369704458105
 10
173.9054342339239
 20
126.6793451482334
 10
173.9054342339239
 20
126.6793451482334
 10
173.9054342339239
 20
126.6793451482334
 10
173.8420444351773
 20
126.7007047543328
 10
173.8420444351773
 20
126.7007047543328
 10
173.8420444351773
 20
126.7007047543328
 10
173.7996697327544
 20
126.7217198506564
 10
173.7996697327544
 20
126.7217198506564
 10
173.7996697327544
 20
126.7217198506564
 10
173.7572950303315
 20
126.7217198506564
 10
173.7572950303315
 20
126.7217198506564
 10
173.7572950303315
 20
126.7217198506564
 10
173.6725456254856
 20
126.7640945530793
 10
173.6725456254856
 20
126.7640945530793
 10
173.6725456254856
 20
126.7640945530793
 10
173.6515305291621
 20
126.7640945530793
 10
173.6515305291621
 20
126.7640945530793
 10
173.6515305291621
 20
126.7640945530793
 10
173.5667811243162
 20
126.7851096494029
 10
173.5667811243162
 20
126.7851096494029
 10
173.5667811243162
 20
126.7851096494029
 10
173.5033913255697
 20
126.8064692555022
 10
173.5033913255697
 20
126.8064692555022
 10
173.5033913255697
 20
126.8064692555022
 10
173.4396570170474
 20
126.8064692555022
 10
173.4396570170474
 20
126.8064692555022
 10
173.4396570170474
 20
126.8064692555022
 10
173.4186419207238
 20
126.8274843518258
 10
173.4186419207238
 20
126.8274843518258
 10
173.4186419207238
 20
126.8274843518258
 10
173.3972823146245
 20
126.8274843518258
 10
173.3972823146245
 20
126.8274843518258
 72
     1
 10
173.3972823146245
 20
126.8274843518258
 11
173.3972823146245
 21
126.8274843518258
 97
        0
 75
     0
 76
     1
 98
        0
450
        0
451
        0
460
0.0
461
0.0
452
        0
462
0.0
453
        0
470

  0
HATCH
  5
4842
330
1F
100
AcDbEntity
  8
图层 1
 62
     7
100
AcDbHatch
 10
0.0
 20
0.0
 30
0.0
210
0.0
220
0.0
230
1.0
  2
SOLID
 70
     1
 71
     0
 91
        1
 92
        1
 93
        2
 72
     4
 94
        3
 73
     0
 74
     0
 95
       47
 96
       43
 40
0.0
 40
0.0
 40
0.0
 40
0.0
 40
0.3527780104152769
 40
0.3527780104152769
 40
0.3527780104152769
 40
0.7055560208305538
 40
0.7055560208305538
 40
0.7055560208305538
 40
1.058334031245828
 40
1.058334031245828
 40
1.058334031245828
 40
1.411112041661104
 40
1.411112041661104
 40
1.411112041661104
 40
1.763890052076384
 40
1.763890052076384
 40
1.763890052076384
 40
2.116668062491659
 40
2.116668062491659
 40
2.116668062491659
 40
2.469446072906936
 40
2.469446072906936
 40
2.469446072906936
 40
2.822224083322215
 40
2.822224083322215
 40
2.822224083322215
 40
3.175002093737492
 40
3.175002093737492
 40
3.175002093737492
 40
3.527780104152768
 40
3.527780104152768
 40
3.527780104152768
 40
3.880558114568044
 40
3.880558114568044
 40
3.880558114568044
 40
4.233336124983321
 40
4.233336124983321
 40
4.233336124983321
 40
4.586114135398599
 40
4.586114135398599
 40
4.586114135398599
 40
4.938892145813873
 40
4.938892145813873
 40
4.938892145813873
 40
4.938892145813873
 10
180.1920486226523
 20
255.6479577566324
 10
180.1920486226523
 20
255.6479577566324
 10
180.2130637189759
 20
255.6055830542095
 10
180.2130637189759
 20
255.6055830542095
 10
180.2130637189759
 20
255.6055830542095
 10
180.2130637189759
 20
255.5210059042515
 10
180.2130637189759
 20
255.5210059042515
 10
180.2130637189759
 20
255.5210059042515
 10
180.1920486226523
 20
255.4786312018286
 10
180.1920486226523
 20
255.4786312018286
 10
180.1920486226523
 20
255.4786312018286
 10
180.1496739202294
 20
255.4359119896299
 10
180.1496739202294
 20
255.4359119896299
 10
180.1496739202294
 20
255.4359119896299
 10
180.1283143141301
 20
255.4147246384184
 10
180.1283143141301
 20
255.4147246384184
 10
180.1283143141301
 20
255.4147246384184
 10
180.0225498129606
 20
255.4147246384184
 10
180.0225498129606
 20
255.4147246384184
 10
180.0225498129606
 20
255.4147246384184
 10
179.9591600142141
 20
255.4359119896299
 10
179.9591600142141
 20
255.4359119896299
 10
179.9591600142141
 20
255.4359119896299
 10
179.9167853117912
 20
255.4570993408414
 10
179.9167853117912
 20
255.4570993408414
 10
179.9167853117912
 20
255.4570993408414
 10
179.8957702154676
 20
255.4786312018286
 10
179.8957702154676
 20
255.4786312018286
 10
179.8957702154676
 20
255.4786312018286
 10
179.8744106093683
 20
255.4994740432643
 10
179.8744106093683
 20
255.4994740432643
 10
179.8744106093683
 20
255.4994740432643
 10
179.8744106093683
 20
255.6479577566324
 10
179.8744106093683
 20
255.6479577566324
 10
179.9608825630931
 20
255.7323626517025
 10
180.045631967939
 20
255.7085914771726
 10
180.1496739202294
 20
255.7115198102668
 10
180.1496739202294
 20
255.7115198102668
 10
180.170689016553
 20
255.6688005980681
 10
180.170689016553
 20
255.6688005980681
 10
180.170689016553
 20
255.6688005980681
 10
180.1920486226523
 20
255.6479577566324
 10
180.1920486226523
 20
255.6479577566324
 72
     1
 10
180.1920486226523
 20
255.6479577566324
 11
180.1920486226523
 21
255.6479577566324
 97
        0
 75
     0
 76
     1
 98
        0
450
        0
451
        0
460
0.0
461
0.0
452
        0
462
0.0
453
        0
470

  0
MTEXT
  5
1338B
102
{ACAD_XDICTIONARY
360
19110
102
}
330
1F
100
AcDbEntity
  8
打标文字
 62
     3
100
AcDbMText
 10
540.3427923518417
 20
323.4774954938323
 30
0.0
 40
3.0
 41
86.2548180434813
 46
107.8236110958389
 71
     1
 72
     5
  3
\A1;{\f仿宋_GB2312|b0|i0|c134|p49;技术参数}:\P- {\f仿宋_GB2312|b0|i0|c134|p49;材料}: {\f仿宋_GB2312|b0|i0|c134|p49;铜合金}\P- {\f仿宋_GB2312|b0|i0|c134|p49;表面处理}: {\f仿宋_GB2312|b0|i0|c134|p49;镀银}\P- {\f仿宋_GB2312|b0|i0|c134|p49;额定电流}: 350A\P- {\f仿宋_GB2312|b0|i0|c134|p4
  3
9;接触电阻}: ≤0.3mΩ\P- {\f仿宋_GB2312|b0|i0|c134|p49;线径范围}: 95mm{\H0.7x;\S2^ ;}\P- {\f仿宋_GB2312|b0|i0|c134|p49;剥线长度}: 30mm\P- {\f仿宋_GB2312|b0|i0|c134|p49;最大电缆直径}: 22mm\P- {\f仿宋_GB2312|b0|i0|c134|p49;冷压模具}: {\f仿宋_GB2312|b0|i0|c134|p49;按照} DIN 46 235\P- {\f仿宋
  3
_GB2312|b0|i0|c134|p49;压力要求}: 130kN\P- {\f仿宋_GB2312|b0|i0|c134|p49;可插拔次数}: {\f仿宋_GB2312|b0|i0|c134|p49;≥}500\P\PTechnical specification:\P- Material: copper alloy\P- Surface: hard-silver plated\P- Rated current: 350A\P- Contact resistance: ≤0.3mΩ\P- 
  1
Wire gauge: 95mm{\H0.7x;\S2^ ;}\P- Stripping length: 30mm\P- Max. insulation diameter: 22mm\P- Crimp dies: acc. to DIN 46 235\P- Pressing force: 130kN\P- Mating cycles: {\f仿宋_GB2312|b0|i0|c134|p49;≥}500
  7
Romans字体
 73
     1
 44
1.0
1001
ACAD
1000
ACAD_MTEXT_DEFINED_HEIGHT_BEGIN
1070
    46
1040
107.8236110958389
1000
ACAD_MTEXT_DEFINED_HEIGHT_END
  0
MTEXT
  5
13829
330
1F
100
AcDbEntity
  8
图框
 62
     3
100
AcDbMText
 10
599.3915027813324
 20
183.7885661405102
 30
0.0
 40
2.985513578540332
 41
33.6123920318957
 46
8.686745515887562
 71
     5
 72
     5
  1
CHSM350-95
  7
Romans字体
 73
     1
 44
1.0
1001
ACAD
1000
ACAD_MTEXT_DEFINED_HEIGHT_BEGIN
1070
    46
1040
8.686745515887562
1000
ACAD_MTEXT_DEFINED_HEIGHT_END
  0
MTEXT
  5
1382A
330
1F
100
AcDbEntity
  8
图框
 62
     3
100
AcDbMText
 10
599.3915027813324
 20
175.0091156033734
 30
0.0
 40
2.985513578540332
 41
33.6123920318957
 46
8.872155558385545
 71
     5
 72
     5
  1
1010291102001
  7
Romans字体
 73
     1
 44
1.0
1001
ACAD
1000
ACAD_MTEXT_DEFINED_HEIGHT_BEGIN
1070
    46
1040
8.872155558385545
1000
ACAD_MTEXT_DEFINED_HEIGHT_END
  0
MTEXT
  5
1382B
330
1F
100
AcDbEntity
  8
图框
 62
     3
100
AcDbMText
 10
531.3378377708253
 20
161.701480509
 30
0.0
 40
2.985513578540332
 41
10.82934844710844
 46
7.88609461047191
 71
     5
 72
     5
  1
1:1 
  7
Romans字体
 73
     1
 44
1.0
1001
ACAD
1000
ACAD_MTEXT_DEFINED_HEIGHT_BEGIN
1070
    46
1040
7.88609461047191
1000
ACAD_MTEXT_DEFINED_HEIGHT_END
  0
MTEXT
  5
1382C
330
1F
100
AcDbEntity
  8
图框
 62
     3
100
AcDbMText
 10
552.9965346650443
 20
161.701480509
 30
0.0
 40
2.985513578540332
 41
10.82934844711013
 46
7.886094610471809
 71
     5
 72
     5
  1
78g
  7
Romans字体
 73
     1
 44
1.0
1001
ACAD
1000
ACAD_MTEXT_DEFINED_HEIGHT_BEGIN
1070
    46
1040
7.886094610471809
1000
ACAD_MTEXT_DEFINED_HEIGHT_END
  0
INSERT
  5
1382D
330
1F
100
AcDbEntity
  8
DIM
100
AcDbBlockReference
  2
A4图框-NEW
 10
-510.7308051365452
 20
-334.1402619726514
 30
0.0
  0
INSERT
  5
18A7A
330
1F
100
AcDbEntity
  8
0
100
AcDbBlockReference
  2
*X39
 10
471.7253943191066
 20
259.262774732041
 30
0.0
  0
ARC
  5
18A7B
330
1F
100
AcDbEntity
  8
0
100
AcDbCircle
 10
443.2472343191069
 20
268.6972547320409
 30
0.0
 40
1.0
100
AcDbArc
 50
180.0
 51
270.0
  0
ARC
  5
18A7C
330
1F
100
AcDbEntity
  8
0
100
AcDbCircle
 10
443.2472343191069
 20
268.6972547320409
 30
0.0
 40
1.0
100
AcDbArc
 50
270.0
 51
180.0
  0
LINE
  5
18A81
330
1F
100
AcDbEntity
  8
0
100
AcDbLine
 10
412.7472343191069
 20
270.1972547320409
 30
0.0
 11
434.747234319107
 21
270.1972547320409
 31
0.0
  0
LINE
  5
18A82
330
1F
100
AcDbEntity
  8
0
100
AcDbLine
 10
434.747234319107
 20
267.1972547320409
 30
0.0
 11
412.7472343191069
 21
267.1972547320409
 31
0.0
  0
LINE
  5
18A85
330
1F
100
AcDbEntity
  8
0
100
AcDbLine
 10
434.747234319107
 20
270.1972547320409
 30
0.0
 11
434.747234319107
 21
267.1972547320409
 31
0.0
  0
LINE
  5
18A86
330
1F
100
AcDbEntity
  8
0
100
AcDbLine
 10
439.7472343191068
 20
276.4472547320409
 30
0.0
 11
439.7472343191068
 21
278.6972547320409
 31
0.0
  0
LINE
  5
18A87
330
1F
100
AcDbEntity
  8
0
100
AcDbLine
 10
439.7472343191068
 20
258.6972547320409
 30
0.0
 11
439.7472343191068
 21
260.9472547320409
 31
0.0
  0
LINE
  5
18A88
330
1F
100
AcDbEntity
  8
0
100
AcDbLine
 10
444.7472343191066
 20
257.6972747320409
 30
0.0
 11
444.7472343191066
 21
258.6972547320409
 31
0.0
  0
LINE
  5
18A89
330
1F
100
AcDbEntity
  8
0
100
AcDbLine
 10
444.7472343191066
 20
278.6972547320409
 30
0.0
 11
444.7472343191066
 21
279.6972547320409
 31
0.0
  0
LINE
  5
18A8A
330
1F
100
AcDbEntity
  8
0
100
AcDbLine
 10
472.7472343191069
 20
260.9472547320409
 30
0.0
 11
472.7472343191069
 21
258.1972547320409
 31
0.0
  0
LINE
  5
18A8B
330
1F
100
AcDbEntity
  8
0
100
AcDbLine
 10
472.7472343191069
 20
279.1972547320409
 30
0.0
 11
472.7472343191069
 21
276.4472547320409
 31
0.0
  0
LINE
  5
18A8C
330
1F
100
AcDbEntity
  8
0
100
AcDbLine
 10
472.7472343191069
 20
276.4472547320409
 30
0.0
 11
472.7472343191069
 21
260.9472547320409
 31
0.0
  0
LINE
  5
18AEF
330
1F
100
AcDbEntity
  8
0
100
AcDbLine
 10
471.0151843191063
 20
261.9472547320409
 30
0.0
 11
472.7472343191069
 21
260.9472547320409
 31
0.0
  0
LINE
  5
18AF0
330
1F
100
AcDbEntity
  8
0
100
AcDbLine
 10
472.7472343191069
 20
276.4472547320409
 30
0.0
 11
471.0151843191063
 21
275.4472547320409
 31
0.0
  0
LINE
  5
18AF1
330
1F
100
AcDbEntity
  8
0
100
AcDbLine
 10
471.0151843191063
 20
275.4472547320409
 30
0.0
 11
471.0151843191063
 21
261.9472547320409
 31
0.0
  0
LINE
  5
18AF2
330
1F
100
AcDbEntity
  8
0
100
AcDbLine
 10
440.7472343191066
 20
279.6972547320409
 30
0.0
 11
444.7472343191066
 21
279.6972547320409
 31
0.0
  0
LINE
  5
18AF3
330
1F
100
AcDbEntity
  8
0
100
AcDbLine
 10
444.7472343191066
 20
257.6972547320409
 30
0.0
 11
440.7472343191066
 21
257.6972547320409
 31
0.0
  0
ARC
  5
18AF4
330
1F
100
AcDbEntity
  8
0
100
AcDbCircle
 10
445.2472343191065
 20
258.6972547320409
 30
0.0
 40
0.5
100
AcDbArc
 50
90.0
 51
180.0
  0
ARC
  5
18AF5
330
1F
100
AcDbEntity
  8
0
100
AcDbCircle
 10
445.2472343191065
 20
278.6972547320409
 30
0.0
 40
0.5
100
AcDbArc
 50
180.0
 51
270.0
  0
LINE
  5
18AF6
330
1F
100
AcDbEntity
  8
0
100
AcDbLine
 10
445.2472343191065
 20
259.1972547320409
 30
0.0
 11
469.7472343191066
 21
259.1972547320409
 31
0.0
  0
LINE
  5
18AF7
330
1F
100
AcDbEntity
  8
0
100
AcDbLine
 10
469.7472343191066
 20
278.1972547320409
 30
0.0
 11
445.2472343191065
 21
278.1972547320409
 31
0.0
  0
LINE
  5
18AF8
330
1F
100
AcDbEntity
  8
0
100
AcDbLine
 10
440.7472343191066
 20
257.6972547320409
 30
0.0
 11
439.7472343191068
 21
258.6972547320409
 31
0.0
  0
LINE
  5
18AF9
330
1F
100
AcDbEntity
  8
0
100
AcDbLine
 10
439.7472343191068
 20
278.6972547320409
 30
0.0
 11
440.7472343191066
 21
279.6972547320409
 31
0.0
  0
LINE
  5
18AFA
330
1F
100
AcDbEntity
  8
0
100
AcDbLine
 10
414.7472343191068
 20
261.4472547320409
 30
0.0
 11
436.812434319106
 21
261.4472547320409
 31
0.0
  0
LINE
  5
18AFB
330
1F
100
AcDbEntity
  8
0
100
AcDbLine
 10
439.2472343191069
 20
261.4472547320409
 30
0.0
 11
436.812434319106
 21
261.4472547320409
 31
0.0
  0
LINE
  5
18AFC
330
1F
100
AcDbEntity
  8
0
100
AcDbLine
 10
436.812434319106
 20
275.9472547320409
 30
0.0
 11
414.7472343191068
 21
275.9472547320409
 31
0.0
  0
LINE
  5
18AFD
330
1F
100
AcDbEntity
  8
0
100
AcDbLine
 10
436.812434319106
 20
275.9472547320409
 30
0.0
 11
439.2472343191069
 21
275.9472547320409
 31
0.0
  0
ARC
  5
18AFE
330
1F
100
AcDbEntity
  8
0
100
AcDbCircle
 10
439.2472343191069
 20
260.9472547320409
 30
0.0
 40
0.5
100
AcDbArc
 50
0.0
 51
90.0
  0
ARC
  5
18AFF
330
1F
100
AcDbEntity
  8
0
100
AcDbCircle
 10
439.2472343191069
 20
276.4472547320409
 30
0.0
 40
0.5
100
AcDbArc
 50
270.0
 51
0.0
  0
LINE
  5
18B00
330
1F
100
AcDbEntity
  8
0
100
AcDbLine
 10
471.0151843191063
 20
261.9472547320409
 30
0.0
 11
442.2472343191069
 21
261.9472547320409
 31
0.0
  0
LINE
  5
18B01
330
1F
100
AcDbEntity
  8
0
100
AcDbLine
 10
442.2472343191069
 20
261.9472547320409
 30
0.0
 11
442.2472343191069
 21
268.6972547320409
 31
0.0
  0
LINE
  5
18B02
330
1F
100
AcDbEntity
  8
0
100
AcDbLine
 10
442.2472343191069
 20
268.6972547320409
 30
0.0
 11
442.2472343191069
 21
275.4472547320409
 31
0.0
  0
LINE
  5
18B03
330
1F
100
AcDbEntity
  8
0
100
AcDbLine
 10
442.2472343191069
 20
275.4472547320409
 30
0.0
 11
471.0151843191063
 21
275.4472547320409
 31
0.0
  0
LINE
  5
18B04
330
1F
100
AcDbEntity
  8
0
100
AcDbLine
 10
442.2472343191069
 20
261.9472547320409
 30
0.0
 11
438.350124319106
 21
268.6972547320409
 31
0.0
  0
LINE
  5
18B05
330
1F
100
AcDbEntity
  8
0
100
AcDbLine
 10
438.350124319106
 20
268.6972547320409
 30
0.0
 11
442.2472343191069
 21
275.4472547320409
 31
0.0
  0
LINE
  5
18B06
330
1F
100
AcDbEntity
  8
0
100
AcDbLine
 10
472.7472343191069
 20
258.1972547320409
 30
0.0
 11
470.7472343191069
 21
258.1972547320409
 31
0.0
  0
LINE
  5
18B07
330
1F
100
AcDbEntity
  8
0
100
AcDbLine
 10
470.7472343191069
 20
279.1972547320409
 30
0.0
 11
472.7472343191069
 21
279.1972547320409
 31
0.0
  0
LINE
  5
18B08
330
1F
100
AcDbEntity
  8
0
100
AcDbLine
 10
470.7472343191069
 20
258.1972547320409
 30
0.0
 11
469.7472343191066
 21
259.1972547320409
 31
0.0
  0
LINE
  5
18B09
330
1F
100
AcDbEntity
  8
0
100
AcDbLine
 10
469.7472343191066
 20
278.1972547320409
 30
0.0
 11
470.7472343191069
 21
279.1972547320409
 31
0.0
  0
POLYLINE
  5
18B0A
330
1F
100
AcDbEntity
  8
0
100
AcDb2dPolyline
 66
     1
 10
0.0
 20
0.0
 30
0.0
 70
     2
  0
VERTEX
  5
18B0B
330
18B0A
100
AcDbEntity
  8
0
100
AcDbVertex
100
AcDb2dVertex
 10
436.812434319106
 20
275.9472547320409
 30
0.0
  0
VERTEX
  5
18B0C
330
18B0A
100
AcDbEntity
  8
0
100
AcDbVertex
100
AcDb2dVertex
 10
436.7567143191066
 20
275.8681747320409
 30
0.0
 42
0.028100955
 70
     1
  0
VERTEX
  5
18B0D
330
18B0A
100
AcDbEntity
  8
0
100
AcDbVertex
100
AcDb2dVertex
 10
436.7139143191065
 20
275.789434732041
 30
0.0
 42
0.030697651
  0
VERTEX
  5
18B0E
330
18B0A
100
AcDbEntity
  8
0
100
AcDbVertex
100
AcDb2dVertex
 10
436.6842843191061
 20
275.7110347320409
 30
0.0
 42
0.037401643
 70
     1
  0
VERTEX
  5
18B0F
330
18B0A
100
AcDbEntity
  8
0
100
AcDbVertex
100
AcDb2dVertex
 10
436.6693743191066
 20
275.6331247320409
 30
0.0
 42
0.050251478
  0
VERTEX
  5
18B10
330
18B0A
100
AcDbEntity
  8
0
100
AcDbVertex
100
AcDb2dVertex
 10
436.6717843191066
 20
275.5558647320409
 30
0.0
 42
0.05399926
 70
     1
  0
VERTEX
  5
18B11
330
18B0A
100
AcDbEntity
  8
0
100
AcDbVertex
100
AcDb2dVertex
 10
436.6896243191062
 20
275.4791547320408
 30
0.0
 42
0.045601826
  0
VERTEX
  5
18B12
330
18B0A
100
AcDbEntity
  8
0
100
AcDbVertex
100
AcDb2dVertex
 10
436.7206943191062
 20
275.4027847320409
 30
0.0
 42
0.029016834
 70
     1
  0
VERTEX
  5
18B13
330
18B0A
100
AcDbEntity
  8
0
100
AcDbVertex
100
AcDb2dVertex
 10
436.7580543191063
 20
275.3262347320409
 30
0.0
 42
0.0059370533
  0
VERTEX
  5
18B14
330
18B0A
100
AcDbEntity
  8
0
100
AcDbVertex
100
AcDb2dVertex
 10
436.7951143191061
 20
275.2489847320408
 30
0.0
 42
-0.007263636
 70
     1
  0
VERTEX
  5
18B15
330
18B0A
100
AcDbEntity
  8
0
100
AcDbVertex
100
AcDb2dVertex
 10
436.8283043191062
 20
275.1707847320409
 30
0.0
 42
-0.016062308
  0
VERTEX
  5
18B16
330
18B0A
100
AcDbEntity
  8
0
100
AcDbVertex
100
AcDb2dVertex
 10
436.8551043191065
 20
275.0914547320409
 30
0.0
 42
-0.018902012
 70
     1
  0
VERTEX
  5
18B17
330
18B0A
100
AcDbEntity
  8
0
100
AcDbVertex
100
AcDb2dVertex
 10
436.8762943191062
 20
275.0111347320408
 30
0.0
 42
-0.015491246
  0
VERTEX
  5
18B18
330
18B0A
100
AcDbEntity
  8
0
100
AcDbVertex
100
AcDb2dVertex
 10
436.8927143191061
 20
274.929934732041
 30
0.0
 42
-0.013319864
 70
     1
  0
VERTEX
  5
18B19
330
18B0A
100
AcDbEntity
  8
0
100
AcDbVertex
100
AcDb2dVertex
 10
436.9050843191065
 20
274.847984732041
 30
0.0
 42
-0.011972828
  0
VERTEX
  5
18B1A
330
18B0A
100
AcDbEntity
  8
0
100
AcDbVertex
100
AcDb2dVertex
 10
436.9136643191062
 20
274.7653447320409
 30
0.0
 42
-0.010456497
 70
     1
  0
VERTEX
  5
18B1B
330
18B0A
100
AcDbEntity
  8
0
100
AcDbVertex
100
AcDb2dVertex
 10
436.9191843191067
 20
274.6821447320408
 30
0.0
 42
-0.008437282
  0
VERTEX
  5
18B1C
330
18B0A
100
AcDbEntity
  8
0
100
AcDbVertex
100
AcDb2dVertex
 10
436.9221343191068
 20
274.5984547320409
 30
0.0
 42
-0.0067574376
 70
     1
  0
VERTEX
  5
18B1D
330
18B0A
100
AcDbEntity
  8
0
100
AcDbVertex
100
AcDb2dVertex
 10
436.9231443191067
 20
274.5144147320409
 30
0.0
 42
-0.0050171423
  0
VERTEX
  5
18B1E
330
18B0A
100
AcDbEntity
  8
0
100
AcDbVertex
100
AcDb2dVertex
 10
436.922704319106
 20
274.430104732041
 30
0.0
 42
-0.0033530222
 70
     1
  0
VERTEX
  5
18B1F
330
18B0A
100
AcDbEntity
  8
0
100
AcDbVertex
100
AcDb2dVertex
 10
436.9214743191061
 20
274.345634732041
 30
0.0
 42
-0.0013449283
  0
VERTEX
  5
18B20
330
18B0A
100
AcDbEntity
  8
0
100
AcDbVertex
100
AcDb2dVertex
 10
436.9200343191062
 20
274.2610947320409
 30
0.0
 42
-0.0001577391
 70
     1
  0
VERTEX
  5
18B21
330
18B0A
100
AcDbEntity
  8
0
100
AcDbVertex
100
AcDb2dVertex
 10
436.9186443191066
 20
274.176594732041
 30
0.0
 42
0.000522925
  0
VERTEX
  5
18B22
330
18B0A
100
AcDbEntity
  8
0
100
AcDbVertex
100
AcDb2dVertex
 10
436.9174443191062
 20
274.0921947320408
 30
0.0
 42
0.0002389086
 70
     1
  0
VERTEX
  5
18B23
330
18B0A
100
AcDbEntity
  8
0
100
AcDbVertex
100
AcDb2dVertex
 10
436.9161043191065
 20
274.0079347320409
 30
0.0
 42
-0.0010891943
  0
VERTEX
  5
18B24
330
18B0A
100
AcDbEntity
  8
0
100
AcDbVertex
100
AcDb2dVertex
 10
436.9142043191062
 20
273.923894732041
 30
0.0
 42
-0.0021219741
 70
     1
  0
VERTEX
  5
18B25
330
18B0A
100
AcDbEntity
  8
0
100
AcDbVertex
100
AcDb2dVertex
 10
436.9114443191068
 20
273.8400947320409
 30
0.0
 42
-0.0031220359
  0
VERTEX
  5
18B26
330
18B0A
100
AcDbEntity
  8
0
100
AcDbVertex
100
AcDb2dVertex
 10
436.9074643191064
 20
273.7566147320409
 30
0.0
 42
-0.0040585058
 70
     1
  0
VERTEX
  5
18B27
330
18B0A
100
AcDbEntity
  8
0
100
AcDbVertex
100
AcDb2dVertex
 10
436.9019843191066
 20
273.6734847320409
 30
0.0
 42
-0.0051634958
  0
VERTEX
  5
18B28
330
18B0A
100
AcDbEntity
  8
0
100
AcDbVertex
100
AcDb2dVertex
 10
436.8946043191066
 20
273.590764732041
 30
0.0
 42
-0.0061640707
 70
     1
  0
VERTEX
  5
18B29
330
18B0A
100
AcDbEntity
  8
0
100
AcDbVertex
100
AcDb2dVertex
 10
436.8850643191064
 20
273.5084947320409
 30
0.0
 42
-0.0072992842
  0
VERTEX
  5
18B2A
330
18B0A
100
AcDbEntity
  8
0
100
AcDbVertex
100
AcDb2dVertex
 10
436.8729143191059
 20
273.4267447320409
 30
0.0
 42
-0.008250844
 70
     1
  0
VERTEX
  5
18B2B
330
18B0A
100
AcDbEntity
  8
0
100
AcDbVertex
100
AcDb2dVertex
 10
436.8579843191065
 20
273.345544732041
 30
0.0
 42
-0.0092388388
  0
VERTEX
  5
18B2C
330
18B0A
100
AcDbEntity
  8
0
100
AcDbVertex
100
AcDb2dVertex
 10
436.8398043191063
 20
273.264964732041
 30
0.0
 42
-0.010330993
 70
     1
  0
VERTEX
  5
18B2D
330
18B0A
100
AcDbEntity
  8
0
100
AcDbVertex
100
AcDb2dVertex
 10
436.8180743191063
 20
273.1850447320408
 30
0.0
 42
-0.011782005
  0
VERTEX
  5
18B2E
330
18B0A
100
AcDbEntity
  8
0
100
AcDbVertex
100
AcDb2dVertex
 10
436.7923043191061
 20
273.1058747320408
 30
0.0
 42
-0.0117767
 70
     1
  0
VERTEX
  5
18B2F
330
18B0A
100
AcDbEntity
  8
0
100
AcDbVertex
100
AcDb2dVertex
 10
436.7628943191061
 20
273.027374732041
 30
0.0
 42
-0.010427405
  0
VERTEX
  5
18B30
330
18B0A
100
AcDbEntity
  8
0
100
AcDbVertex
100
AcDb2dVertex
 10
436.7302443191069
 20
272.9495447320408
 30
0.0
 42
-0.0080854629
 70
     1
  0
VERTEX
  5
18B31
330
18B0A
100
AcDbEntity
  8
0
100
AcDbVertex
100
AcDb2dVertex
 10
436.6955643191062
 20
272.872194732041
 30
0.0
 42
-0.004280527
  0
VERTEX
  5
18B32
330
18B0A
100
AcDbEntity
  8
0
100
AcDbVertex
100
AcDb2dVertex
 10
436.6600143191066
 20
272.795194732041
 30
0.0
 42
-0.0011852874
 70
     1
  0
VERTEX
  5
18B33
330
18B0A
100
AcDbEntity
  8
0
100
AcDbVertex
100
AcDb2dVertex
 10
436.6247243191065
 20
272.7184147320409
 30
0.0
 42
0.0020688872
  0
VERTEX
  5
18B34
330
18B0A
100
AcDbEntity
  8
0
100
AcDbVertex
100
AcDb2dVertex
 10
436.5908043191059
 20
272.6417047320409
 30
0.0
 42
0.0050201034
 70
     1
  0
VERTEX
  5
18B35
330
18B0A
100
AcDbEntity
  8
0
100
AcDbVertex
100
AcDb2dVertex
 10
436.5592643191058
 20
272.5649347320409
 30
0.0
 42
0.0084696452
  0
VERTEX
  5
18B36
330
18B0A
100
AcDbEntity
  8
0
100
AcDbVertex
100
AcDb2dVertex
 10
436.5313343191068
 20
272.4879647320409
 30
0.0
 42
0.011998797
 70
     1
  0
VERTEX
  5
18B37
330
18B0A
100
AcDbEntity
  8
0
100
AcDbVertex
100
AcDb2dVertex
 10
436.5080843191066
 20
272.410654732041
 30
0.0
 42
0.016457401
  0
VERTEX
  5
18B38
330
18B0A
100
AcDbEntity
  8
0
100
AcDbVertex
100
AcDb2dVertex
 10
436.4908443191064
 20
272.332844732041
 30
0.0
 42
0.019130283
 70
     1
  0
VERTEX
  5
18B39
330
18B0A
100
AcDbEntity
  8
0
100
AcDbVertex
100
AcDb2dVertex
 10
436.4797743191068
 20
272.254504732041
 30
0.0
 42
0.020260466
  0
VERTEX
  5
18B3A
330
18B0A
100
AcDbEntity
  8
0
100
AcDbVertex
100
AcDb2dVertex
 10
436.4752343191061
 20
272.1755747320409
 30
0.0
 42
0.019648142
 70
     1
  0
VERTEX
  5
18B3B
330
18B0A
100
AcDbEntity
  8
0
100
AcDbVertex
100
AcDb2dVertex
 10
436.4764443191062
 20
272.0961247320409
 30
0.0
 42
0.017172958
  0
VERTEX
  5
18B3C
330
18B0A
100
AcDbEntity
  8
0
100
AcDbVertex
100
AcDb2dVertex
 10
436.4829543191066
 20
272.0161947320408
 30
0.0
 42
0.015148506
 70
     1
  0
VERTEX
  5
18B3D
330
18B0A
100
AcDbEntity
  8
0
100
AcDbVertex
100
AcDb2dVertex
 10
436.4940343191068
 20
271.9358547320408
 30
0.0
 42
0.013223783
  0
VERTEX
  5
18B3E
330
18B0A
100
AcDbEntity
  8
0
100
AcDbVertex
100
AcDb2dVertex
 10
436.5093743191065
 20
271.8551047320409
 30
0.0
 42
0.011443594
 70
     1
  0
VERTEX
  5
18B3F
330
18B0A
100
AcDbEntity
  8
0
100
AcDbVertex
100
AcDb2dVertex
 10
436.5282743191068
 20
271.774034732041
 30
0.0
 42
0.0095016338
  0
VERTEX
  5
18B40
330
18B0A
100
AcDbEntity
  8
0
100
AcDbVertex
100
AcDb2dVertex
 10
436.5503143191065
 20
271.6926447320409
 30
0.0
 42
0.0078516941
 70
     1
  0
VERTEX
  5
18B41
330
18B0A
100
AcDbEntity
  8
0
100
AcDbVertex
100
AcDb2dVertex
 10
436.5748643191066
 20
271.6110247320409
 30
0.0
 42
0.0061421193
  0
VERTEX
  5
18B42
330
18B0A
100
AcDbEntity
  8
0
100
AcDbVertex
100
AcDb2dVertex
 10
436.6014543191062
 20
271.5291747320411
 30
0.0
 42
0.004678461
 70
     1
  0
VERTEX
  5
18B43
330
18B0A
100
AcDbEntity
  8
0
100
AcDbVertex
100
AcDb2dVertex
 10
436.6295043191061
 20
271.4471747320409
 30
0.0
 42
0.0031062387
  0
VERTEX
  5
18B44
330
18B0A
100
AcDbEntity
  8
0
100
AcDbVertex
100
AcDb2dVertex
 10
436.6585043191061
 20
271.3650547320408
 30
0.0
 42
0.001764368
 70
     1
  0
VERTEX
  5
18B45
330
18B0A
100
AcDbEntity
  8
0
100
AcDbVertex
100
AcDb2dVertex
 10
436.6879143191066
 20
271.282854732041
 30
0.0
 42
0.0002974614
  0
VERTEX
  5
18B46
330
18B0A
100
AcDbEntity
  8
0
100
AcDbVertex
100
AcDb2dVertex
 10
436.7171943191062
 20
271.2006147320408
 30
0.0
 42
-0.0010418417
 70
     1
  0
VERTEX
  5
18B47
330
18B0A
100
AcDbEntity
  8
0
100
AcDbVertex
100
AcDb2dVertex
 10
436.7458043191065
 20
271.1184047320408
 30
0.0
 42
-0.0026176938
  0
VERTEX
  5
18B48
330
18B0A
100
AcDbEntity
  8
0
100
AcDbVertex
100
AcDb2dVertex
 10
436.7731643191063
 20
271.0362447320409
 30
0.0
 42
-0.0038625339
 70
     1
  0
VERTEX
  5
18B49
330
18B0A
100
AcDbEntity
  8
0
100
AcDbVertex
100
AcDb2dVertex
 10
436.7988943191061
 20
270.9541747320409
 30
0.0
 42
-0.0050880661
  0
VERTEX
  5
18B4A
330
18B0A
100
AcDbEntity
  8
0
100
AcDbVertex
100
AcDb2dVertex
 10
436.8225943191068
 20
270.8722247320409
 30
0.0
 42
-0.0056427184
 70
     1
  0
VERTEX
  5
18B4B
330
18B0A
100
AcDbEntity
  8
0
100
AcDbVertex
100
AcDb2dVertex
 10
436.8443043191065
 20
270.7903547320409
 30
0.0
 42
-0.0055913926
  0
VERTEX
  5
18B4C
330
18B0A
100
AcDbEntity
  8
0
100
AcDbVertex
100
AcDb2dVertex
 10
436.8640043191065
 20
270.7085547320409
 30
0.0
 42
-0.0056220883
 70
     1
  0
VERTEX
  5
18B4D
330
18B0A
100
AcDbEntity
  8
0
100
AcDbVertex
100
AcDb2dVertex
 10
436.8817743191057
 20
270.626784732041
 30
0.0
 42
-0.0057233536
  0
VERTEX
  5
18B4E
330
18B0A
100
AcDbEntity
  8
0
100
AcDbVertex
100
AcDb2dVertex
 10
436.8975243191065
 20
270.545034732041
 30
0.0
 42
-0.005793599
 70
     1
  0
VERTEX
  5
18B4F
330
18B0A
100
AcDbEntity
  8
0
100
AcDbVertex
100
AcDb2dVertex
 10
436.9113543191063
 20
270.4632647320409
 30
0.0
 42
-0.0058295234
  0
VERTEX
  5
18B50
330
18B0A
100
AcDbEntity
  8
0
100
AcDbVertex
100
AcDb2dVertex
 10
436.9231643191064
 20
270.381464732041
 30
0.0
 42
-0.0058623747
 70
     1
  0
VERTEX
  5
18B51
330
18B0A
100
AcDbEntity
  8
0
100
AcDbVertex
100
AcDb2dVertex
 10
436.9330643191061
 20
270.299614732041
 30
0.0
 42
-0.0058874283
  0
VERTEX
  5
18B52
330
18B0A
100
AcDbEntity
  8
0
100
AcDbVertex
100
AcDb2dVertex
 10
436.9409643191069
 20
270.217674732041
 30
0.0
 42
-0.0059009357
 70
     1
  0
VERTEX
  5
18B53
330
18B0A
100
AcDbEntity
  8
0
100
AcDbVertex
100
AcDb2dVertex
 10
436.9469543191065
 20
270.135624732041
 30
0.0
 42
-0.0058998889
  0
VERTEX
  5
18B54
330
18B0A
100
AcDbEntity
  8
0
100
AcDbVertex
100
AcDb2dVertex
 10
436.9509643191062
 20
270.0534447320409
 30
0.0
 42
-0.0058880109
 70
     1
  0
VERTEX
  5
18B55
330
18B0A
100
AcDbEntity
  8
0
100
AcDbVertex
100
AcDb2dVertex
 10
436.9530643191065
 20
269.9711147320409
 30
0.0
 42
-0.0058628678
  0
VERTEX
  5
18B56
330
18B0A
100
AcDbEntity
  8
0
100
AcDbVertex
100
AcDb2dVertex
 10
436.9531843191065
 20
269.8886147320409
 30
0.0
 42
-0.0058974742
 70
     1
  0
VERTEX
  5
18B57
330
18B0A
100
AcDbEntity
  8
0
100
AcDbVertex
100
AcDb2dVertex
 10
436.9513743191068
 20
269.8059847320408
 30
0.0
 42
-0.0060195944
  0
VERTEX
  5
18B58
330
18B0A
100
AcDbEntity
  8
0
100
AcDbVertex
100
AcDb2dVertex
 10
436.9474943191065
 20
269.7232847320409
 30
0.0
 42
-0.0061321468
 70
     1
  0
VERTEX
  5
18B59
330
18B0A
100
AcDbEntity
  8
0
100
AcDbVertex
100
AcDb2dVertex
 10
436.9415843191066
 20
269.640574732041
 30
0.0
 42
-0.0062709376
  0
VERTEX
  5
18B5A
330
18B0A
100
AcDbEntity
  8
0
100
AcDbVertex
100
AcDb2dVertex
 10
436.9335143191068
 20
269.557914732041
 30
0.0
 42
-0.0063919696
 70
     1
  0
VERTEX
  5
18B5B
330
18B0A
100
AcDbEntity
  8
0
100
AcDbVertex
100
AcDb2dVertex
 10
436.9233243191068
 20
269.4753447320409
 30
0.0
 42
-0.0065323831
  0
VERTEX
  5
18B5C
330
18B0A
100
AcDbEntity
  8
0
100
AcDbVertex
100
AcDb2dVertex
 10
436.9108843191063
 20
269.3929447320409
 30
0.0
 42
-0.006662616
 70
     1
  0
VERTEX
  5
18B5D
330
18B0A
100
AcDbEntity
  8
0
100
AcDbVertex
100
AcDb2dVertex
 10
436.8962343191062
 20
269.3107547320408
 30
0.0
 42
-0.0068228829
  0
VERTEX
  5
18B5E
330
18B0A
100
AcDbEntity
  8
0
100
AcDbVertex
100
AcDb2dVertex
 10
436.8792343191064
 20
269.2288547320409
 30
0.0
 42
-0.0069358456
 70
     1
  0
VERTEX
  5
18B5F
330
18B0A
100
AcDbEntity
  8
0
100
AcDbVertex
100
AcDb2dVertex
 10
436.8599443191063
 20
269.1472647320409
 30
0.0
 42
-0.0070391729
  0
VERTEX
  5
18B60
330
18B0A
100
AcDbEntity
  8
0
100
AcDbVertex
100
AcDb2dVertex
 10
436.8382343191064
 20
269.0660747320408
 30
0.0
 42
-0.007226743
 70
     1
  0
VERTEX
  5
18B61
330
18B0A
100
AcDbEntity
  8
0
100
AcDbVertex
100
AcDb2dVertex
 10
436.8140943191066
 20
268.985324732041
 30
0.0
 42
-0.0075548908
  0
VERTEX
  5
18B62
330
18B0A
100
AcDbEntity
  8
0
100
AcDbVertex
100
AcDb2dVertex
 10
436.7873843191065
 20
268.9051047320409
 30
0.0
 42
-0.0073886506
 70
     1
  0
VERTEX
  5
18B63
330
18B0A
100
AcDbEntity
  8
0
100
AcDbVertex
100
AcDb2dVertex
 10
436.7583543191059
 20
268.8253947320409
 30
0.0
 42
-0.0067173403
  0
VERTEX
  5
18B64
330
18B0A
100
AcDbEntity
  8
0
100
AcDbVertex
100
AcDb2dVertex
 10
436.7272443191062
 20
268.746214732041
 30
0.0
 42
-0.0052978802
 70
     1
  0
VERTEX
  5
18B65
330
18B0A
100
AcDbEntity
  8
0
100
AcDbVertex
100
AcDb2dVertex
 10
436.6948343191062
 20
268.6674547320409
 30
0.0
 42
-0.0028007294
  0
VERTEX
  5
18B66
330
18B0A
100
AcDbEntity
  8
0
100
AcDbVertex
100
AcDb2dVertex
 10
436.6618943191062
 20
268.5890347320408
 30
0.0
 42
-0.0007410008
 70
     1
  0
VERTEX
  5
18B67
330
18B0A
100
AcDbEntity
  8
0
100
AcDbVertex
100
AcDb2dVertex
 10
436.6291943191066
 20
268.5108347320409
 30
0.0
 42
0.0014388406
  0
VERTEX
  5
18B68
330
18B0A
100
AcDbEntity
  8
0
100
AcDbVertex
100
AcDb2dVertex
 10
436.5974543191063
 20
268.4327947320408
 30
0.0
 42
0.0034581332
 70
     1
  0
VERTEX
  5
18B69
330
18B0A
100
AcDbEntity
  8
0
100
AcDbVertex
100
AcDb2dVertex
 10
436.5673943191062
 20
268.3547947320408
 30
0.0
 42
0.0058528267
  0
VERTEX
  5
18B6A
330
18B0A
100
AcDbEntity
  8
0
100
AcDbVertex
100
AcDb2dVertex
 10
436.5398443191065
 20
268.2767647320409
 30
0.0
 42
0.0080201978
 70
     1
  0
VERTEX
  5
18B6B
330
18B0A
100
AcDbEntity
  8
0
100
AcDbVertex
100
AcDb2dVertex
 10
436.5154043191061
 20
268.1986047320409
 30
0.0
 42
0.010473025
  0
VERTEX
  5
18B6C
330
18B0A
100
AcDbEntity
  8
0
100
AcDbVertex
100
AcDb2dVertex
 10
436.4949643191059
 20
268.120214732041
 30
0.0
 42
0.012978512
 70
     1
  0
VERTEX
  5
18B6D
330
18B0A
100
AcDbEntity
  8
0
100
AcDbVertex
100
AcDb2dVertex
 10
436.4791743191066
 20
268.041514732041
 30
0.0
 42
0.016066952
  0
VERTEX
  5
18B6E
330
18B0A
100
AcDbEntity
  8
0
100
AcDbVertex
100
AcDb2dVertex
 10
436.4689943191063
 20
267.9623847320409
 30
0.0
 42
0.017493849
 70
     1
  0
VERTEX
  5
18B6F
330
18B0A
100
AcDbEntity
  8
0
100
AcDbVertex
100
AcDb2dVertex
 10
436.4642743191065
 20
267.8828447320409
 30
0.0
 42
0.017430584
  0
VERTEX
  5
18B70
330
18B0A
100
AcDbEntity
  8
0
100
AcDbVertex
100
AcDb2dVertex
 10
436.4651443191061
 20
267.8028847320409
 30
0.0
 42
0.016492742
 70
     1
  0
VERTEX
  5
18B71
330
18B0A
100
AcDbEntity
  8
0
100
AcDbVertex
100
AcDb2dVertex
 10
436.4709443191062
 20
267.7225747320409
 30
0.0
 42
0.014564989
  0
VERTEX
  5
18B72
330
18B0A
100
AcDbEntity
  8
0
100
AcDbVertex
100
AcDb2dVertex
 10
436.4813543191059
 20
267.6419747320409
 30
0.0
 42
0.012973827
 70
     1
  0
VERTEX
  5
18B73
330
18B0A
100
AcDbEntity
  8
0
100
AcDbVertex
100
AcDb2dVertex
 10
436.4957743191062
 20
267.561144732041
 30
0.0
 42
0.011427329
  0
VERTEX
  5
18B74
330
18B0A
100
AcDbEntity
  8
0
100
AcDbVertex
100
AcDb2dVertex
 10
436.5139343191061
 20
267.4801347320409
 30
0.0
 42
0.01002892
 70
     1
  0
VERTEX
  5
18B75
330
18B0A
100
AcDbEntity
  8
0
100
AcDbVertex
100
AcDb2dVertex
 10
436.5352643191066
 20
267.3989947320409
 30
0.0
 42
0.008519431
  0
VERTEX
  5
18B76
330
18B0A
100
AcDbEntity
  8
0
100
AcDbVertex
100
AcDb2dVertex
 10
436.5594343191061
 20
267.317794732041
 30
0.0
 42
0.0072325982
 70
     1
  0
VERTEX
  5
18B77
330
18B0A
100
AcDbEntity
  8
0
100
AcDbVertex
100
AcDb2dVertex
 10
436.5859143191068
 20
267.236584732041
 30
0.0
 42
0.005887357
  0
VERTEX
  5
18B78
330
18B0A
100
AcDbEntity
  8
0
100
AcDbVertex
100
AcDb2dVertex
 10
436.6143443191061
 20
267.1554147320408
 30
0.0
 42
0.0047353211
 70
     1
  0
VERTEX
  5
18B79
330
18B0A
100
AcDbEntity
  8
0
100
AcDbVertex
100
AcDb2dVertex
 10
436.6442143191063
 20
267.0743547320408
 30
0.0
 42
0.0034954543
  0
VERTEX
  5
18B7A
330
18B0A
100
AcDbEntity
  8
0
100
AcDbVertex
100
AcDb2dVertex
 10
436.6751543191061
 20
266.9934447320409
 30
0.0
 42
0.0024269144
 70
     1
  0
VERTEX
  5
18B7B
330
18B0A
100
AcDbEntity
  8
0
100
AcDbVertex
100
AcDb2dVertex
 10
436.7066843191063
 20
266.912744732041
 30
0.0
 42
0.0012474107
  0
VERTEX
  5
18B7C
330
18B0A
100
AcDbEntity
  8
0
100
AcDbVertex
100
AcDb2dVertex
 10
436.7383843191068
 20
266.8323247320409
 30
0.0
 42
0.0002049548
 70
     1
  0
VERTEX
  5
18B7D
330
18B0A
100
AcDbEntity
  8
0
100
AcDbVertex
100
AcDb2dVertex
 10
436.7698243191063
 20
266.7522147320408
 30
0.0
 42
-0.000983846
  0
VERTEX
  5
18B7E
330
18B0A
100
AcDbEntity
  8
0
100
AcDbVertex
100
AcDb2dVertex
 10
436.8005543191059
 20
266.6724747320409
 30
0.0
 42
-0.0019465492
 70
     1
  0
VERTEX
  5
18B7F
330
18B0A
100
AcDbEntity
  8
0
100
AcDbVertex
100
AcDb2dVertex
 10
436.8303043191063
 20
266.593024732041
 30
0.0
 42
-0.0029196359
  0
VERTEX
  5
18B80
330
18B0A
100
AcDbEntity
  8
0
100
AcDbVertex
100
AcDb2dVertex
 10
436.8587343191069
 20
266.5137847320409
 30
0.0
 42
-0.0038072143
 70
     1
  0
VERTEX
  5
18B81
330
18B0A
100
AcDbEntity
  8
0
100
AcDbVertex
100
AcDb2dVertex
 10
436.8856243191061
 20
266.4346347320409
 30
0.0
 42
-0.0048169053
  0
VERTEX
  5
18B82
330
18B0A
100
AcDbEntity
  8
0
100
AcDbVertex
100
AcDb2dVertex
 10
436.9106143191069
 20
266.3554947320409
 30
0.0
 42
-0.0057244023
 70
     1
  0
VERTEX
  5
18B83
330
18B0A
100
AcDbEntity
  8
0
100
AcDbVertex
100
AcDb2dVertex
 10
436.933504319106
 20
266.2762647320408
 30
0.0
 42
-0.0067312278
  0
VERTEX
  5
18B84
330
18B0A
100
AcDbEntity
  8
0
100
AcDbVertex
100
AcDb2dVertex
 10
436.9539343191067
 20
266.196854732041
 30
0.0
 42
-0.0077022539
 70
     1
  0
VERTEX
  5
18B85
330
18B0A
100
AcDbEntity
  8
0
100
AcDbVertex
100
AcDb2dVertex
 10
436.9716943191063
 20
266.1171447320408
 30
0.0
 42
-0.0088467827
  0
VERTEX
  5
18B86
330
18B0A
100
AcDbEntity
  8
0
100
AcDbVertex
100
AcDb2dVertex
 10
436.9863743191065
 20
266.0370347320409
 30
0.0
 42
-0.0095374146
 70
     1
  0
VERTEX
  5
18B87
330
18B0A
100
AcDbEntity
  8
0
100
AcDbVertex
100
AcDb2dVertex
 10
436.9979543191067
 20
265.9565047320409
 30
0.0
 42
-0.0099274263
  0
VERTEX
  5
18B88
330
18B0A
100
AcDbEntity
  8
0
100
AcDbVertex
100
AcDb2dVertex
 10
437.0062443191065
 20
265.875524732041
 30
0.0
 42
-0.0099281864
 70
     1
  0
VERTEX
  5
18B89
330
18B0A
100
AcDbEntity
  8
0
100
AcDbVertex
100
AcDb2dVertex
 10
437.0114143191059
 20
265.7941547320409
 30
0.0
 42
-0.0095604807
  0
VERTEX
  5
18B8A
330
18B0A
100
AcDbEntity
  8
0
100
AcDbVertex
100
AcDb2dVertex
 10
437.0134543191062
 20
265.712434732041
 30
0.0
 42
-0.0092812668
 70
     1
  0
VERTEX
  5
18B8B
330
18B0A
100
AcDbEntity
  8
0
100
AcDbVertex
100
AcDb2dVertex
 10
437.0125443191064
 20
265.6304247320409
 30
0.0
 42
-0.0090344314
  0
VERTEX
  5
18B8C
330
18B0A
100
AcDbEntity
  8
0
100
AcDbVertex
100
AcDb2dVertex
 10
437.0086143191068
 20
265.5481647320408
 30
0.0
 42
-0.0087844541
 70
     1
  0
VERTEX
  5
18B8D
330
18B0A
100
AcDbEntity
  8
0
100
AcDbVertex
100
AcDb2dVertex
 10
437.0018543191066
 20
265.4657047320409
 30
0.0
 42
-0.0084966261
  0
VERTEX
  5
18B8E
330
18B0A
100
AcDbEntity
  8
0
100
AcDbVertex
100
AcDb2dVertex
 10
436.9922243191061
 20
265.3830847320408
 30
0.0
 42
-0.0082327198
 70
     1
  0
VERTEX
  5
18B8F
330
18B0A
100
AcDbEntity
  8
0
100
AcDbVertex
100
AcDb2dVertex
 10
436.9798943191065
 20
265.3003547320409
 30
0.0
 42
-0.007957023
  0
VERTEX
  5
18B90
330
18B0A
100
AcDbEntity
  8
0
100
AcDbVertex
100
AcDb2dVertex
 10
436.9648243191061
 20
265.217564732041
 30
0.0
 42
-0.0077011752
 70
     1
  0
VERTEX
  5
18B91
330
18B0A
100
AcDbEntity
  8
0
100
AcDbVertex
100
AcDb2dVertex
 10
436.9471843191062
 20
265.1347547320409
 30
0.0
 42
-0.00743347
  0
VERTEX
  5
18B92
330
18B0A
100
AcDbEntity
  8
0
100
AcDbVertex
100
AcDb2dVertex
 10
436.9269443191064
 20
265.0519847320409
 30
0.0
 42
-0.0071904493
 70
     1
  0
VERTEX
  5
18B93
330
18B0A
100
AcDbEntity
  8
0
100
AcDbVertex
100
AcDb2dVertex
 10
436.9042543191063
 20
264.969284732041
 30
0.0
 42
-0.0069427286
  0
VERTEX
  5
18B94
330
18B0A
100
AcDbEntity
  8
0
100
AcDbVertex
100
AcDb2dVertex
 10
436.8791043191062
 20
264.886704732041
 30
0.0
 42
-0.0067117241
 70
     1
  0
VERTEX
  5
18B95
330
18B0A
100
AcDbEntity
  8
0
100
AcDbVertex
100
AcDb2dVertex
 10
436.851634319106
 20
264.804294732041
 30
0.0
 42
-0.0064694947
  0
VERTEX
  5
18B96
330
18B0A
100
AcDbEntity
  8
0
100
AcDbVertex
100
AcDb2dVertex
 10
436.8218443191066
 20
264.7221147320409
 30
0.0
 42
-0.0062752408
 70
     1
  0
VERTEX
  5
18B97
330
18B0A
100
AcDbEntity
  8
0
100
AcDbVertex
100
AcDb2dVertex
 10
436.7898643191066
 20
264.6401847320408
 30
0.0
 42
-0.0061054481
  0
VERTEX
  5
18B98
330
18B0A
100
AcDbEntity
  8
0
100
AcDbVertex
100
AcDb2dVertex
 10
436.7557443191066
 20
264.5585647320409
 30
0.0
 42
-0.00520787
 70
     1
  0
VERTEX
  5
18B99
330
18B0A
100
AcDbEntity
  8
0
100
AcDbVertex
100
AcDb2dVertex
 10
436.7201343191066
 20
264.4772547320409
 30
0.0
 42
-0.0034143251
  0
VERTEX
  5
18B9A
330
18B0A
100
AcDbEntity
  8
0
100
AcDbVertex
100
AcDb2dVertex
 10
436.683614319106
 20
264.3962747320409
 30
0.0
 42
-0.0018080573
 70
     1
  0
VERTEX
  5
18B9B
330
18B0A
100
AcDbEntity
  8
0
100
AcDbVertex
100
AcDb2dVertex
 10
436.6469043191067
 20
264.3156047320409
 30
0.0
 42
0.0000477516
  0
VERTEX
  5
18B9C
330
18B0A
100
AcDbEntity
  8
0
100
AcDbVertex
100
AcDb2dVertex
 10
436.6106843191068
 20
264.2352547320409
 30
0.0
 42
0.0017017329
 70
     1
  0
VERTEX
  5
18B9D
330
18B0A
100
AcDbEntity
  8
0
100
AcDbVertex
100
AcDb2dVertex
 10
436.5756043191062
 20
264.1552247320408
 30
0.0
 42
0.003606549
  0
VERTEX
  5
18B9E
330
18B0A
100
AcDbEntity
  8
0
100
AcDbVertex
100
AcDb2dVertex
 10
436.5424143191061
 20
264.0755247320409
 30
0.0
 42
0.005390129
 70
     1
  0
VERTEX
  5
18B9F
330
18B0A
100
AcDbEntity
  8
0
100
AcDbVertex
100
AcDb2dVertex
 10
436.5116943191063
 20
263.9961447320409
 30
0.0
 42
0.0075037769
  0
VERTEX
  5
18BA0
330
18B0A
100
AcDbEntity
  8
0
100
AcDbVertex
100
AcDb2dVertex
 10
436.4842343191061
 20
263.9170947320409
 30
0.0
 42
0.0095703026
 70
     1
  0
VERTEX
  5
18BA1
330
18B0A
100
AcDbEntity
  8
0
100
AcDbVertex
100
AcDb2dVertex
 10
436.4605743191061
 20
263.8383747320409
 30
0.0
 42
0.012039737
  0
VERTEX
  5
18BA2
330
18B0A
100
AcDbEntity
  8
0
100
AcDbVertex
100
AcDb2dVertex
 10
436.4415943191063
 20
263.7599747320408
 30
0.0
 42
0.014377576
 70
     1
  0
VERTEX
  5
18BA3
330
18B0A
100
AcDbEntity
  8
0
100
AcDbVertex
100
AcDb2dVertex
 10
436.4277143191059
 20
263.681904732041
 30
0.0
 42
0.016965453
  0
VERTEX
  5
18BA4
330
18B0A
100
AcDbEntity
  8
0
100
AcDbVertex
100
AcDb2dVertex
 10
436.4198343191068
 20
263.6041647320408
 30
0.0
 42
0.01968647
 70
     1
  0
VERTEX
  5
18BA5
330
18B0A
100
AcDbEntity
  8
0
100
AcDbVertex
100
AcDb2dVertex
 10
436.4185243191061
 20
263.5267647320409
 30
0.0
 42
0.022944225
  0
VERTEX
  5
18BA6
330
18B0A
100
AcDbEntity
  8
0
100
AcDbVertex
100
AcDb2dVertex
 10
436.4247443191064
 20
263.4497047320409
 30
0.0
 42
0.023932505
 70
     1
  0
VERTEX
  5
18BA7
330
18B0A
100
AcDbEntity
  8
0
100
AcDbVertex
100
AcDb2dVertex
 10
436.4381243191068
 20
263.3729347320409
 30
0.0
 42
0.022758243
  0
VERTEX
  5
18BA8
330
18B0A
100
AcDbEntity
  8
0
100
AcDbVertex
100
AcDb2dVertex
 10
436.4585743191065
 20
263.2964347320408
 30
0.0
 42
0.019860314
 70
     1
  0
VERTEX
  5
18BA9
330
18B0A
100
AcDbEntity
  8
0
100
AcDbVertex
100
AcDb2dVertex
 10
436.4847243191062
 20
263.220084732041
 30
0.0
 42
0.015148183
  0
VERTEX
  5
18BAA
330
18B0A
100
AcDbEntity
  8
0
100
AcDbVertex
100
AcDb2dVertex
 10
436.5155643191068
 20
263.143814732041
 30
0.0
 42
0.011449021
 70
     1
  0
VERTEX
  5
18BAB
330
18B0A
100
AcDbEntity
  8
0
100
AcDbVertex
100
AcDb2dVertex
 10
436.5498543191064
 20
263.067524732041
 30
0.0
 42
0.007960066
  0
VERTEX
  5
18BAC
330
18B0A
100
AcDbEntity
  8
0
100
AcDbVertex
100
AcDb2dVertex
 10
436.5866543191063
 20
262.9911347320408
 30
0.0
 42
0.0049674446
 70
     1
  0
VERTEX
  5
18BAD
330
18B0A
100
AcDbEntity
  8
0
100
AcDbVertex
100
AcDb2dVertex
 10
436.6247843191062
 20
262.9145747320409
 30
0.0
 42
0.0017058601
  0
VERTEX
  5
18BAE
330
18B0A
100
AcDbEntity
  8
0
100
AcDbVertex
100
AcDb2dVertex
 10
436.6631643191062
 20
262.8377347320409
 30
0.0
 42
-0.001052086
 70
     1
  0
VERTEX
  5
18BAF
330
18B0A
100
AcDbEntity
  8
0
100
AcDbVertex
100
AcDb2dVertex
 10
436.7007643191064
 20
262.760544732041
 30
0.0
 42
-0.0040939708
  0
VERTEX
  5
18BB0
330
18B0A
100
AcDbEntity
  8
0
100
AcDbVertex
100
AcDb2dVertex
 10
436.7364243191063
 20
262.682894732041
 30
0.0
 42
-0.007042165
 70
     1
  0
VERTEX
  5
18BB1
330
18B0A
100
AcDbEntity
  8
0
100
AcDbVertex
100
AcDb2dVertex
 10
436.7690543191065
 20
262.604734732041
 30
0.0
 42
-0.01072382
  0
VERTEX
  5
18BB2
330
18B0A
100
AcDbEntity
  8
0
100
AcDbVertex
100
AcDb2dVertex
 10
436.7974243191069
 20
262.5259847320409
 30
0.0
 42
-0.013282418
 70
     1
  0
VERTEX
  5
18BB3
330
18B0A
100
AcDbEntity
  8
0
100
AcDbVertex
100
AcDb2dVertex
 10
436.8211243191066
 20
262.446494732041
 30
0.0
 42
-0.015078961
  0
VERTEX
  5
18BB4
330
18B0A
100
AcDbEntity
  8
0
100
AcDbVertex
100
AcDb2dVertex
 10
436.8396843191058
 20
262.366164732041
 30
0.0
 42
-0.014966659
 70
     1
  0
VERTEX
  5
18BB5
330
18B0A
100
AcDbEntity
  8
0
100
AcDbVertex
100
AcDb2dVertex
 10
436.8536843191062
 20
262.2855447320408
 30
0.0
 42
-0.013010528
  0
VERTEX
  5
18BB6
330
18B0A
100
AcDbEntity
  8
0
100
AcDbVertex
100
AcDb2dVertex
 10
436.863414319106
 20
262.204794732041
 30
0.0
 42
-0.012770487
 70
     1
  0
VERTEX
  5
18BB7
330
18B0A
100
AcDbEntity
  8
0
100
AcDbVertex
100
AcDb2dVertex
 10
436.8690843191065
 20
262.1220747320409
 30
0.0
 42
-0.013164518
  0
VERTEX
  5
18BB8
330
18B0A
100
AcDbEntity
  8
0
100
AcDbVertex
100
AcDb2dVertex
 10
436.8707543191058
 20
262.0367647320409
 30
0.0
 42
-0.0098554524
 70
     1
  0
VERTEX
  5
18BB9
330
18B0A
100
AcDbEntity
  8
0
100
AcDbVertex
100
AcDb2dVertex
 10
436.8700043191068
 20
261.9563047320408
 30
0.0
 42
-0.005017694
  0
VERTEX
  5
18BBA
330
18B0A
100
AcDbEntity
  8
0
100
AcDbVertex
100
AcDb2dVertex
 10
436.8674643191065
 20
261.883284732041
 30
0.0
 42
-0.010413904
 70
     1
  0
VERTEX
  5
18BBB
330
18B0A
100
AcDbEntity
  8
0
100
AcDbVertex
100
AcDb2dVertex
 10
436.8591043191067
 20
261.788434732041
 30
0.0
 42
-0.013244423
  0
VERTEX
  5
18BBC
330
18B0A
100
AcDbEntity
  8
0
100
AcDbVertex
100
AcDb2dVertex
 10
436.8404343191063
 20
261.6410547320409
 30
0.0
 42
-0.0060537053
 70
     1
  0
VERTEX
  5
18BBD
330
18B0A
100
AcDbEntity
  8
0
100
AcDbVertex
100
AcDb2dVertex
 10
436.812434319106
 20
261.4472547320409
 30
0.0
 42
-0.0033831151
  0
SEQEND
  5
18BBE
330
18B0A
100
AcDbEntity
  8
0
  0
LINE
  5
18BBF
330
1F
100
AcDbEntity
  8
CEN
100
AcDbLine
 10
475.0620943191064
 20
268.6972547320409
 30
0.0
 11
412.4351743191065
 21
268.6972547320409
 31
0.0
  0
LINE
  5
18BC0
330
1F
100
AcDbEntity
  8
CEN
100
AcDbLine
 10
443.2472343191069
 20
266.5528975902855
 30
0.0
 11
443.2472343191069
 21
271.1972547320409
 31
0.0
  0
DIMENSION
  5
18BC1
330
1F
100
AcDbEntity
  8
DIM
100
AcDbDimension
  2
*D47
 10
478.9079143191067
 20
261.9472547320409
 30
0.0
 11
478.9079143191067
 21
268.6972547320416
 31
0.0
 70
   160
  1
%%C<> 
 71
     5
 42
13.5
 73
     0
 74
     0
 75
     0
  3
01
100
AcDbAlignedDimension
 13
471.0151843191063
 23
275.4472547320409
 33
0.0
 14
471.0151843191063
 24
261.9472547320409
 34
0.0
 50
90.0
100
AcDbRotatedDimension
  0
DIMENSION
  5
18BC2
330
1F
100
AcDbEntity
  8
DIM
100
AcDbDimension
  2
*D48
 10
407.1479943191063
 20
261.4472547320409
 30
0.0
 11
407.1479943191063
 21
290.0361727143284
 31
0.0
 70
   160
  1
%%C<>
 71
     5
 42
14.5
 73
     0
 74
     0
 75
     0
  3
01
100
AcDbAlignedDimension
 13
418.7472543191064
 23
275.9472547320409
 33
0.0
 14
418.7472543191064
 24
261.4472547320409
 34
0.0
 50
90.0
100
AcDbRotatedDimension
  0
DIMENSION
  5
18BC3
330
1F
100
AcDbEntity
  8
DIM
100
AcDbDimension
  2
*D49
 10
484.3378143191061
 20
258.1972547320409
 30
0.0
 11
484.3378143191061
 21
268.6972547320409
 31
0.0
 70
   160
  1
%%C<>
 71
     5
 42
21.0
 73
     0
 74
     0
 75
     0
  3
01
100
AcDbAlignedDimension
 13
472.7472343191069
 23
279.1972547320409
 33
0.0
 14
470.7472343191069
 24
258.1972547320409
 34
0.0
 50
90.0
100
AcDbRotatedDimension
  0
DIMENSION
  5
18BC4
330
1F
100
AcDbEntity
  8
DIM
100
AcDbDimension
  2
*D50
 10
401.9310243191061
 20
257.6972547320409
 30
0.0
 11
401.9310243191061
 21
268.6972547320409
 31
0.0
 70
   160
  1
%%C<>
 71
     5
 42
22.0
 73
     0
 74
     0
 75
     0
  3
01
100
AcDbAlignedDimension
 13
440.7472343191066
 23
279.6972547320409
 33
0.0
 14
444.7472343191066
 24
257.6972547320409
 34
0.0
 50
90.0
100
AcDbRotatedDimension
  0
DIMENSION
  5
18BC5
330
1F
100
AcDbEntity
  8
DIM
100
AcDbDimension
  2
*D51
 10
442.2472343191069
 20
250.7707520612212
 30
0.0
 11
457.497234319107
 21
250.7707520612212
 31
0.0
 70
   160
 71
     5
 42
30.5
 73
     0
 74
     0
 75
     0
  3
01
100
AcDbAlignedDimension
 13
472.7472343191069
 23
260.9472547320409
 33
0.0
 14
442.2472343191069
 24
261.9472547320409
 34
0.0
100
AcDbRotatedDimension
  0
DIMENSION
  5
18BC6
330
1F
100
AcDbEntity
  8
DIM
100
AcDbDimension
  2
*D52
 10
412.7472343191069
 20
244.8658157587477
 30
0.0
 11
443.9725905261028
 21
244.8658157587477
 31
0.0
 70
   160
 71
     5
 42
60.0
 73
     0
 74
     0
 75
     0
  3
01
100
AcDbAlignedDimension
 13
472.7472343191069
 23
260.9472547320409
 33
0.0
 14
412.7472343191069
 24
263.4472547320409
 34
0.0
100
AcDbRotatedDimension
  0
ARC
  5
18D79
330
1F
100
AcDbEntity
  8
02___PRT_ALL_AXES
  6
Continuous
 62
     7
100
AcDbCircle
 10
414.7472343191068
 20
273.9472547320409
 30
0.0
 40
2.0
100
AcDbArc
 50
90.0
 51
180.0
  0
LINE
  5
18D7A
330
1F
100
AcDbEntity
  8
0
  6
Continuous
 62
     7
100
AcDbLine
 10
412.7472343191069
 20
273.9472547320409
 30
0.0
 11
412.7472343191069
 21
270.1972547320409
 31
0.0
  0
LINE
  5
18D7B
330
1F
100
AcDbEntity
  8
0
  6
Continuous
 62
     7
100
AcDbLine
 10
412.7472343191069
 20
267.1972547320409
 30
0.0
 11
412.7472343191069
 21
263.4472547320409
 31
0.0
  0
ARC
  5
18D7C
330
1F
100
AcDbEntity
  8
02___PRT_ALL_AXES
  6
Continuous
 62
     7
100
AcDbCircle
 10
414.7472343191068
 20
263.4472547320409
 30
0.0
 40
2.0
100
AcDbArc
 50
180.0
 51
270.0
  0
LINE
  5
18D7D
330
1F
100
AcDbEntity
  8
02___PRT_ALL_AXES
  6
Continuous
 62
     7
100
AcDbLine
 10
414.7472343191068
 20
261.4472547320409
 30
0.0
 11
414.7472343191068
 21
267.1972547320409
 31
0.0
  0
LINE
  5
18D7E
330
1F
100
AcDbEntity
  8
02___PRT_ALL_AXES
  6
Continuous
 62
     7
100
AcDbLine
 10
414.7472343191068
 20
270.1972547320409
 30
0.0
 11
414.7472343191068
 21
275.9472547320409
 31
0.0
  0
DIMENSION
  5
18E15
330
1F
100
AcDbEntity
  8
0
100
AcDbDimension
  2
*D54
 10
457.872091728022
 20
278.1972547320409
 30
0.0
 11
457.8720917280218
 21
284.9472547320408
 31
0.0
 70
   160
  1
%%C<>
 71
     5
 42
19.0
 73
     0
 74
     0
 75
     0
  3
01
100
AcDbAlignedDimension
 13
458.9319524281065
 23
259.1972547320409
 33
0.0
 14
458.9319524281065
 24
278.1972547320409
 34
0.0
 50
90.0
100
AcDbRotatedDimension
  0
LINE
  5
18F5C
330
1F
100
AcDbEntity
  8
0
  6
Continuous
 62
     7
100
AcDbLine
 10
354.1460550193685
 20
213.3559864481892
 30
0.0
 11
354.2253281074579
 21
213.3429164792312
 31
0.0
  0
LINE
  5
18F5D
330
1F
100
AcDbEntity
  8
0
  6
Continuous
 62
     7
100
AcDbLine
 10
357.0791507950568
 20
214.1298906399468
 30
0.0
 11
357.0065522647662
 21
214.1448185665274
 31
0.0
  0
LINE
  5
18F5E
330
1F
100
AcDbEntity
  8
02___PRT_ALL_AXES
  6
Continuous
 62
     7
100
AcDbLine
 10
359.6265797523436
 20
157.7674125130422
 30
0.0
 11
359.4247834738005
 21
157.9899769868213
 31
0.0
  0
LINE
  5
18F5F
330
1F
100
AcDbEntity
  8
02___PRT_ALL_AXES
  6
Continuous
 62
     7
100
AcDbLine
 10
359.3883072075503
 20
158.7263812526059
 30
0.0
 11
359.1865264632787
 21
158.9488674159372
 31
0.0
  0
LINE
  5
18F60
330
1F
100
AcDbEntity
  8
02___PRT_ALL_AXES
  6
Continuous
 62
     7
100
AcDbLine
 10
361.7055626820227
 20
162.6955849969106
 30
0.0
 11
361.5662378824225
 21
162.8492063954497
 31
0.0
  0
LINE
  5
18F61
330
1F
100
AcDbEntity
  8
0
  6
Continuous
 62
     7
100
AcDbLine
 10
352.8222939216091
 20
187.1406938367843
 30
0.0
 11
352.0961175768887
 21
185.9667060546751
 31
0.0
  0
LINE
  5
18F62
330
1F
100
AcDbEntity
  8
02___PRT_ALL_AXES
  6
Continuous
 62
     7
100
AcDbLine
 10
379.3824308116516
 20
164.2253518297254
 30
0.0
 11
375.6173544706751
 21
166.4302277129779
 31
0.0
  0
LINE
  5
18F63
330
1F
100
AcDbEntity
  8
02___PRT_ALL_AXES
  6
Continuous
 62
     7
100
AcDbLine
 10
352.9827396676617
 20
181.843549384809
 30
0.0
 11
352.0296494886159
 21
185.6794243431038
 31
0.0
  0
LINE
  5
18F64
330
1F
100
AcDbEntity
  8
02___PRT_ALL_AXES
  6
Continuous
 62
     7
100
AcDbLine
 10
359.4247990080737
 20
157.9898986763735
 30
0.0
 11
359.1865264632787
 21
158.9488674159372
 31
0.0
  0
LINE
  5
18F65
330
1F
100
AcDbEntity
  8
0
  6
Continuous
 62
     7
100
AcDbLine
 10
350.1145094186256
 20
209.5781960872707
 30
0.0
 11
350.1342181370044
 21
209.3206770030563
 31
0.0
  0
LINE
  5
18F66
330
1F
100
AcDbEntity
  8
02___PRT_ALL_AXES
  6
Continuous
 62
     7
100
AcDbLine
 10
361.5662378824225
 20
162.8492063954497
 30
0.0
 11
356.9273245671964
 21
181.5193089847696
 31
0.0
  0
LINE
  5
18F67
330
1F
100
AcDbEntity
  8
02___PRT_ALL_AXES
  6
Continuous
 62
     7
100
AcDbLine
 10
355.3115835825364
 20
188.0221358092719
 30
0.0
 11
350.3464841799456
 21
208.0050302751522
 31
0.0
  0
LINE
  5
18F68
330
1F
100
AcDbEntity
  8
0
  6
Continuous
 62
     7
100
AcDbLine
 10
367.2964080986302
 20
189.0883697375364
 30
0.0
 11
361.3557024413992
 21
187.4501523848055
 31
0.0
  0
LINE
  5
18F69
330
1F
100
AcDbEntity
  8
0
  6
Continuous
 62
     7
100
AcDbLine
 10
360.242347210499
 20
182.0197564202087
 30
0.0
 11
359.2892570314497
 21
185.8556313785036
 31
0.0
  0
LINE
  5
18F6A
330
1F
100
AcDbEntity
  8
02___PRT_ALL_AXES
  6
Continuous
 62
     7
100
AcDbLine
 10
379.5668467650874
 20
164.0127142140015
 30
0.0
 11
379.3824308116516
 21
164.2253518297254
 31
0.0
  0
LINE
  5
18F6B
330
1F
100
AcDbEntity
  8
0
  6
Continuous
 62
     7
100
AcDbLine
 10
361.2367258130131
 20
192.9294507045276
 30
0.0
 11
357.3438528618415
 21
208.5969858422884
 31
0.0
  0
LINE
  5
18F6C
330
1F
100
AcDbEntity
  8
0
  6
Continuous
 62
     7
100
AcDbLine
 10
357.4212414206439
 20
210.9095403542549
 30
0.0
 11
361.3141143719029
 21
195.242005216444
 31
0.0
  0
LINE
  5
18F6D
330
1F
100
AcDbEntity
  8
0
  6
Continuous
 62
     7
100
AcDbLine
 10
370.7924887770813
 20
184.9290783063777
 30
0.0
 11
360.242347210499
 21
182.0197564202087
 31
0.0
  0
LINE
  5
18F6E
330
1F
100
AcDbEntity
  8
0
  6
Continuous
 62
     7
100
AcDbLine
 10
364.0905485006503
 20
193.7164248651049
 30
0.0
 11
360.1976755494423
 21
209.3839600030031
 31
0.0
  0
LINE
  5
18F6F
330
1F
100
AcDbEntity
  8
02___PRT_ALL_AXES
  6
Continuous
 62
     7
100
AcDbLine
 10
359.1865264632787
 20
158.9488674159372
 30
0.0
 11
359.2499732748245
 21
159.2230908679164
 31
0.0
  0
LINE
  5
18F70
330
1F
100
AcDbEntity
  8
0
  6
Continuous
 62
     7
100
AcDbLine
 10
370.7924887770813
 20
184.9290783063777
 30
0.0
 11
369.8393985980827
 21
188.7649532647599
 31
0.0
  0
LINE
  5
18F71
330
1F
100
AcDbEntity
  8
02___PRT_ALL_AXES
  6
Continuous
 62
     7
100
AcDbLine
 10
375.6383638051545
 20
166.3456720417259
 30
0.0
 11
370.999685892805
 21
185.0148272117946
 31
0.0
  0
LINE
  5
18F72
330
1F
100
AcDbEntity
  8
02___PRT_ALL_AXES
  6
Continuous
 62
     7
100
AcDbLine
 10
369.3837095052174
 20
191.5186014554608
 30
0.0
 11
364.4186101025395
 21
211.5014959213911
 31
0.0
  0
LINE
  5
18F73
330
1F
100
AcDbEntity
  8
0
  6
Continuous
 62
     7
100
AcDbLine
 10
364.4186101025395
 20
211.5014959213911
 30
0.0
 11
364.4186337935887
 21
211.5014004556885
 31
0.0
  0
LINE
  5
18F74
330
1F
100
AcDbEntity
  8
0
  6
Continuous
 62
     7
100
AcDbLine
 10
364.0905485006503
 20
193.7164248651049
 30
0.0
 11
361.3141143719029
 21
195.242005216444
 31
0.0
  0
LINE
  5
18F75
330
1F
100
AcDbEntity
  8
02___PRT_ALL_AXES
  6
Continuous
 62
     7
100
AcDbLine
 10
359.2499732748245
 20
159.2230908679164
 30
0.0
 11
361.545228547994
 21
162.9337620667891
 31
0.0
  0
LINE
  5
18F76
330
1F
100
AcDbEntity
  8
0
  6
Continuous
 62
     7
100
AcDbLine
 10
371.9960630043559
 20
191.9047518957002
 30
0.0
 11
373.1872635679308
 21
191.2071699194136
 31
0.0
  0
LINE
  5
18F77
330
1F
100
AcDbEntity
  8
0
  6
Continuous
 62
     7
100
AcDbLine
 10
363.8873033637308
 20
213.0002874717691
 30
0.0
 11
363.9904158575435
 21
212.7634915133483
 31
0.0
  0
LINE
  5
18F78
330
1F
100
AcDbEntity
  8
02___PRT_ALL_AXES
  6
Continuous
 62
     7
100
AcDbLine
 10
379.8051193098824
 20
163.0537454744369
 30
0.0
 11
379.5668467650874
 21
164.0127142140015
 31
0.0
  0
LINE
  5
18F79
330
1F
100
AcDbEntity
  8
02___PRT_ALL_AXES
  6
Continuous
 62
     7
100
AcDbLine
 10
374.3335514124399
 20
187.1485317446029
 30
0.0
 11
373.3804612333941
 21
190.9844067028976
 31
0.0
  0
LINE
  5
18F7A
330
1F
100
AcDbEntity
  8
0
  6
Continuous
 62
     7
100
AcDbLine
 10
355.9407875995555
 20
212.4003148638728
 30
0.0
 11
354.2253281074579
 21
213.3429164792312
 31
0.0
  0
LINE
  5
18F7B
330
1F
100
AcDbEntity
  8
0
  6
Continuous
 62
     7
100
AcDbLine
 10
357.0791507950568
 20
214.1298906399468
 30
0.0
 11
358.7946102871563
 21
213.1872890245875
 31
0.0
  0
ARC
  5
18F7C
330
1F
100
AcDbEntity
  8
0
  6
Continuous
 62
     7
100
AcDbCircle
 10
310.793009716909
 20
197.0236699886943
 30
0.0
 40
47.9679334279
100
AcDbArc
 50
13.96162282773343
 51
15.53426327110247
  0
ARC
  5
18F7D
330
1F
100
AcDbEntity
  8
0
  6
Continuous
 62
     7
100
AcDbCircle
 10
313.9197103186914
 20
197.8824764332373
 30
0.0
 40
47.68578603949999
100
AcDbArc
 50
13.95697003139624
 51
15.53891606753254
  0
ARC
  5
18F7E
330
1F
100
AcDbEntity
  8
0
  6
Continuous
 62
     7
100
AcDbCircle
 10
372.3780628845113
 20
149.4020692054134
 30
0.0
 40
47.1562370231
100
AcDbArc
 50
103.5694143545852
 51
104.3390822778741
  0
ARC
  5
18F7F
330
1F
100
AcDbEntity
  8
0
  6
Continuous
 62
     7
100
AcDbCircle
 10
399.9185697699747
 20
221.4875985830356
 30
0.0
 40
43.7940433475
100
AcDbArc
 50
192.2991119494047
 51
193.97751091077
  0
ARC
  5
18F80
330
1F
100
AcDbEntity
  8
0
  6
Continuous
 62
     7
100
AcDbCircle
 10
364.0123339762201
 20
183.1192805473044
 30
0.0
 40
31.8066220499
100
AcDbArc
 50
102.6014585704521
 51
102.724373232562
  0
ARC
  5
18F81
330
1F
100
AcDbEntity
  8
0
  6
Continuous
 62
     7
100
AcDbCircle
 10
360.7810415040465
 20
193.9624885219807
 30
0.0
 40
20.4591878124
100
AcDbArc
 50
108.6888600400647
 51
108.8909562766095
  0
ARC
  5
18F82
330
1F
100
AcDbEntity
  8
0
  6
Continuous
 62
     7
100
AcDbCircle
 10
358.1067704965268
 20
209.9320193423507
 30
0.0
 40
7.995957139799998
100
AcDbArc
 50
184.3849099276218
 51
193.9452984255468
  0
ARC
  5
18F83
330
1F
100
AcDbEntity
  8
0
  6
Continuous
 62
     7
100
AcDbCircle
 10
356.6588806163552
 20
209.5722657945305
 30
0.0
 40
7.995957139799998
100
AcDbArc
 50
13.96184522080504
 51
23.52223371876664
  0
ARC
  5
18F84
330
1F
100
AcDbEntity
  8
02___PRT_ALL_AXES
  6
Continuous
 62
     7
100
AcDbCircle
 10
369.0284219697157
 20
188.8479460226733
 30
0.0
 40
2.6261331099
100
AcDbArc
 50
81.09534698593288
 51
81.42452568380695
  0
ARC
  5
18F85
330
1F
100
AcDbEntity
  8
02___PRT_ALL_AXES
  6
Continuous
 62
     7
100
AcDbCircle
 10
369.0668521410505
 20
189.0894688581689
 30
0.0
 40
2.3815727181
100
AcDbArc
 50
79.22500552546272
 51
81.10933704741221
  0
ARC
  5
18F86
330
1F
100
AcDbEntity
  8
02___PRT_ALL_AXES
  6
Continuous
 62
     7
100
AcDbCircle
 10
364.0238102575775
 20
186.3255889206945
 30
0.0
 40
0.9632910104
100
AcDbArc
 50
273.2247486046071
 51
285.3804496162151
  0
SPLINE
  5
18F87
330
1F
100
AcDbEntity
  8
02___PRT_ALL_AXES
  6
Continuous
 62
     7
100
AcDbSpline
210
0.0
220
0.0
230
1.0
 70
     8
 71
     3
 72
    34
 73
    30
 74
     0
 42
0.0000000001
 43
0.0000000001
 40
0.0
 40
0.0
 40
0.0
 40
0.0
 40
0.0117796423
 40
0.0270179316
 40
0.0458408494
 40
0.0682225075
 40
0.0940560303
 40
0.1231674592
 40
0.1903241481
 40
0.2675793163
 40
0.3523916641
 40
0.4419278805
 40
0.5331771709000001
 40
0.6230651383
 40
0.7085679059000001
 40
0.7868259875
 40
0.8224200051999998
 40
0.855264234
 40
0.8850990838999999
 40
0.9117020151
 40
0.9348888378999999
 40
0.9545348163999999
 40
0.9705879583999999
 40
0.9772933351999999
 40
0.983153023
 40
0.9882233195999999
 40
0.9926029276999999
 40
0.9964501772
 40
1.0
 40
1.0
 40
1.0
 40
1.0
 10
359.6265797523436
 20
157.7674125130422
 30
0.0
 10
359.7001419275319
 20
157.7269919577791
 30
0.0
 10
359.8827816277524
 20
157.6605232474401
 30
0.0
 10
360.2034494486823
 20
157.5963533878455
 30
0.0
 10
360.6041866316834
 20
157.556267098287
 30
0.0
 10
361.0818295486232
 20
157.5408995936966
 30
0.0
 10
361.6329231301377
 20
157.5506233690091
 30
0.0
 10
362.5017326211698
 20
157.599691415973
 30
0.0
 10
363.7320935540545
 20
157.7286722237756
 30
0.0
 10
365.3479677952989
 20
157.9691878208557
 30
0.0
 10
367.1111788829719
 20
158.2954106577715
 30
0.0
 10
368.9610070308761
 20
158.6963504606126
 30
0.0
 10
370.8337713280441
 20
159.1584719637074
 30
0.0
 10
372.6650015117218
 20
159.6658369309941
 30
0.0
 10
374.3916557964829
 20
160.2008858359047
 30
0.0
 10
375.73367901919
 20
160.6677326985716
 30
0.0
 10
376.7090606644804
 20
161.0438097831836
 30
0.0
 10
377.3559495166543
 20
161.3121347718004
 30
0.0
 10
377.9361489573664
 20
161.5733639158359
 30
0.0
 10
378.4447418604639
 20
161.8251629063722
 30
0.0
 10
378.8776159672114
 20
162.0653217547358
 30
0.0
 10
379.2312479018608
 20
162.2916686755295
 30
0.0
 10
379.4709917656226
 20
162.4768616413682
 30
0.0
 10
379.617702406417
 20
162.6188052926343
 30
0.0
 10
379.6996502822683
 20
162.7143784171801
 30
0.0
 10
379.7601830161027
 20
162.8055594223049
 30
0.0
 10
379.7991117798181
 20
162.8925789873362
 30
0.0
 10
379.8158611754868
 20
162.9756754014277
 30
0.0
 10
379.8112360031289
 20
163.029119769312
 30
0.0
 10
379.8051314370157
 20
163.053666317445
 30
0.0
  0
SPLINE
  5
18F88
330
1F
100
AcDbEntity
  8
0
  6
Continuous
 62
     7
100
AcDbSpline
210
0.0
220
0.0
230
1.0
 70
     8
 71
     3
 72
     9
 73
     5
 74
     0
 42
0.0000000001
 43
0.0000000001
 40
0.0
 40
0.0
 40
0.0
 40
0.0
 40
0.5251428726000002
 40
1.0
 40
1.0
 40
1.0
 40
1.0
 10
360.242347210499
 20
182.0197564202087
 30
0.0
 10
359.6775563685649
 20
181.9139807019307
 30
0.0
 10
358.5990635216065
 20
181.7281263526026
 30
0.0
 10
357.5145790014055
 20
181.5800736405933
 30
0.0
 10
356.9982407158047
 20
181.5220533436366
 30
0.0
  0
SPLINE
  5
18F89
330
1F
100
AcDbEntity
  8
0
  6
Continuous
 62
     7
100
AcDbSpline
210
0.0
220
0.0
230
1.0
 70
     8
 71
     3
 72
    19
 73
    15
 74
     0
 42
0.0000000001
 43
0.0000000001
 40
0.0
 40
0.0
 40
0.0
 40
0.0
 40
0.2069670794
 40
0.3924894234
 40
0.5547114268
 40
0.6921859256000002
 40
0.7513541256999999
 40
0.8040685912
 40
0.8503761468
 40
0.8904182842
 40
0.9245215896999999
 40
0.9533071975
 40
0.9778667597
 40
1.0
 40
1.0
 40
1.0
 40
1.0
 10
356.9982407158047
 20
181.5220533436366
 30
0.0
 10
356.7128873576391
 20
181.4899885383827
 30
0.0
 10
356.1708940466695
 20
181.4363627470236
 30
0.0
 10
355.4027039108794
 20
181.3864941021591
 30
0.0
 10
354.7294486710077
 20
181.3716970390385
 30
0.0
 10
354.2313786517687
 20
181.3889489643914
 30
0.0
 10
353.8870126377358
 20
181.4233936606849
 30
0.0
 10
353.6699523427367
 20
181.456700581444
 30
0.0
 10
353.4814286295321
 20
181.4985846337411
 30
0.0
 10
353.321802708934
 20
181.5490003790617
 30
0.0
 10
353.1912414596616
 20
181.6079468782216
 30
0.0
 10
353.0897087067958
 20
181.6757543852261
 30
0.0
 10
353.0175844123322
 20
181.7534206069529
 30
0.0
 10
352.9901577611952
 20
181.8137673287008
 30
0.0
 10
352.9827538701164
 20
181.8435693945819
 30
0.0
  0
SPLINE
  5
18F8A
330
1F
100
AcDbEntity
  8
0
  6
Continuous
 62
     7
100
AcDbSpline
210
0.0
220
0.0
230
1.0
 70
     8
 71
     3
 72
    17
 73
    13
 74
     0
 42
0.0000000001
 43
0.0000000001
 40
0.0
 40
0.0
 40
0.0
 40
0.0
 40
0.0732416697
 40
0.1457787094
 40
0.2172158703
 40
0.2866176123
 40
0.4144026233
 40
0.5259157123
 40
0.6317000083
 40
0.7433329396
 40
0.8658760157999999
 40
1.0
 40
1.0
 40
1.0
 40
1.0
 10
350.1145094186256
 20
209.5781960872707
 30
0.0
 10
350.1033405063488
 20
209.724131911539
 30
0.0
 10
350.1055207825873
 20
210.0170746443644
 30
0.0
 10
350.1813039356629
 20
210.4463736782461
 30
0.0
 10
350.3226998800881
 20
210.8506387491759
 30
0.0
 10
350.577293193234
 20
211.3253227908105
 30
0.0
 10
350.9814261629896
 20
211.8014709264423
 30
0.0
 10
351.5332686157515
 20
212.2200945090006
 30
0.0
 10
352.1063628948857
 20
212.5442587257865
 30
0.0
 10
352.7232845661263
 20
212.8298392968634
 30
0.0
 10
353.4074384706753
 20
213.1018823287365
 30
0.0
 10
353.8916523184659
 20
213.271453106641
 30
0.0
 10
354.1460213267844
 20
213.3559208711201
 30
0.0
  0
SPLINE
  5
18F8B
330
1F
100
AcDbEntity
  8
0
  6
Continuous
 62
     7
100
AcDbSpline
210
0.0
220
0.0
230
1.0
 70
     8
 71
     3
 72
    18
 73
    14
 74
     0
 42
0.0000000001
 43
0.0000000001
 40
0.0
 40
0.0
 40
0.0
 40
0.0
 40
0.0182194326
 40
0.039389992
 40
0.0657630096
 40
0.0985303787
 40
0.138230118
 40
0.1850659131
 40
0.3000687242
 40
0.4422730071000001
 40
0.6089238073
 40
0.7963813465000002
 40
1.0
 40
1.0
 40
1.0
 40
1.0
 10
357.0065701530828
 20
214.1447533737999
 30
0.0
 10
356.995930126576
 20
214.1423677158989
 30
0.0
 10
356.9740183335877
 20
214.131422803355
 30
0.0
 10
356.9483175897829
 20
214.1007117246943
 30
0.0
 10
356.9276623782196
 20
214.0569739586269
 30
0.0
 10
356.9115328276373
 20
213.9998748949135
 30
0.0
 10
356.8998262141201
 20
213.9293400389204
 30
0.0
 10
356.8896129885386
 20
213.8090613513047
 30
0.0
 10
356.8909307435395
 20
213.626784087716
 30
0.0
 10
356.9105080362267
 20
213.3737638883256
 30
0.0
 10
356.9485264568309
 20
213.0790540246351
 30
0.0
 10
357.0042525220876
 20
212.7498795767667
 30
0.0
 10
357.0508650642794
 20
212.5204667647101
 30
0.0
 10
357.0768028075115
 20
212.4013947852215
 30
0.0
  0
SPLINE
  5
18F8C
330
1F
100
AcDbEntity
  8
0
  6
Continuous
 62
     7
100
AcDbSpline
210
0.0
220
0.0
230
1.0
 70
     8
 71
     3
 72
    18
 73
    14
 74
     0
 42
0.0000000001
 43
0.0000000001
 40
0.0
 40
0.0
 40
0.0
 40
0.0
 40
0.1435891508
 40
0.2777381455
 40
0.3988957542
 40
0.507135445
 40
0.6102039797
 40
0.6652868279000002
 40
0.7254662263
 40
0.7905440313
 40
0.8588912565000001
 40
0.9290067169
 40
1.0
 40
1.0
 40
1.0
 40
1.0
 10
357.07314415014
 20
214.1597195065667
 30
0.0
 10
357.4238171362657
 20
214.2381132421776
 30
0.0
 10
358.1047357004889
 20
214.3783678680318
 30
0.0
 10
359.0896381517512
 20
214.5424695159152
 30
0.0
 10
359.9935310802018
 20
214.6499971861965
 30
0.0
 10
360.8249034480693
 20
214.6948502087487
 30
0.0
 10
361.4933042549917
 20
214.6606808105614
 30
0.0
 10
362.0305402121183
 20
214.5552406387567
 30
0.0
 10
362.4601086945975
 20
214.4118874455386
 30
0.0
 10
362.8918373317781
 20
214.1868151200185
 30
0.0
 10
363.2960736410157
 20
213.8718420078819
 30
0.0
 10
363.6417293450711
 20
213.4734210032327
 30
0.0
 10
363.8163747886673
 20
213.1631736484512
 30
0.0
 10
363.8873033637308
 20
213.0002874717691
 30
0.0
  0
SPLINE
  5
18F8D
330
1F
100
AcDbEntity
  8
02___PRT_ALL_AXES
  6
Continuous
 62
     7
100
AcDbSpline
210
0.0
220
0.0
230
1.0
 70
     8
 71
     3
 72
    15
 73
    11
 74
     0
 42
0.0000000001
 43
0.0000000001
 40
0.0
 40
0.0
 40
0.0
 40
0.0
 40
0.1243734698
 40
0.2488415762
 40
0.3736997785
 40
0.4991846692000001
 40
0.6252021823
 40
0.7512430812000001
 40
0.8764468301999999
 40
1.0
 40
1.0
 40
1.0
 40
1.0
 10
364.2793011722231
 20
185.3967972523339
 30
0.0
 10
364.3515072183407
 20
185.4167088932234
 30
0.0
 10
364.4918163135652
 20
185.4738768685171
 30
0.0
 10
364.6762463438615
 20
185.606240369231
 30
0.0
 10
364.8259842869509
 20
185.7777830828815
 30
0.0
 10
364.9341794099225
 20
185.9790479612009
 30
0.0
 10
364.9964066260317
 20
186.1995779139149
 30
0.0
 10
365.0101258444508
 20
186.4281390278563
 30
0.0
 10
364.9749214579448
 20
186.6528110359784
 30
0.0
 10
364.9193314786251
 20
186.7935256162061
 30
0.0
 10
364.8842732470318
 20
186.8591560014663
 30
0.0
  0
SPLINE
  5
18F8E
330
1F
100
AcDbEntity
  8
02___PRT_ALL_AXES
  6
Continuous
 62
     7
100
AcDbSpline
210
0.0
220
0.0
230
1.0
 70
     8
 71
     3
 72
    15
 73
    11
 74
     0
 42
0.0000000001
 43
0.0000000001
 40
0.0
 40
0.0
 40
0.0
 40
0.0
 40
0.1231343341
 40
0.2467966752
 40
0.3713326424
 40
0.4967801294
 40
0.6228649925000001
 40
0.7491026172000002
 40
0.8749443712999999
 40
1.0
 40
1.0
 40
1.0
 40
1.0
 10
364.4399450537155
 20
184.9955760462042
 30
0.0
 10
364.3554050190439
 20
185.0420384324795
 30
0.0
 10
364.1992927329982
 20
185.1620646875624
 30
0.0
 10
364.0301802801721
 20
185.4040150782754
 30
0.0
 10
363.9396093658986
 20
185.687017830465
 30
0.0
 10
363.9355525396374
 20
185.9858713504643
 30
0.0
 10
364.0179668427288
 20
186.2744783562891
 30
0.0
 10
364.179677498071
 20
186.5277371546688
 30
0.0
 10
364.406287940649
 20
186.7235426461363
 30
0.0
 10
364.589017739642
 20
186.8047632940486
 30
0.0
 10
364.6834640870973
 20
186.8308079518308
 30
0.0
  0
SPLINE
  5
18F8F
330
1F
100
AcDbEntity
  8
0
  6
Continuous
 62
     7
100
AcDbSpline
210
0.0
220
0.0
230
1.0
 70
     8
 71
     3
 72
    14
 73
    10
 74
     0
 42
0.0000000001
 43
0.0000000001
 40
0.0
 40
0.0
 40
0.0
 40
0.0
 40
0.3489494943
 40
0.4998181034000001
 40
0.6340319194
 40
0.7511315451
 40
0.8509190048999998
 40
0.9335882838999999
 40
1.0
 40
1.0
 40
1.0
 40
1.0
 10
355.1727927737692
 20
188.5684380260616
 30
0.0
 10
354.8758796890695
 20
188.4414974719282
 30
0.0
 10
354.4541436317548
 20
188.2507554078736
 30
0.0
 10
353.932619603728
 20
187.9817060153625
 30
0.0
 10
353.6090877362137
 20
187.7974702329636
 30
0.0
 10
353.3354722630926
 20
187.6219431165816
 30
0.0
 10
353.1129848699663
 20
187.4559846876407
 30
0.0
 10
352.9425274117918
 20
187.300589600354
 30
0.0
 10
352.8546043114354
 20
187.1929091895779
 30
0.0
 10
352.822277845017
 20
187.1406421541148
 30
0.0
  0
SPLINE
  5
18F90
330
1F
100
AcDbEntity
  8
0
  6
Continuous
 62
     7
100
AcDbSpline
210
0.0
220
0.0
230
1.0
 70
     8
 71
     3
 72
    11
 73
     7
 74
     0
 42
0.0000000001
 43
0.0000000001
 40
0.0
 40
0.0
 40
0.0
 40
0.0
 40
0.2899011722
 40
0.5472460214
 40
0.7802263435
 40
1.0
 40
1.0
 40
1.0
 40
1.0
 10
373.1872456409208
 20
191.207164993121
 30
0.0
 10
373.2124680251825
 20
191.1923954689525
 30
0.0
 10
373.258541799564
 20
191.1616585732751
 30
0.0
 10
373.3164406400526
 20
191.1077768722996
 30
0.0
 10
373.3582278343227
 20
191.0489376840821
 30
0.0
 10
373.3750994418322
 20
191.0059061534919
 30
0.0
 10
373.3804432130262
 20
190.984402058905
 30
0.0
  0
SPLINE
  5
18F91
330
1F
100
AcDbEntity
  8
0
  6
Continuous
 62
     7
100
AcDbSpline
210
0.0
220
0.0
230
1.0
 70
     8
 71
     3
 72
    14
 73
    10
 74
     0
 42
0.0000000001
 43
0.0000000001
 40
0.0
 40
0.0
 40
0.0
 40
0.0
 40
0.066427823
 40
0.1491086896
 40
0.2489004645
 40
0.3660024404
 40
0.5002119492000002
 40
0.6510700142000001
 40
1.0
 40
1.0
 40
1.0
 40
1.0
 10
371.9960813529167
 20
191.9047247981368
 30
0.0
 10
371.9430848102482
 20
191.9357625318068
 30
0.0
 10
371.8150818036036
 20
191.9897385761785
 30
0.0
 10
371.5918910280259
 20
192.047258533297
 30
0.0
 10
371.3178346118245
 20
192.0897857336992
 30
0.0
 10
370.9941729074988
 20
192.1168486611393
 30
0.0
 10
370.6223789755084
 20
192.1282703081858
 30
0.0
 10
370.036130037194
 20
192.1220123225419
 30
0.0
 10
369.574597882244
 20
192.0932657244436
 30
0.0
 10
369.2531011287818
 20
192.0665343559783
 30
0.0
  0
SPLINE
  5
18F92
330
1F
100
AcDbEntity
  8
02___PRT_ALL_AXES
  6
Continuous
 62
     7
100
AcDbSpline
210
0.0
220
0.0
230
1.0
 70
     8
 71
     3
 72
     9
 73
     5
 74
     0
 42
0.0000000001
 43
0.0000000001
 40
0.0
 40
0.0
 40
0.0
 40
0.0
 40
0.5017134228
 40
1.0
 40
1.0
 40
1.0
 40
1.0
 10
364.6834640870973
 20
186.8308079518308
 30
0.0
 10
364.8025320570584
 20
186.8636423027572
 30
0.0
 10
365.05476717546
 20
186.8842884722823
 30
0.0
 10
365.2960254166489
 20
186.8071848749703
 30
0.0
 10
365.4035282100692
 20
186.7481023783282
 30
0.0
  0
LINE
  5
18F93
330
1F
100
AcDbEntity
  8
0
  6
Continuous
 62
     7
100
AcDbLine
 10
357.0768028075115
 20
212.4013947852215
 30
0.0
 11
357.129648934754
 21
212.1587998139864
 31
0.0
  0
LINE
  5
18F94
330
1F
100
AcDbEntity
  8
0
  6
Continuous
 62
     7
100
AcDbLine
 10
356.9386394855817
 20
210.1222344688965
 30
0.0
 11
357.0086971067492
 21
209.8701822168157
 31
0.0
  0
SPLINE
  5
18F95
330
1F
100
AcDbEntity
  8
0
  6
Continuous
 62
     7
100
AcDbSpline
210
0.0
220
0.0
230
1.0
 70
     8
 71
     3
 72
    16
 73
    12
 74
     0
 42
0.0000000001
 43
0.0000000001
 40
0.0
 40
0.0
 40
0.0
 40
0.0
 40
0.0224774135
 40
0.0506753283
 40
0.0850024121
 40
0.125589024
 40
0.2252993787
 40
0.3482897182
 40
0.4916390201
 40
0.6513545693000001
 40
1.0
 40
1.0
 40
1.0
 40
1.0
 10
355.9407875995555
 20
212.4003148638728
 30
0.0
 10
355.9572846094004
 20
212.3912501740985
 30
0.0
 10
355.9915510766793
 20
212.3655910802179
 30
0.0
 10
356.0412883458036
 20
212.3144907501707
 30
0.0
 10
356.0947715033952
 20
212.2465330472685
 30
0.0
 10
356.1763485749568
 20
212.1250577489452
 30
0.0
 10
356.2831033264182
 20
211.9317402998265
 30
0.0
 10
356.4130959732308
 20
211.6540014019199
 30
0.0
 10
356.5482103328238
 20
211.3236364199627
 30
0.0
 10
356.7349752548659
 20
210.8107343880126
 30
0.0
 10
356.8604502845436
 20
210.4035382782947
 30
0.0
 10
356.9386394855817
 20
210.1222344688965
 30
0.0
  0
SPLINE
  5
18F96
330
1F
100
AcDbEntity
  8
0
  6
Continuous
 62
     7
100
AcDbSpline
210
0.0
220
0.0
230
1.0
 70
     8
 71
     3
 72
    11
 73
     7
 74
     0
 42
0.0000000001
 43
0.0000000001
 40
0.0
 40
0.0
 40
0.0
 40
0.0
 40
0.2197712278
 40
0.4527536737000001
 40
0.7101046977
 40
1.0
 40
1.0
 40
1.0
 40
1.0
 10
352.0296675089837
 20
185.6794289870965
 30
0.0
 10
352.0243237744169
 20
185.7009329343261
 30
0.0
 10
352.0190896475276
 20
185.746856935021
 30
0.0
 10
352.0284827630155
 20
185.8184124550851
 30
0.0
 10
352.0544341176526
 20
185.8931256892435
 30
0.0
 10
352.0807616654554
 20
185.941853703475
 30
0.0
 10
352.0961371968358
 20
185.9667107572229
 30
0.0
  0
SPLINE
  5
18F97
330
1F
100
AcDbEntity
  8
0
  6
Continuous
 62
     7
100
AcDbSpline
210
0.0
220
0.0
230
1.0
 70
     8
 71
     3
 72
    19
 73
    15
 74
     0
 42
0.0000000001
 43
0.0000000001
 40
0.0
 40
0.0
 40
0.0
 40
0.0
 40
0.0218097303
 40
0.0461055298
 40
0.0747080171
 40
0.1087078635
 40
0.1487177111
 40
0.1950470807
 40
0.2478303113
 40
0.3071064902
 40
0.4448438879000002
 40
0.6073229762
 40
0.7930790537000001
 40
1.0
 40
1.0
 40
1.0
 40
1.0
 10
374.3335372099853
 20
187.148511734829
 30
0.0
 10
374.3411018772702
 20
187.1180625139102
 30
0.0
 10
374.3449175821577
 20
187.0502411934419
 30
0.0
 10
374.3157662450237
 20
186.945413205214
 30
0.0
 10
374.2548161611219
 20
186.8353692281741
 30
0.0
 10
374.1628416227493
 20
186.7193293371099
 30
0.0
 10
374.0399590699187
 20
186.5969872726389
 30
0.0
 10
373.8863430560293
 20
186.4684169575309
 30
0.0
 10
373.7022998593118
 20
186.3338688180272
 30
0.0
 10
373.4014863165092
 20
186.1370626682853
 30
0.0
 10
372.9510541791267
 20
185.8820022391771
 30
0.0
 10
372.3242345719833
 20
185.5719138426291
 30
0.0
 10
371.5938753714679
 20
185.2483443551562
 30
0.0
 10
371.0699654316238
 20
185.0368478071584
 30
0.0
 10
370.7924887770813
 20
184.9290783063777
 30
0.0
  0
SPLINE
  5
18F98
330
1F
100
AcDbEntity
  8
02___PRT_ALL_AXES
  6
Continuous
 62
     7
100
AcDbSpline
210
0.0
220
0.0
230
1.0
 70
     8
 71
     3
 72
    17
 73
    13
 74
     0
 42
0.0000000001
 43
0.0000000001
 40
0.0
 40
0.0
 40
0.0
 40
0.0
 40
0.2254699802
 40
0.4301958961
 40
0.610140655
 40
0.7606451409
 40
0.8771639132
 40
0.9208890156
 40
0.9541735962
 40
0.9900606826
 40
0.9929705661999999
 40
1.0
 40
1.0
 40
1.0
 40
1.0
 10
369.3837095052174
 20
191.5186014554608
 30
0.0
 10
369.3870938267017
 20
191.5049806732174
 30
0.0
 10
369.3953198638453
 20
191.4793945348963
 30
0.0
 10
369.4114650384352
 20
191.4449259755845
 30
0.0
 10
369.4291330199437
 20
191.4165687764223
 30
0.0
 10
369.4464599252484
 20
191.3947955783503
 30
0.0
 10
369.460122537216
 20
191.3808849954391
 30
0.0
 10
369.4689494806068
 20
191.3729565298697
 30
0.0
 10
369.4748079119897
 20
191.3683910456773
 30
0.0
 10
369.4774005982861
 20
191.36611121527
 30
0.0
 10
369.4808496448957
 20
191.3642504936358
 30
0.0
 10
369.4796226745427
 20
191.364969381643
 30
0.0
 10
369.4792391886756
 20
191.3651800974401
 30
0.0
  0
SPLINE
  5
18F99
330
1F
100
AcDbEntity
  8
02___PRT_ALL_AXES
  6
Continuous
 62
     7
100
AcDbSpline
210
0.0
220
0.0
230
1.0
 70
     8
 71
     3
 72
    34
 73
    30
 74
     0
 42
0.0000000001
 43
0.0000000001
 40
0.0
 40
0.0
 40
0.0
 40
0.0
 40
0.0117798215
 40
0.0270183956
 40
0.0458417047
 40
0.0682238556
 40
0.094057963
 40
0.1231700572
 40
0.1903282619
 40
0.2675850863
 40
0.3523990875
 40
0.4419368035000001
 40
0.5331872879999999
 40
0.6230760021
 40
0.7085789453000002
 40
0.7868365348000001
 40
0.8224300351
 40
0.8552735626
 40
0.885107524
 40
0.9117093885999999
 40
0.9348949743000002
 40
0.9545395709999999
 40
0.9705912266
 40
0.9772958503999999
 40
0.9831548009
 40
0.9882244112
 40
0.9926034396
 40
0.9964502944999999
 40
1.0
 40
1.0
 40
1.0
 40
1.0
 10
359.3883072075503
 20
158.7263812526059
 30
0.0
 10
359.4618707744364
 20
158.6859599326414
 30
0.0
 10
359.6445145003697
 20
158.6194902810409
 30
0.0
 10
359.9651897013707
 20
158.5553200825022
 30
0.0
 10
360.3659368172691
 20
158.5152342380249
 30
0.0
 10
360.8435920191539
 20
158.4998680017877
 30
0.0
 10
361.3947000303203
 20
158.5095938663869
 30
0.0
 10
362.263532261403
 20
158.5586659980752
 30
0.0
 10
363.493924567111
 20
158.6876538672038
 30
0.0
 10
365.1098381049694
 20
158.9281801830145
 30
0.0
 10
366.8730884577915
 20
159.2544157313648
 30
0.0
 10
368.7229524763413
 20
159.6553694323854
 30
0.0
 10
370.5957459075096
 20
160.1175050812533
 30
0.0
 10
372.4269953655883
 20
160.6248834035766
 30
0.0
 10
374.153656325702
 20
161.1599438183391
 30
0.0
 10
375.495675936693
 20
161.6267991413321
 30
0.0
 10
376.47104657458
 20
162.0028816927604
 30
0.0
 10
377.1179211344941
 20
162.2712087552551
 30
0.0
 10
377.6981020019928
 20
162.532438842343
 30
0.0
 10
378.2066720853497
 20
162.7842374565268
 30
0.0
 10
378.6395192635926
 20
163.0243946397575
 30
0.0
 10
378.9931203673648
 20
163.2507384541029
 30
0.0
 10
379.2328355774213
 20
163.4359286236656
 30
0.0
 10
379.379520478348
 20
163.5778695953738
 30
0.0
 10
379.4614486535963
 20
163.6734399384775
 30
0.0
 10
379.5219608608356
 20
163.7646181362931
 30
0.0
 10
379.5608681084912
 20
163.8516350744145
 30
0.0
 10
379.577594200199
 20
163.9347290072626
 30
0.0
 10
379.5729519320218
 20
163.9881685829202
 30
0.0
 10
379.5668396338867
 20
164.0127124419985
 30
0.0
  0
SPLINE
  5
18F9A
330
1F
100
AcDbEntity
  8
0
  6
Continuous
 62
     7
100
AcDbSpline
210
0.0
220
0.0
230
1.0
 70
     8
 71
     3
 72
    24
 73
    20
 74
     0
 42
0.0000000001
 43
0.0000000001
 40
0.0
 40
0.0
 40
0.0
 40
0.0
 40
0.0108893018
 40
0.0203048235
 40
0.0288149194
 40
0.0371829843
 40
0.0462089092
 40
0.0565377895
 40
0.0685940079
 40
0.0826339294
 40
0.117170523
 40
0.1606759672
 40
0.2131344403
 40
0.2742591898
 40
0.3436001343
 40
0.4205842163000001
 40
0.5946857216
 40
0.790239142
 40
1.0
 40
1.0
 40
1.0
 40
1.0
 10
352.822277845017
 20
187.1406421541148
 30
0.0
 10
352.8049443391343
 20
187.112616481251
 30
0.0
 10
352.7762745772222
 20
187.0578260221761
 30
0.0
 10
352.7530962271874
 20
186.9728413576838
 30
0.0
 10
352.7547782664904
 20
186.8919641076115
 30
0.0
 10
352.7823747842183
 20
186.8170952966272
 30
0.0
 10
352.8345918253387
 20
186.7500768218713
 30
0.0
 10
352.9096852721548
 20
186.6907439198755
 30
0.0
 10
353.00707327542
 20
186.6382647919742
 30
0.0
 10
353.1787591467899
 20
186.5725090755293
 30
0.0
 10
353.4520125217157
 20
186.5120179932425
 30
0.0
 10
353.8448589370044
 20
186.4686323434914
 30
0.0
 10
354.3202940114413
 20
186.4515741569146
 30
0.0
 10
354.873940064949
 20
186.4611093836053
 30
0.0
 10
355.5008104452052
 20
186.4974323539652
 30
0.0
 10
356.4666345666362
 20
186.5850848824618
 30
0.0
 10
357.8070608301885
 20
186.7628939001322
 30
0.0
 10
359.5350813101966
 20
187.062053447026
 30
0.0
 10
360.7362141400033
 20
187.3117020976922
 30
0.0
 10
361.3557024413992
 20
187.4501523848055
 30
0.0
  0
SPLINE
  5
18F9B
330
1F
100
AcDbEntity
  8
02___PRT_ALL_AXES
  6
Continuous
 62
     7
100
AcDbSpline
210
0.0
220
0.0
230
1.0
 70
     8
 71
     3
 72
    34
 73
    30
 74
     0
 42
0.0000000001
 43
0.0000000001
 40
0.0
 40
0.0
 40
0.0
 40
0.0
 40
0.012350435
 40
0.0285122772
 40
0.0486129396
 40
0.0726053272
 40
0.1003512046
 40
0.1316348017
 40
0.2037199419
 40
0.2863063388
 40
0.376353765
 40
0.4705040972
 40
0.5652283888000002
 40
0.6569740052000002
 40
0.7423118179000002
 40
0.8180831343000001
 40
0.8515089477
 40
0.8815598395999998
 40
0.9079897979
 40
0.9306092443
 40
0.9493019192
 40
0.9640762911999999
 40
0.9700632650999999
 40
0.9751974590999999
 40
0.9834221541999999
 40
0.9870791163999999
 40
0.9908641189
 40
0.9950950938
 40
1.0
 40
1.0
 40
1.0
 40
1.0
 10
355.0944075398736
 20
187.2578676807895
 30
0.0
 10
355.1521505239477
 20
187.2261393711849
 30
0.0
 10
355.2970081010633
 20
187.1748082830151
 30
0.0
 10
355.5521195834706
 20
187.126694266936
 30
0.0
 10
355.8727698564023
 20
187.0983595127143
 30
0.0
 10
356.2560842032278
 20
187.0903357130862
 30
0.0
 10
356.6989525590859
 20
187.1029274198943
 30
0.0
 10
357.3969745371821
 20
187.1495984955607
 30
0.0
 10
358.3830405236974
 20
187.2627530946217
 30
0.0
 10
359.6726894525771
 20
187.4673272441657
 30
0.0
 10
361.0698266328934
 20
187.7399325032145
 30
0.0
 10
362.520881048519
 20
188.0702946000261
 30
0.0
 10
363.970237666136
 20
188.4459326846251
 30
0.0
 10
365.3623921653041
 20
188.852350926373
 30
0.0
 10
366.6440260944244
 20
189.2738378925121
 30
0.0
 10
367.6165433428566
 20
189.6373317168352
 30
0.0
 10
368.3009104334439
 20
189.9264953471563
 30
0.0
 10
368.736364404979
 20
190.1278135790114
 30
0.0
 10
369.1118043264203
 20
190.3207555275391
 30
0.0
 10
369.4239828972338
 20
190.5033651340252
 30
0.0
 10
369.670124058314
 20
190.6740066564496
 30
0.0
 10
369.8292844178093
 20
190.8130863198464
 30
0.0
 10
369.9181672285801
 20
190.9195060230238
 30
0.0
 10
369.9731051772858
 20
191.0066350564427
 30
0.0
 10
370.0013064520324
 20
191.0979204569419
 30
0.0
 10
369.9847179703381
 20
191.1814570710292
 30
0.0
 10
369.9530690769341
 20
191.2361945348464
 30
0.0
 10
369.9033363666083
 20
191.284818445966
 30
0.0
 10
369.8620903957697
 20
191.311300123664
 30
0.0
 10
369.8391580926279
 20
191.3239008442913
 30
0.0
  0
SPLINE
  5
18F9C
330
1F
100
AcDbEntity
  8
0
  6
Continuous
 62
     7
100
AcDbSpline
210
0.0
220
0.0
230
1.0
 70
     8
 71
     3
 72
     9
 73
     5
 74
     0
 42
0.0000000001
 43
0.0000000001
 40
0.0
 40
0.0
 40
0.0
 40
0.0
 40
0.2497785822
 40
1.0
 40
1.0
 40
1.0
 40
1.0
 10
361.3557024413992
 20
187.4501523848055
 30
0.0
 10
361.1725953788907
 20
187.3328462007128
 30
0.0
 10
360.4514633904134
 20
186.8445421969106
 30
0.0
 10
359.7754051686486
 20
186.2918275357412
 30
0.0
 10
359.2892570314497
 20
185.8556313785036
 30
0.0
  0
SPLINE
  5
18F9D
330
1F
100
AcDbEntity
  8
0
  6
Continuous
 62
     7
100
AcDbSpline
210
0.0
220
0.0
230
1.0
 70
     8
 71
     3
 72
    21
 73
    17
 74
     0
 42
0.0000000001
 43
0.0000000001
 40
0.0
 40
0.0
 40
0.0
 40
0.0
 40
0.2021350907
 40
0.3882083714
 40
0.5541789046
 40
0.6965845848000001
 40
0.7580611366
 40
0.8126835237999998
 40
0.8602708939999999
 40
0.9007463364999999
 40
0.9342058844
 40
0.9610298467999999
 40
0.9722512013999999
 40
0.9822627946
 40
0.9913742192
 40
1.0
 40
1.0
 40
1.0
 40
1.0
 10
359.2892570314497
 20
185.8556313785036
 30
0.0
 10
358.7961970958775
 20
185.7632896389156
 30
0.0
 10
357.8469447264968
 20
185.5979458775389
 30
0.0
 10
356.4853735870172
 20
185.4024033980447
 30
0.0
 10
355.2649913991725
 20
185.2719300828455
 30
0.0
 10
354.348248314777
 20
185.2164450709849
 30
0.0
 10
353.7066059423038
 20
185.2110572611761
 30
0.0
 10
353.3004651147264
 20
185.2247441903789
 30
0.0
 10
352.9475182840022
 20
185.2556573027957
 30
0.0
 10
352.649358127276
 20
185.3035805179577
 30
0.0
 10
352.4073222459654
 20
185.3680814352672
 30
0.0
 10
352.2433767197497
 20
185.4395296499921
 30
0.0
 10
352.1449748058537
 20
185.5075986897579
 30
0.0
 10
352.0903904345785
 20
185.5600698538117
 30
0.0
 10
352.0508970499093
 20
185.6171182598043
 30
0.0
 10
352.0348299771765
 20
185.6586544815007
 30
0.0
 10
352.0296675089837
 20
185.6794289870965
 30
0.0
  0
SPLINE
  5
18F9E
330
1F
100
AcDbEntity
  8
02___PRT_ALL_AXES
  6
Continuous
 62
     7
100
AcDbSpline
210
0.0
220
0.0
230
1.0
 70
     8
 71
     3
 72
    33
 73
    29
 74
     0
 42
0.0000000001
 43
0.0000000001
 40
0.0
 40
0.0
 40
0.0
 40
0.0
 40
0.0117793539
 40
0.0270182994
 40
0.045842805
 40
0.0682245552
 40
0.094059297
 40
0.1231710781
 40
0.1903300436
 40
0.2675877643
 40
0.3524028708
 40
0.4419418289000001
 40
0.5331936334
 40
0.6230836703
 40
0.7085878693000001
 40
0.7868465966000002
 40
0.8224399612
 40
0.8552845972
 40
0.8851185427
 40
0.9117212714
 40
0.9349070277999999
 40
0.9545520985999999
 40
0.9706040674999998
 40
0.9831539262999999
 40
0.9882234391
 40
0.9926028237
 40
0.9964500068999999
 40
1.0
 40
1.0
 40
1.0
 40
1.0
 10
361.7055626820227
 20
162.6955849969106
 30
0.0
 10
361.7563538362926
 20
162.6676765418822
 30
0.0
 10
361.8824656368986
 20
162.6217896283676
 30
0.0
 10
362.1038833328046
 20
162.5774698019693
 30
0.0
 10
362.3805924028263
 20
162.549794501562
 30
0.0
 10
362.7104038913738
 20
162.5391779900444
 30
0.0
 10
363.0909250040447
 20
162.545904996942
 30
0.0
 10
363.6908302558993
 20
162.5797745266852
 30
0.0
 10
364.5403812917382
 20
162.6688427459819
 30
0.0
 10
365.65612886743
 20
162.8349170502986
 30
0.0
 10
366.8736098020297
 20
163.0601745470745
 30
0.0
 10
368.1508965041274
 20
163.3370226545364
 30
0.0
 10
369.4440160200236
 20
163.6561161159321
 30
0.0
 10
370.7084510844822
 20
164.0064479442433
 30
0.0
 10
371.9006690345911
 20
164.3758964019296
 30
0.0
 10
372.8273017063391
 20
164.6982419787516
 30
0.0
 10
373.500767310418
 20
164.9579282299617
 30
0.0
 10
373.9474224552457
 20
165.1431916740655
 30
0.0
 10
374.3480174731656
 20
165.3235736303638
 30
0.0
 10
374.6991940031246
 20
165.4974275418815
 30
0.0
 10
374.9980111852772
 20
165.6632527547397
 30
0.0
 10
375.242322674351
 20
165.8195433230901
 30
0.0
 10
375.4302244490052
 20
165.9650219400243
 30
0.0
 10
375.5472537718131
 20
166.0839261721019
 30
0.0
 10
375.6073739470529
 20
166.1743536593765
 30
0.0
 10
375.6342319933017
 20
166.2344431296721
 30
0.0
 10
375.6457899642453
 20
166.2918199495786
 30
0.0
 10
375.6425742992749
 20
166.3287214304662
 30
0.0
 10
375.6383504474895
 20
166.345668722575
 30
0.0
  0
SPLINE
  5
18F9F
330
1F
100
AcDbEntity
  8
0
  6
Continuous
 62
     7
100
AcDbSpline
210
0.0
220
0.0
230
1.0
 70
     8
 71
     3
 72
     9
 73
     5
 74
     0
 42
0.0000000001
 43
0.0000000001
 40
0.0
 40
0.0
 40
0.0
 40
0.0
 40
0.249869629
 40
1.0
 40
1.0
 40
1.0
 40
1.0
 10
369.8393985980827
 20
188.7649532647599
 30
0.0
 10
369.6301676563733
 20
188.8081328626001
 30
0.0
 10
368.7902259311656
 20
188.967378909542
 30
0.0
 10
367.9373546203194
 20
189.0651776314414
 30
0.0
 10
367.2964080986302
 20
189.0883697375364
 30
0.0
  0
SPLINE
  5
18FA0
330
1F
100
AcDbEntity
  8
0
  6
Continuous
 62
     7
100
AcDbSpline
210
0.0
220
0.0
230
1.0
 70
     8
 71
     3
 72
    24
 73
    20
 74
     0
 42
0.0000000001
 43
0.0000000001
 40
0.0
 40
0.0
 40
0.0
 40
0.0
 40
0.222001562
 40
0.4206025006000001
 40
0.5096939627000002
 40
0.5913381929
 40
0.6651053765000002
 40
0.7306535165000003
 40
0.7877380339000001
 40
0.8362403639
 40
0.8762458495999998
 40
0.9081801705
 40
0.9214700769
 40
0.9332752107999999
 40
0.9439728308000001
 40
0.9540749840999998
 40
0.9641855037999999
 40
0.9749069793999998
 40
1.0
 40
1.0
 40
1.0
 40
1.0
 10
367.2964080986302
 20
189.0883697375364
 30
0.0
 10
367.7144125010296
 20
189.2286576344829
 30
0.0
 10
368.502620887072
 20
189.5057934374624
 30
0.0
 10
369.445384873349
 20
189.8753913598373
 30
0.0
 10
370.1182922363102
 20
190.167600925876
 30
0.0
 10
370.5582708493882
 20
190.3732841927674
 30
0.0
 10
370.9495251279792
 20
190.5722610969685
 30
0.0
 10
371.2897732421723
 20
190.7633060859277
 30
0.0
 10
371.5771113787149
 20
190.9452086465696
 30
0.0
 10
371.8101959221883
 20
191.1169853277286
 30
0.0
 10
371.9879849039541
 20
191.277613336572
 30
0.0
 10
372.0961926814405
 20
191.4094947411556
 30
0.0
 10
372.1499074836127
 20
191.5096427180339
 30
0.0
 10
372.1730737365458
 20
191.5772636523368
 30
0.0
 10
372.1812787709922
 20
191.642047518874
 30
0.0
 10
372.1740234410634
 20
191.703675762609
 30
0.0
 10
372.1511738084253
 20
191.7614310105498
 30
0.0
 10
372.0977965753761
 20
191.8362727943374
 30
0.0
 10
372.0390862155499
 20
191.8795387499892
 30
0.0
 10
371.9960813529167
 20
191.9047247981368
 30
0.0
  0
SPLINE
  5
18FA1
330
1F
100
AcDbEntity
  8
02___PRT_ALL_AXES
  6
Continuous
 62
     7
100
AcDbSpline
210
0.0
220
0.0
230
1.0
 70
     8
 71
     3
 72
    33
 73
    29
 74
     0
 42
0.0000000001
 43
0.0000000001
 40
0.0
 40
0.0
 40
0.0
 40
0.0
 40
0.0117793539
 40
0.0270182994
 40
0.045842805
 40
0.0682245552
 40
0.094059297
 40
0.1231710781
 40
0.1903300436
 40
0.2675877643
 40
0.3524028708
 40
0.4419418289000001
 40
0.5331936334
 40
0.6230836703
 40
0.7085878693000001
 40
0.7868465966000002
 40
0.8224399612
 40
0.8552845972
 40
0.8851185427
 40
0.9117212714
 40
0.9349070277999999
 40
0.9545520985999999
 40
0.9706040674999998
 40
0.9831539262999999
 40
0.9882234391
 40
0.9926028237
 40
0.9964500068999999
 40
1.0
 40
1.0
 40
1.0
 40
1.0
 10
355.4509083821383
 20
187.8685144107319
 30
0.0
 10
355.5016995364956
 20
187.8406059556535
 30
0.0
 10
355.6278113370162
 20
187.7947190421898
 30
0.0
 10
355.8492290330057
 20
187.7503992157405
 30
0.0
 10
356.1259381028929
 20
187.7227239152969
 30
0.0
 10
356.455749591524
 20
187.7121074037302
 30
0.0
 10
356.8362707041586
 20
187.7188344107642
 30
0.0
 10
357.4361759559658
 20
187.7527039404201
 30
0.0
 10
358.2857269918557
 20
187.8417721598032
 30
0.0
 10
359.4014745676312
 20
188.0078464640708
 30
0.0
 10
360.6189555020963
 20
188.2331039608095
 30
0.0
 10
361.8962422041902
 20
188.5099520682713
 30
0.0
 10
363.1893617202284
 20
188.8290455297035
 30
0.0
 10
364.4537967846834
 20
189.1793773580154
 30
0.0
 10
365.6460147346577
 20
189.5488258156644
 30
0.0
 10
366.5726474064056
 20
189.8711713924865
 30
0.0
 10
367.2461130105319
 20
190.1308576437829
 30
0.0
 10
367.6927681553595
 20
190.3161210878868
 30
0.0
 10
368.0933631732321
 20
190.4965030440996
 30
0.0
 10
368.4445397032421
 20
190.6703569557019
 30
0.0
 10
368.7433568854292
 20
190.8361821684254
 30
0.0
 10
368.987668374554
 20
190.9924727368623
 30
0.0
 10
369.1755701491591
 20
191.1379513537092
 30
0.0
 10
369.2925994719287
 20
191.2568555859241
 30
0.0
 10
369.3527196471174
 20
191.3472830731123
 30
0.0
 10
369.3795776933682
 20
191.407372543407
 30
0.0
 10
369.391135664361
 20
191.4647493634008
 30
0.0
 10
369.3879199993379
 20
191.501650844202
 30
0.0
 10
369.3836961475562
 20
191.5185981363108
 30
0.0
  0
SPLINE
  5
18FA2
330
1F
100
AcDbEntity
  8
02___PRT_ALL_AXES
  6
Continuous
 62
     7
100
AcDbSpline
210
0.0
220
0.0
230
1.0
 70
     8
 71
     3
 72
     9
 73
     5
 74
     0
 42
0.0000000001
 43
0.0000000001
 40
0.0
 40
0.0
 40
0.0
 40
0.0
 40
0.5017134228
 40
1.0
 40
1.0
 40
1.0
 40
1.0
 10
365.1600091766875
 20
184.9128704727015
 30
0.0
 10
365.040941206679
 20
184.8800361216879
 30
0.0
 10
364.7887060883247
 20
184.85938995225
 30
0.0
 10
364.5474478470849
 20
184.9364935494756
 30
0.0
 10
364.4399450537155
 20
184.9955760462042
 30
0.0
  0
SPLINE
  5
18FA3
330
1F
100
AcDbEntity
  8
0
  6
Continuous
 62
     7
100
AcDbSpline
210
0.0
220
0.0
230
1.0
 70
     8
 71
     3
 72
     9
 73
     5
 74
     0
 42
0.0000000001
 43
0.0000000001
 40
0.0
 40
0.0
 40
0.0
 40
0.0
 40
0.5084808811000002
 40
1.0
 40
1.0
 40
1.0
 40
1.0
 10
361.2367258130131
 20
192.9294507045276
 30
0.0
 10
361.7245463367388
 20
193.0471882321933
 30
0.0
 10
362.680304205888
 20
193.2939455354924
 30
0.0
 10
363.62764727641
 20
193.5713984792371
 30
0.0
 10
364.0905485006503
 20
193.7164248651049
 30
0.0
  0
SPLINE
  5
18FA4
330
1F
100
AcDbEntity
  8
0
  6
Continuous
 62
     7
100
AcDbSpline
210
0.0
220
0.0
230
1.0
 70
     8
 71
     3
 72
    16
 73
    12
 74
     0
 42
0.0000000001
 43
0.0000000001
 40
0.0
 40
0.0
 40
0.0
 40
0.0
 40
0.3486454307
 40
0.5083609799000001
 40
0.6517102818
 40
0.7747006213
 40
0.8744109759999998
 40
0.9149975878999999
 40
0.9493246716999999
 40
0.9775225864999999
 40
1.0
 40
1.0
 40
1.0
 40
1.0
 10
359.7924621732661
 20
210.9092086295611
 30
0.0
 10
359.7142729720915
 20
211.190512438922
 30
0.0
 10
359.5887979424649
 20
211.5977085487273
 30
0.0
 10
359.4020330205083
 20
212.1106105806273
 30
0.0
 10
359.2669186608316
 20
212.4409755626337
 30
0.0
 10
359.1369260141025
 20
212.7187144604911
 30
0.0
 10
359.030171262554
 20
212.9120319096598
 30
0.0
 10
358.9485941910814
 20
213.0335072079331
 30
0.0
 10
358.8951110334881
 20
213.1014649108345
 30
0.0
 10
358.8453737643638
 20
213.1525652408816
 30
0.0
 10
358.8111072970867
 20
213.1782243347623
 30
0.0
 10
358.7946102871563
 20
213.1872890245875
 30
0.0
  0
LINE
  5
18FA5
330
1F
100
AcDbEntity
  8
0
  6
Continuous
 62
     7
100
AcDbLine
 10
359.8625197943463
 20
210.6571563775294
 30
0.0
 11
359.7924621732661
 21
210.9092086295611
 31
0.0
  0
SPLINE
  5
18FA6
330
1F
100
AcDbEntity
  8
0
  6
Continuous
 62
     7
100
AcDbSpline
210
0.0
220
0.0
230
1.0
 70
     8
 71
     3
 72
    31
 73
    27
 74
     0
 42
0.0000000001
 43
0.0000000001
 40
0.0
 40
0.0
 40
0.0
 40
0.0
 40
0.1055852068
 40
0.2060004534
 40
0.2989159184
 40
0.3822017374
 40
0.4540036672
 40
0.4851170707
 40
0.5128317387
 40
0.5370380822
 40
0.5576805291
 40
0.5747776468
 40
0.5884872123
 40
0.5992321486
 40
0.6079848280000001
 40
0.6164891035000001
 40
0.6266221708
 40
0.6395419633000002
 40
0.6557744993
 40
0.6755250678
 40
0.6988415577
 40
0.7256843499
 40
0.7559575219
 40
0.8262091595999997
 40
0.9081605906
 40
1.0
 40
1.0
 40
1.0
 40
1.0
 10
357.0791507950568
 20
214.1298906399468
 30
0.0
 10
357.3060768020066
 20
214.1801488423432
 30
0.0
 10
357.7500127456249
 20
214.2729183061954
 30
0.0
 10
358.3974679157789
 20
214.3907000525248
 30
0.0
 10
358.9996090635457
 20
214.4820264635871
 30
0.0
 10
359.5420355635458
 20
214.5448013657576
 30
0.0
 10
359.951133612213
 20
214.5737269629251
 30
0.0
 10
360.2386873266794
 20
214.5796793420866
 30
0.0
 10
360.4214971916542
 20
214.5761240527452
 30
0.0
 10
360.5809252399583
 20
214.5648661301609
 30
0.0
 10
360.7161155882084
 20
214.5460222188228
 30
0.0
 10
360.826543303562
 20
214.5197627407786
 30
0.0
 10
360.9120243176628
 20
214.4860392090857
 30
0.0
 10
360.9732541784222
 20
214.4443267956619
 30
0.0
 10
361.0085745402709
 20
214.3908188485245
 30
0.0
 10
361.0106105473303
 20
214.3278760881956
 30
0.0
 10
360.9823778900343
 20
214.2629302241283
 30
0.0
 10
360.928912726026
 20
214.1943754274269
 30
0.0
 10
360.8499326767766
 20
214.1207752921452
 30
0.0
 10
360.7455850410977
 20
214.0420997544968
 30
0.0
 10
360.6161459322728
 20
213.9586719137285
 30
0.0
 10
360.4622601867329
 20
213.8709720292925
 30
0.0
 10
360.2129287561572
 20
213.7425977460141
 30
0.0
 10
359.8464231689056
 20
213.5775917252329
 30
0.0
 10
359.3467956308803
 20
213.3798719509166
 30
0.0
 10
358.9861162640416
 20
213.252070412306
 30
0.0
 10
358.7946102871563
 20
213.1872890245875
 30
0.0
  0
SPLINE
  5
18FA7
330
1F
100
AcDbEntity
  8
0
  6
Continuous
 62
     7
100
AcDbSpline
210
0.0
220
0.0
230
1.0
 70
     8
 71
     3
 72
    31
 73
    27
 74
     0
 42
0.0000000001
 43
0.0000000001
 40
0.0
 40
0.0
 40
0.0
 40
0.0
 40
0.1060320457
 40
0.2069270363
 40
0.3003771774
 40
0.384269959
 40
0.4567623009
 40
0.4882533601
 40
0.5163662110000002
 40
0.5409892318999999
 40
0.5620618092000002
 40
0.5795930734
 40
0.5937211629
 40
0.61345655
 40
0.6176534565000002
 40
0.6219751751000002
 40
0.6318333840000001
 40
0.6443521819
 40
0.6601213719
 40
0.6793787677
 40
0.7021904973000001
 40
0.7285290591
 40
0.7583078212000001
 40
0.8276307807
 40
0.9087807914
 40
1.0
 40
1.0
 40
1.0
 40
1.0
 10
355.9407875995555
 20
212.4003148638728
 30
0.0
 10
355.7154490090858
 20
212.3504082328716
 30
0.0
 10
355.2745102318029
 20
212.2582271733906
 30
0.0
 10
354.6311979251246
 20
212.1410117662924
 30
0.0
 10
354.0323514003492
 20
212.0498497588421
 30
0.0
 10
353.4920871062593
 20
211.98680795416
 30
0.0
 10
353.0839828912128
 20
211.9572982965171
 30
0.0
 10
352.7964642672511
 20
211.9505976164971
 30
0.0
 10
352.6131121425267
 20
211.9534854516003
 30
0.0
 10
352.4526546968179
 20
211.9640461799761
 30
0.0
 10
352.3162529756271
 20
211.9818901924352
 30
0.0
 10
352.2035820216722
 20
212.0076692388463
 30
0.0
 10
352.0999086487671
 20
212.0454698385845
 30
0.0
 10
352.0260016801865
 20
212.1010581829694
 30
0.0
 10
352.0108135681537
 20
212.1615969746569
 30
0.0
 10
352.0111441839642
 20
212.2019560654424
 30
0.0
 10
352.0318774802788
 20
212.2578451010666
 30
0.0
 10
352.0813741782939
 20
212.3250933834358
 30
0.0
 10
352.155835822449
 20
212.3974455333252
 30
0.0
 10
352.2554032813957
 20
212.4747526232029
 30
0.0
 10
352.3797634447499
 20
212.5568405111696
 30
0.0
 10
352.5283560340274
 20
212.643216016824
 30
0.0
 10
352.770288366223
 20
212.7699393489827
 30
0.0
 10
353.1274258916663
 20
212.9330267453377
 30
0.0
 10
353.6158778274755
 20
213.1287513724135
 30
0.0
 10
353.9691489700479
 20
213.2553847853994
 30
0.0
 10
354.1570095179839
 20
213.3196723613626
 30
0.0
  0
SPLINE
  5
18FA8
330
1F
100
AcDbEntity
  8
02___PRT_ALL_AXES
  6
Continuous
 62
     7
100
AcDbSpline
210
0.0
220
0.0
230
1.0
 70
     8
 71
     3
 72
    25
 73
    21
 74
     0
 42
0.0000000001
 43
0.0000000001
 40
0.0
 40
0.0
 40
0.0
 40
0.0
 40
0.0149383602
 40
0.0326581034
 40
0.053125001
 40
0.0762667961
 40
0.1300842604
 40
0.1929338689
 40
0.2633309059
 40
0.3395639892
 40
0.5019049911
 40
0.6639674721
 40
0.7398602167
 40
0.8097947459999998
 40
0.8720727459
 40
0.9252260538999999
 40
0.9480076951
 40
0.9681049855999999
 40
0.9854448826
 40
1.0
 40
1.0
 40
1.0
 40
1.0
 10
357.2505439838485
 20
181.5482409642052
 30
0.0
 10
357.3187759309501
 20
181.5330051580829
 30
0.0
 10
357.4699451591066
 20
181.5086741915936
 30
0.0
 10
357.7178244607992
 20
181.4877698152693
 30
0.0
 10
358.0048513517129
 20
181.4795655334708
 30
0.0
 10
358.4608643827877
 20
181.4862218190008
 30
0.0
 10
359.1141044356925
 20
181.5303847199736
 30
0.0
 10
359.9840870512442
 20
181.6299961298098
 30
0.0
 10
360.9535814767685
 20
181.7769515428733
 30
0.0
 10
362.3761939229432
 20
182.0369206215271
 30
0.0
 10
364.2064001059432
 20
182.4480641744118
 30
0.0
 10
366.0138637754051
 20
182.9438731191537
 30
0.0
 10
367.3870491503465
 20
183.3810984949621
 30
0.0
 10
368.3057877303661
 20
183.7049345430321
 30
0.0
 10
369.112929307629
 20
184.0234672481499
 30
0.0
 10
369.703084968484
 20
184.2893383387279
 30
0.0
 10
370.1022842561349
 20
184.4960473780836
 30
0.0
 10
370.3466394567447
 20
184.6367275218333
 30
0.0
 10
370.550271370638
 20
184.7701799871399
 30
0.0
 10
370.6685074005607
 20
184.861776616052
 30
0.0
 10
370.7196056841592
 20
184.9068223922264
 30
0.0
  0
SPLINE
  5
18FA9
330
1F
100
AcDbEntity
  8
0
  6
Continuous
 62
     7
100
AcDbSpline
210
0.0
220
0.0
230
1.0
 70
     8
 71
     3
 72
    22
 73
    18
 74
     0
 42
0.0000000001
 43
0.0000000001
 40
0.0
 40
0.0
 40
0.0
 40
0.0
 40
0.0087666378
 40
0.0177170098
 40
0.0379296371
 40
0.063468277
 40
0.0956328173
 40
0.1143919939
 40
0.1349729351
 40
0.1816298107
 40
0.2355787628
 40
0.2966575014
 40
0.3646150515
 40
0.439132505
 40
0.6062909800999999
 40
0.7946133705
 40
1.0
 40
1.0
 40
1.0
 40
1.0
 10
363.8878982271552
 20
212.9988964094434
 30
0.0
 10
363.8933138416385
 20
212.986156151486
 30
0.0
 10
363.9011571223734
 20
212.9589455324155
 30
0.0
 10
363.9028845404634
 20
212.8984973005106
 30
0.0
 10
363.8746529190346
 20
212.8144185988146
 30
0.0
 10
363.8033482143062
 20
212.7132015588129
 30
0.0
 10
363.7177305630692
 20
212.6274589582424
 30
0.0
 10
363.6316251861197
 20
212.5543885767627
 30
0.0
 10
363.5238618549472
 20
212.4716647269768
 30
0.0
 10
363.364915684421
 20
212.3647845833555
 30
0.0
 10
363.1450320176507
 20
212.234830259356
 30
0.0
 10
362.8898389279918
 20
212.0991196017264
 30
0.0
 10
362.6007634483638
 20
211.9584390093876
 30
0.0
 10
362.1549185746724
 20
211.7575739936571
 30
0.0
 10
361.5253839367932
 20
211.5024640345316
 30
0.0
 10
360.6926541047767
 20
211.2004258207005
 30
0.0
 10
360.1018794391555
 20
211.0064207098164
 30
0.0
 10
359.7924621732661
 20
210.9092086295611
 30
0.0
  0
SPLINE
  5
18FAA
330
1F
100
AcDbEntity
  8
0
  6
Continuous
 62
     7
100
AcDbSpline
210
0.0
220
0.0
230
1.0
 70
     8
 71
     3
 72
    22
 73
    18
 74
     0
 42
0.0000000001
 43
0.0000000001
 40
0.0
 40
0.0
 40
0.0
 40
0.0
 40
0.1934994439
 40
0.3781711544
 40
0.5473321629
 40
0.6241802389
 40
0.6949547178000001
 40
0.7590531526000001
 40
0.8159536784999998
 40
0.8652339156
 40
0.906602282
 40
0.939965323
 40
0.9655887986999999
 40
0.975809265
 40
0.9846238198999998
 40
0.9924775160999999
 40
1.0
 40
1.0
 40
1.0
 40
1.0
 10
356.9386394855817
 20
210.1222344688965
 30
0.0
 10
356.4986678167214
 20
210.0163698185413
 30
0.0
 10
355.6357101614765
 20
209.8220068868748
 30
0.0
 10
354.3786614235476
 20
209.579538378194
 30
0.0
 10
353.3833105591718
 20
209.4234454819341
 30
0.0
 10
352.6478669059059
 20
209.3335866263758
 30
0.0
 10
352.1549255231719
 20
209.2862460051271
 30
0.0
 10
351.7072984971043
 20
209.2571123325385
 30
0.0
 10
351.3090863166697
 20
209.2463813860311
 30
0.0
 10
350.9639575746667
 20
209.2540265249306
 30
0.0
 10
350.674686875677
 20
209.2797558177397
 30
0.0
 10
350.443761148296
 20
209.3231627745406
 30
0.0
 10
350.2895251919862
 20
209.3770278188592
 30
0.0
 10
350.2005471491727
 20
209.4326167565466
 30
0.0
 10
350.1543729875618
 20
209.4761129114402
 30
0.0
 10
350.1242891133832
 20
209.5249539292733
 30
0.0
 10
350.1158554518522
 20
209.5606554690081
 30
0.0
 10
350.114511354898
 20
209.5781965601934
 30
0.0
  0
SPLINE
  5
18FAB
330
1F
100
AcDbEntity
  8
02___PRT_ALL_AXES
  6
Continuous
 62
     7
100
AcDbSpline
210
0.0
220
0.0
230
1.0
 70
     8
 71
     3
 72
    15
 73
    11
 74
     0
 42
0.0000000001
 43
0.0000000001
 40
0.0
 40
0.0
 40
0.0
 40
0.0
 40
0.115597237
 40
0.2120533217
 40
0.3001891196
 40
0.3940068005
 40
0.5053434451
 40
0.6413330946000002
 40
0.8056673810999999
 40
1.0
 40
1.0
 40
1.0
 40
1.0
 10
355.0944075398736
 20
187.2578676807895
 30
0.0
 10
355.0654323180304
 20
187.2737888325961
 30
0.0
 10
355.0144298390758
 20
187.3076846239316
 30
0.0
 10
354.9581327926269
 20
187.3748092913708
 30
0.0
 10
354.9347830422473
 20
187.45353921337
 30
0.0
 10
354.9468005590413
 20
187.5385834828364
 30
0.0
 10
354.9897609883653
 20
187.6272603775367
 30
0.0
 10
355.0617290852013
 20
187.721101795382
 30
0.0
 10
355.162598944439
 20
187.8207150381374
 30
0.0
 10
355.2422749766653
 20
187.8855328984961
 30
0.0
 10
355.2865155812948
 20
187.9191764952736
 30
0.0
  0
SPLINE
  5
18FAC
330
1F
100
AcDbEntity
  8
02___PRT_ALL_AXES
  6
Continuous
 62
     7
100
AcDbSpline
210
0.0
220
0.0
230
1.0
 70
     8
 71
     3
 72
     9
 73
     5
 74
     0
 42
0.0000000001
 43
0.0000000001
 40
0.0
 40
0.0
 40
0.0
 40
0.0
 40
0.555590127
 40
1.0
 40
1.0
 40
1.0
 40
1.0
 10
369.5120933488895
 20
191.4290519147696
 30
0.0
 10
369.5747641063197
 20
191.4170717079885
 30
0.0
 10
369.6867129509835
 20
191.3906662007928
 30
0.0
 10
369.7944284809334
 20
191.3484786350296
 30
0.0
 10
369.8391580926279
 20
191.3239008442913
 30
0.0
  0
SPLINE
  5
18FAD
330
1F
100
AcDbEntity
  8
02___PRT_ALL_AXES
  6
Continuous
 62
     7
100
AcDbSpline
210
0.0
220
0.0
230
1.0
 70
     8
 71
     3
 72
    15
 73
    11
 74
     0
 42
0.0000000001
 43
0.0000000001
 40
0.0
 40
0.0
 40
0.0
 40
0.0
 40
0.1231343341
 40
0.2467966752
 40
0.3713326424
 40
0.4967801294
 40
0.6228649925000001
 40
0.7491026172000002
 40
0.8749443712999999
 40
1.0
 40
1.0
 40
1.0
 40
1.0
 10
365.4035282100692
 20
186.7481023783282
 30
0.0
 10
365.4880682446917
 20
186.7016399919673
 30
0.0
 10
365.6441805307866
 20
186.58161373697
 30
0.0
 10
365.8132929836126
 20
186.3396633462569
 30
0.0
 10
365.9038638979243
 20
186.0566605939318
 30
0.0
 10
365.9079207242346
 20
185.757807074018
 30
0.0
 10
365.825506421056
 20
185.4692000682431
 30
0.0
 10
365.6637957657137
 20
185.2159412698645
 30
0.0
 10
365.4371853230866
 20
185.0201357783096
 30
0.0
 10
365.2544555241827
 20
184.9389151303464
 30
0.0
 10
365.1600091766875
 20
184.9128704727015
 30
0.0
  0
SPLINE
  5
18FAE
330
1F
100
AcDbEntity
  8
0
  6
Continuous
 62
     7
100
AcDbSpline
210
0.0
220
0.0
230
1.0
 70
     8
 71
     3
 72
    19
 73
    15
 74
     0
 42
0.0000000001
 43
0.0000000001
 40
0.0
 40
0.0
 40
0.0
 40
0.0
 40
0.0218096662
 40
0.0461050896
 40
0.0747070642
 40
0.1087063805
 40
0.1487157478
 40
0.1950447251
 40
0.2478276689999999
 40
0.3071036767
 40
0.4448410958000001
 40
0.6073206828000001
 40
0.7930777067000001
 40
1.0
 40
1.0
 40
1.0
 40
1.0
 10
373.3804432130262
 20
190.984402058905
 30
0.0
 10
373.3880097404242
 20
190.9539532773967
 30
0.0
 10
373.3918294931343
 20
190.8861324849611
 30
0.0
 10
373.3626828787117
 20
190.7813040275148
 30
0.0
 10
373.3017365659204
 20
190.6712596758268
 30
0.0
 10
373.2097651307257
 20
190.5552193798228
 30
0.0
 10
373.0868850221329
 20
190.4328767919021
 30
0.0
 10
372.9332707783931
 20
190.3043058039791
 30
0.0
 10
372.7492286723707
 20
190.1697568254174
 30
0.0
 10
372.4484153646506
 20
189.9729490598536
 30
0.0
 10
371.9979817186602
 20
189.7178864027544
 30
0.0
 10
371.3711583107204
 20
189.4077951760343
 30
0.0
 10
370.6407929499027
 20
189.0842224812073
 30
0.0
 10
370.1168780688829
 20
188.8727238592389
 30
0.0
 10
369.8393985980827
 20
188.7649532647599
 30
0.0
  0
SPLINE
  5
18FAF
330
1F
100
AcDbEntity
  8
02___PRT_ALL_AXES
  6
Continuous
 62
     7
100
AcDbSpline
210
0.0
220
0.0
230
1.0
 70
     8
 71
     3
 72
     9
 73
     5
 74
     0
 42
0.0000000001
 43
0.0000000001
 40
0.0
 40
0.0
 40
0.0
 40
0.0
 40
0.271835498
 40
1.0
 40
1.0
 40
1.0
 40
1.0
 10
355.4509083821383
 20
187.8685144107319
 30
0.0
 10
355.4426151688156
 20
187.8730713216998
 30
0.0
 10
355.4125876822898
 20
187.8906480110152
 30
0.0
 10
355.3844804317622
 20
187.9118434416403
 30
0.0
 10
355.3665369864018
 20
187.9297470492154
 30
0.0
  0
SPLINE
  5
18FB0
330
1F
100
AcDbEntity
  8
02___PRT_ALL_AXES
  6
Continuous
 62
     7
100
AcDbSpline
210
0.0
220
0.0
230
1.0
 70
     8
 71
     3
 72
     9
 73
     5
 74
     0
 42
0.0000000001
 43
0.0000000001
 40
0.0
 40
0.0
 40
0.0
 40
0.0
 40
0.5198435512
 40
1.0
 40
1.0
 40
1.0
 40
1.0
 10
355.3665369864018
 20
187.9297470492154
 30
0.0
 10
355.353226271566
 20
187.9430282118326
 30
0.0
 10
355.3301279817085
 20
187.9714080232339
 30
0.0
 10
355.315797105294
 20
188.0052868737618
 30
0.0
 10
355.3115969402014
 20
188.0221391284219
 30
0.0
  0
ENDSEC
  0
SECTION
  2
OBJECTS
  0
DICTIONARY
  5
C
330
0
100
AcDbDictionary
281
     1
  3
ACAD_COLOR
350
4FFE
  3
ACAD_GROUP
350
D
  3
ACAD_LAYOUT
350
1A
  3
ACAD_MATERIAL
350
4FE5
  3
ACAD_MLEADERSTYLE
350
5022
  3
ACAD_MLINESTYLE
350
17
  3
ACAD_PLOTSETTINGS
350
19
  3
ACAD_PLOTSTYLENAME
350
E
  3
ACAD_RENDER_PLOT_SETTINGS
350
6537
  3
ACAD_SCALELIST
350
5000
  3
ACAD_TABLESTYLE
350
4FE3
  3
ACAD_VISUALSTYLE
350
2A
  3
ACDB_RECOMPOSE_DATA
350
50EC
  3
AcDbVariableDictionary
350
5108
  3
ASE_INDEX_DICTIONARY
350
13AB8
  0
DICTIONARY
  5
50EE
330
8
100
AcDbDictionary
280
     1
281
     1
  0
DICTIONARY
  5
50B8
330
2
100
AcDbDictionary
280
     1
281
     1
  3
ACAD_LAYERFILTERS
360
17549
  3
ACAD_LAYERSTATES
360
50B9
  3
ACLYDICTIONARY
360
17548
  0
DICTIONARY
  5
50D0
330
10
100
AcDbDictionary
280
     1
281
     1
  3
ADSK_XREC_LAYER_RECONCILED
360
50D1
  0
DICTIONARY
  5
50D2
330
3B
100
AcDbDictionary
280
     1
281
     1
  3
ADSK_XREC_LAYER_RECONCILED
360
50D3
  0
DICTIONARY
  5
50AF
330
50AE
100
AcDbDictionary
280
     1
281
     1
  3
ADSK_XREC_LAYER_RECONCILED
360
50D4
  0
DICTIONARY
  5
18D6C
330
18D6B
100
AcDbDictionary
280
     1
281
     1
  0
DICTIONARY
  5
67C0
330
1F
100
AcDbDictionary
280
     1
281
     1
  3
ACAD_SORTENTS
360
67C1
  0
DICTIONARY
  5
190E1
330
10FE8
100
AcDbDictionary
280
     1
281
     1
  0
DICTIONARY
  5
19112
330
1904C
100
AcDbDictionary
280
     1
281
     1
  3
ACAD_MTEXT_2008_RT
360
19113
  0
DICTIONARY
  5
19114
330
19090
100
AcDbDictionary
280
     1
281
     1
  3
ACAD_MTEXT_2008_RT
360
19115
  0
DICTIONARY
  5
19116
330
19091
100
AcDbDictionary
280
     1
281
     1
  3
ACAD_MTEXT_2008_RT
360
19117
  0
DICTIONARY
  5
19118
330
190B6
100
AcDbDictionary
280
     1
281
     1
  3
ACAD_MTEXT_2008_RT
360
19119
  0
DICTIONARY
  5
1911A
330
190B9
100
AcDbDictionary
280
     1
281
     1
  3
ACAD_MTEXT_2008_RT
360
1911B
  0
DICTIONARY
  5
1911C
330
190BA
100
AcDbDictionary
280
     1
281
     1
  3
ACAD_MTEXT_2008_RT
360
1911D
  0
DICTIONARY
  5
1911E
330
190C4
100
AcDbDictionary
280
     1
281
     1
  3
ACAD_MTEXT_2008_RT
360
1911F
  0
DICTIONARY
  5
19120
330
190C5
100
AcDbDictionary
280
     1
281
     1
  3
ACAD_MTEXT_2008_RT
360
19121
  0
DICTIONARY
  5
19122
330
190C6
100
AcDbDictionary
280
     1
281
     1
  3
ACAD_MTEXT_2008_RT
360
19123
  0
DICTIONARY
  5
19124
330
190D4
100
AcDbDictionary
280
     1
281
     1
  3
ACAD_MTEXT_2008_RT
360
19125
  0
DICTIONARY
  5
19126
330
190D5
100
AcDbDictionary
280
     1
281
     1
  3
ACAD_MTEXT_2008_RT
360
19127
  0
DICTIONARY
  5
19128
330
190D6
100
AcDbDictionary
280
     1
281
     1
  3
ACAD_MTEXT_2008_RT
360
19129
  0
DICTIONARY
  5
19110
330
1338B
100
AcDbDictionary
280
     1
281
     1
  3
ACAD_MTEXT_2008_RT
360
19111
  0
DICTIONARY
  5
4FFE
102
{ACAD_REACTORS
330
C
102
}
330
C
100
AcDbDictionary
281
     1
  0
DICTIONARY
  5
D
102
{ACAD_REACTORS
330
C
102
}
330
C
100
AcDbDictionary
281
     1
  0
DICTIONARY
  5
1A
102
{ACAD_REACTORS
330
C
102
}
330
C
100
AcDbDictionary
281
     1
  3
Layout1
350
1E
  3
Layout2
350
26
  3
Model
350
22
  0
DICTIONARY
  5
4FE5
102
{ACAD_REACTORS
330
C
102
}
330
C
100
AcDbDictionary
281
     1
  3
ByBlock
350
4FEE
  3
ByLayer
350
4FE6
  3
Global
350
4FF6
  0
DICTIONARY
  5
5022
102
{ACAD_REACTORS
330
C
102
}
330
C
100
AcDbDictionary
281
     1
  3
Standard
350
5023
  0
DICTIONARY
  5
17
102
{ACAD_REACTORS
330
C
102
}
330
C
100
AcDbDictionary
281
     1
  3
Standard
350
18
  0
DICTIONARY
  5
19
102
{ACAD_REACTORS
330
C
102
}
330
C
100
AcDbDictionary
281
     1
  0
ACDBDICTIONARYWDFLT
  5
E
102
{ACAD_REACTORS
330
C
102
}
330
C
100
AcDbDictionary
281
     1
  3
Normal
350
F
100
AcDbDictionaryWithDefault
340
F
  0
DICTIONARY
  5
6537
102
{ACAD_REACTORS
330
C
102
}
330
C
100
AcDbDictionary
281
     1
  3
{1DC63513-1B1A-422F-9880-65CFD2B8D533}
350
6538
  0
DICTIONARY
  5
5000
102
{ACAD_REACTORS
330
C
102
}
330
C
100
AcDbDictionary
281
     1
  3
A0
350
5001
  3
A1
350
5002
  3
A2
350
5003
  3
A3
350
5004
  3
A4
350
5005
  3
A5
350
5006
  3
A6
350
5007
  3
A7
350
5008
  3
A8
350
5009
  3
A9
350
500A
  3
B0
350
500B
  3
B1
350
500C
  3
B2
350
500D
  3
B3
350
500E
  3
B4
350
500F
  3
B5
350
5010
  3
B6
350
5011
  3
B7
350
5012
  3
B8
350
5013
  3
B9
350
5014
  3
C0
350
5015
  3
C1
350
5016
  3
C2
350
5017
  3
C3
350
5018
  3
C4
350
5019
  3
C5
350
501A
  3
C6
350
501B
  3
C7
350
501C
  3
C8
350
501D
  3
C9
350
501E
  3
D0
350
501F
  3
D1
350
5020
  3
D2
350
5021
  0
DICTIONARY
  5
4FE3
102
{ACAD_REACTORS
330
C
102
}
330
C
100
AcDbDictionary
281
     1
  3
Standard
350
4FFF
  0
DICTIONARY
  5
2A
102
{ACAD_REACTORS
330
C
102
}
330
C
100
AcDbDictionary
281
     1
  3
2dWireframe
350
2F
  3
3D Hidden
350
31
  3
3dWireframe
350
30
  3
Basic
350
32
  3
Brighten
350
36
  3
ColorChange
350
3A
  3
Conceptual
350
34
  3
Dim
350
35
  3
Facepattern
350
39
  3
Flat
350
2B
  3
FlatWithEdges
350
2C
  3
Gouraud
350
2D
  3
GouraudWithEdges
350
2E
  3
Linepattern
350
38
  3
Realistic
350
33
  3
Thicken
350
37
  0
XRECORD
  5
50EC
102
{ACAD_REACTORS
330
C
102
}
330
C
100
AcDbXrecord
280
     1
 90
        1
330
4FFF
330
1338B
330
1904C
330
19090
330
19091
330
190B6
330
190B9
330
190BA
330
190C4
330
190C5
330
190C6
330
190D4
330
190D5
330
190D6
  0
DICTIONARY
  5
5108
102
{ACAD_REACTORS
330
C
102
}
330
C
100
AcDbDictionary
281
     1
  3
CANNOSCALE
350
510B
  3
CMLEADERSTYLE
350
510A
  3
CTABLESTYLE
350
5109
  3
DIMASSOC
350
510E
  3
INDEXCTL
350
510D
  3
LIGHTINGUNITS
350
19101
  3
MSLTSCALE
350
19100
  3
SORTENTS
350
510C
  0
DICTIONARY
  5
13AB8
102
{ACAD_REACTORS
330
C
102
}
330
C
100
AcDbDictionary
281
     1
  3
ASEBlockHierarchyIndexRecord
350
13AB9
1001
DCO15
1040
1903428683.781
  0
DICTIONARY
  5
17549
102
{ACAD_REACTORS
330
50B8
102
}
330
50B8
100
AcDbDictionary
281
     1
  0
DICTIONARY
  5
50B9
102
{ACAD_REACTORS
330
50B8
102
}
330
50B8
100
AcDbDictionary
281
     1
  0
DICTIONARY
  5
17548
102
{ACAD_REACTORS
330
50B8
102
}
330
50B8
100
AcDbDictionary
281
     1
1001
ACAD
1000
<All
  0
XRECORD
  5
50D1
102
{ACAD_REACTORS
330
50D0
102
}
330
50D0
100
AcDbXrecord
280
     1
290
     1
  0
XRECORD
  5
50D3
102
{ACAD_REACTORS
330
50D2
102
}
330
50D2
100
AcDbXrecord
280
     1
290
     1
  0
XRECORD
  5
50D4
102
{ACAD_REACTORS
330
50AF
102
}
330
50AF
100
AcDbXrecord
280
     1
290
     1
  0
SORTENTSTABLE
  5
67C1
102
{ACAD_REACTORS
330
67C0
102
}
330
67C0
100
AcDbSortentsTable
330
1F
331
18BC0
  5
18BC1
331
18B04
  5
18B05
331
18A7C
  5
18A7C
331
2F93
  5
2FDE
331
18A8C
  5
18A8C
331
18AF3
  5
18AF4
331
18B03
  5
18B04
331
18A7B
  5
18A7B
331
18A8B
  5
18A8B
331
18AF2
  5
18AF3
331
18A7A
  5
18A7A
331
18B02
  5
18B03
331
35C8
  5
35D8
331
18A8A
  5
18A8A
331
18AF1
  5
18AF2
331
1338B
  5
1338B
331
18BBF
  5
18BC0
331
18B01
  5
18B02
331
18AF0
  5
18AF1
331
18A89
  5
18A89
331
18B00
  5
18B01
331
2EE7
  5
2F93
331
2FDE
  5
35C8
331
28AE
  5
2A38
331
18A88
  5
18A88
331
3895
  5
3943
331
18AFF
  5
18B00
331
18A87
  5
18A87
331
18AEF
  5
18AF0
331
18AFE
  5
18AFF
331
18A86
  5
18A86
331
18AFD
  5
18AFE
331
1382D
  5
1382D
331
18A85
  5
18A85
331
18AFC
  5
18AFD
331
4842
  5
4E94
331
1382C
  5
1382C
331
18AFB
  5
18AFC
331
1382B
  5
1382B
331
18AFA
  5
18AFB
331
1382A
  5
1382A
331
35D8
  5
3807
331
18B0A
  5
18BBF
331
18A82
  5
18A82
331
18BC6
  5
18D6A
331
3807
  5
3895
331
18AF9
  5
18AFA
331
13829
  5
13829
331
18A81
  5
18A81
331
18B09
  5
18B0A
331
18BC5
  5
18BC6
331
18AF8
  5
18AF9
331
18B08
  5
18B09
331
18BC4
  5
18BC5
331
18AF7
  5
18AF8
331
18B07
  5
18B08
331
18BC3
  5
18BC4
331
18AF6
  5
18AF7
331
2C65
  5
2EE7
331
18B06
  5
18B07
331
18BC2
  5
18BC3
331
18AF5
  5
18AF6
331
18BC1
  5
18BC2
331
18B05
  5
18B06
331
3943
  5
4842
331
18AF4
  5
18AF5
  0
XRECORD
  5
19113
102
{ACAD_REACTORS
330
19112
102
}
330
19112
100
AcDbXrecord
280
     1
 40
1527.0
  1
\pxqc;BQ LUO
  0
XRECORD
  5
19115
102
{ACAD_REACTORS
330
19114
102
}
330
19114
100
AcDbXrecord
280
     1
 40
1262561.0
  1
\pxqc;档案员{\H0.7x;\P\Fromans|c134;Filing Clerk\fFangSong_GB2312|b0|i0|c134|p49; }
  0
XRECORD
  5
19117
102
{ACAD_REACTORS
330
19116
102
}
330
19116
100
AcDbXrecord
280
     1
 40
650528.0
  1
\pxqc;日期{\Fromans|c134;/Date}
  0
XRECORD
  5
19119
102
{ACAD_REACTORS
330
19118
102
}
330
19118
100
AcDbXrecord
280
     1
 40
1836818.0
  1
\pxsm0.7;{\fFangSong_GB2312|b0|i0|c134|p49;标准化}\PStand.
  0
XRECORD
  5
1911B
102
{ACAD_REACTORS
330
1911A
102
}
330
1911A
100
AcDbXrecord
280
     1
 40
118135.0
  1
\pxsm0.7;签名\P{\Fromans|c134;Signature} 
  0
XRECORD
  5
1911D
102
{ACAD_REACTORS
330
1911C
102
}
330
1911C
100
AcDbXrecord
280
     1
 40
108939.0
  1
\pxsm0.7,qc;处数\P{\Fromans|c134;Number }
  0
XRECORD
  5
1911F
102
{ACAD_REACTORS
330
1911E
102
}
330
1911E
100
AcDbXrecord
280
     1
 40
125762.0
  1
\pxsm0.7;标记\P{\Fromans|c134;Mark}
  0
XRECORD
  5
19121
102
{ACAD_REACTORS
330
19120
102
}
330
19120
100
AcDbXrecord
280
     1
 40
111973.0
  1
\pxsm0.7;审核\P{\Fromans|c134;Checked}
  0
XRECORD
  5
19123
102
{ACAD_REACTORS
330
19122
102
}
330
19122
100
AcDbXrecord
280
     1
 40
137968.0
  1
\pxsm0.7;绘图\P{\Fromans|c134;Drawn\Ftxt|c134; }
  0
XRECORD
  5
19125
102
{ACAD_REACTORS
330
19124
102
}
330
19124
100
AcDbXrecord
280
     1
 40
106320.0
  1
\pxsm0.7;批准\P{\Fromans|c134;Approved}
  0
XRECORD
  5
19127
102
{ACAD_REACTORS
330
19126
102
}
330
19126
100
AcDbXrecord
280
     1
 40
127283.0
  1
\pxsm0.7;工艺\P{\Fromans|c134;Process}
  0
XRECORD
  5
19129
102
{ACAD_REACTORS
330
19128
102
}
330
19128
100
AcDbXrecord
280
     1
 40
106220.0
  1
\pxsm0.7;日期\P{\Fromans|c134;Date}
  0
XRECORD
  5
19111
102
{ACAD_REACTORS
330
19110
102
}
330
19110
100
AcDbXrecord
280
     1
 40
727414864.0
  1
\A1;\pxql;{\f仿宋_GB2312|b0|i0|c134|p49;技术参数}:\P\pq*;- {\f仿宋_GB2312|b0|i0|c134|p49;材料}: {\f仿宋_GB2312|b0|i0|c134|p49;铜合金}\P- {\f仿宋_GB2312|b0|i0|c134|p49;表面处理}: {\f仿宋_GB2312|b0|i0|c134|p49;镀银}\P\pql;- {\f仿宋_GB2312|b0|i0|c134|p49;额定电流}: 350A\P- {\f仿宋_GB23
  1
12|b0|i0|c134|p49;接触电阻}: ≤0.3mΩ\P- {\f仿宋_GB2312|b0|i0|c134|p49;线径范围}: 95mm{\H0.7x;\S2^ ;}\P- {\f仿宋_GB2312|b0|i0|c134|p49;剥线长度}: 30mm\P- {\f仿宋_GB2312|b0|i0|c134|p49;最大电缆直径}: 22mm\P- {\f仿宋_GB2312|b0|i0|c134|p49;冷压模具}: {\f仿宋_GB2312|b0|i0|c134|p49;按照} DIN
  1
 46 235\P- {\f仿宋_GB2312|b0|i0|c134|p49;压力要求}: 130kN\P\pq*;- {\f仿宋_GB2312|b0|i0|c134|p49;可插拔次数}: {\f仿宋_GB2312|b0|i0|c134|p49;≥}500\P\P\pql;Technical specification:\P- Material: copper alloy\P- Surface: hard-silver plated\P- Rated current: 350A\P- Cont
  1
act resistance: ≤0.3mΩ\P- Wire gauge: 95mm{\H0.7x;\S2^ ;}\P- Stripping length: 30mm\P- Max. insulation diameter: 22mm\P- Crimp dies: acc. to DIN 46 235\P- Pressing force: 130kN\P- Mating cycles: {\f仿宋_GB2312|b0|i0|c134|p49;≥}500
  0
LAYOUT
  5
1E
102
{ACAD_REACTORS
330
1A
102
}
330
1A
100
AcDbPlotSettings
  1

  2
none_device
  4

  6

 40
0.0
 41
0.0
 42
0.0
 43
0.0
 44
0.0
 45
0.0
 46
0.0
 47
0.0
 48
0.0
 49
0.0
140
0.0
141
0.0
142
1.0
143
1.0
 70
   688
 72
     0
 73
     0
 74
     5
  7

 75
    16
147
1.0
 76
     0
 77
     2
 78
   300
148
0.0
149
0.0
100
AcDbLayout
  1
Layout1
 70
     1
 71
     1
 10
0.0
 20
0.0
 11
12.0
 21
9.0
 12
0.0
 22
0.0
 32
0.0
 14
1.000000000000000E+20
 24
1.000000000000000E+20
 34
1.000000000000000E+20
 15
-1.000000000000000E+20
 25
-1.000000000000000E+20
 35
-1.000000000000000E+20
146
0.0
 13
0.0
 23
0.0
 33
0.0
 16
1.0
 26
0.0
 36
0.0
 17
0.0
 27
1.0
 37
0.0
 76
     0
330
1B
  0
LAYOUT
  5
26
102
{ACAD_REACTORS
330
1A
102
}
330
1A
100
AcDbPlotSettings
  1

  2
none_device
  4

  6

 40
0.0
 41
0.0
 42
0.0
 43
0.0
 44
0.0
 45
0.0
 46
0.0
 47
0.0
 48
0.0
 49
0.0
140
0.0
141
0.0
142
1.0
143
1.0
 70
   688
 72
     0
 73
     0
 74
     5
  7

 75
    16
147
1.0
 76
     0
 77
     2
 78
   300
148
0.0
149
0.0
100
AcDbLayout
  1
Layout2
 70
     1
 71
     2
 10
0.0
 20
0.0
 11
0.0
 21
0.0
 12
0.0
 22
0.0
 32
0.0
 14
0.0
 24
0.0
 34
0.0
 15
0.0
 25
0.0
 35
0.0
146
0.0
 13
0.0
 23
0.0
 33
0.0
 16
1.0
 26
0.0
 36
0.0
 17
0.0
 27
1.0
 37
0.0
 76
     0
330
23
  0
LAYOUT
  5
22
102
{ACAD_REACTORS
330
1A
102
}
330
1A
100
AcDbPlotSettings
  1

  2
Adobe PDF Converter.pc3
  4
A4
  6

 40
3.174999952316281
 41
3.174999952316281
 42
3.17498779296875
 43
3.175003051757812
 44
297.0318298339844
 45
209.9733276367186
 46
0.0000000000000076
 47
1.630241740247063
 48
246.9897427644609
 49
39.36804549891383
140
544.952097801264
141
244.7492402188181
142
1.0
143
1.025046328645055
 70
  3764
 72
     1
 73
     0
 74
     4
  7
monochrome.ctb
 75
     0
147
0.9755656618192436
 76
     1
 77
     2
 78
   300
148
-246.9897427644609
149
-39.36804549891383
100
AcDbLayout
  1
Model
 70
     1
 71
     0
 10
0.0
 20
0.0
 11
12.0
 21
9.0
 12
0.0
 22
0.0
 32
0.0
 14
1.000000000000000E+20
 24
1.000000000000000E+20
 34
1.000000000000000E+20
 15
-1.000000000000000E+20
 25
-1.000000000000000E+20
 35
-1.000000000000000E+20
146
0.0
 13
0.0
 23
0.0
 33
0.0
 16
1.0
 26
0.0
 36
0.0
 17
0.0
 27
1.0
 37
0.0
 76
     0
330
1F
331
29
1001
ACAD_PSEXT
1000
Adobe PDF Converter.pc3
1000
Adobe PDF Converter
1000
桌面\*.pdf
1000

1070
     0
  0
MATERIAL
  5
4FEE
102
{ACAD_XDICTIONARY
360
4FEF
102
}
102
{ACAD_REACTORS
330
4FE5
102
}
330
4FE5
100
AcDbMaterial
  1
ByBlock
 72
     0
 43
0.0208333333333333
 43
0.0
 43
0.0
 43
0.0
 43
0.0
 43
0.0208333333333333
 43
0.0
 43
0.0
 43
0.0
 43
0.0
 43
1.0
 43
0.0
 43
0.0
 43
0.0
 43
0.0
 43
1.0
 77
     0
 47
0.0208333333333333
 47
0.0
 47
0.0
 47
0.0
 47
0.0
 47
0.0208333333333333
 47
0.0
 47
0.0
 47
0.0
 47
0.0
 47
1.0
 47
0.0
 47
0.0
 47
0.0
 47
0.0
 47
1.0
171
     0
 49
0.0208333333333333
 49
0.0
 49
0.0
 49
0.0
 49
0.0
 49
0.0208333333333333
 49
0.0
 49
0.0
 49
0.0
 49
0.0
 49
1.0
 49
0.0
 49
0.0
 49
0.0
 49
0.0
 49
1.0
175
     0
142
0.0208333333333333
142
0.0
142
0.0
142
0.0
142
0.0
142
0.0208333333333333
142
0.0
142
0.0
142
0.0
142
0.0
142
1.0
142
0.0
142
0.0
142
0.0
142
0.0
142
1.0
179
     0
144
0.0208333333333333
144
0.0
144
0.0
144
0.0
144
0.0
144
0.0208333333333333
144
0.0
144
0.0
144
0.0
144
0.0
144
1.0
144
0.0
144
0.0
144
0.0
144
0.0
144
1.0
147
0.0208333333333333
147
0.0
147
0.0
147
0.0
147
0.0
147
0.0208333333333333
147
0.0
147
0.0
147
0.0
147
0.0
147
1.0
147
0.0
147
0.0
147
0.0
147
0.0
147
1.0
  0
MATERIAL
  5
4FE6
102
{ACAD_XDICTIONARY
360
4FE7
102
}
102
{ACAD_REACTORS
330
4FE5
102
}
330
4FE5
100
AcDbMaterial
  1
ByLayer
 72
     0
 43
0.0208333333333333
 43
0.0
 43
0.0
 43
0.0
 43
0.0
 43
0.0208333333333333
 43
0.0
 43
0.0
 43
0.0
 43
0.0
 43
1.0
 43
0.0
 43
0.0
 43
0.0
 43
0.0
 43
1.0
 77
     0
 47
0.0208333333333333
 47
0.0
 47
0.0
 47
0.0
 47
0.0
 47
0.0208333333333333
 47
0.0
 47
0.0
 47
0.0
 47
0.0
 47
1.0
 47
0.0
 47
0.0
 47
0.0
 47
0.0
 47
1.0
171
     0
 49
0.0208333333333333
 49
0.0
 49
0.0
 49
0.0
 49
0.0
 49
0.0208333333333333
 49
0.0
 49
0.0
 49
0.0
 49
0.0
 49
1.0
 49
0.0
 49
0.0
 49
0.0
 49
0.0
 49
1.0
175
     0
142
0.0208333333333333
142
0.0
142
0.0
142
0.0
142
0.0
142
0.0208333333333333
142
0.0
142
0.0
142
0.0
142
0.0
142
1.0
142
0.0
142
0.0
142
0.0
142
0.0
142
1.0
179
     0
144
0.0208333333333333
144
0.0
144
0.0
144
0.0
144
0.0
144
0.0208333333333333
144
0.0
144
0.0
144
0.0
144
0.0
144
1.0
144
0.0
144
0.0
144
0.0
144
0.0
144
1.0
147
0.0208333333333333
147
0.0
147
0.0
147
0.0
147
0.0
147
0.0208333333333333
147
0.0
147
0.0
147
0.0
147
0.0
147
1.0
147
0.0
147
0.0
147
0.0
147
0.0
147
1.0
  0
MATERIAL
  5
4FF6
102
{ACAD_XDICTIONARY
360
4FF7
102
}
102
{ACAD_REACTORS
330
4FE5
102
}
330
4FE5
100
AcDbMaterial
  1
Global
 72
     0
 43
0.0208333333333333
 43
0.0
 43
0.0
 43
0.0
 43
0.0
 43
0.0208333333333333
 43
0.0
 43
0.0
 43
0.0
 43
0.0
 43
1.0
 43
0.0
 43
0.0
 43
0.0
 43
0.0
 43
1.0
 77
     0
 47
0.0208333333333333
 47
0.0
 47
0.0
 47
0.0
 47
0.0
 47
0.0208333333333333
 47
0.0
 47
0.0
 47
0.0
 47
0.0
 47
1.0
 47
0.0
 47
0.0
 47
0.0
 47
0.0
 47
1.0
171
     0
 49
0.0208333333333333
 49
0.0
 49
0.0
 49
0.0
 49
0.0
 49
0.0208333333333333
 49
0.0
 49
0.0
 49
0.0
 49
0.0
 49
1.0
 49
0.0
 49
0.0
 49
0.0
 49
0.0
 49
1.0
175
     0
142
0.0208333333333333
142
0.0
142
0.0
142
0.0
142
0.0
142
0.0208333333333333
142
0.0
142
0.0
142
0.0
142
0.0
142
1.0
142
0.0
142
0.0
142
0.0
142
0.0
142
1.0
179
     0
144
0.0208333333333333
144
0.0
144
0.0
144
0.0
144
0.0
144
0.0208333333333333
144
0.0
144
0.0
144
0.0
144
0.0
144
1.0
144
0.0
144
0.0
144
0.0
144
0.0
144
1.0
147
0.0208333333333333
147
0.0
147
0.0
147
0.0
147
0.0
147
0.0208333333333333
147
0.0
147
0.0
147
0.0
147
0.0
147
1.0
147
0.0
147
0.0
147
0.0
147
0.0
147
1.0
  0
MLEADERSTYLE
  5
5023
102
{ACAD_REACTORS
330
5022
102
}
330
5022
100
AcDbMLeaderStyle
170
     2
171
     1
172
     0
 90
        2
 40
0.0
 41
0.0
173
     1
 91
-1056964608
340
14
 92
       -2
290
     1
 42
0.09
291
     1
 43
0.36
  3
Standard
 44
0.18
300

342
11
174
     1
178
     6
175
     1
176
     0
 93
-1056964608
 45
0.18
292
     0
297
     0
 46
0.18
 94
-1056964608
 47
1.0
 49
1.0
140
1.0
293
     1
141
0.0
294
     1
177
     0
142
1.0
295
     0
296
     0
143
0.125
1001
ACAD_MLEADERVER
1070
     2
  0
MLINESTYLE
  5
18
102
{ACAD_REACTORS
330
17
102
}
330
17
100
AcDbMlineStyle
  2
STANDARD
 70
     0
  3

 62
   256
 51
90.0
 52
90.0
 71
     2
 49
0.5
 62
   256
  6
BYLAYER
 49
-0.5
 62
   256
  6
BYLAYER
  0
ACDBPLACEHOLDER
  5
F
102
{ACAD_REACTORS
330
E
102
}
330
E
  0
MENTALRAYRENDERSETTINGS
  5
6538
102
{ACAD_REACTORS
330
6537
102
}
330
6537
100
AcDbRenderSettings
 90
        2
  1
中
290
     1
290
     1
290
     1
290
     1
  1

  1
渲染质量好于“低级”。包括纹理过滤并且强制双面处于激活状态。处理中等级反锯齿和 5 反射/折射的光线跟踪深度。
 90
        0
100
AcDbMentalRayRenderSettings
 90
        2
 90
        0
 90
        1
 70
     2
 40
3.0
 40
3.0
 40
0.0500000007450581
 40
0.0500000007450581
 40
0.0500000007450581
 40
0.0500000007450581
 70
     0
290
     0
290
     1
 90
        5
 90
        5
 90
        5
290
     0
 90
      500
290
     0
 40
1.0
 90
    10000
 90
        5
 90
        5
 90
        5
290
     0
 90
      200
290
     0
290
     0
290
     0
 40
0.1
 40
1.0
 40
1500.0
 70
     0
 70
     0
 40
10.0
 70
     0
 70
     0
290
     0
  1

 90
       32
 70
     0
 90
     1048
290
     0
 40
1.0
  0
SCALE
  5
5001
102
{ACAD_REACTORS
330
5000
102
}
330
5000
100
AcDbScale
 70
     0
300
1:1
140
1.0
141
1.0
290
     1
  0
SCALE
  5
5002
102
{ACAD_REACTORS
330
5000
102
}
330
5000
100
AcDbScale
 70
     0
300
1:2
140
1.0
141
2.0
290
     0
  0
SCALE
  5
5003
102
{ACAD_REACTORS
330
5000
102
}
330
5000
100
AcDbScale
 70
     0
300
1:4
140
1.0
141
4.0
290
     0
  0
SCALE
  5
5004
102
{ACAD_REACTORS
330
5000
102
}
330
5000
100
AcDbScale
 70
     0
300
1:5
140
1.0
141
5.0
290
     0
  0
SCALE
  5
5005
102
{ACAD_REACTORS
330
5000
102
}
330
5000
100
AcDbScale
 70
     0
300
1:8
140
1.0
141
8.0
290
     0
  0
SCALE
  5
5006
102
{ACAD_REACTORS
330
5000
102
}
330
5000
100
AcDbScale
 70
     0
300
1:10
140
1.0
141
10.0
290
     0
  0
SCALE
  5
5007
102
{ACAD_REACTORS
330
5000
102
}
330
5000
100
AcDbScale
 70
     0
300
1:16
140
1.0
141
16.0
290
     0
  0
SCALE
  5
5008
102
{ACAD_REACTORS
330
5000
102
}
330
5000
100
AcDbScale
 70
     0
300
1:20
140
1.0
141
20.0
290
     0
  0
SCALE
  5
5009
102
{ACAD_REACTORS
330
5000
102
}
330
5000
100
AcDbScale
 70
     0
300
1:30
140
1.0
141
30.0
290
     0
  0
SCALE
  5
500A
102
{ACAD_REACTORS
330
5000
102
}
330
5000
100
AcDbScale
 70
     0
300
1:40
140
1.0
141
40.0
290
     0
  0
SCALE
  5
500B
102
{ACAD_REACTORS
330
5000
102
}
330
5000
100
AcDbScale
 70
     0
300
1:50
140
1.0
141
50.0
290
     0
  0
SCALE
  5
500C
102
{ACAD_REACTORS
330
5000
102
}
330
5000
100
AcDbScale
 70
     0
300
1:100
140
1.0
141
100.0
290
     0
  0
SCALE
  5
500D
102
{ACAD_REACTORS
330
5000
102
}
330
5000
100
AcDbScale
 70
     0
300
2:1
140
2.0
141
1.0
290
     0
  0
SCALE
  5
500E
102
{ACAD_REACTORS
330
5000
102
}
330
5000
100
AcDbScale
 70
     0
300
4:1
140
4.0
141
1.0
290
     0
  0
SCALE
  5
500F
102
{ACAD_REACTORS
330
5000
102
}
330
5000
100
AcDbScale
 70
     0
300
8:1
140
8.0
141
1.0
290
     0
  0
SCALE
  5
5010
102
{ACAD_REACTORS
330
5000
102
}
330
5000
100
AcDbScale
 70
     0
300
10:1
140
10.0
141
1.0
290
     0
  0
SCALE
  5
5011
102
{ACAD_REACTORS
330
5000
102
}
330
5000
100
AcDbScale
 70
     0
300
100:1
140
100.0
141
1.0
290
     0
  0
SCALE
  5
5012
102
{ACAD_REACTORS
330
5000
102
}
330
5000
100
AcDbScale
 70
     0
300
1/128" = 1'-0"
140
0.0078125
141
12.0
290
     0
  0
SCALE
  5
5013
102
{ACAD_REACTORS
330
5000
102
}
330
5000
100
AcDbScale
 70
     0
300
1/64" = 1'-0"
140
0.015625
141
12.0
290
     0
  0
SCALE
  5
5014
102
{ACAD_REACTORS
330
5000
102
}
330
5000
100
AcDbScale
 70
     0
300
1/32" = 1'-0"
140
0.03125
141
12.0
290
     0
  0
SCALE
  5
5015
102
{ACAD_REACTORS
330
5000
102
}
330
5000
100
AcDbScale
 70
     0
300
1/16" = 1'-0"
140
0.0625
141
12.0
290
     0
  0
SCALE
  5
5016
102
{ACAD_REACTORS
330
5000
102
}
330
5000
100
AcDbScale
 70
     0
300
3/32" = 1'-0"
140
0.09375
141
12.0
290
     0
  0
SCALE
  5
5017
102
{ACAD_REACTORS
330
5000
102
}
330
5000
100
AcDbScale
 70
     0
300
1/8" = 1'-0"
140
0.125
141
12.0
290
     0
  0
SCALE
  5
5018
102
{ACAD_REACTORS
330
5000
102
}
330
5000
100
AcDbScale
 70
     0
300
3/16" = 1'-0"
140
0.1875
141
12.0
290
     0
  0
SCALE
  5
5019
102
{ACAD_REACTORS
330
5000
102
}
330
5000
100
AcDbScale
 70
     0
300
1/4" = 1'-0"
140
0.25
141
12.0
290
     0
  0
SCALE
  5
501A
102
{ACAD_REACTORS
330
5000
102
}
330
5000
100
AcDbScale
 70
     0
300
3/8" = 1'-0"
140
0.375
141
12.0
290
     0
  0
SCALE
  5
501B
102
{ACAD_REACTORS
330
5000
102
}
330
5000
100
AcDbScale
 70
     0
300
1/2" = 1'-0"
140
0.5
141
12.0
290
     0
  0
SCALE
  5
501C
102
{ACAD_REACTORS
330
5000
102
}
330
5000
100
AcDbScale
 70
     0
300
3/4" = 1'-0"
140
0.75
141
12.0
290
     0
  0
SCALE
  5
501D
102
{ACAD_REACTORS
330
5000
102
}
330
5000
100
AcDbScale
 70
     0
300
1" = 1'-0"
140
1.0
141
12.0
290
     0
  0
SCALE
  5
501E
102
{ACAD_REACTORS
330
5000
102
}
330
5000
100
AcDbScale
 70
     0
300
1-1/2" = 1'-0"
140
1.5
141
12.0
290
     0
  0
SCALE
  5
501F
102
{ACAD_REACTORS
330
5000
102
}
330
5000
100
AcDbScale
 70
     0
300
3" = 1'-0"
140
3.0
141
12.0
290
     0
  0
SCALE
  5
5020
102
{ACAD_REACTORS
330
5000
102
}
330
5000
100
AcDbScale
 70
     0
300
6" = 1'-0"
140
6.0
141
12.0
290
     0
  0
SCALE
  5
5021
102
{ACAD_REACTORS
330
5000
102
}
330
5000
100
AcDbScale
 70
     0
300
1'-0" = 1'-0"
140
12.0
141
12.0
290
     0
  0
TABLESTYLE
  5
4FFF
102
{ACAD_XDICTIONARY
360
50D6
102
}
102
{ACAD_REACTORS
330
4FE3
102
}
330
4FE3
100
AcDbTableStyle
  3
Standard
 70
     0
 71
     0
 40
0.06
 41
0.06
280
     0
281
     0
  7
Standard
140
0.18
170
     2
 62
     0
 63
     7
283
     0
 90
      512
 91
        0
  1

274
    -2
284
     1
 64
     0
275
    -2
285
     1
 65
     0
276
    -2
286
     1
 66
     0
277
    -2
287
     1
 67
     0
278
    -2
288
     1
 68
     0
279
    -2
289
     1
 69
     0
  7
Standard
140
0.25
170
     5
 62
     0
 63
     7
283
     0
 90
      512
 91
        0
  1

274
    -2
284
     1
 64
     0
275
    -2
285
     1
 65
     0
276
    -2
286
     1
 66
     0
277
    -2
287
     1
 67
     0
278
    -2
288
     1
 68
     0
279
    -2
289
     1
 69
     0
  7
Standard
140
0.18
170
     5
 62
     0
 63
     7
283
     0
 90
      512
 91
        0
  1

274
    -2
284
     1
 64
     0
275
    -2
285
     1
 65
     0
276
    -2
286
     1
 66
     0
277
    -2
287
     1
 67
     0
278
    -2
288
     1
 68
     0
279
    -2
289
     1
 69
     0
  0
VISUALSTYLE
  5
2F
102
{ACAD_REACTORS
330
2A
102
}
330
2A
100
AcDbVisualStyle
  2
2dWireframe
 70
     4
 71
     0
 72
     2
 73
     0
 90
        0
 40
-0.6
 41
-30.0
 62
     5
 63
     7
 74
     1
 91
        4
 64
     7
 65
   257
 75
     1
175
     1
 42
1.0
 92
        0
 66
   257
 43
1.0
 76
     1
 77
     6
 78
     2
 67
     7
 79
     5
170
     0
171
     0
290
     0
174
     0
 93
        1
 44
0.0
173
     0
291
     0
 45
0.0
1001
ACAD
1000
AcDbSavedByObjectVersion
1070
     0
1000
AcDbSavedByObjectVersion
1070
     0
1000
AcDbSavedByObjectVersion
1070
     0
1000
AcDbSavedByObjectVersion
1070
     0
1000
AcDbSavedByObjectVersion
1070
     0
1000
AcDbSavedByObjectVersion
1070
     0
1000
AcDbSavedByObjectVersion
1070
     0
1000
AcDbSavedByObjectVersion
1070
     0
1000
AcDbSavedByObjectVersion
1070
     0
1000
AcDbSavedByObjectVersion
1070
     0
1000
AcDbSavedByObjectVersion
1070
     0
1000
AcDbSavedByObjectVersion
1070
     0
1000
AcDbSavedByObjectVersion
1070
     0
1000
AcDbSavedByObjectVersion
1070
     0
1000
AcDbSavedByObjectVersion
1070
     0
1000
AcDbSavedByObjectVersion
1070
     0
1000
AcDbSavedByObjectVersion
1070
     0
1000
AcDbSavedByObjectVersion
1070
     0
1000
AcDbSavedByObjectVersion
1070
     0
1000
AcDbSavedByObjectVersion
1070
     0
1000
AcDbSavedByObjectVersion
1070
     0
1000
AcDbSavedByObjectVersion
1070
     0
1000
AcDbSavedByObjectVersion
1070
     0
1000
AcDbSavedByObjectVersion
1070
     0
1000
AcDbSavedByObjectVersion
1070
     0
1000
AcDbSavedByObjectVersion
1070
     0
1000
AcDbSavedByObjectVersion
1070
     0
1000
AcDbSavedByObjectVersion
1070
     0
1000
AcDbSavedByObjectVersion
1070
     0
1000
AcDbSavedByObjectVersion
1070
     0
1000
AcDbSavedByObjectVersion
1070
     0
1000
AcDbSavedByObjectVersion
1070
     0
1000
AcDbSavedByObjectVersion
1070
     0
1000
AcDbSavedByObjectVersion
1070
     0
1000
AcDbSavedByObjectVersion
1070
     0
1000
AcDbSavedByObjectVersion
1070
     0
1000
AcDbSavedByObjectVersion
1070
     0
1000
AcDbSavedByObjectVersion
1070
     0
1000
AcDbSavedByObjectVersion
1070
     0
1000
AcDbSavedByObjectVersion
1070
     0
1000
AcDbSavedByObjectVersion
1070
     0
1000
AcDbSavedByObjectVersion
1070
     0
1000
AcDbSavedByObjectVersion
1070
     0
1000
AcDbSavedByObjectVersion
1070
     0
1000
AcDbSavedByObjectVersion
1070
     0
1000
AcDbSavedByObjectVersion
1070
     0
1000
AcDbSavedByObjectVersion
1070
     0
1000
AcDbSavedByObjectVersion
1070
     0
1000
AcDbSavedByObjectVersion
1070
     0
1000
AcDbSavedByObjectVersion
1070
     0
1000
AcDbSavedByObjectVersion
1070
     0
1000
AcDbSavedByObjectVersion
1070
     0
  0
VISUALSTYLE
  5
31
102
{ACAD_REACTORS
330
2A
102
}
330
2A
100
AcDbVisualStyle
  2
3D Hidden
 70
     6
 71
     1
 72
     2
 73
     2
 90
        0
 40
-0.6
 41
-30.0
 62
     5
 63
     7
 74
     2
 91
        2
 64
     7
 65
   257
 75
     2
175
     1
 42
40.0
 92
        0
 66
   257
 43
1.0
 76
     1
 77
     6
 78
     2
 67
     7
 79
     3
170
     0
171
     0
290
     0
174
     0
 93
        1
 44
0.0
173
     0
291
     0
 45
0.0
1001
ACAD
1000
AcDbSavedByObjectVersion
1070
     0
1000
AcDbSavedByObjectVersion
1070
     0
1000
AcDbSavedByObjectVersion
1070
     0
1000
AcDbSavedByObjectVersion
1070
     0
1000
AcDbSavedByObjectVersion
1070
     0
1000
AcDbSavedByObjectVersion
1070
     0
1000
AcDbSavedByObjectVersion
1070
     0
1000
AcDbSavedByObjectVersion
1070
     0
1000
AcDbSavedByObjectVersion
1070
     0
1000
AcDbSavedByObjectVersion
1070
     0
1000
AcDbSavedByObjectVersion
1070
     0
1000
AcDbSavedByObjectVersion
1070
     0
1000
AcDbSavedByObjectVersion
1070
     0
1000
AcDbSavedByObjectVersion
1070
     0
1000
AcDbSavedByObjectVersion
1070
     0
1000
AcDbSavedByObjectVersion
1070
     0
1000
AcDbSavedByObjectVersion
1070
     0
1000
AcDbSavedByObjectVersion
1070
     0
1000
AcDbSavedByObjectVersion
1070
     0
1000
AcDbSavedByObjectVersion
1070
     0
1000
AcDbSavedByObjectVersion
1070
     0
1000
AcDbSavedByObjectVersion
1070
     0
1000
AcDbSavedByObjectVersion
1070
     0
1000
AcDbSavedByObjectVersion
1070
     0
1000
AcDbSavedByObjectVersion
1070
     0
1000
AcDbSavedByObjectVersion
1070
     0
1000
AcDbSavedByObjectVersion
1070
     0
1000
AcDbSavedByObjectVersion
1070
     0
1000
AcDbSavedByObjectVersion
1070
     0
1000
AcDbSavedByObjectVersion
1070
     0
1000
AcDbSavedByObjectVersion
1070
     0
1000
AcDbSavedByObjectVersion
1070
     0
1000
AcDbSavedByObjectVersion
1070
     0
1000
AcDbSavedByObjectVersion
1070
     0
1000
AcDbSavedByObjectVersion
1070
     0
1000
AcDbSavedByObjectVersion
1070
     0
1000
AcDbSavedByObjectVersion
1070
     0
1000
AcDbSavedByObjectVersion
1070
     0
1000
AcDbSavedByObjectVersion
1070
     0
1000
AcDbSavedByObjectVersion
1070
     0
1000
AcDbSavedByObjectVersion
1070
     0
1000
AcDbSavedByObjectVersion
1070
     0
1000
AcDbSavedByObjectVersion
1070
     0
1000
AcDbSavedByObjectVersion
1070
     0
1000
AcDbSavedByObjectVersion
1070
     0
1000
AcDbSavedByObjectVersion
1070
     0
1000
AcDbSavedByObjectVersion
1070
     0
1000
AcDbSavedByObjectVersion
1070
     0
1000
AcDbSavedByObjectVersion
1070
     0
1000
AcDbSavedByObjectVersion
1070
     0
1000
AcDbSavedByObjectVersion
1070
     0
1000
AcDbSavedByObjectVersion
1070
     0
  0
VISUALSTYLE
  5
30
102
{ACAD_REACTORS
330
2A
102
}
330
2A
100
AcDbVisualStyle
  2
3dWireframe
 70
     5
 71
     0
 72
     2
 73
     0
 90
        0
 40
-0.6
 41
-30.0
 62
     5
 63
     7
 74
     1
 91
        4
 64
     7
 65
   257
 75
     1
175
     1
 42
1.0
 92
        0
 66
   257
 43
1.0
 76
     1
 77
     6
 78
     2
 67
     7
 79
     5
170
     0
171
     0
290
     0
174
     0
 93
        1
 44
0.0
173
     0
291
     0
 45
0.0
1001
ACAD
1000
AcDbSavedByObjectVersion
1070
     0
1000
AcDbSavedByObjectVersion
1070
     0
1000
AcDbSavedByObjectVersion
1070
     0
1000
AcDbSavedByObjectVersion
1070
     0
1000
AcDbSavedByObjectVersion
1070
     0
1000
AcDbSavedByObjectVersion
1070
     0
1000
AcDbSavedByObjectVersion
1070
     0
1000
AcDbSavedByObjectVersion
1070
     0
1000
AcDbSavedByObjectVersion
1070
     0
1000
AcDbSavedByObjectVersion
1070
     0
1000
AcDbSavedByObjectVersion
1070
     0
1000
AcDbSavedByObjectVersion
1070
     0
1000
AcDbSavedByObjectVersion
1070
     0
1000
AcDbSavedByObjectVersion
1070
     0
1000
AcDbSavedByObjectVersion
1070
     0
1000
AcDbSavedByObjectVersion
1070
     0
1000
AcDbSavedByObjectVersion
1070
     0
1000
AcDbSavedByObjectVersion
1070
     0
1000
AcDbSavedByObjectVersion
1070
     0
1000
AcDbSavedByObjectVersion
1070
     0
1000
AcDbSavedByObjectVersion
1070
     0
1000
AcDbSavedByObjectVersion
1070
     0
1000
AcDbSavedByObjectVersion
1070
     0
1000
AcDbSavedByObjectVersion
1070
     0
1000
AcDbSavedByObjectVersion
1070
     0
1000
AcDbSavedByObjectVersion
1070
     0
1000
AcDbSavedByObjectVersion
1070
     0
1000
AcDbSavedByObjectVersion
1070
     0
1000
AcDbSavedByObjectVersion
1070
     0
1000
AcDbSavedByObjectVersion
1070
     0
1000
AcDbSavedByObjectVersion
1070
     0
1000
AcDbSavedByObjectVersion
1070
     0
1000
AcDbSavedByObjectVersion
1070
     0
1000
AcDbSavedByObjectVersion
1070
     0
1000
AcDbSavedByObjectVersion
1070
     0
1000
AcDbSavedByObjectVersion
1070
     0
1000
AcDbSavedByObjectVersion
1070
     0
1000
AcDbSavedByObjectVersion
1070
     0
1000
AcDbSavedByObjectVersion
1070
     0
1000
AcDbSavedByObjectVersion
1070
     0
1000
AcDbSavedByObjectVersion
1070
     0
1000
AcDbSavedByObjectVersion
1070
     0
1000
AcDbSavedByObjectVersion
1070
     0
1000
AcDbSavedByObjectVersion
1070
     0
1000
AcDbSavedByObjectVersion
1070
     0
1000
AcDbSavedByObjectVersion
1070
     0
1000
AcDbSavedByObjectVersion
1070
     0
1000
AcDbSavedByObjectVersion
1070
     0
1000
AcDbSavedByObjectVersion
1070
     0
1000
AcDbSavedByObjectVersion
1070
     0
1000
AcDbSavedByObjectVersion
1070
     0
1000
AcDbSavedByObjectVersion
1070
     0
  0
VISUALSTYLE
  5
32
102
{ACAD_REACTORS
330
2A
102
}
330
2A
100
AcDbVisualStyle
  2
Basic
 70
     7
 71
     1
 72
     0
 73
     1
 90
        0
 40
-0.6
 41
-30.0
 62
     5
 63
     7
 74
     0
 91
        4
 64
     7
 65
   257
 75
     1
175
     1
 42
1.0
 92
        8
 66
     7
 43
1.0
 76
     1
 77
     6
 78
     2
 67
     7
 79
     5
170
     0
171
     0
290
     0
174
     0
 93
        1
 44
0.0
173
     0
291
     1
 45
0.0
1001
ACAD
1000
AcDbSavedByObjectVersion
1070
     0
1000
AcDbSavedByObjectVersion
1070
     0
1000
AcDbSavedByObjectVersion
1070
     0
1000
AcDbSavedByObjectVersion
1070
     0
1000
AcDbSavedByObjectVersion
1070
     0
1000
AcDbSavedByObjectVersion
1070
     0
1000
AcDbSavedByObjectVersion
1070
     0
1000
AcDbSavedByObjectVersion
1070
     0
1000
AcDbSavedByObjectVersion
1070
     0
1000
AcDbSavedByObjectVersion
1070
     0
1000
AcDbSavedByObjectVersion
1070
     0
1000
AcDbSavedByObjectVersion
1070
     0
1000
AcDbSavedByObjectVersion
1070
     0
1000
AcDbSavedByObjectVersion
1070
     0
1000
AcDbSavedByObjectVersion
1070
     0
1000
AcDbSavedByObjectVersion
1070
     0
1000
AcDbSavedByObjectVersion
1070
     0
1000
AcDbSavedByObjectVersion
1070
     0
1000
AcDbSavedByObjectVersion
1070
     0
1000
AcDbSavedByObjectVersion
1070
     0
1000
AcDbSavedByObjectVersion
1070
     0
1000
AcDbSavedByObjectVersion
1070
     0
1000
AcDbSavedByObjectVersion
1070
     0
1000
AcDbSavedByObjectVersion
1070
     0
1000
AcDbSavedByObjectVersion
1070
     0
1000
AcDbSavedByObjectVersion
1070
     0
1000
AcDbSavedByObjectVersion
1070
     0
1000
AcDbSavedByObjectVersion
1070
     0
1000
AcDbSavedByObjectVersion
1070
     0
1000
AcDbSavedByObjectVersion
1070
     0
1000
AcDbSavedByObjectVersion
1070
     0
1000
AcDbSavedByObjectVersion
1070
     0
1000
AcDbSavedByObjectVersion
1070
     0
1000
AcDbSavedByObjectVersion
1070
     0
1000
AcDbSavedByObjectVersion
1070
     0
1000
AcDbSavedByObjectVersion
1070
     0
1000
AcDbSavedByObjectVersion
1070
     0
1000
AcDbSavedByObjectVersion
1070
     0
1000
AcDbSavedByObjectVersion
1070
     0
1000
AcDbSavedByObjectVersion
1070
     0
1000
AcDbSavedByObjectVersion
1070
     0
1000
AcDbSavedByObjectVersion
1070
     0
1000
AcDbSavedByObjectVersion
1070
     0
1000
AcDbSavedByObjectVersion
1070
     0
1000
AcDbSavedByObjectVersion
1070
     0
1000
AcDbSavedByObjectVersion
1070
     0
1000
AcDbSavedByObjectVersion
1070
     0
1000
AcDbSavedByObjectVersion
1070
     0
1000
AcDbSavedByObjectVersion
1070
     0
1000
AcDbSavedByObjectVersion
1070
     0
1000
AcDbSavedByObjectVersion
1070
     0
1000
AcDbSavedByObjectVersion
1070
     0
  0
VISUALSTYLE
  5
36
102
{ACAD_REACTORS
330
2A
102
}
330
2A
100
AcDbVisualStyle
  2
Brighten
 70
    12
 71
     2
 72
     2
 73
     0
 90
        0
 40
-0.6
 41
-30.0
 62
     5
 63
     7
 74
     1
 91
        4
 64
     7
 65
   257
 75
     1
175
     1
 42
1.0
 92
        8
 66
     7
 43
1.0
 76
     1
 77
     6
 78
     2
 67
     7
 79
     5
170
     0
171
     0
290
     0
174
     0
 93
        1
 44
50.0
173
     0
291
     1
 45
0.0
1001
ACAD
1000
AcDbSavedByObjectVersion
1070
     0
1000
AcDbSavedByObjectVersion
1070
     0
1000
AcDbSavedByObjectVersion
1070
     0
1000
AcDbSavedByObjectVersion
1070
     0
1000
AcDbSavedByObjectVersion
1070
     0
1000
AcDbSavedByObjectVersion
1070
     0
1000
AcDbSavedByObjectVersion
1070
     0
1000
AcDbSavedByObjectVersion
1070
     0
1000
AcDbSavedByObjectVersion
1070
     0
1000
AcDbSavedByObjectVersion
1070
     0
1000
AcDbSavedByObjectVersion
1070
     0
1000
AcDbSavedByObjectVersion
1070
     0
1000
AcDbSavedByObjectVersion
1070
     0
1000
AcDbSavedByObjectVersion
1070
     0
1000
AcDbSavedByObjectVersion
1070
     0
1000
AcDbSavedByObjectVersion
1070
     0
1000
AcDbSavedByObjectVersion
1070
     0
1000
AcDbSavedByObjectVersion
1070
     0
1000
AcDbSavedByObjectVersion
1070
     0
1000
AcDbSavedByObjectVersion
1070
     0
1000
AcDbSavedByObjectVersion
1070
     0
1000
AcDbSavedByObjectVersion
1070
     0
1000
AcDbSavedByObjectVersion
1070
     0
1000
AcDbSavedByObjectVersion
1070
     0
1000
AcDbSavedByObjectVersion
1070
     0
1000
AcDbSavedByObjectVersion
1070
     0
1000
AcDbSavedByObjectVersion
1070
     0
1000
AcDbSavedByObjectVersion
1070
     0
1000
AcDbSavedByObjectVersion
1070
     0
1000
AcDbSavedByObjectVersion
1070
     0
1000
AcDbSavedByObjectVersion
1070
     0
1000
AcDbSavedByObjectVersion
1070
     0
1000
AcDbSavedByObjectVersion
1070
     0
1000
AcDbSavedByObjectVersion
1070
     0
1000
AcDbSavedByObjectVersion
1070
     0
1000
AcDbSavedByObjectVersion
1070
     0
1000
AcDbSavedByObjectVersion
1070
     0
1000
AcDbSavedByObjectVersion
1070
     0
1000
AcDbSavedByObjectVersion
1070
     0
1000
AcDbSavedByObjectVersion
1070
     0
1000
AcDbSavedByObjectVersion
1070
     0
1000
AcDbSavedByObjectVersion
1070
     0
1000
AcDbSavedByObjectVersion
1070
     0
1000
AcDbSavedByObjectVersion
1070
     0
1000
AcDbSavedByObjectVersion
1070
     0
1000
AcDbSavedByObjectVersion
1070
     0
1000
AcDbSavedByObjectVersion
1070
     0
1000
AcDbSavedByObjectVersion
1070
     0
1000
AcDbSavedByObjectVersion
1070
     0
1000
AcDbSavedByObjectVersion
1070
     0
1000
AcDbSavedByObjectVersion
1070
     0
1000
AcDbSavedByObjectVersion
1070
     0
  0
VISUALSTYLE
  5
3A
102
{ACAD_REACTORS
330
2A
102
}
330
2A
100
AcDbVisualStyle
  2
ColorChange
 70
    16
 71
     2
 72
     2
 73
     3
 90
        0
 40
-0.6
 41
-30.0
 62
     5
 63
     8
 74
     1
 91
        4
 64
     7
 65
   257
 75
     1
175
     1
 42
1.0
 92
        8
 66
     8
 43
1.0
 76
     1
 77
     6
 78
     2
 67
     7
 79
     5
170
     0
171
     0
290
     0
174
     0
 93
        1
 44
0.0
173
     0
291
     1
 45
0.0
1001
ACAD
1000
AcDbSavedByObjectVersion
1070
     0
1000
AcDbSavedByObjectVersion
1070
     0
1000
AcDbSavedByObjectVersion
1070
     0
1000
AcDbSavedByObjectVersion
1070
     0
1000
AcDbSavedByObjectVersion
1070
     0
1000
AcDbSavedByObjectVersion
1070
     0
1000
AcDbSavedByObjectVersion
1070
     0
1000
AcDbSavedByObjectVersion
1070
     0
1000
AcDbSavedByObjectVersion
1070
     0
1000
AcDbSavedByObjectVersion
1070
     0
1000
AcDbSavedByObjectVersion
1070
     0
1000
AcDbSavedByObjectVersion
1070
     0
1000
AcDbSavedByObjectVersion
1070
     0
1000
AcDbSavedByObjectVersion
1070
     0
1000
AcDbSavedByObjectVersion
1070
     0
1000
AcDbSavedByObjectVersion
1070
     0
1000
AcDbSavedByObjectVersion
1070
     0
1000
AcDbSavedByObjectVersion
1070
     0
1000
AcDbSavedByObjectVersion
1070
     0
1000
AcDbSavedByObjectVersion
1070
     0
1000
AcDbSavedByObjectVersion
1070
     0
1000
AcDbSavedByObjectVersion
1070
     0
1000
AcDbSavedByObjectVersion
1070
     0
1000
AcDbSavedByObjectVersion
1070
     0
1000
AcDbSavedByObjectVersion
1070
     0
1000
AcDbSavedByObjectVersion
1070
     0
1000
AcDbSavedByObjectVersion
1070
     0
1000
AcDbSavedByObjectVersion
1070
     0
1000
AcDbSavedByObjectVersion
1070
     0
1000
AcDbSavedByObjectVersion
1070
     0
1000
AcDbSavedByObjectVersion
1070
     0
1000
AcDbSavedByObjectVersion
1070
     0
1000
AcDbSavedByObjectVersion
1070
     0
1000
AcDbSavedByObjectVersion
1070
     0
1000
AcDbSavedByObjectVersion
1070
     0
1000
AcDbSavedByObjectVersion
1070
     0
1000
AcDbSavedByObjectVersion
1070
     0
1000
AcDbSavedByObjectVersion
1070
     0
1000
AcDbSavedByObjectVersion
1070
     0
1000
AcDbSavedByObjectVersion
1070
     0
1000
AcDbSavedByObjectVersion
1070
     0
1000
AcDbSavedByObjectVersion
1070
     0
1000
AcDbSavedByObjectVersion
1070
     0
1000
AcDbSavedByObjectVersion
1070
     0
1000
AcDbSavedByObjectVersion
1070
     0
1000
AcDbSavedByObjectVersion
1070
     0
1000
AcDbSavedByObjectVersion
1070
     0
1000
AcDbSavedByObjectVersion
1070
     0
1000
AcDbSavedByObjectVersion
1070
     0
1000
AcDbSavedByObjectVersion
1070
     0
1000
AcDbSavedByObjectVersion
1070
     0
1000
AcDbSavedByObjectVersion
1070
     0
  0
VISUALSTYLE
  5
34
102
{ACAD_REACTORS
330
2A
102
}
330
2A
100
AcDbVisualStyle
  2
Conceptual
 70
     9
 71
     3
 72
     2
 73
     0
 90
        0
 40
-0.6
 41
-30.0
 62
     5
 63
     7
 74
     2
 91
        2
 64
     7
 65
   257
 75
     1
175
     1
 42
40.0
 92
        8
 66
     7
 43
1.0
 76
     1
 77
     6
 78
     2
 67
     7
 79
     3
170
     0
171
     0
290
     0
174
     0
 93
        1
 44
0.0
173
     0
291
     0
 45
0.0
1001
ACAD
1000
AcDbSavedByObjectVersion
1070
     0
1000
AcDbSavedByObjectVersion
1070
     0
1000
AcDbSavedByObjectVersion
1070
     0
1000
AcDbSavedByObjectVersion
1070
     0
1000
AcDbSavedByObjectVersion
1070
     0
1000
AcDbSavedByObjectVersion
1070
     0
1000
AcDbSavedByObjectVersion
1070
     0
1000
AcDbSavedByObjectVersion
1070
     0
1000
AcDbSavedByObjectVersion
1070
     0
1000
AcDbSavedByObjectVersion
1070
     0
1000
AcDbSavedByObjectVersion
1070
     0
1000
AcDbSavedByObjectVersion
1070
     0
1000
AcDbSavedByObjectVersion
1070
     0
1000
AcDbSavedByObjectVersion
1070
     0
1000
AcDbSavedByObjectVersion
1070
     0
1000
AcDbSavedByObjectVersion
1070
     0
1000
AcDbSavedByObjectVersion
1070
     0
1000
AcDbSavedByObjectVersion
1070
     0
1000
AcDbSavedByObjectVersion
1070
     0
1000
AcDbSavedByObjectVersion
1070
     0
1000
AcDbSavedByObjectVersion
1070
     0
1000
AcDbSavedByObjectVersion
1070
     0
1000
AcDbSavedByObjectVersion
1070
     0
1000
AcDbSavedByObjectVersion
1070
     0
1000
AcDbSavedByObjectVersion
1070
     0
1000
AcDbSavedByObjectVersion
1070
     0
1000
AcDbSavedByObjectVersion
1070
     0
1000
AcDbSavedByObjectVersion
1070
     0
1000
AcDbSavedByObjectVersion
1070
     0
1000
AcDbSavedByObjectVersion
1070
     0
1000
AcDbSavedByObjectVersion
1070
     0
1000
AcDbSavedByObjectVersion
1070
     0
1000
AcDbSavedByObjectVersion
1070
     0
1000
AcDbSavedByObjectVersion
1070
     0
1000
AcDbSavedByObjectVersion
1070
     0
1000
AcDbSavedByObjectVersion
1070
     0
1000
AcDbSavedByObjectVersion
1070
     0
1000
AcDbSavedByObjectVersion
1070
     0
1000
AcDbSavedByObjectVersion
1070
     0
1000
AcDbSavedByObjectVersion
1070
     0
1000
AcDbSavedByObjectVersion
1070
     0
1000
AcDbSavedByObjectVersion
1070
     0
1000
AcDbSavedByObjectVersion
1070
     0
1000
AcDbSavedByObjectVersion
1070
     0
1000
AcDbSavedByObjectVersion
1070
     0
1000
AcDbSavedByObjectVersion
1070
     0
1000
AcDbSavedByObjectVersion
1070
     0
1000
AcDbSavedByObjectVersion
1070
     0
1000
AcDbSavedByObjectVersion
1070
     0
1000
AcDbSavedByObjectVersion
1070
     0
1000
AcDbSavedByObjectVersion
1070
     0
1000
AcDbSavedByObjectVersion
1070
     0
  0
VISUALSTYLE
  5
35
102
{ACAD_REACTORS
330
2A
102
}
330
2A
100
AcDbVisualStyle
  2
Dim
 70
    11
 71
     2
 72
     2
 73
     0
 90
        0
 40
-0.6
 41
-30.0
 62
     5
 63
     7
 74
     1
 91
        4
 64
     7
 65
   257
 75
     1
175
     1
 42
1.0
 92
        8
 66
     7
 43
1.0
 76
     1
 77
     6
 78
     2
 67
     7
 79
     5
170
     0
171
     0
290
     0
174
     0
 93
        1
 44
-50.0
173
     0
291
     1
 45
0.0
1001
ACAD
1000
AcDbSavedByObjectVersion
1070
     0
1000
AcDbSavedByObjectVersion
1070
     0
1000
AcDbSavedByObjectVersion
1070
     0
1000
AcDbSavedByObjectVersion
1070
     0
1000
AcDbSavedByObjectVersion
1070
     0
1000
AcDbSavedByObjectVersion
1070
     0
1000
AcDbSavedByObjectVersion
1070
     0
1000
AcDbSavedByObjectVersion
1070
     0
1000
AcDbSavedByObjectVersion
1070
     0
1000
AcDbSavedByObjectVersion
1070
     0
1000
AcDbSavedByObjectVersion
1070
     0
1000
AcDbSavedByObjectVersion
1070
     0
1000
AcDbSavedByObjectVersion
1070
     0
1000
AcDbSavedByObjectVersion
1070
     0
1000
AcDbSavedByObjectVersion
1070
     0
1000
AcDbSavedByObjectVersion
1070
     0
1000
AcDbSavedByObjectVersion
1070
     0
1000
AcDbSavedByObjectVersion
1070
     0
1000
AcDbSavedByObjectVersion
1070
     0
1000
AcDbSavedByObjectVersion
1070
     0
1000
AcDbSavedByObjectVersion
1070
     0
1000
AcDbSavedByObjectVersion
1070
     0
1000
AcDbSavedByObjectVersion
1070
     0
1000
AcDbSavedByObjectVersion
1070
     0
1000
AcDbSavedByObjectVersion
1070
     0
1000
AcDbSavedByObjectVersion
1070
     0
1000
AcDbSavedByObjectVersion
1070
     0
1000
AcDbSavedByObjectVersion
1070
     0
1000
AcDbSavedByObjectVersion
1070
     0
1000
AcDbSavedByObjectVersion
1070
     0
1000
AcDbSavedByObjectVersion
1070
     0
1000
AcDbSavedByObjectVersion
1070
     0
1000
AcDbSavedByObjectVersion
1070
     0
1000
AcDbSavedByObjectVersion
1070
     0
1000
AcDbSavedByObjectVersion
1070
     0
1000
AcDbSavedByObjectVersion
1070
     0
1000
AcDbSavedByObjectVersion
1070
     0
1000
AcDbSavedByObjectVersion
1070
     0
1000
AcDbSavedByObjectVersion
1070
     0
1000
AcDbSavedByObjectVersion
1070
     0
1000
AcDbSavedByObjectVersion
1070
     0
1000
AcDbSavedByObjectVersion
1070
     0
1000
AcDbSavedByObjectVersion
1070
     0
1000
AcDbSavedByObjectVersion
1070
     0
1000
AcDbSavedByObjectVersion
1070
     0
1000
AcDbSavedByObjectVersion
1070
     0
1000
AcDbSavedByObjectVersion
1070
     0
1000
AcDbSavedByObjectVersion
1070
     0
1000
AcDbSavedByObjectVersion
1070
     0
1000
AcDbSavedByObjectVersion
1070
     0
1000
AcDbSavedByObjectVersion
1070
     0
1000
AcDbSavedByObjectVersion
1070
     0
  0
VISUALSTYLE
  5
39
102
{ACAD_REACTORS
330
2A
102
}
330
2A
100
AcDbVisualStyle
  2
Facepattern
 70
    15
 71
     2
 72
     2
 73
     0
 90
        0
 40
-0.6
 41
-30.0
 62
     5
 63
     7
 74
     1
 91
        4
 64
     7
 65
   257
 75
     1
175
     1
 42
1.0
 92
        8
 66
     7
 43
1.0
 76
     1
 77
     6
 78
     2
 67
     7
 79
     5
170
     0
171
     0
290
     0
174
     0
 93
        1
 44
0.0
173
     0
291
     1
 45
0.0
1001
ACAD
1000
AcDbSavedByObjectVersion
1070
     0
1000
AcDbSavedByObjectVersion
1070
     0
1000
AcDbSavedByObjectVersion
1070
     0
1000
AcDbSavedByObjectVersion
1070
     0
1000
AcDbSavedByObjectVersion
1070
     0
1000
AcDbSavedByObjectVersion
1070
     0
1000
AcDbSavedByObjectVersion
1070
     0
1000
AcDbSavedByObjectVersion
1070
     0
1000
AcDbSavedByObjectVersion
1070
     0
1000
AcDbSavedByObjectVersion
1070
     0
1000
AcDbSavedByObjectVersion
1070
     0
1000
AcDbSavedByObjectVersion
1070
     0
1000
AcDbSavedByObjectVersion
1070
     0
1000
AcDbSavedByObjectVersion
1070
     0
1000
AcDbSavedByObjectVersion
1070
     0
1000
AcDbSavedByObjectVersion
1070
     0
1000
AcDbSavedByObjectVersion
1070
     0
1000
AcDbSavedByObjectVersion
1070
     0
1000
AcDbSavedByObjectVersion
1070
     0
1000
AcDbSavedByObjectVersion
1070
     0
1000
AcDbSavedByObjectVersion
1070
     0
1000
AcDbSavedByObjectVersion
1070
     0
1000
AcDbSavedByObjectVersion
1070
     0
1000
AcDbSavedByObjectVersion
1070
     0
1000
AcDbSavedByObjectVersion
1070
     0
1000
AcDbSavedByObjectVersion
1070
     0
1000
AcDbSavedByObjectVersion
1070
     0
1000
AcDbSavedByObjectVersion
1070
     0
1000
AcDbSavedByObjectVersion
1070
     0
1000
AcDbSavedByObjectVersion
1070
     0
1000
AcDbSavedByObjectVersion
1070
     0
1000
AcDbSavedByObjectVersion
1070
     0
1000
AcDbSavedByObjectVersion
1070
     0
1000
AcDbSavedByObjectVersion
1070
     0
1000
AcDbSavedByObjectVersion
1070
     0
1000
AcDbSavedByObjectVersion
1070
     0
1000
AcDbSavedByObjectVersion
1070
     0
1000
AcDbSavedByObjectVersion
1070
     0
1000
AcDbSavedByObjectVersion
1070
     0
1000
AcDbSavedByObjectVersion
1070
     0
1000
AcDbSavedByObjectVersion
1070
     0
1000
AcDbSavedByObjectVersion
1070
     0
1000
AcDbSavedByObjectVersion
1070
     0
1000
AcDbSavedByObjectVersion
1070
     0
1000
AcDbSavedByObjectVersion
1070
     0
1000
AcDbSavedByObjectVersion
1070
     0
1000
AcDbSavedByObjectVersion
1070
     0
1000
AcDbSavedByObjectVersion
1070
     0
1000
AcDbSavedByObjectVersion
1070
     0
1000
AcDbSavedByObjectVersion
1070
     0
1000
AcDbSavedByObjectVersion
1070
     0
1000
AcDbSavedByObjectVersion
1070
     0
  0
VISUALSTYLE
  5
2B
102
{ACAD_REACTORS
330
2A
102
}
330
2A
100
AcDbVisualStyle
  2
Flat
 70
     0
 71
     2
 72
     1
 73
     1
 90
        2
 40
-0.6
 41
30.0
 62
     5
 63
     7
 74
     0
 91
        4
 64
     7
 65
   257
 75
     1
175
     1
 42
1.0
 92
        8
 66
     7
 43
1.0
 76
     1
 77
     6
 78
     2
 67
     7
 79
     5
170
     0
171
     0
290
     0
174
     0
 93
       13
 44
0.0
173
     0
291
     1
 45
0.0
1001
ACAD
1000
AcDbSavedByObjectVersion
1070
     0
1000
AcDbSavedByObjectVersion
1070
     0
1000
AcDbSavedByObjectVersion
1070
     0
1000
AcDbSavedByObjectVersion
1070
     0
1000
AcDbSavedByObjectVersion
1070
     0
1000
AcDbSavedByObjectVersion
1070
     0
1000
AcDbSavedByObjectVersion
1070
     0
1000
AcDbSavedByObjectVersion
1070
     0
1000
AcDbSavedByObjectVersion
1070
     0
1000
AcDbSavedByObjectVersion
1070
     0
1000
AcDbSavedByObjectVersion
1070
     0
1000
AcDbSavedByObjectVersion
1070
     0
1000
AcDbSavedByObjectVersion
1070
     0
1000
AcDbSavedByObjectVersion
1070
     0
1000
AcDbSavedByObjectVersion
1070
     0
1000
AcDbSavedByObjectVersion
1070
     0
1000
AcDbSavedByObjectVersion
1070
     0
1000
AcDbSavedByObjectVersion
1070
     0
1000
AcDbSavedByObjectVersion
1070
     0
1000
AcDbSavedByObjectVersion
1070
     0
1000
AcDbSavedByObjectVersion
1070
     0
1000
AcDbSavedByObjectVersion
1070
     0
1000
AcDbSavedByObjectVersion
1070
     0
1000
AcDbSavedByObjectVersion
1070
     0
1000
AcDbSavedByObjectVersion
1070
     0
1000
AcDbSavedByObjectVersion
1070
     0
1000
AcDbSavedByObjectVersion
1070
     0
1000
AcDbSavedByObjectVersion
1070
     0
1000
AcDbSavedByObjectVersion
1070
     0
1000
AcDbSavedByObjectVersion
1070
     0
1000
AcDbSavedByObjectVersion
1070
     0
1000
AcDbSavedByObjectVersion
1070
     0
1000
AcDbSavedByObjectVersion
1070
     0
1000
AcDbSavedByObjectVersion
1070
     0
1000
AcDbSavedByObjectVersion
1070
     0
1000
AcDbSavedByObjectVersion
1070
     0
1000
AcDbSavedByObjectVersion
1070
     0
1000
AcDbSavedByObjectVersion
1070
     0
1000
AcDbSavedByObjectVersion
1070
     0
1000
AcDbSavedByObjectVersion
1070
     0
1000
AcDbSavedByObjectVersion
1070
     0
1000
AcDbSavedByObjectVersion
1070
     0
1000
AcDbSavedByObjectVersion
1070
     0
1000
AcDbSavedByObjectVersion
1070
     0
1000
AcDbSavedByObjectVersion
1070
     0
1000
AcDbSavedByObjectVersion
1070
     0
1000
AcDbSavedByObjectVersion
1070
     0
1000
AcDbSavedByObjectVersion
1070
     0
1000
AcDbSavedByObjectVersion
1070
     0
1000
AcDbSavedByObjectVersion
1070
     0
1000
AcDbSavedByObjectVersion
1070
     0
1000
AcDbSavedByObjectVersion
1070
     0
  0
VISUALSTYLE
  5
2C
102
{ACAD_REACTORS
330
2A
102
}
330
2A
100
AcDbVisualStyle
  2
FlatWithEdges
 70
     1
 71
     2
 72
     1
 73
     1
 90
        2
 40
-0.6
 41
30.0
 62
     5
 63
     7
 74
     1
 91
        4
 64
     7
 65
   257
 75
     1
175
     1
 42
1.0
 92
        0
 66
   257
 43
1.0
 76
     1
 77
     6
 78
     2
 67
     7
 79
     5
170
     0
171
     0
290
     0
174
     0
 93
       13
 44
0.0
173
     0
291
     1
 45
0.0
1001
ACAD
1000
AcDbSavedByObjectVersion
1070
     0
1000
AcDbSavedByObjectVersion
1070
     0
1000
AcDbSavedByObjectVersion
1070
     0
1000
AcDbSavedByObjectVersion
1070
     0
1000
AcDbSavedByObjectVersion
1070
     0
1000
AcDbSavedByObjectVersion
1070
     0
1000
AcDbSavedByObjectVersion
1070
     0
1000
AcDbSavedByObjectVersion
1070
     0
1000
AcDbSavedByObjectVersion
1070
     0
1000
AcDbSavedByObjectVersion
1070
     0
1000
AcDbSavedByObjectVersion
1070
     0
1000
AcDbSavedByObjectVersion
1070
     0
1000
AcDbSavedByObjectVersion
1070
     0
1000
AcDbSavedByObjectVersion
1070
     0
1000
AcDbSavedByObjectVersion
1070
     0
1000
AcDbSavedByObjectVersion
1070
     0
1000
AcDbSavedByObjectVersion
1070
     0
1000
AcDbSavedByObjectVersion
1070
     0
1000
AcDbSavedByObjectVersion
1070
     0
1000
AcDbSavedByObjectVersion
1070
     0
1000
AcDbSavedByObjectVersion
1070
     0
1000
AcDbSavedByObjectVersion
1070
     0
1000
AcDbSavedByObjectVersion
1070
     0
1000
AcDbSavedByObjectVersion
1070
     0
1000
AcDbSavedByObjectVersion
1070
     0
1000
AcDbSavedByObjectVersion
1070
     0
1000
AcDbSavedByObjectVersion
1070
     0
1000
AcDbSavedByObjectVersion
1070
     0
1000
AcDbSavedByObjectVersion
1070
     0
1000
AcDbSavedByObjectVersion
1070
     0
1000
AcDbSavedByObjectVersion
1070
     0
1000
AcDbSavedByObjectVersion
1070
     0
1000
AcDbSavedByObjectVersion
1070
     0
1000
AcDbSavedByObjectVersion
1070
     0
1000
AcDbSavedByObjectVersion
1070
     0
1000
AcDbSavedByObjectVersion
1070
     0
1000
AcDbSavedByObjectVersion
1070
     0
1000
AcDbSavedByObjectVersion
1070
     0
1000
AcDbSavedByObjectVersion
1070
     0
1000
AcDbSavedByObjectVersion
1070
     0
1000
AcDbSavedByObjectVersion
1070
     0
1000
AcDbSavedByObjectVersion
1070
     0
1000
AcDbSavedByObjectVersion
1070
     0
1000
AcDbSavedByObjectVersion
1070
     0
1000
AcDbSavedByObjectVersion
1070
     0
1000
AcDbSavedByObjectVersion
1070
     0
1000
AcDbSavedByObjectVersion
1070
     0
1000
AcDbSavedByObjectVersion
1070
     0
1000
AcDbSavedByObjectVersion
1070
     0
1000
AcDbSavedByObjectVersion
1070
     0
1000
AcDbSavedByObjectVersion
1070
     0
1000
AcDbSavedByObjectVersion
1070
     0
  0
VISUALSTYLE
  5
2D
102
{ACAD_REACTORS
330
2A
102
}
330
2A
100
AcDbVisualStyle
  2
Gouraud
 70
     2
 71
     2
 72
     2
 73
     1
 90
        2
 40
-0.6
 41
30.0
 62
     5
 63
     7
 74
     0
 91
        4
 64
     7
 65
   257
 75
     1
175
     1
 42
1.0
 92
        0
 66
     7
 43
1.0
 76
     1
 77
     6
 78
     2
 67
     7
 79
     5
170
     0
171
     0
290
     0
174
     0
 93
       13
 44
0.0
173
     0
291
     1
 45
0.0
1001
ACAD
1000
AcDbSavedByObjectVersion
1070
     0
1000
AcDbSavedByObjectVersion
1070
     0
1000
AcDbSavedByObjectVersion
1070
     0
1000
AcDbSavedByObjectVersion
1070
     0
1000
AcDbSavedByObjectVersion
1070
     0
1000
AcDbSavedByObjectVersion
1070
     0
1000
AcDbSavedByObjectVersion
1070
     0
1000
AcDbSavedByObjectVersion
1070
     0
1000
AcDbSavedByObjectVersion
1070
     0
1000
AcDbSavedByObjectVersion
1070
     0
1000
AcDbSavedByObjectVersion
1070
     0
1000
AcDbSavedByObjectVersion
1070
     0
1000
AcDbSavedByObjectVersion
1070
     0
1000
AcDbSavedByObjectVersion
1070
     0
1000
AcDbSavedByObjectVersion
1070
     0
1000
AcDbSavedByObjectVersion
1070
     0
1000
AcDbSavedByObjectVersion
1070
     0
1000
AcDbSavedByObjectVersion
1070
     0
1000
AcDbSavedByObjectVersion
1070
     0
1000
AcDbSavedByObjectVersion
1070
     0
1000
AcDbSavedByObjectVersion
1070
     0
1000
AcDbSavedByObjectVersion
1070
     0
1000
AcDbSavedByObjectVersion
1070
     0
1000
AcDbSavedByObjectVersion
1070
     0
1000
AcDbSavedByObjectVersion
1070
     0
1000
AcDbSavedByObjectVersion
1070
     0
1000
AcDbSavedByObjectVersion
1070
     0
1000
AcDbSavedByObjectVersion
1070
     0
1000
AcDbSavedByObjectVersion
1070
     0
1000
AcDbSavedByObjectVersion
1070
     0
1000
AcDbSavedByObjectVersion
1070
     0
1000
AcDbSavedByObjectVersion
1070
     0
1000
AcDbSavedByObjectVersion
1070
     0
1000
AcDbSavedByObjectVersion
1070
     0
1000
AcDbSavedByObjectVersion
1070
     0
1000
AcDbSavedByObjectVersion
1070
     0
1000
AcDbSavedByObjectVersion
1070
     0
1000
AcDbSavedByObjectVersion
1070
     0
1000
AcDbSavedByObjectVersion
1070
     0
1000
AcDbSavedByObjectVersion
1070
     0
1000
AcDbSavedByObjectVersion
1070
     0
1000
AcDbSavedByObjectVersion
1070
     0
1000
AcDbSavedByObjectVersion
1070
     0
1000
AcDbSavedByObjectVersion
1070
     0
1000
AcDbSavedByObjectVersion
1070
     0
1000
AcDbSavedByObjectVersion
1070
     0
1000
AcDbSavedByObjectVersion
1070
     0
1000
AcDbSavedByObjectVersion
1070
     0
1000
AcDbSavedByObjectVersion
1070
     0
1000
AcDbSavedByObjectVersion
1070
     0
1000
AcDbSavedByObjectVersion
1070
     0
1000
AcDbSavedByObjectVersion
1070
     0
  0
VISUALSTYLE
  5
2E
102
{ACAD_REACTORS
330
2A
102
}
330
2A
100
AcDbVisualStyle
  2
GouraudWithEdges
 70
     3
 71
     2
 72
     2
 73
     1
 90
        2
 40
-0.6
 41
30.0
 62
     5
 63
     7
 74
     1
 91
        4
 64
     7
 65
   257
 75
     1
175
     1
 42
1.0
 92
        0
 66
   257
 43
1.0
 76
     1
 77
     6
 78
     2
 67
     7
 79
     5
170
     0
171
     0
290
     0
174
     0
 93
       13
 44
0.0
173
     0
291
     1
 45
0.0
1001
ACAD
1000
AcDbSavedByObjectVersion
1070
     0
1000
AcDbSavedByObjectVersion
1070
     0
1000
AcDbSavedByObjectVersion
1070
     0
1000
AcDbSavedByObjectVersion
1070
     0
1000
AcDbSavedByObjectVersion
1070
     0
1000
AcDbSavedByObjectVersion
1070
     0
1000
AcDbSavedByObjectVersion
1070
     0
1000
AcDbSavedByObjectVersion
1070
     0
1000
AcDbSavedByObjectVersion
1070
     0
1000
AcDbSavedByObjectVersion
1070
     0
1000
AcDbSavedByObjectVersion
1070
     0
1000
AcDbSavedByObjectVersion
1070
     0
1000
AcDbSavedByObjectVersion
1070
     0
1000
AcDbSavedByObjectVersion
1070
     0
1000
AcDbSavedByObjectVersion
1070
     0
1000
AcDbSavedByObjectVersion
1070
     0
1000
AcDbSavedByObjectVersion
1070
     0
1000
AcDbSavedByObjectVersion
1070
     0
1000
AcDbSavedByObjectVersion
1070
     0
1000
AcDbSavedByObjectVersion
1070
     0
1000
AcDbSavedByObjectVersion
1070
     0
1000
AcDbSavedByObjectVersion
1070
     0
1000
AcDbSavedByObjectVersion
1070
     0
1000
AcDbSavedByObjectVersion
1070
     0
1000
AcDbSavedByObjectVersion
1070
     0
1000
AcDbSavedByObjectVersion
1070
     0
1000
AcDbSavedByObjectVersion
1070
     0
1000
AcDbSavedByObjectVersion
1070
     0
1000
AcDbSavedByObjectVersion
1070
     0
1000
AcDbSavedByObjectVersion
1070
     0
1000
AcDbSavedByObjectVersion
1070
     0
1000
AcDbSavedByObjectVersion
1070
     0
1000
AcDbSavedByObjectVersion
1070
     0
1000
AcDbSavedByObjectVersion
1070
     0
1000
AcDbSavedByObjectVersion
1070
     0
1000
AcDbSavedByObjectVersion
1070
     0
1000
AcDbSavedByObjectVersion
1070
     0
1000
AcDbSavedByObjectVersion
1070
     0
1000
AcDbSavedByObjectVersion
1070
     0
1000
AcDbSavedByObjectVersion
1070
     0
1000
AcDbSavedByObjectVersion
1070
     0
1000
AcDbSavedByObjectVersion
1070
     0
1000
AcDbSavedByObjectVersion
1070
     0
1000
AcDbSavedByObjectVersion
1070
     0
1000
AcDbSavedByObjectVersion
1070
     0
1000
AcDbSavedByObjectVersion
1070
     0
1000
AcDbSavedByObjectVersion
1070
     0
1000
AcDbSavedByObjectVersion
1070
     0
1000
AcDbSavedByObjectVersion
1070
     0
1000
AcDbSavedByObjectVersion
1070
     0
1000
AcDbSavedByObjectVersion
1070
     0
1000
AcDbSavedByObjectVersion
1070
     0
  0
VISUALSTYLE
  5
38
102
{ACAD_REACTORS
330
2A
102
}
330
2A
100
AcDbVisualStyle
  2
Linepattern
 70
    14
 71
     2
 72
     2
 73
     0
 90
        0
 40
-0.6
 41
-30.0
 62
     5
 63
     7
 74
     1
 91
        4
 64
     7
 65
   257
 75
     7
175
     7
 42
1.0
 92
        8
 66
     7
 43
1.0
 76
     1
 77
     6
 78
     2
 67
     7
 79
     5
170
     0
171
     0
290
     0
174
     0
 93
        1
 44
0.0
173
     0
291
     1
 45
0.0
1001
ACAD
1000
AcDbSavedByObjectVersion
1070
     0
1000
AcDbSavedByObjectVersion
1070
     0
1000
AcDbSavedByObjectVersion
1070
     0
1000
AcDbSavedByObjectVersion
1070
     0
1000
AcDbSavedByObjectVersion
1070
     0
1000
AcDbSavedByObjectVersion
1070
     0
1000
AcDbSavedByObjectVersion
1070
     0
1000
AcDbSavedByObjectVersion
1070
     0
1000
AcDbSavedByObjectVersion
1070
     0
1000
AcDbSavedByObjectVersion
1070
     0
1000
AcDbSavedByObjectVersion
1070
     0
1000
AcDbSavedByObjectVersion
1070
     0
1000
AcDbSavedByObjectVersion
1070
     0
1000
AcDbSavedByObjectVersion
1070
     0
1000
AcDbSavedByObjectVersion
1070
     0
1000
AcDbSavedByObjectVersion
1070
     0
1000
AcDbSavedByObjectVersion
1070
     0
1000
AcDbSavedByObjectVersion
1070
     0
1000
AcDbSavedByObjectVersion
1070
     0
1000
AcDbSavedByObjectVersion
1070
     0
1000
AcDbSavedByObjectVersion
1070
     0
1000
AcDbSavedByObjectVersion
1070
     0
1000
AcDbSavedByObjectVersion
1070
     0
1000
AcDbSavedByObjectVersion
1070
     0
1000
AcDbSavedByObjectVersion
1070
     0
1000
AcDbSavedByObjectVersion
1070
     0
1000
AcDbSavedByObjectVersion
1070
     0
1000
AcDbSavedByObjectVersion
1070
     0
1000
AcDbSavedByObjectVersion
1070
     0
1000
AcDbSavedByObjectVersion
1070
     0
1000
AcDbSavedByObjectVersion
1070
     0
1000
AcDbSavedByObjectVersion
1070
     0
1000
AcDbSavedByObjectVersion
1070
     0
1000
AcDbSavedByObjectVersion
1070
     0
1000
AcDbSavedByObjectVersion
1070
     0
1000
AcDbSavedByObjectVersion
1070
     0
1000
AcDbSavedByObjectVersion
1070
     0
1000
AcDbSavedByObjectVersion
1070
     0
1000
AcDbSavedByObjectVersion
1070
     0
1000
AcDbSavedByObjectVersion
1070
     0
1000
AcDbSavedByObjectVersion
1070
     0
1000
AcDbSavedByObjectVersion
1070
     0
1000
AcDbSavedByObjectVersion
1070
     0
1000
AcDbSavedByObjectVersion
1070
     0
1000
AcDbSavedByObjectVersion
1070
     0
1000
AcDbSavedByObjectVersion
1070
     0
1000
AcDbSavedByObjectVersion
1070
     0
1000
AcDbSavedByObjectVersion
1070
     0
1000
AcDbSavedByObjectVersion
1070
     0
1000
AcDbSavedByObjectVersion
1070
     0
1000
AcDbSavedByObjectVersion
1070
     0
1000
AcDbSavedByObjectVersion
1070
     0
  0
VISUALSTYLE
  5
33
102
{ACAD_REACTORS
330
2A
102
}
330
2A
100
AcDbVisualStyle
  2
Realistic
 70
     8
 71
     2
 72
     2
 73
     0
 90
        0
 40
-0.6
 41
-30.0
 62
     5
 63
     7
 74
     1
 91
        0
 64
     7
 65
   257
 75
     1
175
     1
 42
1.0
 92
        8
 66
     8
 43
1.0
 76
     1
 77
     6
 78
     2
 67
     7
 79
     5
170
     0
171
     0
290
     0
174
     0
 93
       13
 44
0.0
173
     0
291
     0
 45
0.0
1001
ACAD
1000
AcDbSavedByObjectVersion
1070
     0
1000
AcDbSavedByObjectVersion
1070
     0
1000
AcDbSavedByObjectVersion
1070
     0
1000
AcDbSavedByObjectVersion
1070
     0
1000
AcDbSavedByObjectVersion
1070
     0
1000
AcDbSavedByObjectVersion
1070
     0
1000
AcDbSavedByObjectVersion
1070
     0
1000
AcDbSavedByObjectVersion
1070
     0
1000
AcDbSavedByObjectVersion
1070
     0
1000
AcDbSavedByObjectVersion
1070
     0
1000
AcDbSavedByObjectVersion
1070
     0
1000
AcDbSavedByObjectVersion
1070
     0
1000
AcDbSavedByObjectVersion
1070
     0
1000
AcDbSavedByObjectVersion
1070
     0
1000
AcDbSavedByObjectVersion
1070
     0
1000
AcDbSavedByObjectVersion
1070
     0
1000
AcDbSavedByObjectVersion
1070
     0
1000
AcDbSavedByObjectVersion
1070
     0
1000
AcDbSavedByObjectVersion
1070
     0
1000
AcDbSavedByObjectVersion
1070
     0
1000
AcDbSavedByObjectVersion
1070
     0
1000
AcDbSavedByObjectVersion
1070
     0
1000
AcDbSavedByObjectVersion
1070
     0
1000
AcDbSavedByObjectVersion
1070
     0
1000
AcDbSavedByObjectVersion
1070
     0
1000
AcDbSavedByObjectVersion
1070
     0
1000
AcDbSavedByObjectVersion
1070
     0
1000
AcDbSavedByObjectVersion
1070
     0
1000
AcDbSavedByObjectVersion
1070
     0
1000
AcDbSavedByObjectVersion
1070
     0
1000
AcDbSavedByObjectVersion
1070
     0
1000
AcDbSavedByObjectVersion
1070
     0
1000
AcDbSavedByObjectVersion
1070
     0
1000
AcDbSavedByObjectVersion
1070
     0
1000
AcDbSavedByObjectVersion
1070
     0
1000
AcDbSavedByObjectVersion
1070
     0
1000
AcDbSavedByObjectVersion
1070
     0
1000
AcDbSavedByObjectVersion
1070
     0
1000
AcDbSavedByObjectVersion
1070
     0
1000
AcDbSavedByObjectVersion
1070
     0
1000
AcDbSavedByObjectVersion
1070
     0
1000
AcDbSavedByObjectVersion
1070
     0
1000
AcDbSavedByObjectVersion
1070
     0
1000
AcDbSavedByObjectVersion
1070
     0
1000
AcDbSavedByObjectVersion
1070
     0
1000
AcDbSavedByObjectVersion
1070
     0
1000
AcDbSavedByObjectVersion
1070
     0
1000
AcDbSavedByObjectVersion
1070
     0
1000
AcDbSavedByObjectVersion
1070
     0
1000
AcDbSavedByObjectVersion
1070
     0
1000
AcDbSavedByObjectVersion
1070
     0
1000
AcDbSavedByObjectVersion
1070
     0
  0
VISUALSTYLE
  5
37
102
{ACAD_REACTORS
330
2A
102
}
330
2A
100
AcDbVisualStyle
  2
Thicken
 70
    13
 71
     2
 72
     2
 73
     0
 90
        0
 40
-0.6
 41
-30.0
 62
     5
 63
     7
 74
     1
 91
        4
 64
     7
 65
   257
 75
     1
175
     1
 42
1.0
 92
       12
 66
     7
 43
1.0
 76
     1
 77
     6
 78
     2
 67
     7
 79
     5
170
     0
171
     0
290
     0
174
     0
 93
        1
 44
0.0
173
     0
291
     1
 45
0.0
1001
ACAD
1000
AcDbSavedByObjectVersion
1070
     0
1000
AcDbSavedByObjectVersion
1070
     0
1000
AcDbSavedByObjectVersion
1070
     0
1000
AcDbSavedByObjectVersion
1070
     0
1000
AcDbSavedByObjectVersion
1070
     0
1000
AcDbSavedByObjectVersion
1070
     0
1000
AcDbSavedByObjectVersion
1070
     0
1000
AcDbSavedByObjectVersion
1070
     0
1000
AcDbSavedByObjectVersion
1070
     0
1000
AcDbSavedByObjectVersion
1070
     0
1000
AcDbSavedByObjectVersion
1070
     0
1000
AcDbSavedByObjectVersion
1070
     0
1000
AcDbSavedByObjectVersion
1070
     0
1000
AcDbSavedByObjectVersion
1070
     0
1000
AcDbSavedByObjectVersion
1070
     0
1000
AcDbSavedByObjectVersion
1070
     0
1000
AcDbSavedByObjectVersion
1070
     0
1000
AcDbSavedByObjectVersion
1070
     0
1000
AcDbSavedByObjectVersion
1070
     0
1000
AcDbSavedByObjectVersion
1070
     0
1000
AcDbSavedByObjectVersion
1070
     0
1000
AcDbSavedByObjectVersion
1070
     0
1000
AcDbSavedByObjectVersion
1070
     0
1000
AcDbSavedByObjectVersion
1070
     0
1000
AcDbSavedByObjectVersion
1070
     0
1000
AcDbSavedByObjectVersion
1070
     0
1000
AcDbSavedByObjectVersion
1070
     0
1000
AcDbSavedByObjectVersion
1070
     0
1000
AcDbSavedByObjectVersion
1070
     0
1000
AcDbSavedByObjectVersion
1070
     0
1000
AcDbSavedByObjectVersion
1070
     0
1000
AcDbSavedByObjectVersion
1070
     0
1000
AcDbSavedByObjectVersion
1070
     0
1000
AcDbSavedByObjectVersion
1070
     0
1000
AcDbSavedByObjectVersion
1070
     0
1000
AcDbSavedByObjectVersion
1070
     0
1000
AcDbSavedByObjectVersion
1070
     0
1000
AcDbSavedByObjectVersion
1070
     0
1000
AcDbSavedByObjectVersion
1070
     0
1000
AcDbSavedByObjectVersion
1070
     0
1000
AcDbSavedByObjectVersion
1070
     0
1000
AcDbSavedByObjectVersion
1070
     0
1000
AcDbSavedByObjectVersion
1070
     0
1000
AcDbSavedByObjectVersion
1070
     0
1000
AcDbSavedByObjectVersion
1070
     0
1000
AcDbSavedByObjectVersion
1070
     0
1000
AcDbSavedByObjectVersion
1070
     0
1000
AcDbSavedByObjectVersion
1070
     0
1000
AcDbSavedByObjectVersion
1070
     0
1000
AcDbSavedByObjectVersion
1070
     0
1000
AcDbSavedByObjectVersion
1070
     0
1000
AcDbSavedByObjectVersion
1070
     0
  0
DICTIONARYVAR
  5
510B
102
{ACAD_REACTORS
330
5108
102
}
330
5108
100
DictionaryVariables
280
     0
  1
1:1
  0
DICTIONARYVAR
  5
510A
102
{ACAD_REACTORS
330
5108
102
}
330
5108
100
DictionaryVariables
280
     0
  1
STANDARD
  0
DICTIONARYVAR
  5
5109
102
{ACAD_REACTORS
330
5108
102
}
330
5108
100
DictionaryVariables
280
     0
  1
STANDARD
  0
DICTIONARYVAR
  5
510E
102
{ACAD_REACTORS
330
5108
102
}
330
5108
100
DictionaryVariables
280
     0
  1
1
  0
DICTIONARYVAR
  5
510D
102
{ACAD_REACTORS
330
5108
102
}
330
5108
100
DictionaryVariables
280
     0
  1
0
  0
DICTIONARYVAR
  5
19101
102
{ACAD_REACTORS
330
5108
102
}
330
5108
100
DictionaryVariables
280
     0
  1
0
  0
DICTIONARYVAR
  5
19100
102
{ACAD_REACTORS
330
5108
102
}
330
5108
100
DictionaryVariables
280
     0
  1
0
  0
DICTIONARYVAR
  5
510C
102
{ACAD_REACTORS
330
5108
102
}
330
5108
100
DictionaryVariables
280
     0
  1
127
  0
XRECORD
  5
13AB9
102
{ACAD_REACTORS
330
13AB8
102
}
330
13AB8
100
AcDbXrecord
280
     1
330
1382D
  0
DICTIONARY
  5
4FEF
330
4FEE
100
AcDbDictionary
280
     1
281
     1
  3
ACAD_XREC_ROUNDTRIP
360
7C2C
  3
BUMPTILE
360
4FF1
  3
DIFFUSETILE
360
4FF0
  3
OPACITYTILE
360
4FF4
  3
REFLECTIONTILE
360
4FF3
  3
REFRACTIONTILE
360
4FF5
  3
SPECULARTILE
360
4FF2
  0
DICTIONARY
  5
4FE7
330
4FE6
100
AcDbDictionary
280
     1
281
     1
  3
ACAD_XREC_ROUNDTRIP
360
7C2B
  3
BUMPTILE
360
4FE9
  3
DIFFUSETILE
360
4FE8
  3
OPACITYTILE
360
4FEC
  3
REFLECTIONTILE
360
4FEB
  3
REFRACTIONTILE
360
4FED
  3
SPECULARTILE
360
4FEA
  0
DICTIONARY
  5
4FF7
330
4FF6
100
AcDbDictionary
280
     1
281
     1
  3
ACAD_XREC_ROUNDTRIP
360
7C2D
  3
BUMPTILE
360
4FF9
  3
DIFFUSETILE
360
4FF8
  3
OPACITYTILE
360
4FFC
  3
REFLECTIONTILE
360
4FFB
  3
REFRACTIONTILE
360
4FFD
  3
SPECULARTILE
360
4FFA
  0
DICTIONARY
  5
50D6
330
4FFF
100
AcDbDictionary
280
     1
281
     1
  3
ACAD_ROUNDTRIP_2008_TABLESTYLE_CELLSTYLEMAP
360
1910F
  0
XRECORD
  5
7C2C
102
{ACAD_REACTORS
330
4FEF
102
}
330
4FEF
100
AcDbXrecord
280
     1
102
MATERIAL
148
0.0
149
0.0
149
0.0
 93
        0
 94
      127
282
     0
 72
     0
 77
     0
171
     0
175
     0
179
     0
273
     0
  0
XRECORD
  5
4FF1
102
{ACAD_REACTORS
330
4FEF
102
}
330
4FEF
100
AcDbXrecord
280
     1
270
     1
271
     1
  0
XRECORD
  5
4FF0
102
{ACAD_REACTORS
330
4FEF
102
}
330
4FEF
100
AcDbXrecord
280
     1
270
     1
271
     1
  0
XRECORD
  5
4FF4
102
{ACAD_REACTORS
330
4FEF
102
}
330
4FEF
100
AcDbXrecord
280
     1
270
     1
271
     1
  0
XRECORD
  5
4FF3
102
{ACAD_REACTORS
330
4FEF
102
}
330
4FEF
100
AcDbXrecord
280
     1
270
     1
271
     1
  0
XRECORD
  5
4FF5
102
{ACAD_REACTORS
330
4FEF
102
}
330
4FEF
100
AcDbXrecord
280
     1
270
     1
271
     1
  0
XRECORD
  5
4FF2
102
{ACAD_REACTORS
330
4FEF
102
}
330
4FEF
100
AcDbXrecord
280
     1
270
     1
271
     1
  0
XRECORD
  5
7C2B
102
{ACAD_REACTORS
330
4FE7
102
}
330
4FE7
100
AcDbXrecord
280
     1
102
MATERIAL
148
0.0
149
0.0
149
0.0
 93
        0
 94
      127
282
     0
 72
     0
 77
     0
171
     0
175
     0
179
     0
273
     0
  0
XRECORD
  5
4FE9
102
{ACAD_REACTORS
330
4FE7
102
}
330
4FE7
100
AcDbXrecord
280
     1
270
     1
271
     1
  0
XRECORD
  5
4FE8
102
{ACAD_REACTORS
330
4FE7
102
}
330
4FE7
100
AcDbXrecord
280
     1
270
     1
271
     1
  0
XRECORD
  5
4FEC
102
{ACAD_REACTORS
330
4FE7
102
}
330
4FE7
100
AcDbXrecord
280
     1
270
     1
271
     1
  0
XRECORD
  5
4FEB
102
{ACAD_REACTORS
330
4FE7
102
}
330
4FE7
100
AcDbXrecord
280
     1
270
     1
271
     1
  0
XRECORD
  5
4FED
102
{ACAD_REACTORS
330
4FE7
102
}
330
4FE7
100
AcDbXrecord
280
     1
270
     1
271
     1
  0
XRECORD
  5
4FEA
102
{ACAD_REACTORS
330
4FE7
102
}
330
4FE7
100
AcDbXrecord
280
     1
270
     1
271
     1
  0
XRECORD
  5
7C2D
102
{ACAD_REACTORS
330
4FF7
102
}
330
4FF7
100
AcDbXrecord
280
     1
102
MATERIAL
148
0.0
149
0.0
149
0.0
 93
        0
 94
      127
282
     0
 72
     0
 77
     0
171
     0
175
     0
179
     0
273
     0
  0
XRECORD
  5
4FF9
102
{ACAD_REACTORS
330
4FF7
102
}
330
4FF7
100
AcDbXrecord
280
     1
270
     1
271
     1
  0
XRECORD
  5
4FF8
102
{ACAD_REACTORS
330
4FF7
102
}
330
4FF7
100
AcDbXrecord
280
     1
270
     1
271
     1
  0
XRECORD
  5
4FFC
102
{ACAD_REACTORS
330
4FF7
102
}
330
4FF7
100
AcDbXrecord
280
     1
270
     1
271
     1
  0
XRECORD
  5
4FFB
102
{ACAD_REACTORS
330
4FF7
102
}
330
4FF7
100
AcDbXrecord
280
     1
270
     1
271
     1
  0
XRECORD
  5
4FFD
102
{ACAD_REACTORS
330
4FF7
102
}
330
4FF7
100
AcDbXrecord
280
     1
270
     1
271
     1
  0
XRECORD
  5
4FFA
102
{ACAD_REACTORS
330
4FF7
102
}
330
4FF7
100
AcDbXrecord
280
     1
270
     1
271
     1
  0
CELLSTYLEMAP
  5
1910F
102
{ACAD_REACTORS
330
50D6
102
}
330
50D6
100
AcDbCellStyleMap
 90
        3
300
CELLSTYLE
  1
TABLEFORMAT_BEGIN
 90
        5
170
     1
 91
        0
 92
    32768
 62
   257
 93
        1
300
CONTENTFORMAT
  1
CONTENTFORMAT_BEGIN
 90
        0
 91
        0
 92
      512
 93
        0
300

 40
0.0
140
1.0
 94
        5
 62
     0
340
11
144
0.25
309
CONTENTFORMAT_END
171
     1
301
MARGIN
  1
CELLMARGIN_BEGIN
 40
0.06
 40
0.06
 40
0.06
 40
0.06
 40
0.18
 40
0.18
309
CELLMARGIN_END
 94
        6
 95
        1
302
GRIDFORMAT
  1
GRIDFORMAT_BEGIN
 90
        0
 91
        1
 62
     0
 92
       -2
340
0
 93
        0
 40
0.045
309
GRIDFORMAT_END
 95
        2
302
GRIDFORMAT
  1
GRIDFORMAT_BEGIN
 90
        0
 91
        1
 62
     0
 92
       -2
340
0
 93
        0
 40
0.045
309
GRIDFORMAT_END
 95
        4
302
GRIDFORMAT
  1
GRIDFORMAT_BEGIN
 90
        0
 91
        1
 62
     0
 92
       -2
340
0
 93
        0
 40
0.045
309
GRIDFORMAT_END
 95
        8
302
GRIDFORMAT
  1
GRIDFORMAT_BEGIN
 90
        0
 91
        1
 62
     0
 92
       -2
340
0
 93
        0
 40
0.045
309
GRIDFORMAT_END
 95
       16
302
GRIDFORMAT
  1
GRIDFORMAT_BEGIN
 90
        0
 91
        1
 62
     0
 92
       -2
340
0
 93
        0
 40
0.045
309
GRIDFORMAT_END
 95
       32
302
GRIDFORMAT
  1
GRIDFORMAT_BEGIN
 90
        0
 91
        1
 62
     0
 92
       -2
340
0
 93
        0
 40
0.045
309
GRIDFORMAT_END
309
TABLEFORMAT_END
  1
CELLSTYLE_BEGIN
 90
        1
 91
        1
300
_TITLE
309
CELLSTYLE_END
300
CELLSTYLE
  1
TABLEFORMAT_BEGIN
 90
        5
170
     1
 91
        0
 92
        0
 62
   257
 93
        1
300
CONTENTFORMAT
  1
CONTENTFORMAT_BEGIN
 90
        0
 91
        0
 92
      512
 93
        0
300

 40
0.0
140
1.0
 94
        5
 62
     0
340
11
144
0.18
309
CONTENTFORMAT_END
171
     1
301
MARGIN
  1
CELLMARGIN_BEGIN
 40
0.06
 40
0.06
 40
0.06
 40
0.06
 40
0.18
 40
0.18
309
CELLMARGIN_END
 94
        6
 95
        1
302
GRIDFORMAT
  1
GRIDFORMAT_BEGIN
 90
        0
 91
        1
 62
     0
 92
       -2
340
0
 93
        0
 40
0.045
309
GRIDFORMAT_END
 95
        2
302
GRIDFORMAT
  1
GRIDFORMAT_BEGIN
 90
        0
 91
        1
 62
     0
 92
       -2
340
0
 93
        0
 40
0.045
309
GRIDFORMAT_END
 95
        4
302
GRIDFORMAT
  1
GRIDFORMAT_BEGIN
 90
        0
 91
        1
 62
     0
 92
       -2
340
0
 93
        0
 40
0.045
309
GRIDFORMAT_END
 95
        8
302
GRIDFORMAT
  1
GRIDFORMAT_BEGIN
 90
        0
 91
        1
 62
     0
 92
       -2
340
0
 93
        0
 40
0.045
309
GRIDFORMAT_END
 95
       16
302
GRIDFORMAT
  1
GRIDFORMAT_BEGIN
 90
        0
 91
        1
 62
     0
 92
       -2
340
0
 93
        0
 40
0.045
309
GRIDFORMAT_END
 95
       32
302
GRIDFORMAT
  1
GRIDFORMAT_BEGIN
 90
        0
 91
        1
 62
     0
 92
       -2
340
0
 93
        0
 40
0.045
309
GRIDFORMAT_END
309
TABLEFORMAT_END
  1
CELLSTYLE_BEGIN
 90
        2
 91
        1
300
_HEADER
309
CELLSTYLE_END
300
CELLSTYLE
  1
TABLEFORMAT_BEGIN
 90
        5
170
     1
 91
        0
 92
        0
 62
   257
 93
        1
300
CONTENTFORMAT
  1
CONTENTFORMAT_BEGIN
 90
        0
 91
        0
 92
      512
 93
        0
300

 40
0.0
140
1.0
 94
        2
 62
     0
340
11
144
0.18
309
CONTENTFORMAT_END
171
     1
301
MARGIN
  1
CELLMARGIN_BEGIN
 40
0.06
 40
0.06
 40
0.06
 40
0.06
 40
0.18
 40
0.18
309
CELLMARGIN_END
 94
        6
 95
        1
302
GRIDFORMAT
  1
GRIDFORMAT_BEGIN
 90
        0
 91
        1
 62
     0
 92
       -2
340
0
 93
        0
 40
0.045
309
GRIDFORMAT_END
 95
        2
302
GRIDFORMAT
  1
GRIDFORMAT_BEGIN
 90
        0
 91
        1
 62
     0
 92
       -2
340
0
 93
        0
 40
0.045
309
GRIDFORMAT_END
 95
        4
302
GRIDFORMAT
  1
GRIDFORMAT_BEGIN
 90
        0
 91
        1
 62
     0
 92
       -2
340
0
 93
        0
 40
0.045
309
GRIDFORMAT_END
 95
        8
302
GRIDFORMAT
  1
GRIDFORMAT_BEGIN
 90
        0
 91
        1
 62
     0
 92
       -2
340
0
 93
        0
 40
0.045
309
GRIDFORMAT_END
 95
       16
302
GRIDFORMAT
  1
GRIDFORMAT_BEGIN
 90
        0
 91
        1
 62
     0
 92
       -2
340
0
 93
        0
 40
0.045
309
GRIDFORMAT_END
 95
       32
302
GRIDFORMAT
  1
GRIDFORMAT_BEGIN
 90
        0
 91
        1
 62
     0
 92
       -2
340
0
 93
        0
 40
0.045
309
GRIDFORMAT_END
309
TABLEFORMAT_END
  1
CELLSTYLE_BEGIN
 90
        3
 91
        2
300
_DATA
309
CELLSTYLE_END
  0
ENDSEC
  0
EOF
