  0
SECTION
  2
HEADER
  9
$ACADVER
  1
AC1021
  9
$ACADMAINTVER
 70
    25
  9
$DWGCODEPAGE
  3
ANSI_936
  9
$LASTSAVEDBY
  1
14609
  9
$INSBASE
 10
0.0
 20
0.0
 30
0.0
  9
$EXTMIN
 10
531.0145825243231
 20
184.1768297936648
 30
0.0
  9
$EXTMAX
 10
679.5139576665757
 20
289.1768299845588
 30
0.0
  9
$LIMMIN
 10
0.0
 20
0.0
  9
$LIMMAX
 10
12.0
 20
9.0
  9
$ORTHOMODE
 70
     0
  9
$REGENMODE
 70
     1
  9
$FILLMODE
 70
     1
  9
$QTEXTMODE
 70
     0
  9
$MIRRTEXT
 70
     1
  9
$LTSCALE
 40
1.0
  9
$ATTMODE
 70
     1
  9
$TEXTSIZE
 40
0.2
  9
$TRACEWID
 40
0.05
  9
$TEXTSTYLE
  7
Standard
  9
$CLAYER
  8
DIM
  9
$CELTYPE
  6
ByLayer
  9
$CECOLOR
 62
   256
  9
$CELTSCALE
 40
1.0
  9
$DISPSILH
 70
     0
  9
$DIMSCALE
 40
1.0
  9
$DIMASZ
 40
1.5
  9
$DIMEXO
 40
0.2
  9
$DIMDLI
 40
0.2
  9
$DIMRND
 40
0.0
  9
$DIMDLE
 40
0.0
  9
$DIMEXE
 40
0.3
  9
$DIMTP
 40
0.0
  9
$DIMTM
 40
0.0
  9
$DIMTXT
 40
2.0
  9
$DIMCEN
 40
0.0
  9
$DIMTSZ
 40
0.0
  9
$DIMTOL
 70
     0
  9
$DIMLIM
 70
     0
  9
$DIMTIH
 70
     0
  9
$DIMTOH
 70
     0
  9
$DIMSE1
 70
     0
  9
$DIMSE2
 70
     0
  9
$DIMTAD
 70
     1
  9
$DIMZIN
 70
     8
  9
$DIMBLK
  1

  9
$DIMASO
 70
     1
  9
$DIMSHO
 70
     1
  9
$DIMPOST
  1

  9
$DIMAPOST
  1

  9
$DIMALT
 70
     0
  9
$DIMALTD
 70
     2
  9
$DIMALTF
 40
25.4
  9
$DIMLFAC
 40
1.0
  9
$DIMTOFL
 70
     0
  9
$DIMTVP
 40
0.0
  9
$DIMTIX
 70
     0
  9
$DIMSOXD
 70
     0
  9
$DIMSAH
 70
     0
  9
$DIMBLK1
  1

  9
$DIMBLK2
  1

  9
$DIMSTYLE
  2
01
  9
$DIMCLRD
 70
     1
  9
$DIMCLRE
 70
     6
  9
$DIMCLRT
 70
     4
  9
$DIMTFAC
 40
1.0
  9
$DIMGAP
 40
0.3
  9
$DIMJUST
 70
     0
  9
$DIMSD1
 70
     0
  9
$DIMSD2
 70
     0
  9
$DIMTOLJ
 70
     1
  9
$DIMTZIN
 70
     0
  9
$DIMALTZ
 70
     0
  9
$DIMALTTZ
 70
     0
  9
$DIMUPT
 70
     0
  9
$DIMDEC
 70
     1
  9
$DIMTDEC
 70
     1
  9
$DIMALTU
 70
     2
  9
$DIMALTTD
 70
     2
  9
$DIMTXSTY
  7
Romans字体
  9
$DIMAUNIT
 70
     0
  9
$DIMADEC
 70
     2
  9
$DIMALTRND
 40
0.0
  9
$DIMAZIN
 70
     2
  9
$DIMDSEP
 70
    46
  9
$DIMATFIT
 70
     3
  9
$DIMFRAC
 70
     0
  9
$DIMLDRBLK
  1

  9
$DIMLUNIT
 70
     2
  9
$DIMLWD
 70
    -2
  9
$DIMLWE
 70
    -2
  9
$DIMTMOVE
 70
     0
  9
$DIMFXL
 40
1.0
  9
$DIMFXLON
 70
     0
  9
$DIMJOGANG
 40
0.7853981633974483
  9
$DIMTFILL
 70
     0
  9
$DIMTFILLCLR
 70
     0
  9
$DIMARCSYM
 70
     0
  9
$DIMLTYPE
  6

  9
$DIMLTEX1
  6

  9
$DIMLTEX2
  6

  9
$LUNITS
 70
     2
  9
$LUPREC
 70
     4
  9
$SKETCHINC
 40
0.1
  9
$FILLETRAD
 40
0.5
  9
$AUNITS
 70
     0
  9
$AUPREC
 70
     0
  9
$MENU
  1
.
  9
$ELEVATION
 40
0.0
  9
$PELEVATION
 40
0.0
  9
$THICKNESS
 40
0.0
  9
$LIMCHECK
 70
     0
  9
$CHAMFERA
 40
0.5
  9
$CHAMFERB
 40
0.5
  9
$CHAMFERC
 40
1.0
  9
$CHAMFERD
 40
0.0
  9
$SKPOLY
 70
     0
  9
$TDCREATE
 40
2456524.383632987
  9
$TDUCREATE
 40
2456524.050299653
  9
$TDUPDATE
 40
2460346.562757049
  9
$TDUUPDATE
 40
2460346.229423715
  9
$TDINDWG
 40
1.5356422454
  9
$TDUSRTIMER
 40
1.5356197685
  9
$USRTIMER
 70
     1
  9
$ANGBASE
 50
0.0
  9
$ANGDIR
 70
     0
  9
$PDMODE
 70
     0
  9
$PDSIZE
 40
0.0
  9
$PLINEWID
 40
0.0
  9
$SPLFRAME
 70
     0
  9
$SPLINETYPE
 70
     6
  9
$SPLINESEGS
 70
     8
  9
$HANDSEED
  5
1CBA5
  9
$SURFTAB1
 70
     6
  9
$SURFTAB2
 70
     6
  9
$SURFTYPE
 70
     6
  9
$SURFU
 70
     6
  9
$SURFV
 70
     6
  9
$UCSBASE
  2

  9
$UCSNAME
  2

  9
$UCSORG
 10
0.0
 20
0.0
 30
0.0
  9
$UCSXDIR
 10
1.0
 20
0.0
 30
0.0
  9
$UCSYDIR
 10
0.0
 20
1.0
 30
0.0
  9
$UCSORTHOREF
  2

  9
$UCSORTHOVIEW
 70
     0
  9
$UCSORGTOP
 10
0.0
 20
0.0
 30
0.0
  9
$UCSORGBOTTOM
 10
0.0
 20
0.0
 30
0.0
  9
$UCSORGLEFT
 10
0.0
 20
0.0
 30
0.0
  9
$UCSORGRIGHT
 10
0.0
 20
0.0
 30
0.0
  9
$UCSORGFRONT
 10
0.0
 20
0.0
 30
0.0
  9
$UCSORGBACK
 10
0.0
 20
0.0
 30
0.0
  9
$PUCSBASE
  2

  9
$PUCSNAME
  2

  9
$PUCSORG
 10
0.0
 20
0.0
 30
0.0
  9
$PUCSXDIR
 10
1.0
 20
0.0
 30
0.0
  9
$PUCSYDIR
 10
0.0
 20
1.0
 30
0.0
  9
$PUCSORTHOREF
  2

  9
$PUCSORTHOVIEW
 70
     0
  9
$PUCSORGTOP
 10
0.0
 20
0.0
 30
0.0
  9
$PUCSORGBOTTOM
 10
0.0
 20
0.0
 30
0.0
  9
$PUCSORGLEFT
 10
0.0
 20
0.0
 30
0.0
  9
$PUCSORGRIGHT
 10
0.0
 20
0.0
 30
0.0
  9
$PUCSORGFRONT
 10
0.0
 20
0.0
 30
0.0
  9
$PUCSORGBACK
 10
0.0
 20
0.0
 30
0.0
  9
$USERI1
 70
     0
  9
$USERI2
 70
     0
  9
$USERI3
 70
     0
  9
$USERI4
 70
     0
  9
$USERI5
 70
     0
  9
$USERR1
 40
0.0
  9
$USERR2
 40
0.0
  9
$USERR3
 40
0.0
  9
$USERR4
 40
0.0
  9
$USERR5
 40
0.0
  9
$WORLDVIEW
 70
     1
  9
$SHADEDGE
 70
     3
  9
$SHADEDIF
 70
    70
  9
$TILEMODE
 70
     1
  9
$MAXACTVP
 70
    64
  9
$PINSBASE
 10
0.0
 20
0.0
 30
0.0
  9
$PLIMCHECK
 70
     0
  9
$PEXTMIN
 10
1.000000000000000E+20
 20
1.000000000000000E+20
 30
1.000000000000000E+20
  9
$PEXTMAX
 10
-1.000000000000000E+20
 20
-1.000000000000000E+20
 30
-1.000000000000000E+20
  9
$PLIMMIN
 10
0.0
 20
0.0
  9
$PLIMMAX
 10
12.0
 20
9.0
  9
$UNITMODE
 70
     0
  9
$VISRETAIN
 70
     1
  9
$PLINEGEN
 70
     0
  9
$PSLTSCALE
 70
     1
  9
$TREEDEPTH
 70
  3020
  9
$CMLSTYLE
  2
Standard
  9
$CMLJUST
 70
     0
  9
$CMLSCALE
 40
1.0
  9
$PROXYGRAPHICS
 70
     1
  9
$MEASUREMENT
 70
     0
  9
$CELWEIGHT
370
    -1
  9
$ENDCAPS
280
     0
  9
$JOINSTYLE
280
     0
  9
$LWDISPLAY
290
     0
  9
$INSUNITS
 70
     4
  9
$HYPERLINKBASE
  1

  9
$STYLESHEET
  1
MONOCHROME.CTB
  9
$XEDIT
290
     1
  9
$CEPSNTYPE
380
     0
  9
$PSTYLEMODE
290
     1
  9
$FINGERPRINTGUID
  2
{4A02065B-8BB3-4A96-9036-502DC906C165}
  9
$VERSIONGUID
  2
{1556D3BB-C507-47E1-8C84-29A9D5D0280E}
  9
$EXTNAMES
290
     1
  9
$PSVPSCALE
 40
0.0
  9
$OLESTARTUP
290
     0
  9
$SORTENTS
280
   127
  9
$INDEXCTL
280
     0
  9
$HIDETEXT
280
     0
  9
$XCLIPFRAME
290
     0
  9
$HALOGAP
280
     0
  9
$OBSCOLOR
 70
   257
  9
$OBSLTYPE
280
     0
  9
$INTERSECTIONDISPLAY
280
     0
  9
$INTERSECTIONCOLOR
 70
   257
  9
$DIMASSOC
280
     1
  9
$PROJECTNAME
  1

  9
$CAMERADISPLAY
290
     0
  9
$LENSLENGTH
 40
50.0
  9
$CAMERAHEIGHT
 40
0.0
  9
$STEPSPERSEC
 40
2.0
  9
$STEPSIZE
 40
6.0
  9
$3DDWFPREC
 40
2.0
  9
$PSOLWIDTH
 40
0.25
  9
$PSOLHEIGHT
 40
4.0
  9
$LOFTANG1
 40
1.570796326794896
  9
$LOFTANG2
 40
1.570796326794896
  9
$LOFTMAG1
 40
0.0
  9
$LOFTMAG2
 40
0.0
  9
$LOFTPARAM
 70
     7
  9
$LOFTNORMALS
280
     1
  9
$LATITUDE
 40
37.795
  9
$LONGITUDE
 40
-122.394
  9
$NORTHDIRECTION
 40
0.0
  9
$TIMEZONE
 70
 -8000
  9
$LIGHTGLYPHDISPLAY
280
     1
  9
$TILEMODELIGHTSYNCH
280
     1
  9
$CMATERIAL
347
4FE6
  9
$SOLIDHIST
280
     1
  9
$SHOWHIST
280
     1
  9
$DWFFRAME
280
     2
  9
$DGNFRAME
280
     0
  9
$REALWORLDSCALE
290
     1
  9
$INTERFERECOLOR
 62
     1
  9
$INTERFEREOBJVS
345
33
  9
$INTERFEREVPVS
346
30
  9
$CSHADOW
280
     0
  9
$SHADOWPLANELOCATION
 40
0.0
  0
ENDSEC
  0
SECTION
  2
CLASSES
  0
CLASS
  1
ACDBDICTIONARYWDFLT
  2
AcDbDictionaryWithDefault
  3
ObjectDBX Classes
 90
        0
 91
        1
280
     0
281
     0
  0
CLASS
  1
VISUALSTYLE
  2
AcDbVisualStyle
  3
ObjectDBX Classes
 90
     4095
 91
       16
280
     0
281
     0
  0
CLASS
  1
MATERIAL
  2
AcDbMaterial
  3
ObjectDBX Classes
 90
     1153
 91
        3
280
     0
281
     0
  0
CLASS
  1
TABLESTYLE
  2
AcDbTableStyle
  3
ObjectDBX Classes
 90
     4095
 91
        1
280
     0
281
     0
  0
CLASS
  1
SCALE
  2
AcDbScale
  3
ObjectDBX Classes
 90
     1153
 91
       33
280
     0
281
     0
  0
CLASS
  1
MLEADERSTYLE
  2
AcDbMLeaderStyle
  3
ACDB_MLEADERSTYLE_CLASS
 90
     4095
 91
        1
280
     0
281
     0
  0
CLASS
  1
CELLSTYLEMAP
  2
AcDbCellStyleMap
  3
ObjectDBX Classes
 90
     1152
 91
        2
280
     0
281
     0
  0
CLASS
  1
DICTIONARYVAR
  2
AcDbDictionaryVar
  3
ObjectDBX Classes
 90
        0
 91
        8
280
     0
281
     0
  0
CLASS
  1
SORTENTSTABLE
  2
AcDbSortentsTable
  3
ObjectDBX Classes
 90
        0
 91
        1
280
     0
281
     0
  0
CLASS
  1
ACAD_EVALUATION_GRAPH
  2
AcDbEvalGraph
  3
ObjectDBX Classes
 90
     1153
 91
        0
280
     0
281
     0
  0
CLASS
  1
ACAECUSTOBJ
  2
AcAeEditorObj
  3
AcAeEditorObj
 90
     1024
 91
        0
280
     0
281
     0
  0
CLASS
  1
ACDB_DYNAMICBLOCKPURGEPREVENTER_VERSION
  2
AcDbDynamicBlockPurgePreventer
  3
ObjectDBX Classes
 90
     1153
 91
        0
280
     0
281
     0
  0
CLASS
  1
MENTALRAYRENDERSETTINGS
  2
AcDbMentalRayRenderSettings
  3
SCENEOE
 90
     1024
 91
        1
280
     0
281
     0
  0
CLASS
  1
ACDB_BLOCKREPRESENTATION_DATA
  2
AcDbBlockRepresentationData
  3
ObjectDBX Classes
 90
     1153
 91
        0
280
     0
281
     0
  0
CLASS
  1
DIMASSOC
  2
AcDbDimAssoc
  3
"AcDbDimAssoc|Product Desc:     AcDim ARX App For Dimension|Company:          Autodesk, Inc.|WEB Address:      www.autodesk.com"
 90
        0
 91
        7
280
     0
281
     0
  0
ENDSEC
  0
SECTION
  2
TABLES
  0
TABLE
  2
VPORT
  5
8
102
{ACAD_XDICTIONARY
360
50EE
102
}
330
0
100
AcDbSymbolTable
 70
     1
  0
VPORT
  5
29
330
8
100
AcDbSymbolTableRecord
100
AcDbViewportTableRecord
  2
*Active
 70
     0
 10
0.0
 20
0.0
 11
1.0
 21
1.0
 12
531.2832476834576
 22
85.50845304766761
 13
0.0
 23
0.0
 14
0.5
 24
0.5
 15
0.5
 25
0.5
 16
0.0
 26
0.0
 36
1.0
 17
104.9654968719086
 27
148.5022307685978
 37
0.0
 40
128.9346265045248
 41
1.967136150234741
 42
50.0
 43
0.0
 44
0.0
 50
0.0
 51
0.0
 71
     0
 72
   100
 73
     1
 74
     3
 75
     0
 76
     0
 77
     0
 78
     0
281
     0
 65
     1
110
0.0
120
0.0
130
0.0
111
1.0
121
0.0
131
0.0
112
0.0
122
1.0
132
0.0
 79
     0
146
0.0
348
2F
 60
     3
 61
     5
292
     1
282
     1
141
0.0
142
0.0
 63
   250
421
  3355443
  0
ENDTAB
  0
TABLE
  2
LTYPE
  5
5
330
0
100
AcDbSymbolTable
 70
     3
  0
LTYPE
  5
14
330
5
100
AcDbSymbolTableRecord
100
AcDbLinetypeTableRecord
  2
ByBlock
 70
     0
  3

 72
    65
 73
     0
 40
0.0
  0
LTYPE
  5
15
330
5
100
AcDbSymbolTableRecord
100
AcDbLinetypeTableRecord
  2
ByLayer
 70
     0
  3

 72
    65
 73
     0
 40
0.0
  0
LTYPE
  5
16
330
5
100
AcDbSymbolTableRecord
100
AcDbLinetypeTableRecord
  2
Continuous
 70
     0
  3
Solid line
 72
    65
 73
     0
 40
0.0
  0
LTYPE
  5
16179
330
5
100
AcDbSymbolTableRecord
100
AcDbLinetypeTableRecord
  2
CENTERX2
 70
     0
  3
Center (2x) ________  __  ________  __  _____
 72
    65
 73
     4
 40
4.0
 49
2.5
 74
     0
 49
-0.5
 74
     0
 49
0.5
 74
     0
 49
-0.5
 74
     0
  0
LTYPE
  5
1C844
330
5
100
AcDbSymbolTableRecord
100
AcDbLinetypeTableRecord
  2
CENTER
 70
     0
  3
____ _ ____ _ ____ _ ____ _ ____ _ ____ _ ____
 72
    65
 73
     4
 40
0.6
 49
0.375
 74
     0
 49
-0.075
 74
     0
 49
0.075
 74
     0
 49
-0.075
 74
     0
  0
ENDTAB
  0
TABLE
  2
LAYER
  5
2
102
{ACAD_XDICTIONARY
360
50B8
102
}
330
0
100
AcDbSymbolTable
 70
     9
  0
LAYER
  5
10
102
{ACAD_XDICTIONARY
360
50D0
102
}
330
2
100
AcDbSymbolTableRecord
100
AcDbLayerTableRecord
  2
0
 70
     0
 62
     7
  6
Continuous
370
    30
390
F
347
4FF6
  0
LAYER
  5
3B
102
{ACAD_XDICTIONARY
360
50D2
102
}
330
2
100
AcDbSymbolTableRecord
100
AcDbLayerTableRecord
  2
图层 1
 70
     0
 62
     7
  6
Continuous
370
    -3
390
F
347
4FF6
  0
LAYER
  5
50AE
102
{ACAD_XDICTIONARY
360
50AF
102
}
330
2
100
AcDbSymbolTableRecord
100
AcDbLayerTableRecord
  2
图框
 70
     0
 62
     7
  6
Continuous
370
    20
390
F
347
4FF6
  0
LAYER
  5
5141
330
2
100
AcDbSymbolTableRecord
100
AcDbLayerTableRecord
  2
Defpoints
 70
     0
 62
     7
  6
Continuous
290
     0
370
    -3
390
F
347
4FF6
  0
LAYER
  5
5144
330
2
100
AcDbSymbolTableRecord
100
AcDbLayerTableRecord
  2
DIM
 70
     0
 62
     3
  6
Continuous
370
    15
390
F
347
4FF6
1001
AcAecLayerStandard
1000

1000

  0
LAYER
  5
52F3
330
2
100
AcDbSymbolTableRecord
100
AcDbLayerTableRecord
  2
打标文字
 70
     0
 62
     3
  6
Continuous
370
    20
390
F
347
4FF6
  0
LAYER
  5
11B6B
330
2
100
AcDbSymbolTableRecord
100
AcDbLayerTableRecord
  2
hat
 70
     0
 62
     6
  6
Continuous
370
    15
390
F
347
4FF6
1001
AcAecLayerStandard
1000

1000

  0
LAYER
  5
1BBEF
330
2
100
AcDbSymbolTableRecord
100
AcDbLayerTableRecord
  2
2
 70
     0
 62
     7
  6
Continuous
370
    -3
390
F
347
4FF6
  0
LAYER
  5
1C845
330
2
100
AcDbSymbolTableRecord
100
AcDbLayerTableRecord
  2
CEN
 70
     0
 62
     1
  6
CENTER
370
    13
390
F
347
4FF6
1001
AcAecLayerStandard
1000

1000

  0
ENDTAB
  0
TABLE
  2
STYLE
  5
3
330
0
100
AcDbSymbolTable
 70
     4
  0
STYLE
  5
11
330
3
100
AcDbSymbolTableRecord
100
AcDbTextStyleTableRecord
  2
Standard
 70
     0
 40
0.0
 41
0.75
 50
0.0
 71
     0
 42
0.2
  3

  4

1001
ACAD
1000
仿宋_GB2312
1071
    34353
  0
STYLE
  5
FD48
330
3
100
AcDbSymbolTableRecord
100
AcDbTextStyleTableRecord
  2
Romans字体
 70
     0
 40
0.0
 41
0.75
 50
0.0
 71
     0
 42
0.2
  3
romans.shx
  4

  0
STYLE
  5
11080
330
3
100
AcDbSymbolTableRecord
100
AcDbTextStyleTableRecord
  2
工程字
 70
     0
 40
0.0
 41
1.0
 50
0.0
 71
     0
 42
3.5
  3
gbenor.shx
  4
gbcbig.shx
  0
STYLE
  5
11081
330
3
100
AcDbSymbolTableRecord
100
AcDbTextStyleTableRecord
  2
Chinese
 70
     0
 40
0.0
 41
1.0
 50
0.0
 71
     0
 42
2.5
  3

  4

1001
ACAD
1000
PMingLiU
1071
    34834
  0
ENDTAB
  0
TABLE
  2
VIEW
  5
6
330
0
100
AcDbSymbolTable
 70
     0
  0
ENDTAB
  0
TABLE
  2
UCS
  5
7
330
0
100
AcDbSymbolTable
 70
     0
  0
ENDTAB
  0
TABLE
  2
APPID
  5
9
330
0
100
AcDbSymbolTable
 70
    19
  0
APPID
  5
12
330
9
100
AcDbSymbolTableRecord
100
AcDbRegAppTableRecord
  2
ACAD
 70
     0
  0
APPID
  5
5024
330
9
100
AcDbSymbolTableRecord
100
AcDbRegAppTableRecord
  2
ACAD_MLEADERVER
 70
     0
  0
APPID
  5
50B5
330
9
100
AcDbSymbolTableRecord
100
AcDbRegAppTableRecord
  2
AcDbDynamicBlockGUID
 70
     0
  0
APPID
  5
50B6
330
9
100
AcDbSymbolTableRecord
100
AcDbRegAppTableRecord
  2
AcDbBlockRepETag
 70
     0
  0
APPID
  5
50B7
330
9
100
AcDbSymbolTableRecord
100
AcDbRegAppTableRecord
  2
ACAD_PSEXT
 70
     0
  0
APPID
  5
50CF
330
9
100
AcDbSymbolTableRecord
100
AcDbRegAppTableRecord
  2
AcadAnnoPO
 70
     0
  0
APPID
  5
5146
330
9
100
AcDbSymbolTableRecord
100
AcDbRegAppTableRecord
  2
AcAecLayerStandard
 70
     0
  0
APPID
  5
5147
330
9
100
AcDbSymbolTableRecord
100
AcDbRegAppTableRecord
  2
ACAD_DSTYLE_DIMJAG
 70
     0
  0
APPID
  5
5148
330
9
100
AcDbSymbolTableRecord
100
AcDbRegAppTableRecord
  2
ACAD_DSTYLE_DIMTALN
 70
     0
  0
APPID
  5
52AD
330
9
100
AcDbSymbolTableRecord
100
AcDbRegAppTableRecord
  2
ACAUTHENVIRON
 70
     0
  0
APPID
  5
52B0
330
9
100
AcDbSymbolTableRecord
100
AcDbRegAppTableRecord
  2
AcDbDynamicBlockTrueName
 70
     0
  0
APPID
  5
67C6
330
9
100
AcDbSymbolTableRecord
100
AcDbRegAppTableRecord
  2
ACAD_EXEMPT_FROM_CAD_STANDARDS
 70
     0
  0
APPID
  5
6838
330
9
100
AcDbSymbolTableRecord
100
AcDbRegAppTableRecord
  2
ACAD_NAV_VCDISPLAY
 70
     0
  0
APPID
  5
70A9
330
9
100
AcDbSymbolTableRecord
100
AcDbRegAppTableRecord
  2
DCO15
 70
     0
  0
APPID
  5
8725
330
9
100
AcDbSymbolTableRecord
100
AcDbRegAppTableRecord
  2
AcDbBlockRepBTag
 70
     0
  0
APPID
  5
FE64
330
9
100
AcDbSymbolTableRecord
100
AcDbRegAppTableRecord
  2
ACAD_DSTYLE_DIMRADIAL_EXTENSION
 70
     0
  0
APPID
  5
FF93
330
9
100
AcDbSymbolTableRecord
100
AcDbRegAppTableRecord
  2
ACAD_DSTYLE_DIMBREAK
 70
     0
  0
APPID
  5
15463
330
9
100
AcDbSymbolTableRecord
100
AcDbRegAppTableRecord
  2
ACAD_DSTYLE_DIMINSPECT
 70
     0
  0
APPID
  5
1BBF2
330
9
100
AcDbSymbolTableRecord
100
AcDbRegAppTableRecord
  2
AcadAnnotative
 70
     0
  0
ENDTAB
  0
TABLE
  2
DIMSTYLE
  5
A
330
0
100
AcDbSymbolTable
 70
     2
100
AcDbDimStyleTable
 71
     2
340
5145
340
27
  0
DIMSTYLE
105
27
330
A
100
AcDbSymbolTableRecord
100
AcDbDimStyleTableRecord
  2
Standard
 70
     0
340
11
  0
DIMSTYLE
105
5145
102
{ACAD_REACTORS
330
1C974
330
1C977
330
1C97A
330
1C97D
330
1C980
330
1C983
330
1C986
330
1C989
102
}
330
A
100
AcDbSymbolTableRecord
100
AcDbDimStyleTableRecord
  2
01
 70
     0
 41
1.5
 42
0.2
 43
0.2
 44
0.3
 73
     0
 74
     0
 77
     1
 78
     8
 79
     2
140
2.0
141
0.0
147
0.3
176
     1
177
     6
178
     4
179
     2
271
     1
272
     1
340
FD48
1001
ACAD_DSTYLE_DIMJAG
1070
   388
1040
1.5
1001
ACAD_DSTYLE_DIMTALN
1070
   392
1070
     0
  0
ENDTAB
  0
TABLE
  2
BLOCK_RECORD
  5
1
330
0
100
AcDbSymbolTable
 70
    28
  0
BLOCK_RECORD
  5
1F
102
{ACAD_XDICTIONARY
360
67C0
102
}
330
1
100
AcDbSymbolTableRecord
100
AcDbBlockTableRecord
  2
*Model_Space
340
22
 70
     0
280
     1
281
     0
  0
BLOCK_RECORD
  5
1B
330
1
100
AcDbSymbolTableRecord
100
AcDbBlockTableRecord
  2
*Paper_Space
340
1E
 70
     0
280
     1
281
     0
  0
BLOCK_RECORD
  5
23
330
1
100
AcDbSymbolTableRecord
100
AcDbBlockTableRecord
  2
*Paper_Space0
340
26
 70
     0
280
     1
281
     0
  0
BLOCK_RECORD
  5
13E17
102
{ACAD_XDICTIONARY
360
1CB5C
102
}
330
1
100
AcDbSymbolTableRecord
100
AcDbBlockTableRecord
  2
A4图框-NEW
340
0
310
2800000020000000200000000100080000000000000400000000000000000000000000000000000000000000000080000080000000808000800000008000800080800000C0C0C000C0DCC000F0CAA6000020400000206000002080000020A0000020C0000020E00000400000004020000040400000406000004080000040A0
310
000040C0000040E00000600000006020000060400000606000006080000060A0000060C0000060E00000800000008020000080400000806000008080000080A0000080C0000080E00000A0000000A0200000A0400000A0600000A0800000A0A00000A0C00000A0E00000C0000000C0200000C0400000C0600000C0800000C0
310
A00000C0C00000C0E00000E0000000E0200000E0400000E0600000E0800000E0A00000E0C00000E0E00040000000400020004000400040006000400080004000A0004000C0004000E00040200000402020004020400040206000402080004020A0004020C0004020E000404000004040200040404000404060004040800040
310
40A0004040C0004040E00040600000406020004060400040606000406080004060A0004060C0004060E00040800000408020004080400040806000408080004080A0004080C0004080E00040A0000040A0200040A0400040A0600040A0800040A0A00040A0C00040A0E00040C0000040C0200040C0400040C0600040C08000
310
40C0A00040C0C00040C0E00040E0000040E0200040E0400040E0600040E0800040E0A00040E0C00040E0E00080000000800020008000400080006000800080008000A0008000C0008000E00080200000802020008020400080206000802080008020A0008020C0008020E00080400000804020008040400080406000804080
310
008040A0008040C0008040E00080600000806020008060400080606000806080008060A0008060C0008060E00080800000808020008080400080806000808080008080A0008080C0008080E00080A0000080A0200080A0400080A0600080A0800080A0A00080A0C00080A0E00080C0000080C0200080C0400080C0600080C0
310
800080C0A00080C0C00080C0E00080E0000080E0200080E0400080E0600080E0800080E0A00080E0C00080E0E000C0000000C0002000C0004000C0006000C0008000C000A000C000C000C000E000C0200000C0202000C0204000C0206000C0208000C020A000C020C000C020E000C0400000C0402000C0404000C0406000C0
310
408000C040A000C040C000C040E000C0600000C0602000C0604000C0606000C0608000C060A000C060C000C060E000C0800000C0802000C0804000C0806000C0808000C080A000C080C000C080E000C0A00000C0A02000C0A04000C0A06000C0A08000C0A0A000C0A0C000C0A0E000C0C00000C0C02000C0C04000C0C06000
310
C0C08000C0C0A000F0FBFF00A4A0A000808080000000FF0000FF000000FFFF00FF000000FF00FF00FFFF0000FFFFFF0000000000000000000000000000000000000000000000000000000000000000000000000000000000000000000000000000000000000000000000000000000000000000000000000000000000000000
310
000000000000000000000000000000000000000000000000000000000000000000000000000000000000000000000000000000000000000000000000000000000000000000000000000000000000000000000000000000000000000000000000000000000000000000000000000000000000F9F9F9F9F9F9F9F9F9F9F9F9F9
310
F9F9F9F9F9F9F9F9F9F9F9F9F9F9FF00000000F9FF000000000000000000FFFFFFFFFFFFFFFFFFFFFFFFF9FAFAFAFF00000000F9FF000000000000000000FFFFFFFFFFFFFFFFFFFFFFFFFFFFFFFFFF00000000F9FD000000000000000000FFFFFFFFFFFFFFFFFFFFFFFFFFFFFFFFFF00000000F9FF000000000000000000FF
310
FFFFFFFFFFFFFFFFFFFFFFFFFFFFFFFF00000000F9FD000000000000000000FFFFFFFFFFFFFFFFFFFFFFFFFFFFFFFFFF00000000F9FF00000000000000000000000000000000000000000000000000FF00000000F9FD00000000000000000000000000000000000000000000000000FF00000000F9FF000000000000000000
310
00000000000000000000000000000000FF00000000F9FD00000000000000000000000000000000000000000000000000FF00000000F9FF00000000000000000000000000000000000000000000000000FF00000000F9FD00000000000000000000000000000000000000000000000000FF00000000F9FD0000000000000000
310
0000000000000000000000000000000000FF00000000F9FF00000000000000000000000000000000000000000000000000FF00000000F9FD00000000000000000000000000000000000000000000000000FF00000000F9FF00000000000000000000000000000000000000000000000000FF00000000F9FD00000000000000
310
000000000000000000000000000000000000FF00000000F9FF00000000000000000000000000000000000000000000000000FF00000000F9FFFFFFFFFFFFFFFFFFFFFFFFFFFFFFFFFFFFFFFFFFFFFFFFFFFFFF00000000F9FFFFFFF9F9F9F9F9F9F9F9F9F9F9F9F9F9F9F9F9F9F9F9F9F9F9F9000000000000000000000000
310
00000000000000000000000000000000000000000000000000000000000000000000000000000000000000000000000000000000000000000000000000000000000000000000000000000000000000000000000000000000000000000000000000000000000000000000000000000000000000000000000000000000000000
310
0000000000000000000000000000000000000000000000000000000000000000000000000000000000000000000000000000000000000000
102
{BLKREFS
331
1556A
102
}
 70
     4
280
     1
281
     0
1001
AcDbDynamicBlockGUID
1000
{E10FD823-45BB-4A40-BE44-C4A02FF91951}
1001
AcDbBlockRepETag
1070
     1
1071
      149
  0
BLOCK_RECORD
  5
1C7B5
330
1
100
AcDbSymbolTableRecord
100
AcDbBlockTableRecord
  2
*X11
340
0
102
{BLKREFS
331
1C91E
102
}
 70
     0
280
     1
281
     0
  0
BLOCK_RECORD
  5
1C996
330
1
100
AcDbSymbolTableRecord
100
AcDbBlockTableRecord
  2
*D20
340
0
 70
     0
280
     1
281
     0
  0
BLOCK_RECORD
  5
1C9A2
330
1
100
AcDbSymbolTableRecord
100
AcDbBlockTableRecord
  2
*D21
340
0
 70
     0
280
     1
281
     0
  0
BLOCK_RECORD
  5
1C9AE
330
1
100
AcDbSymbolTableRecord
100
AcDbBlockTableRecord
  2
*D22
340
0
 70
     0
280
     1
281
     0
  0
BLOCK_RECORD
  5
1C9BA
330
1
100
AcDbSymbolTableRecord
100
AcDbBlockTableRecord
  2
*D23
340
0
 70
     0
280
     1
281
     0
  0
BLOCK_RECORD
  5
1C9C6
330
1
100
AcDbSymbolTableRecord
100
AcDbBlockTableRecord
  2
*D24
340
0
 70
     0
280
     1
281
     0
  0
BLOCK_RECORD
  5
1C9D2
330
1
100
AcDbSymbolTableRecord
100
AcDbBlockTableRecord
  2
*D25
340
0
 70
     0
280
     1
281
     0
  0
BLOCK_RECORD
  5
1C9DE
330
1
100
AcDbSymbolTableRecord
100
AcDbBlockTableRecord
  2
*D26
340
0
 70
     0
280
     1
281
     0
  0
BLOCK_RECORD
  5
1C9EA
330
1
100
AcDbSymbolTableRecord
100
AcDbBlockTableRecord
  2
*D27
340
0
 70
     0
280
     1
281
     0
  0
ENDTAB
  0
ENDSEC
  0
SECTION
  2
BLOCKS
  0
BLOCK
  5
20
330
1F
100
AcDbEntity
  8
0
100
AcDbBlockBegin
  2
*Model_Space
 70
     0
 10
0.0
 20
0.0
 30
0.0
  3
*Model_Space
  1

  0
ENDBLK
  5
21
330
1F
100
AcDbEntity
  8
0
100
AcDbBlockEnd
  0
BLOCK
  5
1C
330
1B
100
AcDbEntity
 67
     1
  8
0
100
AcDbBlockBegin
  2
*Paper_Space
 70
     0
 10
0.0
 20
0.0
 30
0.0
  3
*Paper_Space
  1

  0
ENDBLK
  5
1D
330
1B
100
AcDbEntity
 67
     1
  8
0
100
AcDbBlockEnd
  0
BLOCK
  5
24
330
23
100
AcDbEntity
 67
     1
  8
0
100
AcDbBlockBegin
  2
*Paper_Space0
 70
     0
 10
0.0
 20
0.0
 30
0.0
  3
*Paper_Space0
  1

  0
ENDBLK
  5
25
330
23
100
AcDbEntity
 67
     1
  8
0
100
AcDbBlockEnd
  0
BLOCK
  5
13E19
330
13E17
100
AcDbEntity
  8
0
100
AcDbBlockBegin
  2
A4图框-NEW
 70
     0
 10
0.0
 20
0.0
 30
0.0
  3
A4图框-NEW
  1

  0
MTEXT
  5
1CAC7
102
{ACAD_XDICTIONARY
360
1CB8D
102
}
330
13E17
100
AcDbEntity
  8
图框
 62
     3
100
AcDbMText
 10
967.6594956750133
 20
499.7664151964293
 30
0.0
 40
2.985513575034151
 41
15.50176341157864
 46
6.292658374511018
 71
     5
 72
     5
  1
BQ LUO
  7
Romans字体
 73
     1
 44
1.0
1001
AcDbBlockRepETag
1070
     1
1071
        0
1005
1CAC7
1001
ACAD
1000
ACAD_MTEXT_DEFINED_HEIGHT_BEGIN
1070
    46
1040
6.292658374511018
1000
ACAD_MTEXT_DEFINED_HEIGHT_END
  0
MTEXT
  5
1CAC8
330
13E17
100
AcDbEntity
  8
图框
 62
     3
100
AcDbMText
 10
983.041569333247
 20
499.7664151964293
 30
0.0
 40
2.487927979195124
 41
15.26238390489062
 46
6.292658374511042
 71
     5
 72
     5
  1
{\W0.7;18.10.2010}
  7
Romans字体
 73
     1
 44
1.0
1001
AcDbBlockRepETag
1070
     1
1071
        1
1005
1CAC8
1001
ACAD
1000
ACAD_MTEXT_DEFINED_HEIGHT_BEGIN
1070
    46
1040
6.292658374511042
1000
ACAD_MTEXT_DEFINED_HEIGHT_END
  0
MTEXT
  5
1CAC9
330
13E17
100
AcDbEntity
  8
图框
 62
     3
100
AcDbMText
 10
1012.477254728976
 20
487.1810984474071
 30
0.0
 40
2.985513575034151
 41
17.64876416884615
 46
6.292658374511455
 71
     5
 72
     5
  1
YY LIN
  7
Romans字体
 73
     1
 44
1.0
1001
AcDbBlockRepETag
1070
     1
1071
        2
1005
1CAC9
1001
ACAD
1000
ACAD_MTEXT_DEFINED_HEIGHT_BEGIN
1070
    46
1040
6.292658374511455
1000
ACAD_MTEXT_DEFINED_HEIGHT_END
  0
MTEXT
  5
1CACA
330
13E17
100
AcDbEntity
  8
图框
 62
     3
100
AcDbMText
 10
1028.977802139886
 20
487.1810984474071
 30
0.0
 40
2.487927979195124
 41
15.35233065297276
 46
6.292658374511495
 71
     5
 72
     5
  1
{\W0.7;18.10.2010}
  7
Romans字体
 73
     1
 44
1.0
1001
AcDbBlockRepETag
1070
     1
1071
        3
1005
1CACA
1001
ACAD
1000
ACAD_MTEXT_DEFINED_HEIGHT_BEGIN
1070
    46
1040
6.292658374511495
1000
ACAD_MTEXT_DEFINED_HEIGHT_END
  0
MTEXT
  5
1CACB
330
13E17
100
AcDbEntity
  8
图框
 62
     3
100
AcDbMText
 10
1063.722665487208
 20
525.4145966538831
 30
0.0
 40
2.985513575034151
 41
32.4973914334545
 46
11.82914190181707
 71
     5
 72
     5
  1
-
  7
Romans字体
 73
     1
 44
1.0
1001
AcDbBlockRepETag
1070
     1
1071
        4
1005
1CACB
1001
ACAD
1000
ACAD_MTEXT_DEFINED_HEIGHT_BEGIN
1070
    46
1040
11.82914190181707
1000
ACAD_MTEXT_DEFINED_HEIGHT_END
  0
MTEXT
  5
1CACC
330
13E17
100
AcDbEntity
  8
图框
 62
     3
100
AcDbMText
 10
1063.727338552349
 20
513.5854547520641
 30
0.0
 40
2.985513575034151
 41
32.48804530317308
 46
11.82914190182139
 71
     5
 72
     5
  1
-
  7
Romans字体
 73
     1
 44
1.0
1001
AcDbBlockRepETag
1070
     1
1071
        5
1005
1CACC
1001
ACAD
1000
ACAD_MTEXT_DEFINED_HEIGHT_BEGIN
1070
    46
1040
11.82914190182139
1000
ACAD_MTEXT_DEFINED_HEIGHT_END
  0
MTEXT
  5
1CACD
330
13E17
100
AcDbEntity
  8
图框
 62
     3
100
AcDbMText
 10
1110.122306614152
 20
526.8006839312707
 30
0.0
 40
2.985513575034151
 41
33.61239199242139
 46
9.05696734704178
 71
     5
 72
     5
  1
-
  7
Romans字体
 73
     1
 44
1.0
1001
AcDbBlockRepETag
1070
     1
1071
        6
1005
1CACD
1001
ACAD
1000
ACAD_MTEXT_DEFINED_HEIGHT_BEGIN
1070
    46
1040
9.05696734704178
1000
ACAD_MTEXT_DEFINED_HEIGHT_END
  0
MTEXT
  5
1CACE
330
13E17
100
AcDbEntity
  8
图框
 62
     3
100
AcDbMText
 10
1110.122306614152
 20
500.2775205517162
 30
0.0
 40
2.985513575034151
 41
33.61239199242139
 46
8.871557304763419
 71
     5
 72
     5
  1
-
  7
Romans字体
 73
     1
 44
1.0
1001
AcDbBlockRepETag
1070
     1
1071
        7
1005
1CACE
1001
ACAD
1000
ACAD_MTEXT_DEFINED_HEIGHT_BEGIN
1070
    46
1040
8.871557304763419
1000
ACAD_MTEXT_DEFINED_HEIGHT_END
  0
MTEXT
  5
1CACF
330
13E17
100
AcDbEntity
  8
图框
 62
     3
100
AcDbMText
 10
967.6594956750133
 20
493.4737568219182
 30
0.0
 40
2.985513575034151
 41
15.50176341157864
 46
6.292658374510335
 71
     5
 72
     5
  1
P RAO
  7
Romans字体
 73
     1
 44
1.0
1001
AcDbBlockRepETag
1070
     1
1071
        8
1005
1CACF
1001
ACAD
1000
ACAD_MTEXT_DEFINED_HEIGHT_BEGIN
1070
    46
1040
6.292658374510335
1000
ACAD_MTEXT_DEFINED_HEIGHT_END
  0
MTEXT
  5
1CAD0
330
13E17
100
AcDbEntity
  8
图框
 62
     3
100
AcDbMText
 10
983.041569333247
 20
493.2441970450405
 30
0.0
 40
2.487927979195124
 41
15.26238390489051
 46
6.751777928266487
 71
     5
 72
     5
  1
{\W0.7;18.10.2010}
  7
Romans字体
 73
     1
 44
1.0
1001
AcDbBlockRepETag
1070
     1
1071
        9
1005
1CAD0
1001
ACAD
1000
ACAD_MTEXT_DEFINED_HEIGHT_BEGIN
1070
    46
1040
6.751777928266487
1000
ACAD_MTEXT_DEFINED_HEIGHT_END
  0
MTEXT
  5
1CAD1
330
13E17
100
AcDbEntity
  8
图框
 62
     3
100
AcDbMText
 10
1012.477254728976
 20
499.7664151964291
 30
0.0
 40
2.985513575034151
 41
17.64876416884615
 46
6.292658374511397
 71
     5
 72
     5
  1
-
  7
Romans字体
 73
     1
 44
1.0
1001
AcDbBlockRepETag
1070
     1
1071
       10
1005
1CAD1
1001
ACAD
1000
ACAD_MTEXT_DEFINED_HEIGHT_BEGIN
1070
    46
1040
6.292658374511397
1000
ACAD_MTEXT_DEFINED_HEIGHT_END
  0
MTEXT
  5
1CAD2
330
13E17
100
AcDbEntity
  8
图框
 62
     3
100
AcDbMText
 10
1028.977802139886
 20
499.7664151964289
 30
0.0
 40
2.487927979195124
 41
15.35233065297265
 46
6.292658374511382
 71
     5
 72
     5
  1
-
  7
Romans字体
 73
     1
 44
1.0
1001
AcDbBlockRepETag
1070
     1
1071
       11
1005
1CAD2
1001
ACAD
1000
ACAD_MTEXT_DEFINED_HEIGHT_BEGIN
1070
    46
1040
6.292658374511382
1000
ACAD_MTEXT_DEFINED_HEIGHT_END
  0
MTEXT
  5
1CAD3
330
13E17
100
AcDbEntity
  8
图框
 62
     3
100
AcDbMText
 10
967.6594956750133
 20
487.1810984474071
 30
0.0
 40
2.985513575034151
 41
15.50176341157863
 46
6.292658374511478
 71
     5
 72
     5
  1
-
  7
Romans字体
 73
     1
 44
1.0
1001
AcDbBlockRepETag
1070
     1
1071
       12
1005
1CAD3
1001
ACAD
1000
ACAD_MTEXT_DEFINED_HEIGHT_BEGIN
1070
    46
1040
6.292658374511478
1000
ACAD_MTEXT_DEFINED_HEIGHT_END
  0
MTEXT
  5
1CAD4
330
13E17
100
AcDbEntity
  8
图框
 62
     3
100
AcDbMText
 10
983.041569333247
 20
487.1810984474071
 30
0.0
 40
2.487927979195124
 41
15.26238390489062
 46
6.292658374511495
 71
     5
 72
     5
  1
-
  7
Romans字体
 73
     1
 44
1.0
1001
AcDbBlockRepETag
1070
     1
1071
       13
1005
1CAD4
1001
ACAD
1000
ACAD_MTEXT_DEFINED_HEIGHT_BEGIN
1070
    46
1040
6.292658374511495
1000
ACAD_MTEXT_DEFINED_HEIGHT_END
  0
MTEXT
  5
1CAD5
330
13E17
100
AcDbEntity
  8
图框
 62
     3
100
AcDbMText
 10
1074.556686986741
 20
495.8417418993361
 30
0.0
 40
2.985513575034151
 41
10.82934843438978
 46
7.886094601210427
 71
     5
 72
     5
  1
-
  7
Romans字体
 73
     1
 44
1.0
1001
AcDbBlockRepETag
1070
     1
1071
       14
1005
1CAD5
1001
ACAD
1000
ACAD_MTEXT_DEFINED_HEIGHT_BEGIN
1070
    46
1040
7.886094601210427
1000
ACAD_MTEXT_DEFINED_HEIGHT_END
  0
LINE
  5
1CAD6
330
13E17
100
AcDbEntity
  8
图框
370
    -3
100
AcDbLine
 10
1036.653967466372
 20
499.7847891999413
 30
0.0
 11
1079.971361203936
 21
499.7847891999413
 31
0.0
1001
AcDbBlockRepETag
1070
     1
1071
       15
1005
1CAD6
  0
MTEXT
  5
1CAD7
330
13E17
100
AcDbEntity
  8
图框
 62
     1
370
    20
100
AcDbMText
 10
1108.26336443907
 20
491.5162596080882
 30
0.0
 40
2.699054613030988
 41
82.30831305643079
 46
0.0
 71
     5
 72
     5
  1
{\fSimHei|b0|i0|c134|p2;厦门唯恩电气有限公司}
 73
     1
 44
1.0
1001
AcDbBlockRepETag
1070
     1
1071
       16
1005
1CAD7
  0
MTEXT
  5
1CAD8
330
13E17
100
AcDbEntity
  8
图框
 62
     3
370
    20
100
AcDbMText
 10
1108.435451459908
 20
487.298967726064
 30
0.0
 40
1.652482416141417
 41
68.08558693693567
 46
0.0
 71
     5
 72
     5
  1
{\fArial Narrow|b0|i0|c0|p34;XIAMEN WAIN ELECTRICAL CO.LTD}
  7
工程字
 73
     1
 44
1.0
1001
AcDbBlockRepETag
1070
     1
1071
       17
1005
1CAD8
  0
MTEXT
  5
1CAD9
330
13E17
100
AcDbEntity
  8
图框
 62
     1
370
    20
100
AcDbMText
 10
1085.711816899387
 20
491.0944802995856
 30
0.0
 40
2.005930044038334
 41
5.047240019334847
 46
0.0
 71
     1
 72
     5
  1
{\fArial|b0|i0|c0|p34;A}
  7
Chinese
 73
     1
 44
1.0
1001
AcDbBlockRepETag
1070
     1
1071
       18
1005
1CAD9
  0
MTEXT
  5
1CADA
330
13E17
100
AcDbEntity
  8
图框
 62
     1
370
    20
100
AcDbMText
 10
1088.213485935716
 20
491.0944802995856
 30
0.0
 40
2.005930044038334
 41
5.047240019334847
 46
0.0
 71
     1
 72
     5
  1
{\fArial|b0|i0|c0|p34;I}
  7
Chinese
 73
     1
 44
1.0
1001
AcDbBlockRepETag
1070
     1
1071
       19
1005
1CADA
  0
MTEXT
  5
1CADB
330
13E17
100
AcDbEntity
  8
图框
 62
     1
370
    20
100
AcDbMText
 10
1089.142375222864
 20
491.0822866326808
 30
0.0
 40
2.005930044038334
 41
5.047240019334847
 46
0.0
 71
     1
 72
     5
  1
{\fArial|b0|i0|c0|p34;N}
  7
Chinese
 73
     1
 44
1.0
1001
AcDbBlockRepETag
1070
     1
1071
       20
1005
1CADB
  0
MTEXT
  5
1CADC
330
13E17
100
AcDbEntity
  8
图框
100
AcDbMText
 10
1069.142012769545
 20
487.9667319294409
 30
0.0
 40
2.252848170144607
 41
21.65869686878327
 46
7.863925338579296
 71
     5
 72
     5
  1
{\W0.5;\C1;All Dimensions in mm\POriginal Size DIN A 4}
  7
Romans字体
 73
     1
 44
1.0
1001
AcDbBlockRepETag
1070
     1
1071
       21
1005
1CADC
1001
ACAD
1000
ACAD_MTEXT_DEFINED_HEIGHT_BEGIN
1070
    46
1040
7.863925338579296
1000
ACAD_MTEXT_DEFINED_HEIGHT_END
  0
MTEXT
  5
1CADD
330
13E17
100
AcDbEntity
  8
图框
  6
ByBlock
 62
     6
370
    18
100
AcDbMText
 10
1127.40434942308
 20
508.7896535755975
 30
0.0
 40
2.651776162684904
 41
2.557913877927211
 46
0.0
 71
     1
 72
     5
  1
A
  7
Romans字体
 11
0.0000000000000001
 21
1.0
 31
0.0
 73
     1
 44
1.0
1001
AcDbBlockRepETag
1070
     1
1071
       22
1005
1CADD
  0
MTEXT
  5
1CADE
330
13E17
100
AcDbEntity
  8
图框
 62
     6
100
AcDbMText
 10
1127.40434942308
 20
556.3746573232886
 30
0.0
 40
2.651776162684904
 41
2.557913877927211
 46
0.0
 71
     1
 72
     5
  1
B
  7
Romans字体
 11
0.0000000000000001
 21
1.0
 31
0.0
 73
     1
 44
1.0
1001
AcDbBlockRepETag
1070
     1
1071
       23
1005
1CADE
  0
MTEXT
  5
1CADF
330
13E17
100
AcDbEntity
  8
图框
 62
     6
100
AcDbMText
 10
1127.40434942308
 20
607.5539372630998
 30
0.0
 40
2.651776162684904
 41
2.557913877927211
 46
0.0
 71
     1
 72
     5
  1
C
  7
Romans字体
 11
0.0000000000000001
 21
1.0
 31
0.0
 73
     1
 44
1.0
1001
AcDbBlockRepETag
1070
     1
1071
       24
1005
1CADF
  0
MTEXT
  5
1CAE0
330
13E17
100
AcDbEntity
  8
图框
 62
     6
100
AcDbMText
 10
1127.40434942308
 20
658.7332172029115
 30
0.0
 40
2.651776162684904
 41
2.557913877927211
 46
0.0
 71
     1
 72
     5
  1
D
  7
Romans字体
 11
0.0000000000000001
 21
1.0
 31
0.0
 73
     1
 44
1.0
1001
AcDbBlockRepETag
1070
     1
1071
       25
1005
1CAE0
  0
LINE
  5
1CAE1
330
13E17
100
AcDbEntity
  8
图框
 62
     6
100
AcDbLine
 10
1130.411601781241
 20
634.0726090796082
 30
0.0
 11
1126.928502610363
 21
634.0726090796082
 31
0.0
1001
AcDbBlockRepETag
1070
     1
1071
       26
1005
1CAE1
  0
LINE
  5
1CAE2
330
13E17
100
AcDbEntity
  8
图框
 62
     6
100
AcDbLine
 10
1130.411601781241
 20
582.89332913979
 30
0.0
 11
1126.928502610363
 21
582.89332913979
 31
0.0
1001
AcDbBlockRepETag
1070
     1
1071
       27
1005
1CAE2
  0
MTEXT
  5
1CAE3
330
13E17
100
AcDbEntity
  8
图框
 62
     6
100
AcDbMText
 10
1105.329704038389
 20
483.6164543011163
 30
0.0
 40
2.651776162684904
 41
2.557913877927211
 46
0.0
 71
     1
 72
     5
  1
6
  7
Romans字体
 73
     1
 44
1.0
1001
AcDbBlockRepETag
1070
     1
1071
       28
1005
1CAE3
  0
LINE
  5
1CAE4
330
13E17
100
AcDbEntity
  8
图框
 62
     6
100
AcDbLine
 10
1081.088565155284
 20
484.0347692601515
 30
0.0
 11
1081.088565155284
 21
480.5347692601475
 31
0.0
1001
AcDbBlockRepETag
1070
     1
1071
       29
1005
1CAE4
  0
MTEXT
  5
1CAE5
330
13E17
100
AcDbEntity
  8
图框
 62
     6
100
AcDbMText
 10
1055.900596365941
 20
483.520053108993
 30
0.0
 40
2.651776162684904
 41
2.557913877927211
 46
0.0
 71
     1
 72
     5
  1
5
  7
Romans字体
 73
     1
 44
1.0
1001
AcDbBlockRepETag
1070
     1
1071
       30
1005
1CAE5
  0
LINE
  5
1CAE6
330
13E17
100
AcDbEntity
  8
图框
 62
     6
100
AcDbLine
 10
1031.553386436349
 20
484.0347692601515
 30
0.0
 11
1031.553386436349
 21
480.5347692601475
 31
0.0
1001
AcDbBlockRepETag
1070
     1
1071
       31
1005
1CAE6
  0
MTEXT
  5
1CAE7
330
13E17
100
AcDbEntity
  8
图框
 62
     6
100
AcDbMText
 10
1006.383180575197
 20
483.5687958215896
 30
0.0
 40
2.651776162684904
 41
2.557913877927211
 46
0.0
 71
     1
 72
     5
  1
4
  7
Romans字体
 73
     1
 44
1.0
1001
AcDbBlockRepETag
1070
     1
1071
       32
1005
1CAE7
  0
LINE
  5
1CAE8
330
13E17
100
AcDbEntity
  8
图框
 62
     6
100
AcDbLine
 10
982.0182077173887
 20
484.0347692601515
 30
0.0
 11
982.0182077173887
 21
480.5347692601475
 31
0.0
1001
AcDbBlockRepETag
1070
     1
1071
       33
1005
1CAE8
  0
MTEXT
  5
1CAE9
330
13E17
100
AcDbEntity
  8
图框
 62
     6
100
AcDbMText
 10
956.8302389280352
 20
483.5989680297948
 30
0.0
 40
2.651776162684904
 41
2.557913877927211
 46
0.0
 71
     1
 72
     5
  1
3
  7
Romans字体
 73
     1
 44
1.0
1001
AcDbBlockRepETag
1070
     1
1071
       34
1005
1CAE9
  0
LINE
  5
1CAEA
330
13E17
100
AcDbEntity
  8
图框
 62
     6
100
AcDbLine
 10
932.4830289984245
 20
484.0347692601515
 30
0.0
 11
932.4830289984245
 21
480.5347692601475
 31
0.0
1001
AcDbBlockRepETag
1070
     1
1071
       35
1005
1CAEA
  0
MTEXT
  5
1CAEB
330
13E17
100
AcDbEntity
  8
图框
 62
     6
100
AcDbMText
 10
906.0252349826365
 20
483.6475250013156
 30
0.0
 40
2.651776162684904
 41
2.557913877927211
 46
0.0
 71
     1
 72
     5
  1
2
  7
Romans字体
 73
     1
 44
1.0
1001
AcDbBlockRepETag
1070
     1
1071
       36
1005
1CAEB
  0
LINE
  5
1CAEC
330
13E17
100
AcDbEntity
  8
图框
 62
     6
100
AcDbLine
 10
882.9478502794648
 20
484.0347692601515
 30
0.0
 11
882.9478502794648
 21
480.5347692601475
 31
0.0
1001
AcDbBlockRepETag
1070
     1
1071
       37
1005
1CAEC
  0
MTEXT
  5
1CAED
330
13E17
100
AcDbEntity
  8
图框
 62
     6
100
AcDbMText
 10
857.7598814901191
 20
483.651829494754
 30
0.0
 40
2.651776162684904
 41
2.557913877927211
 46
0.0
 71
     1
 72
     5
  1
1
  7
Romans字体
 73
     1
 44
1.0
1001
AcDbBlockRepETag
1070
     1
1071
       38
1005
1CAED
  0
LINE
  5
1CAEE
330
13E17
100
AcDbEntity
  8
图框
370
    50
100
AcDbLine
 10
836.8548209370597
 20
484.0347692601515
 30
0.0
 11
1126.928502610363
 21
484.0347692601515
 31
0.0
1001
AcDbBlockRepETag
1070
     1
1071
       39
1005
1CAEE
  0
LINE
  5
1CAEF
330
13E17
100
AcDbEntity
  8
图框
370
    50
100
AcDbLine
 10
836.9128518455362
 20
484.0178684310246
 30
0.0
 11
836.9128518455394
 21
675.0207195125422
 31
0.0
1001
AcDbBlockRepETag
1070
     1
1071
       40
1005
1CAEF
  0
MTEXT
  5
1CAF0
330
13E17
100
AcDbEntity
  8
图框
 62
     6
100
AcDbMText
 10
833.8475685789031
 20
658.7332172029115
 30
0.0
 40
2.651776162684904
 41
2.557913877927211
 46
0.0
 71
     1
 72
     5
  1
D
  7
Romans字体
 11
0.0000000000000001
 21
1.0
 31
0.0
 73
     1
 44
1.0
1001
AcDbBlockRepETag
1070
     1
1071
       41
1005
1CAF0
  0
LINE
  5
1CAF1
330
13E17
100
AcDbEntity
  8
图框
 62
     6
100
AcDbLine
 10
836.9128518455386
 20
634.0726090796082
 30
0.0
 11
833.4128518455365
 21
634.0726090796082
 31
0.0
1001
AcDbBlockRepETag
1070
     1
1071
       42
1005
1CAF1
  0
MTEXT
  5
1CAF2
330
13E17
100
AcDbEntity
  8
图框
 62
     6
100
AcDbMText
 10
833.9039177480142
 20
607.5539372630998
 30
0.0
 40
2.651776162684904
 41
2.557913877927211
 46
0.0
 71
     1
 72
     5
  1
C
  7
Romans字体
 11
0.0000000000000001
 21
1.0
 31
0.0
 73
     1
 44
1.0
1001
AcDbBlockRepETag
1070
     1
1071
       43
1005
1CAF2
  0
LINE
  5
1CAF3
330
13E17
100
AcDbEntity
  8
图框
 62
     6
100
AcDbLine
 10
836.9128518455378
 20
582.89332913979
 30
0.0
 11
833.4128518455365
 21
582.89332913979
 31
0.0
1001
AcDbBlockRepETag
1070
     1
1071
       44
1005
1CAF3
  0
MTEXT
  5
1CAF4
330
13E17
100
AcDbEntity
  8
图框
 62
     6
100
AcDbMText
 10
833.9039177480142
 20
556.3746573232886
 30
0.0
 40
2.651776162684904
 41
2.557913877927211
 46
0.0
 71
     1
 72
     5
  1
B
  7
Romans字体
 11
0.0000000000000001
 21
1.0
 31
0.0
 73
     1
 44
1.0
1001
AcDbBlockRepETag
1070
     1
1071
       45
1005
1CAF4
  0
LINE
  5
1CAF5
330
13E17
100
AcDbEntity
  8
图框
 62
     6
100
AcDbLine
 10
836.9128518455367
 20
531.714049199969
 30
0.0
 11
833.4128518455365
 21
531.714049199969
 31
0.0
1001
AcDbBlockRepETag
1070
     1
1071
       46
1005
1CAF5
  0
MTEXT
  5
1CAF6
330
13E17
100
AcDbEntity
  8
图框
 62
     6
100
AcDbMText
 10
833.9039177480142
 20
508.7896535755975
 30
0.0
 40
2.651776162684904
 41
2.557913877927211
 46
0.0
 71
     1
 72
     5
  1
A
  7
Romans字体
 11
0.0000000000000001
 21
1.0
 31
0.0
 73
     1
 44
1.0
1001
AcDbBlockRepETag
1070
     1
1071
       47
1005
1CAF6
  0
LINE
  5
1CAF7
330
13E17
100
AcDbEntity
  8
图框
370
    -3
100
AcDbLine
 10
836.9128518455394
 20
675.0207195125422
 30
0.0
 11
836.9128518455394
 21
684.5021384922564
 31
0.0
1001
AcDbBlockRepETag
1070
     1
1071
       48
1005
1CAF7
  0
LINE
  5
1CAF8
330
13E17
100
AcDbEntity
  8
图框
370
    -3
100
AcDbLine
 10
842.6237321475781
 20
675.5347692601515
 30
0.0
 11
842.6237321475781
 21
685.0161882398658
 31
0.0
1001
AcDbBlockRepETag
1070
     1
1071
       49
1005
1CAF8
  0
LINE
  5
1CAF9
330
13E17
100
AcDbEntity
  8
图框
370
    -3
100
AcDbLine
 10
848.3346124496179
 20
675.5347692601515
 30
0.0
 11
848.3346124496179
 21
685.0161882398658
 31
0.0
1001
AcDbBlockRepETag
1070
     1
1071
       50
1005
1CAF9
  0
LINE
  5
1CAFA
330
13E17
100
AcDbEntity
  8
图框
370
    -3
100
AcDbLine
 10
854.0454927516588
 20
675.5347692601515
 30
0.0
 11
854.0454927516588
 21
685.0161882398658
 31
0.0
1001
AcDbBlockRepETag
1070
     1
1071
       51
1005
1CAFA
  0
LINE
  5
1CAFB
330
13E17
100
AcDbEntity
  8
图框
370
    -3
100
AcDbLine
 10
861.5351874539182
 20
675.5347692601515
 30
0.0
 11
861.5351874539182
 21
686.7901958362482
 31
0.0
1001
AcDbBlockRepETag
1070
     1
1071
       52
1005
1CAFB
  0
MTEXT
  5
1CAFC
330
13E17
100
AcDbEntity
  8
图框
 62
     6
100
AcDbMText
 10
1105.329704038389
 20
678.859919059449
 30
0.0
 40
2.651776162684904
 41
2.557913877927211
 46
0.0
 71
     1
 72
     5
  1
6
  7
Romans字体
 73
     1
 44
1.0
1001
AcDbBlockRepETag
1070
     1
1071
       53
1005
1CAFC
  0
LINE
  5
1CAFD
330
13E17
100
AcDbEntity
  8
图框
 62
     6
100
AcDbLine
 10
1081.088565155284
 20
679.0347692601516
 30
0.0
 11
1081.088565155284
 21
675.5347692601515
 31
0.0
1001
AcDbBlockRepETag
1070
     1
1071
       54
1005
1CAFD
  0
MTEXT
  5
1CAFE
330
13E17
100
AcDbEntity
  8
图框
 62
     6
100
AcDbMText
 10
1055.900596365941
 20
678.859919059449
 30
0.0
 40
2.651776162684904
 41
2.557913877927211
 46
0.0
 71
     1
 72
     5
  1
5
  7
Romans字体
 73
     1
 44
1.0
1001
AcDbBlockRepETag
1070
     1
1071
       55
1005
1CAFE
  0
LINE
  5
1CAFF
330
13E17
100
AcDbEntity
  8
图框
 62
     6
100
AcDbLine
 10
1031.553386436349
 20
679.0347692601516
 30
0.0
 11
1031.553386436349
 21
675.5347692601515
 31
0.0
1001
AcDbBlockRepETag
1070
     1
1071
       56
1005
1CAFF
  0
MTEXT
  5
1CB00
330
13E17
100
AcDbEntity
  8
图框
 62
     6
100
AcDbMText
 10
1006.36541764698
 20
678.7312083656147
 30
0.0
 40
2.651776162684904
 41
2.557913877927211
 46
0.0
 71
     1
 72
     5
  1
4
  7
Romans字体
 73
     1
 44
1.0
1001
AcDbBlockRepETag
1070
     1
1071
       57
1005
1CB00
  0
LINE
  5
1CB01
330
13E17
100
AcDbEntity
  8
图框
 62
     6
100
AcDbLine
 10
982.0182077173887
 20
679.0347692601516
 30
0.0
 11
982.0182077173887
 21
675.5347692601515
 31
0.0
1001
AcDbBlockRepETag
1070
     1
1071
       58
1005
1CB01
  0
MTEXT
  5
1CB02
330
13E17
100
AcDbEntity
  8
图框
 62
     6
100
AcDbMText
 10
956.8302389280352
 20
678.859919059449
 30
0.0
 40
2.651776162684904
 41
2.557913877927211
 46
0.0
 71
     1
 72
     5
  1
3
  7
Romans字体
 73
     1
 44
1.0
1001
AcDbBlockRepETag
1070
     1
1071
       59
1005
1CB02
  0
LINE
  5
1CB03
330
13E17
100
AcDbEntity
  8
图框
 62
     6
100
AcDbLine
 10
932.4830289984245
 20
679.0347692601516
 30
0.0
 11
932.4830289984245
 21
675.5347692601515
 31
0.0
1001
AcDbBlockRepETag
1070
     1
1071
       60
1005
1CB03
  0
MTEXT
  5
1CB04
330
13E17
100
AcDbEntity
  8
图框
 62
     6
100
AcDbMText
 10
907.295060209082
 20
678.859919059449
 30
0.0
 40
2.651776162684904
 41
2.557913877927211
 46
0.0
 71
     1
 72
     5
  1
2
  7
Romans字体
 73
     1
 44
1.0
1001
AcDbBlockRepETag
1070
     1
1071
       61
1005
1CB04
  0
LINE
  5
1CB05
330
13E17
100
AcDbEntity
  8
图框
 62
     6
100
AcDbLine
 10
882.9478502794648
 20
678.7962435131815
 30
0.0
 11
882.9478502794648
 21
675.5347692601515
 31
0.0
1001
AcDbBlockRepETag
1070
     1
1071
       62
1005
1CB05
  0
MTEXT
  5
1CB06
330
13E17
100
AcDbEntity
  8
图框
 62
     6
100
AcDbMText
 10
862.6286629643733
 20
678.859919059449
 30
0.0
 40
2.651776162684904
 41
2.557913877927211
 46
0.0
 71
     1
 72
     5
  1
1
  7
Romans字体
 73
     1
 44
1.0
1001
AcDbBlockRepETag
1070
     1
1071
       63
1005
1CB06
  0
LINE
  5
1CB07
330
13E17
100
AcDbEntity
  8
图框
370
    -3
100
AcDbLine
 10
836.9128518455394
 20
675.0207195125422
 30
0.0
 11
836.9128518455394
 21
686.7901958362482
 31
0.0
1001
AcDbBlockRepETag
1070
     1
1071
       64
1005
1CB07
  0
LINE
  5
1CB08
330
13E17
100
AcDbEntity
  8
图框
370
    50
100
AcDbLine
 10
836.9128518455394
 20
675.5347692601515
 30
0.0
 11
1126.928502610363
 21
675.5347692601515
 31
0.0
1001
AcDbBlockRepETag
1070
     1
1071
       65
1005
1CB08
  0
LINE
  5
1CB09
330
13E17
100
AcDbEntity
  8
图框
370
    -3
100
AcDbLine
 10
842.6237321475781
 20
675.5347692601515
 30
0.0
 11
842.6237321475781
 21
686.7901958362482
 31
0.0
1001
AcDbBlockRepETag
1070
     1
1071
       66
1005
1CB09
  0
LINE
  5
1CB0A
330
13E17
100
AcDbEntity
  8
图框
370
    -3
100
AcDbLine
 10
848.3346124496179
 20
675.5347692601515
 30
0.0
 11
848.3346124496179
 21
686.7901958362482
 31
0.0
1001
AcDbBlockRepETag
1070
     1
1071
       67
1005
1CB0A
  0
MTEXT
  5
1CB0B
102
{ACAD_XDICTIONARY
360
1CB8F
102
}
330
13E17
100
AcDbEntity
  8
图框
100
AcDbMText
 10
857.7903401027889
 20
686.7901958362482
 30
0.0
 40
1.958998408821398
 41
11.25542657609672
 46
7.489694702258906
 71
     4
 72
     5
  1
\pi2.8203;档案员{\H0.7x;\P\pi1.4159;\Fromans|c134;Filing Clerk\fFangSong_GB2312|b0|i0|c134|p49; }
 11
-0.0000000000000002
 21
-1.0
 31
0.0
 73
     1
 44
1.0
1001
AcDbBlockRepETag
1070
     1
1071
       68
1005
1CB0B
1001
ACAD
1000
ACAD_MTEXT_DEFINED_HEIGHT_BEGIN
1070
    46
1040
7.489694702258906
1000
ACAD_MTEXT_DEFINED_HEIGHT_END
  0
MTEXT
  5
1CB0C
102
{ACAD_XDICTIONARY
360
1CB91
102
}
330
13E17
100
AcDbEntity
  8
图框
100
AcDbMText
 10
845.479172298598
 20
686.7901958362482
 30
0.0
 40
1.958998408821398
 41
11.25542657609672
 46
5.710880302039671
 71
     4
 72
     5
  1
\pi0.7115;日期{\Fromans|c134;/Date}
 11
-0.0000000000000002
 21
-1.0
 31
0.0
 73
     1
 44
1.0
1001
AcDbBlockRepETag
1070
     1
1071
       69
1005
1CB0C
1001
ACAD
1000
ACAD_MTEXT_DEFINED_HEIGHT_BEGIN
1070
    46
1040
5.710880302039671
1000
ACAD_MTEXT_DEFINED_HEIGHT_END
  0
LINE
  5
1CB0D
330
13E17
100
AcDbEntity
  8
图框
370
    -3
100
AcDbLine
 10
854.0454927516588
 20
675.5347692601515
 30
0.0
 11
854.0454927516588
 21
686.7901958362482
 31
0.0
1001
AcDbBlockRepETag
1070
     1
1071
       70
1005
1CB0D
  0
LINE
  5
1CB0E
330
13E17
100
AcDbEntity
  8
图框
370
    -3
100
AcDbLine
 10
1036.653967466372
 20
531.3291676047914
 30
0.0
 11
1036.653967466372
 21
484.0126019753161
 31
0.0
1001
AcDbBlockRepETag
1070
     1
1071
       71
1005
1CB0E
  0
LINE
  5
1CB0F
330
13E17
100
AcDbEntity
  8
图框
370
    -3
100
AcDbLine
 10
1047.483315900763
 20
507.6708838011533
 30
0.0
 11
1047.483315900763
 21
491.8986945987308
 31
0.0
1001
AcDbBlockRepETag
1070
     1
1071
       72
1005
1CB0F
  0
LINE
  5
1CB10
330
13E17
100
AcDbEntity
  8
图框
370
    -3
100
AcDbLine
 10
1058.312664335153
 20
507.6708838011533
 30
0.0
 11
1058.312664335153
 21
484.0347692601515
 31
0.0
1001
AcDbBlockRepETag
1070
     1
1071
       73
1005
1CB10
  0
LINE
  5
1CB11
330
13E17
100
AcDbEntity
  8
图框
370
    25
100
AcDbLine
 10
1048.474135214456
 20
488.1095628329926
 30
0.0
 11
1054.946420288459
 21
488.1095628329926
 31
0.0
1001
AcDbBlockRepETag
1070
     1
1071
       74
1005
1CB11
  0
LINE
  5
1CB12
330
13E17
100
AcDbEntity
  8
图框
370
    25
100
AcDbLine
 10
1054.232527365989
 20
487.0761716842634
 30
0.0
 11
1049.156490914508
 21
486.4576273751
 31
0.0
1001
AcDbBlockRepETag
1070
     1
1071
       75
1005
1CB12
  0
LINE
  5
1CB13
330
13E17
100
AcDbEntity
  8
图框
370
    25
100
AcDbLine
 10
1054.232527365989
 20
489.1429539817209
 30
0.0
 11
1049.156490914508
 21
489.7614982908846
 31
0.0
1001
AcDbBlockRepETag
1070
     1
1071
       76
1005
1CB13
  0
LINE
  5
1CB14
330
13E17
100
AcDbEntity
  8
图框
370
    25
100
AcDbLine
 10
1049.156490914508
 20
489.7614982908846
 30
0.0
 11
1049.156490914508
 21
486.4576273751
 31
0.0
1001
AcDbBlockRepETag
1070
     1
1071
       77
1005
1CB14
  0
LINE
  5
1CB15
330
13E17
100
AcDbEntity
  8
图框
370
    25
100
AcDbLine
 10
1054.232527365989
 20
489.1429539817209
 30
0.0
 11
1054.232527365989
 21
487.0761716842634
 31
0.0
1001
AcDbBlockRepETag
1070
     1
1071
       78
1005
1CB15
  0
CIRCLE
  5
1CB16
330
13E17
100
AcDbEntity
  8
图框
370
    25
100
AcDbCircle
 10
1042.502700458579
 20
488.1095628329926
 30
0.0
 40
1.651935457891863
1001
AcDbBlockRepETag
1070
     1
1071
       79
1005
1CB16
  0
CIRCLE
  5
1CB17
330
13E17
100
AcDbEntity
  8
图框
370
    25
100
AcDbCircle
 10
1042.502700458579
 20
488.1095628329926
 30
0.0
 40
1.033391148728775
1001
AcDbBlockRepETag
1070
     1
1071
       80
1005
1CB17
  0
LINE
  5
1CB18
330
13E17
100
AcDbEntity
  8
图框
370
    25
100
AcDbLine
 10
1040.136872078216
 20
488.1095628329926
 30
0.0
 11
1044.868528838943
 21
488.1095628329926
 31
0.0
1001
AcDbBlockRepETag
1070
     1
1071
       81
1005
1CB18
  0
LINE
  5
1CB19
330
13E17
100
AcDbEntity
  8
图框
370
    25
100
AcDbLine
 10
1042.502700458579
 20
490.475391213355
 30
0.0
 11
1042.502700458579
 21
485.743734452629
 31
0.0
1001
AcDbBlockRepETag
1070
     1
1071
       82
1005
1CB19
  0
LINE
  5
1CB1A
330
13E17
100
AcDbEntity
  8
图框
370
    -3
100
AcDbLine
 10
1069.142012769546
 20
507.6708838011533
 30
0.0
 11
1069.142012769546
 21
491.8986945987308
 31
0.0
1001
AcDbBlockRepETag
1070
     1
1071
       83
1005
1CB1A
  0
MTEXT
  5
1CB1B
330
13E17
100
AcDbEntity
  8
图框
100
AcDbMText
 10
1086.643735910939
 20
526.8006839312707
 30
0.0
 40
2.154898249703542
 41
13.34474941400573
 46
9.056967347041775
 71
     5
 72
     5
  1
图号{\Ftxt|c134;\P\Fromans|c134;\W0.65;Drawing No.}
 73
     1
 44
1.0
1001
AcDbBlockRepETag
1070
     1
1071
       84
1005
1CB1B
1001
ACAD
1000
ACAD_MTEXT_DEFINED_HEIGHT_BEGIN
1070
    46
1040
9.056967347041775
1000
ACAD_MTEXT_DEFINED_HEIGHT_END
  0
LINE
  5
1CB1C
330
13E17
100
AcDbEntity
  8
图框
370
    -3
100
AcDbLine
 10
1093.316110617942
 20
531.3291676047914
 30
0.0
 11
1093.316110617942
 21
495.8417418993347
 31
0.0
1001
AcDbBlockRepETag
1070
     1
1071
       85
1005
1CB1C
  0
LINE
  5
1CB1D
330
13E17
100
AcDbEntity
  8
图框
370
    -3
100
AcDbLine
 10
1047.473969770481
 20
531.3291676047914
 30
0.0
 11
1047.473969770481
 21
507.6708838011533
 31
0.0
1001
AcDbBlockRepETag
1070
     1
1071
       86
1005
1CB1D
  0
MTEXT
  5
1CB1E
330
13E17
100
AcDbEntity
  8
图框
100
AcDbMText
 10
1063.72733855235
 20
503.7278365005473
 30
0.0
 40
2.252848170144607
 41
10.82934843439208
 46
7.886094601212128
 71
     5
 72
     5
  1
重量\P{\Fromans|c134;Weight}
 73
     1
 44
1.0
1001
AcDbBlockRepETag
1070
     1
1071
       87
1005
1CB1E
1001
ACAD
1000
ACAD_MTEXT_DEFINED_HEIGHT_BEGIN
1070
    46
1040
7.886094601212128
1000
ACAD_MTEXT_DEFINED_HEIGHT_END
  0
LINE
  5
1CB1F
330
13E17
100
AcDbEntity
  8
图框
370
    -3
100
AcDbLine
 10
1036.653967466372
 20
519.5000257029746
 30
0.0
 11
1079.971361203936
 21
519.5000257029746
 31
0.0
1001
AcDbBlockRepETag
1070
     1
1071
       88
1005
1CB1F
  0
MTEXT
  5
1CB20
330
13E17
100
AcDbEntity
  8
图框
100
AcDbMText
 10
1074.556686986741
 20
503.7278365005473
 30
0.0
 40
2.252848170144607
 41
10.82934843438984
 46
7.886094601212141
 71
     5
 72
     5
  1
数量\P{\Fromans|c134;Qty.}
 73
     1
 44
1.0
1001
AcDbBlockRepETag
1070
     1
1071
       89
1005
1CB20
1001
ACAD
1000
ACAD_MTEXT_DEFINED_HEIGHT_BEGIN
1070
    46
1040
7.886094601212141
1000
ACAD_MTEXT_DEFINED_HEIGHT_END
  0
LINE
  5
1CB21
330
13E17
100
AcDbEntity
  8
图框
370
    -3
100
AcDbLine
 10
1079.971361203936
 20
495.8417418993347
 30
0.0
 11
1126.928502610363
 21
495.8417418993342
 31
0.0
1001
AcDbBlockRepETag
1070
     1
1071
       90
1005
1CB21
  0
LINE
  5
1CB22
330
13E17
100
AcDbEntity
  8
图框
370
    -3
100
AcDbLine
 10
1079.971361203936
 20
504.7132992040975
 30
0.0
 11
1126.928502610363
 21
504.7132992040975
 31
0.0
1001
AcDbBlockRepETag
1070
     1
1071
       91
1005
1CB22
  0
MTEXT
  5
1CB23
330
13E17
100
AcDbEntity
  8
图框
100
AcDbMText
 10
1052.893317052817
 20
503.7278365005473
 30
0.0
 40
2.252848170144607
 41
10.83869456467139
 46
7.886094601212101
 71
     5
 72
     5
  1
版本\P{\Fromans|c134;REV.}
 73
     1
 44
1.0
1001
AcDbBlockRepETag
1070
     1
1071
       92
1005
1CB23
1001
ACAD
1000
ACAD_MTEXT_DEFINED_HEIGHT_BEGIN
1070
    46
1040
7.886094601212101
1000
ACAD_MTEXT_DEFINED_HEIGHT_END
  0
MTEXT
  5
1CB24
330
13E17
100
AcDbEntity
  8
图框
100
AcDbMText
 10
1042.068641683568
 20
503.7278365005473
 30
0.0
 40
2.252848170144607
 41
10.8293484343908
 46
7.886094601212136
 71
     5
 72
     5
  1
比例\P{\Fromans|c134;Scale}
 73
     1
 44
1.0
1001
AcDbBlockRepETag
1070
     1
1071
       93
1005
1CB24
1001
ACAD
1000
ACAD_MTEXT_DEFINED_HEIGHT_BEGIN
1070
    46
1040
7.886094601212136
1000
ACAD_MTEXT_DEFINED_HEIGHT_END
  0
LINE
  5
1CB25
330
13E17
100
AcDbEntity
  8
图框
370
    -3
100
AcDbLine
 10
1036.653967466372
 20
507.6708838011533
 30
0.0
 11
1079.971361203936
 21
507.6708838011533
 31
0.0
1001
AcDbBlockRepETag
1070
     1
1071
       94
1005
1CB25
  0
LINE
  5
1CB26
330
13E17
100
AcDbEntity
  8
图框
370
    -3
100
AcDbLine
 10
1036.653967466372
 20
491.8986945987308
 30
0.0
 11
1079.971361203936
 21
491.8986945987308
 31
0.0
1001
AcDbBlockRepETag
1070
     1
1071
       95
1005
1CB26
  0
LINE
  5
1CB27
330
13E17
100
AcDbEntity
  8
图框
370
    -3
100
AcDbLine
 10
1079.971361203936
 20
531.3291676047914
 30
0.0
 11
1079.971361203936
 21
484.0125999975168
 31
0.0
1001
AcDbBlockRepETag
1070
     1
1071
       96
1005
1CB27
  0
MTEXT
  5
1CB28
330
13E17
100
AcDbEntity
  8
图框
100
AcDbMText
 10
1042.063968618426
 20
525.4145966538832
 30
0.0
 40
2.252848170144607
 41
10.82000230410933
 46
11.82914190181708
 71
     5
 72
     5
  1
表面处理\P{\Fromans|c134;Finish}
 73
     1
 44
1.0
1001
AcDbBlockRepETag
1070
     1
1071
       97
1005
1CB28
1001
ACAD
1000
ACAD_MTEXT_DEFINED_HEIGHT_BEGIN
1070
    46
1040
11.82914190181708
1000
ACAD_MTEXT_DEFINED_HEIGHT_END
  0
MTEXT
  5
1CB29
330
13E17
100
AcDbEntity
  8
图框
100
AcDbMText
 10
1042.063968618426
 20
513.5854547520639
 30
0.0
 40
2.252848170144607
 41
10.82000230410933
 46
11.8291419018212
 71
     5
 72
     5
  1
材料\P{\Fromans|c134;Material}
 73
     1
 44
1.0
1001
AcDbBlockRepETag
1070
     1
1071
       98
1005
1CB29
1001
ACAD
1000
ACAD_MTEXT_DEFINED_HEIGHT_BEGIN
1070
    46
1040
11.8291419018212
1000
ACAD_MTEXT_DEFINED_HEIGHT_END
  0
LINE
  5
1CB2A
330
13E17
100
AcDbEntity
  8
图框
370
    -3
100
AcDbLine
 10
1079.971361203936
 20
522.27220025775
 30
0.0
 11
1126.928502610363
 21
522.27220025775
 31
0.0
1001
AcDbBlockRepETag
1070
     1
1071
       99
1005
1CB2A
  0
LINE
  5
1CB2B
330
13E17
100
AcDbEntity
  8
图框
370
    -3
100
AcDbLine
 10
1079.971361203936
 20
513.5854547520641
 30
0.0
 11
1126.928502610363
 21
513.5854547520639
 31
0.0
1001
AcDbBlockRepETag
1070
     1
1071
      100
1005
1CB2B
  0
MTEXT
  5
1CB2C
330
13E17
100
AcDbEntity
  8
图框
100
AcDbMText
 10
1086.643735910939
 20
517.9288275049072
 30
0.0
 40
1.958998408821398
 41
13.34474941400573
 46
8.686745505685811
 71
     5
 72
     5
  1
产品代号\P{\Fromans|c134;Part Code}
 73
     1
 44
1.0
1001
AcDbBlockRepETag
1070
     1
1071
      101
1005
1CB2C
1001
ACAD
1000
ACAD_MTEXT_DEFINED_HEIGHT_BEGIN
1070
    46
1040
8.686745505685811
1000
ACAD_MTEXT_DEFINED_HEIGHT_END
  0
LINE
  5
1CB2D
330
13E17
100
AcDbEntity
  8
图框
370
    -3
100
AcDbLine
 10
946.9285026103634
 20
525.7982263931411
 30
0.0
 11
1036.653967466372
 21
525.7982263931411
 31
0.0
1001
AcDbBlockRepETag
1070
     1
1071
      102
1005
1CB2D
  0
LINE
  5
1CB2E
330
13E17
100
AcDbEntity
  8
图框
370
    -3
100
AcDbLine
 10
946.9285026103634
 20
520.2672851814959
 30
0.0
 11
1036.653967466372
 21
520.2672851814959
 31
0.0
1001
AcDbBlockRepETag
1070
     1
1071
      103
1005
1CB2E
  0
LINE
  5
1CB2F
330
13E17
100
AcDbEntity
  8
图框
370
    35
100
AcDbLine
 10
946.9285026103634
 20
531.3291676047914
 30
0.0
 11
1126.928502610363
 21
531.3291676047914
 31
0.0
1001
AcDbBlockRepETag
1070
     1
1071
      104
1005
1CB2F
  0
LINE
  5
1CB30
330
13E17
100
AcDbEntity
  8
图框
370
    -3
100
AcDbLine
 10
990.6727612856927
 20
509.2054027581959
 30
0.0
 11
990.6727612856927
 21
484.0347692601515
 31
0.0
1001
AcDbBlockRepETag
1070
     1
1071
      105
1005
1CB30
  0
MTEXT
  5
1CB31
102
{ACAD_XDICTIONARY
360
1CB93
102
}
330
13E17
100
AcDbEntity
  8
图框
100
AcDbMText
 10
997.1628169651232
 20
499.816589978722
 30
0.0
 40
2.252848170144607
 41
12.98011135886052
 46
6.19230880992475
 71
     5
 72
     5
  1
{\fSimSun|b0|i0|c134|p2;标准化}\PStand.
  7
Romans字体
 73
     1
 44
1.0
1001
AcDbBlockRepETag
1070
     1
1071
      106
1005
1CB31
1001
ACAD
1000
ACAD_MTEXT_DEFINED_HEIGHT_BEGIN
1070
    46
1040
6.19230880992475
1000
ACAD_MTEXT_DEFINED_HEIGHT_END
  0
LINE
  5
1CB32
330
13E17
100
AcDbEntity
  8
图框
370
    -3
100
AcDbLine
 10
975.4103773808022
 20
509.2054027581959
 30
0.0
 11
975.4103773808022
 21
484.0347692601515
 31
0.0
1001
AcDbBlockRepETag
1070
     1
1071
      107
1005
1CB32
  0
MTEXT
  5
1CB33
330
13E17
100
AcDbEntity
  8
图框
100
AcDbMText
 10
984.5089229802068
 20
511.9708733640202
 30
0.0
 40
2.448748011026752
 41
38.287899328693
 46
5.530941211648832
 71
     5
 72
     5
  1
  变更描述{\Fromans|c134;/Description}
 73
     1
 44
1.0
1001
AcDbBlockRepETag
1070
     1
1071
      108
1005
1CB33
1001
ACAD
1000
ACAD_MTEXT_DEFINED_HEIGHT_BEGIN
1070
    46
1040
5.530941211648832
1000
ACAD_MTEXT_DEFINED_HEIGHT_END
  0
MTEXT
  5
1CB34
102
{ACAD_XDICTIONARY
360
1CB95
102
}
330
13E17
100
AcDbEntity
  8
图框
100
AcDbMText
 10
1012.477254728976
 20
511.9708733640202
 30
0.0
 40
1.958998408821398
 41
17.64876416884548
 46
5.530941211649166
 71
     5
 72
     5
  1
签名\P{\Fromans|c134;Signature} 
 73
     1
 44
1.0
1001
AcDbBlockRepETag
1070
     1
1071
      109
1005
1CB34
1001
ACAD
1000
ACAD_MTEXT_DEFINED_HEIGHT_BEGIN
1070
    46
1040
5.530941211649166
1000
ACAD_MTEXT_DEFINED_HEIGHT_END
  0
MTEXT
  5
1CB35
102
{ACAD_XDICTIONARY
360
1CB97
102
}
330
13E17
100
AcDbEntity
  8
图框
100
AcDbMText
 10
960.7558556394856
 20
511.9708733640202
 30
0.0
 40
1.958998408821398
 41
9.218235352749283
 46
5.530941211648841
 71
     5
 72
     5
  1
处数\P{\Fromans|c134;Number }
 73
     1
 44
1.0
1001
AcDbBlockRepETag
1070
     1
1071
      110
1005
1CB35
1001
ACAD
1000
ACAD_MTEXT_DEFINED_HEIGHT_BEGIN
1070
    46
1040
5.530941211648841
1000
ACAD_MTEXT_DEFINED_HEIGHT_END
  0
LINE
  5
1CB36
330
13E17
100
AcDbEntity
  8
图框
370
    -3
100
AcDbLine
 10
946.9285026103634
 20
514.7363439698449
 30
0.0
 11
1036.653967466372
 21
514.7363439698449
 31
0.0
1001
AcDbBlockRepETag
1070
     1
1071
      111
1005
1CB36
  0
LINE
  5
1CB37
330
13E17
100
AcDbEntity
  8
图框
370
    -3
100
AcDbLine
 10
946.9285026103634
 20
509.2054027581959
 30
0.0
 11
1036.653967466372
 21
509.2054027581959
 31
0.0
1001
AcDbBlockRepETag
1070
     1
1071
      112
1005
1CB37
  0
LINE
  5
1CB38
330
13E17
100
AcDbEntity
  8
图框
370
    -3
100
AcDbLine
 10
946.9285026103634
 20
502.9127443836848
 30
0.0
 11
1036.653967466372
 21
502.9127443836848
 31
0.0
1001
AcDbBlockRepETag
1070
     1
1071
      113
1005
1CB38
  0
LINE
  5
1CB39
330
13E17
100
AcDbEntity
  8
图框
370
    -3
100
AcDbLine
 10
946.9285026103634
 20
496.620086009173
 30
0.0
 11
1036.653967466372
 21
496.620086009173
 31
0.0
1001
AcDbBlockRepETag
1070
     1
1071
      114
1005
1CB39
  0
LINE
  5
1CB3A
330
13E17
100
AcDbEntity
  8
图框
370
    35
380
     1
100
AcDbLine
 10
946.9285026103634
 20
531.3291676047914
 30
0.0
 11
946.9285026103634
 21
484.0347692601515
 31
0.0
1001
AcDbBlockRepETag
1070
     1
1071
      115
1005
1CB3A
  0
LINE
  5
1CB3B
330
13E17
100
AcDbEntity
  8
图框
370
    -3
100
AcDbLine
 10
1021.301636813399
 20
531.3291676047914
 30
0.0
 11
1021.301636813399
 21
484.0347692601515
 31
0.0
1001
AcDbBlockRepETag
1070
     1
1071
      116
1005
1CB3B
  0
LINE
  5
1CB3C
330
13E17
100
AcDbEntity
  8
图框
370
    -3
100
AcDbLine
 10
1003.652872644553
 20
531.3291676047914
 30
0.0
 11
1003.652872644553
 21
484.0347692601515
 31
0.0
1001
AcDbBlockRepETag
1070
     1
1071
      117
1005
1CB3C
  0
LINE
  5
1CB3D
330
13E17
100
AcDbEntity
  8
图框
370
    -3
100
AcDbLine
 10
965.3649733158603
 20
531.3291676047914
 30
0.0
 11
965.3649733158603
 21
509.2054027581959
 31
0.0
1001
AcDbBlockRepETag
1070
     1
1071
      118
1005
1CB3D
  0
LINE
  5
1CB3E
330
13E17
100
AcDbEntity
  8
图框
370
    -3
100
AcDbLine
 10
956.1467379631109
 20
531.3291676047914
 30
0.0
 11
956.1467379631109
 21
509.2054027581959
 31
0.0
1001
AcDbBlockRepETag
1070
     1
1071
      119
1005
1CB3E
  0
MTEXT
  5
1CB3F
102
{ACAD_XDICTIONARY
360
1CB99
102
}
330
13E17
100
AcDbEntity
  8
图框
100
AcDbMText
 10
951.537620286737
 20
511.9708733640202
 30
0.0
 40
1.958998408821398
 41
9.218235352747692
 46
5.530941211648832
 71
     5
 72
     5
  1
标记\P{\Fromans|c134;Mark}
 73
     1
 44
1.0
1001
AcDbBlockRepETag
1070
     1
1071
      120
1005
1CB3F
1001
ACAD
1000
ACAD_MTEXT_DEFINED_HEIGHT_BEGIN
1070
    46
1040
5.530941211648832
1000
ACAD_MTEXT_DEFINED_HEIGHT_END
  0
MTEXT
  5
1CB40
102
{ACAD_XDICTIONARY
360
1CB9B
102
}
330
13E17
100
AcDbEntity
  8
图框
100
AcDbMText
 10
953.4185582897936
 20
493.4737568219182
 30
0.0
 40
2.252848170144607
 41
12.98011135886041
 46
6.292658374510382
 71
     5
 72
     5
  1
审核\P{\Fromans|c134;Checked}
 73
     1
 44
1.0
1001
AcDbBlockRepETag
1070
     1
1071
      121
1005
1CB40
1001
ACAD
1000
ACAD_MTEXT_DEFINED_HEIGHT_BEGIN
1070
    46
1040
6.292658374510382
1000
ACAD_MTEXT_DEFINED_HEIGHT_END
  0
MTEXT
  5
1CB41
102
{ACAD_XDICTIONARY
360
1CB9D
102
}
330
13E17
100
AcDbEntity
  8
图框
100
AcDbMText
 10
953.4185582897936
 20
499.8775635376777
 30
0.0
 40
2.252848170144607
 41
12.98011135886041
 46
6.070361692014189
 71
     5
 72
     5
  1
绘图\P{\Fromans|c134;Drawn\Ftxt|c134; }
 73
     1
 44
1.0
1001
AcDbBlockRepETag
1070
     1
1071
      122
1005
1CB41
1001
ACAD
1000
ACAD_MTEXT_DEFINED_HEIGHT_BEGIN
1070
    46
1040
6.070361692014189
1000
ACAD_MTEXT_DEFINED_HEIGHT_END
  0
ARC
  5
1CB42
330
13E17
100
AcDbEntity
  8
图框
 62
     4
370
    35
100
AcDbCircle
 10
1086.900627017421
 20
490.0179944151195
 30
0.0
 40
4.063310408393665
100
AcDbArc
 50
18.95237904564806
 51
161.0476209543519
1001
AcDbBlockRepETag
1070
     1
1071
      123
1005
1CB42
  0
ARC
  5
1CB43
330
13E17
100
AcDbEntity
  8
图框
 62
     4
370
    35
100
AcDbCircle
 10
1086.900627017421
 20
490.0179944151195
 30
0.0
 40
4.063310408393665
100
AcDbArc
 50
198.952379045648
 51
341.0476209543519
1001
AcDbBlockRepETag
1070
     1
1071
      124
1005
1CB43
  0
LINE
  5
1CB44
330
13E17
100
AcDbEntity
  8
图框
 62
     4
370
    35
100
AcDbLine
 10
1083.057593369548
 20
488.6983035966752
 30
0.0
 11
1090.74366066529
 21
488.6983035966752
 31
0.0
1001
AcDbBlockRepETag
1070
     1
1071
      125
1005
1CB44
  0
LINE
  5
1CB45
330
13E17
100
AcDbEntity
  8
图框
 62
     4
370
    35
100
AcDbLine
 10
1083.057593369548
 20
491.3376852335652
 30
0.0
 11
1090.74366066529
 21
491.3376852335652
 31
0.0
1001
AcDbBlockRepETag
1070
     1
1071
      126
1005
1CB45
  0
MTEXT
  5
1CB46
330
13E17
100
AcDbEntity
  8
图框
 62
     1
370
    20
100
AcDbMText
 10
1083.034582879669
 20
491.0506288081688
 30
0.0
 40
2.005930044038334
 41
5.047240019334847
 46
0.0
 71
     1
 72
     5
  1
{\fArial|b0|i0|c0|p34;W}
  7
Chinese
 73
     1
 44
1.0
1001
AcDbBlockRepETag
1070
     1
1071
      127
1005
1CB46
  0
LINE
  5
1CB47
330
13E17
100
AcDbEntity
  8
图框
370
    -3
100
AcDbLine
 10
946.9285026103634
 20
490.327427634663
 30
0.0
 11
1036.653967466372
 21
490.327427634663
 31
0.0
1001
AcDbBlockRepETag
1070
     1
1071
      128
1005
1CB47
  0
LINE
  5
1CB48
330
13E17
100
AcDbEntity
  8
图框
370
    -3
100
AcDbLine
 10
959.9086139692238
 20
509.2054027581959
 30
0.0
 11
959.9086139692238
 21
484.0347692601515
 31
0.0
1001
AcDbBlockRepETag
1070
     1
1071
      129
1005
1CB48
  0
MTEXT
  5
1CB49
330
13E17
100
AcDbEntity
  8
图框
100
AcDbMText
 10
967.6594956750129
 20
506.0590735709403
 30
0.0
 40
2.252848170144607
 41
15.50176341157869
 46
6.292658374511246
 71
     5
 72
     5
  1
姓名{\Fromans|c134;/Name\Ftxt|c134; }
 73
     1
 44
1.0
1001
AcDbBlockRepETag
1070
     1
1071
      130
1005
1CB49
1001
ACAD
1000
ACAD_MTEXT_DEFINED_HEIGHT_BEGIN
1070
    46
1040
6.292658374511246
1000
ACAD_MTEXT_DEFINED_HEIGHT_END
  0
MTEXT
  5
1CB4A
330
13E17
100
AcDbEntity
  8
图框
100
AcDbMText
 10
983.0415693332477
 20
506.0590735709403
 30
0.0
 40
2.252848170144607
 41
15.26238390489042
 46
6.2926583745112
 71
     5
 72
     5
  1
日期{\Fromans|c134;/Date}
 73
     1
 44
1.0
1001
AcDbBlockRepETag
1070
     1
1071
      131
1005
1CB4A
1001
ACAD
1000
ACAD_MTEXT_DEFINED_HEIGHT_BEGIN
1070
    46
1040
6.2926583745112
1000
ACAD_MTEXT_DEFINED_HEIGHT_END
  0
LINE
  5
1CB4B
330
13E17
100
AcDbEntity
  8
图框
370
    -3
100
AcDbLine
 10
946.9285026103634
 20
509.2054027581959
 30
0.0
 11
959.9086139692238
 21
502.9127443836848
 31
0.0
1001
AcDbBlockRepETag
1070
     1
1071
      132
1005
1CB4B
  0
MTEXT
  5
1CB4C
330
13E17
100
AcDbEntity
  8
图框
100
AcDbMText
 10
1012.931405110086
 20
506.0185715840725
 30
0.0
 40
2.252848170144607
 41
16.93492221063566
 46
0.0
 71
     5
 72
     5
  1
姓名{\Fromans|c134;/Name}
 73
     1
 44
1.0
1001
AcDbBlockRepETag
1070
     1
1071
      133
1005
1CB4C
  0
MTEXT
  5
1CB4D
330
13E17
100
AcDbEntity
  8
图框
100
AcDbMText
 10
1028.977802139886
 20
506.0590735709403
 30
0.0
 40
2.252848170144607
 41
15.35233065297283
 46
6.292658374511256
 71
     5
 72
     5
  1
日期{\Fromans|c134;/Date}
 73
     1
 44
1.0
1001
AcDbBlockRepETag
1070
     1
1071
      134
1005
1CB4D
1001
ACAD
1000
ACAD_MTEXT_DEFINED_HEIGHT_BEGIN
1070
    46
1040
6.292658374511256
1000
ACAD_MTEXT_DEFINED_HEIGHT_END
  0
LINE
  5
1CB4E
330
13E17
100
AcDbEntity
  8
图框
370
    -3
100
AcDbLine
 10
1003.652872644553
 20
502.9127443836848
 30
0.0
 11
990.6727612856927
 21
509.2054027581959
 31
0.0
1001
AcDbBlockRepETag
1070
     1
1071
      135
1005
1CB4E
  0
MTEXT
  5
1CB4F
102
{ACAD_XDICTIONARY
360
1CB9F
102
}
330
13E17
100
AcDbEntity
  8
图框
100
AcDbMText
 10
997.1628169651232
 20
487.1810984474071
 30
0.0
 40
2.252848170144607
 41
12.98011135886052
 46
6.292658374511517
 71
     5
 72
     5
  1
批准\P{\Fromans|c134;Approved}
 73
     1
 44
1.0
1001
AcDbBlockRepETag
1070
     1
1071
      136
1005
1CB4F
1001
ACAD
1000
ACAD_MTEXT_DEFINED_HEIGHT_BEGIN
1070
    46
1040
6.292658374511517
1000
ACAD_MTEXT_DEFINED_HEIGHT_END
  0
MTEXT
  5
1CB50
102
{ACAD_XDICTIONARY
360
1CBA1
102
}
330
13E17
100
AcDbEntity
  8
图框
100
AcDbMText
 10
953.4185582897936
 20
487.1810984474071
 30
0.0
 40
2.252848170144607
 41
12.98011135886041
 46
6.292658374511495
 71
     5
 72
     5
  1
工艺\P{\Fromans|c134;Process}
 73
     1
 44
1.0
1001
AcDbBlockRepETag
1070
     1
1071
      137
1005
1CB50
1001
ACAD
1000
ACAD_MTEXT_DEFINED_HEIGHT_BEGIN
1070
    46
1040
6.292658374511495
1000
ACAD_MTEXT_DEFINED_HEIGHT_END
  0
MTEXT
  5
1CB51
102
{ACAD_XDICTIONARY
360
1CBA3
102
}
330
13E17
100
AcDbEntity
  8
图框
100
AcDbMText
 10
1028.977802139886
 20
511.9708733640202
 30
0.0
 40
1.958998408821398
 41
15.35233065297235
 46
5.530941211648913
 71
     5
 72
     5
  1
日期\P{\Fromans|c134;Date}
 73
     1
 44
1.0
1001
AcDbBlockRepETag
1070
     1
1071
      138
1005
1CB51
1001
ACAD
1000
ACAD_MTEXT_DEFINED_HEIGHT_BEGIN
1070
    46
1040
5.530941211648913
1000
ACAD_MTEXT_DEFINED_HEIGHT_END
  0
MTEXT
  5
1CB52
330
13E17
100
AcDbEntity
  8
图框
100
AcDbMText
 10
1086.643735910939
 20
509.1493769780809
 30
0.0
 40
2.154898249703542
 41
13.34474941400573
 46
8.87215554796615
 71
     5
 72
     5
  1
产品料号\P{\Fromans|c134;Part No.}
 73
     1
 44
1.0
1001
AcDbBlockRepETag
1070
     1
1071
      139
1005
1CB52
1001
ACAD
1000
ACAD_MTEXT_DEFINED_HEIGHT_BEGIN
1070
    46
1040
8.87215554796615
1000
ACAD_MTEXT_DEFINED_HEIGHT_END
  0
MTEXT
  5
1CB53
330
13E17
100
AcDbEntity
  8
图框
100
AcDbMText
 10
1086.643735910939
 20
500.2775205517163
 30
0.0
 40
1.958998408821398
 41
13.34474941400573
 46
8.871557304763321
 71
     5
 72
     5
  1
产品名称\P{\Fromans|c134;Part Name}
 73
     1
 44
1.0
1001
AcDbBlockRepETag
1070
     1
1071
      140
1005
1CB53
1001
ACAD
1000
ACAD_MTEXT_DEFINED_HEIGHT_BEGIN
1070
    46
1040
8.871557304763321
1000
ACAD_MTEXT_DEFINED_HEIGHT_END
  0
LINE
  5
1CB54
330
13E17
100
AcDbEntity
  8
图框
 62
     1
370
    18
100
AcDbLine
 10
833.4128518455365
 20
690.5347692601515
 30
0.0
 11
833.4128518455365
 21
480.5347692601515
 31
0.0
1001
AcDbBlockRepETag
1070
     1
1071
      141
1005
1CB54
  0
LINE
  5
1CB55
330
13E17
100
AcDbEntity
  8
图框
 62
     1
370
    18
100
AcDbLine
 10
833.4128518455365
 20
480.5347692601515
 30
0.0
 11
1130.411601781236
 21
480.5347692601515
 31
0.0
1001
AcDbBlockRepETag
1070
     1
1071
      142
1005
1CB55
  0
LINE
  5
1CB56
330
13E17
100
AcDbEntity
  8
图框
 62
     1
370
    18
100
AcDbLine
 10
833.4128518455365
 20
690.5347692601515
 30
0.0
 11
1130.411601781236
 21
690.5347692601515
 31
0.0
1001
AcDbBlockRepETag
1070
     1
1071
      143
1005
1CB56
  0
LINE
  5
1CB57
330
13E17
100
AcDbEntity
  8
图框
 62
     1
370
    18
100
AcDbLine
 10
1130.411601781236
 20
480.5347692601515
 30
0.0
 11
1130.411601781236
 21
690.5347692601515
 31
0.0
1001
AcDbBlockRepETag
1070
     1
1071
      144
1005
1CB57
  0
LINE
  5
1CB58
330
13E17
100
AcDbEntity
  8
图框
370
    18
100
AcDbLine
 10
836.9128518455394
 20
686.7901958362482
 30
0.0
 11
861.5351874539182
 21
686.7901958362482
 31
0.0
1001
AcDbBlockRepETag
1070
     1
1071
      145
1005
1CB58
  0
LINE
  5
1CB59
330
13E17
100
AcDbEntity
  8
图框
370
    50
100
AcDbLine
 10
1126.928502610363
 20
484.3410054693078
 30
0.0
 11
1126.928502610363
 21
675.5347692601515
 31
0.0
1001
AcDbBlockRepETag
1070
     1
1071
      146
1005
1CB59
  0
MTEXT
  5
1CB5A
330
13E17
100
AcDbEntity
  8
图框
 62
     3
100
AcDbMText
 10
1052.897990117958
 20
495.8417418993364
 30
0.0
 40
2.985513575034151
 41
10.82934843439114
 46
7.886094601211307
 71
     5
 72
     5
  1
V1.1
  7
Romans字体
 73
     1
 44
1.0
1001
AcDbBlockRepETag
1070
     1
1071
      147
1005
1CB5A
1001
ACAD
1000
ACAD_MTEXT_DEFINED_HEIGHT_BEGIN
1070
    46
1040
7.886094601211307
1000
ACAD_MTEXT_DEFINED_HEIGHT_END
  0
LINE
  5
1CB5B
330
13E17
100
AcDbEntity
  8
图框
 62
     6
100
AcDbLine
 10
1126.911601781236
 20
531.714049199969
 30
0.0
 11
1130.411601781236
 21
531.714049199969
 31
0.0
1001
AcDbBlockRepETag
1070
     1
1071
      148
1005
1CB5B
  0
ENDBLK
  5
13EAE
330
13E17
100
AcDbEntity
  8
0
100
AcDbBlockEnd
  0
BLOCK
  5
1C7B6
330
1C7B5
100
AcDbEntity
  8
0
100
AcDbBlockBegin
  2
*X11
 70
     1
 10
0.0
 20
0.0
 30
0.0
  3
*X11
  1

  0
LINE
  5
1C7B7
330
1C7B5
100
AcDbEntity
  8
2
  6
Continuous
 62
     1
100
AcDbLine
 10
-0.25977523
 20
-0.25977523
 30
0.0
 11
0.25977523
 21
0.25977523
 31
0.0
  0
LINE
  5
1C7B8
330
1C7B5
100
AcDbEntity
  8
2
  6
Continuous
 62
     1
100
AcDbLine
 10
-1.4686918
 20
-0.054478214
 30
0.0
 11
1.042581999999999
 21
2.4567956
 31
0.0
  0
LINE
  5
1C7B9
330
1C7B5
100
AcDbEntity
  8
2
  6
Continuous
 62
     1
100
AcDbLine
 10
-2.8829053
 20
-0.054478214
 30
0.0
 11
0.9914659799999999
 21
3.819893099999998
 31
0.0
  0
LINE
  5
1C7BA
330
1C7B5
100
AcDbEntity
  8
2
  6
Continuous
 62
     1
100
AcDbLine
 10
-4.2971189
 20
-0.054478214
 30
0.0
 11
-2.797118899999999
 21
1.4455218
 31
0.0
  0
LINE
  5
1C7BB
330
1C7B5
100
AcDbEntity
  8
2
  6
Continuous
 62
     1
100
AcDbLine
 10
-0.58861066
 20
3.65403
 30
0.0
 11
0.6706795600000001
 21
4.9133202
 31
0.0
  0
LINE
  5
1C7BC
330
1C7B5
100
AcDbEntity
  8
2
  6
Continuous
 62
     1
100
AcDbLine
 10
-5.7113325
 20
-0.054478214
 30
0.0
 11
-4.2113325
 21
1.4455218
 31
0.0
  0
LINE
  5
1C7BD
330
1C7B5
100
AcDbEntity
  8
2
  6
Continuous
 62
     1
100
AcDbLine
 10
-0.16081117
 20
5.496043099999998
 30
0.0
 11
0.52238226
 21
6.1792365
 31
0.0
  0
LINE
  5
1C7BE
330
1C7B5
100
AcDbEntity
  8
2
  6
Continuous
 62
     1
100
AcDbLine
 10
-7.125545999999999
 20
-0.054478214
 30
0.0
 11
-5.625545999999999
 21
1.4455218
 31
0.0
  0
LINE
  5
1C7BF
330
1C7B5
100
AcDbEntity
  8
2
  6
Continuous
 62
     1
100
AcDbLine
 10
-0.67844926
 20
6.392618599999998
 30
0.0
 11
0.86327557
 21
7.934343400000001
 31
0.0
  0
LINE
  5
1C7C0
330
1C7B5
100
AcDbEntity
  8
2
  6
Continuous
 62
     1
100
AcDbLine
 10
-8.539759599999998
 20
-0.054478214
 30
0.0
 11
-7.039759599999999
 21
1.4455218
 31
0.0
  0
LINE
  5
1C7C1
330
1C7B5
100
AcDbEntity
  8
2
  6
Continuous
 62
     1
100
AcDbLine
 10
-1.196087299999999
 20
7.289194
 30
0.0
 11
0.7332870500000002
 21
9.2185684
 31
0.0
  0
LINE
  5
1C7C2
330
1C7B5
100
AcDbEntity
  8
2
  6
Continuous
 62
     1
100
AcDbLine
 10
-9.953973199999998
 20
-0.054478214
 30
0.0
 11
-8.453973199999998
 21
1.4455218
 31
0.0
  0
LINE
  5
1C7C3
330
1C7B5
100
AcDbEntity
  8
2
  6
Continuous
 62
     1
100
AcDbLine
 10
-1.7137254
 20
8.185769499999999
 30
0.0
 11
0.1758461
 21
10.075341
 31
0.0
  0
LINE
  5
1C7C4
330
1C7B5
100
AcDbEntity
  8
2
  6
Continuous
 62
     1
100
AcDbLine
 10
-11.368187
 20
-0.054478214
 30
0.0
 11
-9.868186699999998
 21
1.4455218
 31
0.0
  0
LINE
  5
1C7C5
330
1C7B5
100
AcDbEntity
  8
2
  6
Continuous
 62
     1
100
AcDbLine
 10
-2.868186699999998
 20
8.445521799999998
 30
0.0
 11
-1.3681867
 21
9.945521799999999
 31
0.0
  0
LINE
  5
1C7C6
330
1C7B5
100
AcDbEntity
  8
2
  6
Continuous
 62
     1
100
AcDbLine
 10
-12.7824
 20
-0.054478214
 30
0.0
 11
-11.2824
 21
1.4455218
 31
0.0
  0
LINE
  5
1C7C7
330
1C7B5
100
AcDbEntity
  8
2
  6
Continuous
 62
     1
100
AcDbLine
 10
-4.282400299999999
 20
8.445521799999998
 30
0.0
 11
-2.782400299999998
 21
9.945521799999999
 31
0.0
  0
LINE
  5
1C7C8
330
1C7B5
100
AcDbEntity
  8
2
  6
Continuous
 62
     1
100
AcDbLine
 10
-14.196614
 20
-0.054478214
 30
0.0
 11
-12.696614
 21
1.4455218
 31
0.0
  0
LINE
  5
1C7C9
330
1C7B5
100
AcDbEntity
  8
2
  6
Continuous
 62
     1
100
AcDbLine
 10
-5.696613799999998
 20
8.445521799999998
 30
0.0
 11
-4.196613799999998
 21
9.945521799999999
 31
0.0
  0
LINE
  5
1C7CA
330
1C7B5
100
AcDbEntity
  8
2
  6
Continuous
 62
     1
100
AcDbLine
 10
-15.610827
 20
-0.054478214
 30
0.0
 11
-14.110827
 21
1.4455218
 31
0.0
  0
LINE
  5
1C7CB
330
1C7B5
100
AcDbEntity
  8
2
  6
Continuous
 62
     1
100
AcDbLine
 10
-7.110827399999998
 20
8.445521799999998
 30
0.0
 11
-5.610827399999998
 21
9.945521799999999
 31
0.0
  0
LINE
  5
1C7CC
330
1C7B5
100
AcDbEntity
  8
2
  6
Continuous
 62
     1
100
AcDbLine
 10
-17.025041
 20
-0.054478214
 30
0.0
 11
-15.525041
 21
1.4455218
 31
0.0
  0
LINE
  5
1C7CD
330
1C7B5
100
AcDbEntity
  8
2
  6
Continuous
 62
     1
100
AcDbLine
 10
-8.525040999999998
 20
8.445521799999998
 30
0.0
 11
-7.025040999999998
 21
9.945521799999999
 31
0.0
  0
LINE
  5
1C7CE
330
1C7B5
100
AcDbEntity
  8
2
  6
Continuous
 62
     1
100
AcDbLine
 10
-18.439255
 20
-0.054478214
 30
0.0
 11
-16.939255
 21
1.4455218
 31
0.0
  0
LINE
  5
1C7CF
330
1C7B5
100
AcDbEntity
  8
2
  6
Continuous
 62
     1
100
AcDbLine
 10
-9.9392545
 20
8.445521799999998
 30
0.0
 11
-8.4392545
 21
9.945521799999999
 31
0.0
  0
LINE
  5
1C7D0
330
1C7B5
100
AcDbEntity
  8
2
  6
Continuous
 62
     1
100
AcDbLine
 10
-20.863693
 20
-1.0647036
 30
0.0
 11
-18.353468
 21
1.4455218
 31
0.0
  0
LINE
  5
1C7D1
330
1C7B5
100
AcDbEntity
  8
2
  6
Continuous
 62
     1
100
AcDbLine
 10
-11.353468
 20
8.445521799999998
 30
0.0
 11
-9.853468099999998
 21
9.945521799999999
 31
0.0
  0
LINE
  5
1C7D2
330
1C7B5
100
AcDbEntity
  8
2
  6
Continuous
 62
     1
100
AcDbLine
 10
-20.863693
 20
0.34950995
 30
0.0
 11
-20.636527
 21
0.5766764000000001
 31
0.0
  0
LINE
  5
1C7D3
330
1C7B5
100
AcDbEntity
  8
2
  6
Continuous
 62
     1
100
AcDbLine
 10
-12.767682
 20
8.445521799999998
 30
0.0
 11
-11.267682
 21
9.945521799999999
 31
0.0
  0
LINE
  5
1C7D4
330
1C7B5
100
AcDbEntity
  8
2
  6
Continuous
 62
     1
100
AcDbLine
 10
-14.181895
 20
8.445521799999998
 30
0.0
 11
-12.681895
 21
9.945521799999999
 31
0.0
  0
LINE
  5
1C7D5
330
1C7B5
100
AcDbEntity
  8
2
  6
Continuous
 62
     1
100
AcDbLine
 10
-15.596109
 20
8.445521799999998
 30
0.0
 11
-14.096109
 21
9.945521799999999
 31
0.0
  0
LINE
  5
1C7D6
330
1C7B5
100
AcDbEntity
  8
2
  6
Continuous
 62
     1
100
AcDbLine
 10
-17.010322
 20
8.445521799999998
 30
0.0
 11
-15.510322
 21
9.945521799999999
 31
0.0
  0
LINE
  5
1C7D7
330
1C7B5
100
AcDbEntity
  8
2
  6
Continuous
 62
     1
100
AcDbLine
 10
-18.424536
 20
8.445521799999998
 30
0.0
 11
-16.924536
 21
9.945521799999999
 31
0.0
  0
LINE
  5
1C7D8
330
1C7B5
100
AcDbEntity
  8
2
  6
Continuous
 62
     1
100
AcDbLine
 10
-19.57993
 20
8.7043408
 30
0.0
 11
-18.338749
 21
9.945521799999999
 31
0.0
  0
LINE
  5
1C7D9
330
1C7B5
100
AcDbEntity
  8
2
  6
Continuous
 62
     1
100
AcDbLine
 10
-20.476506
 20
9.221978899999999
 30
0.0
 11
-19.133328
 21
10.565157
 31
0.0
  0
LINE
  5
1C7DA
330
1C7B5
100
AcDbEntity
  8
2
  6
Continuous
 62
     1
100
AcDbLine
 10
-20.863693
 20
10.249005
 30
0.0
 11
-19.840435
 21
11.272263
 31
0.0
  0
ENDBLK
  5
1C7DB
330
1C7B5
100
AcDbEntity
  8
0
100
AcDbBlockEnd
  0
BLOCK
  5
1C997
330
1C996
100
AcDbEntity
  8
0
100
AcDbBlockBegin
  2
*D20
 70
     1
 10
0.0
 20
0.0
 30
0.0
  3
*D20
  1

  0
LINE
  5
1CA7D
330
1C996
100
AcDbEntity
  8
DIM
 62
     6
370
    -2
100
AcDbLine
 10
567.3234675739516
 20
242.9542029885349
 30
0.0
 11
567.3234675739516
 21
233.486608600322
 31
0.0
  0
LINE
  5
1CA7E
330
1C996
100
AcDbEntity
  8
DIM
 62
     6
370
    -2
100
AcDbLine
 10
606.2503945739521
 20
239.8070474012891
 30
0.0
 11
606.2503945739521
 21
233.486608600322
 31
0.0
  0
LINE
  5
1CA7F
330
1C996
100
AcDbEntity
  8
DIM
 62
     1
370
    -2
100
AcDbLine
 10
568.8234675739517
 20
233.786608600322
 30
0.0
 11
604.7503945739521
 21
233.786608600322
 31
0.0
  0
SOLID
  5
1CA80
330
1C996
100
AcDbEntity
  8
DIM
 62
     1
100
AcDbTrace
 10
568.8234675739517
 20
234.036608600322
 30
0.0
 11
568.8234675739517
 21
233.536608600322
 31
0.0
 12
567.3234675739516
 22
233.786608600322
 32
0.0
 13
567.3234675739516
 23
233.786608600322
 33
0.0
  0
SOLID
  5
1CA81
330
1C996
100
AcDbEntity
  8
DIM
 62
     1
100
AcDbTrace
 10
604.7503945739521
 20
234.036608600322
 30
0.0
 11
604.7503945739521
 21
233.536608600322
 31
0.0
 12
606.2503945739521
 22
233.786608600322
 32
0.0
 13
606.2503945739521
 23
233.786608600322
 33
0.0
  0
MTEXT
  5
1CA82
330
1C996
100
AcDbEntity
  8
DIM
 62
     4
100
AcDbMText
 10
586.7869310739519
 20
235.086608600322
 30
0.0
 40
2.0
 41
0.0
 46
0.0
 71
     5
 72
     1
  1
\A1;38.95
  7
Romans字体
 73
     1
 44
1.0
  0
POINT
  5
1CA83
330
1C996
100
AcDbEntity
  8
Defpoints
 62
     0
100
AcDbPoint
 10
567.3234675739516
 20
243.1542029885349
 30
0.0
  0
POINT
  5
1CA84
330
1C996
100
AcDbEntity
  8
Defpoints
 62
     0
100
AcDbPoint
 10
606.2503945739521
 20
240.0070474012891
 30
0.0
  0
POINT
  5
1CA85
330
1C996
100
AcDbEntity
  8
Defpoints
 62
     0
100
AcDbPoint
 10
606.2503945739521
 20
233.786608600322
 30
0.0
  0
ENDBLK
  5
1C998
330
1C996
100
AcDbEntity
  8
0
100
AcDbBlockEnd
  0
BLOCK
  5
1C9A3
330
1C9A2
100
AcDbEntity
  8
0
100
AcDbBlockBegin
  2
*D21
 70
     1
 10
0.0
 20
0.0
 30
0.0
  3
*D21
  1

  0
LINE
  5
1CA3E
330
1C9A2
100
AcDbEntity
  8
DIM
 62
     6
370
    -2
100
AcDbLine
 10
568.8555185739516
 20
250.5096957901937
 30
0.0
 11
564.4343033521587
 21
250.5096957901937
 31
0.0
  0
LINE
  5
1CA3F
330
1C9A2
100
AcDbEntity
  8
DIM
 62
     6
370
    -2
100
AcDbLine
 10
568.8555185739516
 20
243.5096957901937
 30
0.0
 11
564.4343033521587
 21
243.5096957901937
 31
0.0
  0
LINE
  5
1CA40
330
1C9A2
100
AcDbEntity
  8
DIM
 62
     1
370
    -2
100
AcDbLine
 10
564.7343033521586
 20
249.0096957901937
 30
0.0
 11
564.7343033521586
 21
245.0096957901937
 31
0.0
  0
SOLID
  5
1CA41
330
1C9A2
100
AcDbEntity
  8
DIM
 62
     1
100
AcDbTrace
 10
564.4843033521587
 20
249.0096957901937
 30
0.0
 11
564.9843033521587
 21
249.0096957901937
 31
0.0
 12
564.7343033521586
 22
250.5096957901937
 32
0.0
 13
564.7343033521586
 23
250.5096957901937
 33
0.0
  0
SOLID
  5
1CA42
330
1C9A2
100
AcDbEntity
  8
DIM
 62
     1
100
AcDbTrace
 10
564.4843033521587
 20
245.0096957901937
 30
0.0
 11
564.9843033521587
 21
245.0096957901937
 31
0.0
 12
564.7343033521586
 22
243.5096957901937
 32
0.0
 13
564.7343033521586
 23
243.5096957901937
 33
0.0
  0
MTEXT
  5
1CA43
330
1C9A2
100
AcDbEntity
  8
DIM
 62
     4
100
AcDbMText
 10
563.4343033521587
 20
247.0096957901938
 30
0.0
 40
2.0
 41
0.0
 46
0.0
 71
     5
 72
     1
  1
\A1;%%C7
  7
Romans字体
 11
0.0000000000000001
 21
1.0
 31
0.0
 73
     1
 44
1.0
  0
POINT
  5
1CA44
330
1C9A2
100
AcDbEntity
  8
Defpoints
 62
     0
100
AcDbPoint
 10
569.0555185739516
 20
250.5096957901937
 30
0.0
  0
POINT
  5
1CA45
330
1C9A2
100
AcDbEntity
  8
Defpoints
 62
     0
100
AcDbPoint
 10
569.0555185739516
 20
243.5096957901937
 30
0.0
  0
POINT
  5
1CA46
330
1C9A2
100
AcDbEntity
  8
Defpoints
 62
     0
100
AcDbPoint
 10
564.7343033521586
 20
243.5096957901937
 30
0.0
  0
ENDBLK
  5
1C9A4
330
1C9A2
100
AcDbEntity
  8
0
100
AcDbBlockEnd
  0
BLOCK
  5
1C9AF
330
1C9AE
100
AcDbEntity
  8
0
100
AcDbBlockBegin
  2
*D22
 70
     1
 10
0.0
 20
0.0
 30
0.0
  3
*D22
  1

  0
LINE
  5
1CA47
330
1C9AE
100
AcDbEntity
  8
DIM
 62
     6
370
    -2
100
AcDbLine
 10
569.965609161307
 20
252.0096957901936
 30
0.0
 11
561.5274686885037
 21
252.0096957901936
 31
0.0
  0
LINE
  5
1CA48
330
1C9AE
100
AcDbEntity
  8
DIM
 62
     6
370
    -2
100
AcDbLine
 10
569.965609161307
 20
242.0096957901936
 30
0.0
 11
561.5274686885037
 21
242.0096957901936
 31
0.0
  0
LINE
  5
1CA49
330
1C9AE
100
AcDbEntity
  8
DIM
 62
     1
370
    -2
100
AcDbLine
 10
561.8274686885037
 20
250.5096957901937
 30
0.0
 11
561.8274686885037
 21
243.5096957901937
 31
0.0
  0
SOLID
  5
1CA4A
330
1C9AE
100
AcDbEntity
  8
DIM
 62
     1
100
AcDbTrace
 10
561.5774686885036
 20
250.5096957901937
 30
0.0
 11
562.0774686885036
 21
250.5096957901937
 31
0.0
 12
561.8274686885037
 22
252.0096957901936
 32
0.0
 13
561.8274686885037
 23
252.0096957901936
 33
0.0
  0
SOLID
  5
1CA4B
330
1C9AE
100
AcDbEntity
  8
DIM
 62
     1
100
AcDbTrace
 10
561.5774686885036
 20
243.5096957901937
 30
0.0
 11
562.0774686885036
 21
243.5096957901937
 31
0.0
 12
561.8274686885037
 22
242.0096957901936
 32
0.0
 13
561.8274686885037
 23
242.0096957901936
 33
0.0
  0
MTEXT
  5
1CA4C
330
1C9AE
100
AcDbEntity
  8
DIM
 62
     4
100
AcDbMText
 10
560.5274686885037
 20
247.0096957901938
 30
0.0
 40
2.0
 41
0.0
 46
0.0
 71
     5
 72
     1
  1
\A1;%%C10
  7
Romans字体
 11
0.0000000000000001
 21
1.0
 31
0.0
 73
     1
 44
1.0
  0
POINT
  5
1CA4D
330
1C9AE
100
AcDbEntity
  8
Defpoints
 62
     0
100
AcDbPoint
 10
570.1656091613069
 20
252.0096957901936
 30
0.0
  0
POINT
  5
1CA4E
330
1C9AE
100
AcDbEntity
  8
Defpoints
 62
     0
100
AcDbPoint
 10
570.1656091613069
 20
242.0096957901936
 30
0.0
  0
POINT
  5
1CA4F
330
1C9AE
100
AcDbEntity
  8
Defpoints
 62
     0
100
AcDbPoint
 10
561.8274686885037
 20
242.0096957901936
 30
0.0
  0
ENDBLK
  5
1C9B0
330
1C9AE
100
AcDbEntity
  8
0
100
AcDbBlockEnd
  0
BLOCK
  5
1C9BB
330
1C9BA
100
AcDbEntity
  8
0
100
AcDbBlockBegin
  2
*D23
 70
     1
 10
0.0
 20
0.0
 30
0.0
  3
*D23
  1

  0
LINE
  5
1CA50
330
1C9BA
100
AcDbEntity
  8
DIM
 62
     6
370
    -2
100
AcDbLine
 10
567.1234675739516
 20
253.3596957901936
 30
0.0
 11
558.7152589249553
 21
253.3596957901936
 31
0.0
  0
LINE
  5
1CA51
330
1C9BA
100
AcDbEntity
  8
DIM
 62
     6
370
    -2
100
AcDbLine
 10
567.1234675739516
 20
240.6596957901939
 30
0.0
 11
558.7152589249553
 21
240.6596957901939
 31
0.0
  0
LINE
  5
1CA52
330
1C9BA
100
AcDbEntity
  8
DIM
 62
     1
370
    -2
100
AcDbLine
 10
559.0152589249553
 20
251.8596957901936
 30
0.0
 11
559.0152589249553
 21
242.1596957901938
 31
0.0
  0
SOLID
  5
1CA53
330
1C9BA
100
AcDbEntity
  8
DIM
 62
     1
100
AcDbTrace
 10
558.7652589249553
 20
251.8596957901936
 30
0.0
 11
559.2652589249553
 21
251.8596957901936
 31
0.0
 12
559.0152589249553
 22
253.3596957901936
 32
0.0
 13
559.0152589249553
 23
253.3596957901936
 33
0.0
  0
SOLID
  5
1CA54
330
1C9BA
100
AcDbEntity
  8
DIM
 62
     1
100
AcDbTrace
 10
558.7652589249553
 20
242.1596957901938
 30
0.0
 11
559.2652589249553
 21
242.1596957901938
 31
0.0
 12
559.0152589249553
 22
240.6596957901939
 32
0.0
 13
559.0152589249553
 23
240.6596957901939
 33
0.0
  0
MTEXT
  5
1CA55
330
1C9BA
100
AcDbEntity
  8
DIM
 62
     4
100
AcDbMText
 10
557.7152589249553
 20
247.0096957901938
 30
0.0
 40
2.0
 41
0.0
 46
0.0
 71
     5
 72
     1
  1
\A1;%%C12.7
  7
Romans字体
 11
0.0000000000000001
 21
1.0
 31
0.0
 73
     1
 44
1.0
  0
POINT
  5
1CA56
330
1C9BA
100
AcDbEntity
  8
Defpoints
 62
     0
100
AcDbPoint
 10
567.3234675739516
 20
253.3596957901936
 30
0.0
  0
POINT
  5
1CA57
330
1C9BA
100
AcDbEntity
  8
Defpoints
 62
     0
100
AcDbPoint
 10
567.3234675739516
 20
240.6596957901939
 30
0.0
  0
POINT
  5
1CA58
330
1C9BA
100
AcDbEntity
  8
Defpoints
 62
     0
100
AcDbPoint
 10
559.0152589249553
 20
240.6596957901939
 30
0.0
  0
ENDBLK
  5
1C9BC
330
1C9BA
100
AcDbEntity
  8
0
100
AcDbBlockEnd
  0
BLOCK
  5
1C9C7
330
1C9C6
100
AcDbEntity
  8
0
100
AcDbBlockBegin
  2
*D24
 70
     1
 10
0.0
 20
0.0
 30
0.0
  3
*D24
  1

  0
LINE
  5
1CA59
330
1C9C6
100
AcDbEntity
  8
DIM
 62
     6
370
    -2
100
AcDbLine
 10
567.3234675739516
 20
241.7797688338276
 30
0.0
 11
567.3234675739516
 21
237.1312130631783
 31
0.0
  0
LINE
  5
1CA5A
330
1C9C6
100
AcDbEntity
  8
DIM
 62
     6
370
    -2
100
AcDbLine
 10
586.3234645739517
 20
243.81519110361
 30
0.0
 11
586.3234645739517
 21
237.1312130631783
 31
0.0
  0
LINE
  5
1CA5B
330
1C9C6
100
AcDbEntity
  8
DIM
 62
     1
370
    -2
100
AcDbLine
 10
568.8234675739517
 20
237.4312130631783
 30
0.0
 11
584.8234645739514
 21
237.4312130631783
 31
0.0
  0
SOLID
  5
1CA5C
330
1C9C6
100
AcDbEntity
  8
DIM
 62
     1
100
AcDbTrace
 10
568.8234675739517
 20
237.6812130631783
 30
0.0
 11
568.8234675739517
 21
237.1812130631783
 31
0.0
 12
567.3234675739516
 22
237.4312130631783
 32
0.0
 13
567.3234675739516
 23
237.4312130631783
 33
0.0
  0
SOLID
  5
1CA5D
330
1C9C6
100
AcDbEntity
  8
DIM
 62
     1
100
AcDbTrace
 10
584.8234645739514
 20
237.6812130631783
 30
0.0
 11
584.8234645739514
 21
237.1812130631783
 31
0.0
 12
586.3234645739517
 22
237.4312130631783
 32
0.0
 13
586.3234645739517
 23
237.4312130631783
 33
0.0
  0
MTEXT
  5
1CA5E
330
1C9C6
100
AcDbEntity
  8
DIM
 62
     4
100
AcDbMText
 10
576.8234660739516
 20
238.7312130631783
 30
0.0
 40
2.0
 41
0.0
 46
0.0
 71
     5
 72
     1
  1
\A1;19
  7
Romans字体
 73
     1
 44
1.0
  0
POINT
  5
1CA5F
330
1C9C6
100
AcDbEntity
  8
Defpoints
 62
     0
100
AcDbPoint
 10
567.3234675739516
 20
241.9797688338276
 30
0.0
  0
POINT
  5
1CA60
330
1C9C6
100
AcDbEntity
  8
Defpoints
 62
     0
100
AcDbPoint
 10
586.3234645739517
 20
244.01519110361
 30
0.0
  0
POINT
  5
1CA61
330
1C9C6
100
AcDbEntity
  8
Defpoints
 62
     0
100
AcDbPoint
 10
586.3234645739517
 20
237.4312130631783
 30
0.0
  0
ENDBLK
  5
1C9C8
330
1C9C6
100
AcDbEntity
  8
0
100
AcDbBlockEnd
  0
BLOCK
  5
1C9D3
330
1C9D2
100
AcDbEntity
  8
0
100
AcDbBlockBegin
  2
*D25
 70
     1
 10
0.0
 20
0.0
 30
0.0
  3
*D25
  1

  0
LINE
  5
1CA62
330
1C9D2
100
AcDbEntity
  8
DIM
 62
     6
370
    -2
100
AcDbLine
 10
590.6734645739512
 20
253.3596957901936
 30
0.0
 11
613.4942366354206
 21
253.3596957901936
 31
0.0
  0
LINE
  5
1CA63
330
1C9D2
100
AcDbEntity
  8
DIM
 62
     6
370
    -2
100
AcDbLine
 10
590.673474573951
 20
240.6596957901939
 30
0.0
 11
613.4942366354206
 21
240.6596957901939
 31
0.0
  0
LINE
  5
1CA64
330
1C9D2
100
AcDbEntity
  8
DIM
 62
     1
370
    -2
100
AcDbLine
 10
613.1942366354206
 20
251.8596957901936
 30
0.0
 11
613.1942366354206
 21
242.1596957901938
 31
0.0
  0
SOLID
  5
1CA65
330
1C9D2
100
AcDbEntity
  8
DIM
 62
     1
100
AcDbTrace
 10
612.9442366354205
 20
251.8596957901936
 30
0.0
 11
613.4442366354208
 21
251.8596957901936
 31
0.0
 12
613.1942366354206
 22
253.3596957901936
 32
0.0
 13
613.1942366354206
 23
253.3596957901936
 33
0.0
  0
SOLID
  5
1CA66
330
1C9D2
100
AcDbEntity
  8
DIM
 62
     1
100
AcDbTrace
 10
612.9442366354205
 20
242.1596957901938
 30
0.0
 11
613.4442366354208
 21
242.1596957901938
 31
0.0
 12
613.1942366354206
 22
240.6596957901939
 32
0.0
 13
613.1942366354206
 23
240.6596957901939
 33
0.0
  0
MTEXT
  5
1CA67
330
1C9D2
100
AcDbEntity
  8
DIM
 62
     4
100
AcDbMText
 10
611.8942366354207
 20
247.0096957901938
 30
0.0
 40
2.0
 41
0.0
 46
0.0
 71
     5
 72
     1
  1
\A1;%%C12.7
  7
Romans字体
 11
0.0000000000000001
 21
1.0
 31
0.0
 73
     1
 44
1.0
  0
POINT
  5
1CA68
330
1C9D2
100
AcDbEntity
  8
Defpoints
 62
     0
100
AcDbPoint
 10
590.4734645739512
 20
253.3596957901936
 30
0.0
  0
POINT
  5
1CA69
330
1C9D2
100
AcDbEntity
  8
Defpoints
 62
     0
100
AcDbPoint
 10
590.4734745739508
 20
240.6596957901939
 30
0.0
  0
POINT
  5
1CA6A
330
1C9D2
100
AcDbEntity
  8
Defpoints
 62
     0
100
AcDbPoint
 10
613.1942366354206
 20
240.6596957901939
 30
0.0
  0
ENDBLK
  5
1C9D4
330
1C9D2
100
AcDbEntity
  8
0
100
AcDbBlockEnd
  0
BLOCK
  5
1C9DF
330
1C9DE
100
AcDbEntity
  8
0
100
AcDbBlockBegin
  2
*D26
 70
     1
 10
0.0
 20
0.0
 30
0.0
  3
*D26
  1

  0
LINE
  5
1CA6B
330
1C9DE
100
AcDbEntity
  8
DIM
 62
     6
370
    -2
100
AcDbLine
 10
605.3691550098625
 20
252.5096957901936
 30
0.0
 11
610.1547374129467
 21
252.5096957901936
 31
0.0
  0
LINE
  5
1CA6C
330
1C9DE
100
AcDbEntity
  8
DIM
 62
     6
370
    -2
100
AcDbLine
 10
605.3691550098625
 20
241.5096957901937
 30
0.0
 11
610.1547374129467
 21
241.5096957901937
 31
0.0
  0
LINE
  5
1CA6D
330
1C9DE
100
AcDbEntity
  8
DIM
 62
     1
370
    -2
100
AcDbLine
 10
609.8547374129467
 20
251.0096957901937
 30
0.0
 11
609.8547374129467
 21
243.0096957901937
 31
0.0
  0
SOLID
  5
1CA6E
330
1C9DE
100
AcDbEntity
  8
DIM
 62
     1
100
AcDbTrace
 10
609.6047374129467
 20
251.0096957901937
 30
0.0
 11
610.1047374129467
 21
251.0096957901937
 31
0.0
 12
609.8547374129467
 22
252.5096957901936
 32
0.0
 13
609.8547374129467
 23
252.5096957901936
 33
0.0
  0
SOLID
  5
1CA6F
330
1C9DE
100
AcDbEntity
  8
DIM
 62
     1
100
AcDbTrace
 10
609.6047374129467
 20
243.0096957901937
 30
0.0
 11
610.1047374129467
 21
243.0096957901937
 31
0.0
 12
609.8547374129467
 22
241.5096957901937
 32
0.0
 13
609.8547374129467
 23
241.5096957901937
 33
0.0
  0
MTEXT
  5
1CA70
330
1C9DE
100
AcDbEntity
  8
DIM
 62
     4
100
AcDbMText
 10
608.5547374129467
 20
247.0096957901938
 30
0.0
 40
2.0
 41
0.0
 46
0.0
 71
     5
 72
     1
  1
\A1;%%C11
  7
Romans字体
 11
0.0000000000000001
 21
1.0
 31
0.0
 73
     1
 44
1.0
  0
POINT
  5
1CA71
330
1C9DE
100
AcDbEntity
  8
Defpoints
 62
     0
100
AcDbPoint
 10
605.1691550098625
 20
252.5096957901936
 30
0.0
  0
POINT
  5
1CA72
330
1C9DE
100
AcDbEntity
  8
Defpoints
 62
     0
100
AcDbPoint
 10
605.1691550098625
 20
241.5096957901937
 30
0.0
  0
POINT
  5
1CA73
330
1C9DE
100
AcDbEntity
  8
Defpoints
 62
     0
100
AcDbPoint
 10
609.8547374129467
 20
241.5096957901937
 30
0.0
  0
ENDBLK
  5
1C9E0
330
1C9DE
100
AcDbEntity
  8
0
100
AcDbBlockEnd
  0
BLOCK
  5
1C9EB
330
1C9EA
100
AcDbEntity
  8
0
100
AcDbBlockBegin
  2
*D27
 70
     1
 10
0.0
 20
0.0
 30
0.0
  3
*D27
  1

  0
LINE
  5
1CA74
330
1C9EA
100
AcDbEntity
  8
DIM
 62
     6
370
    -2
100
AcDbLine
 10
592.0503945739523
 20
242.6096972901939
 30
0.0
 11
592.0503945739523
 21
237.1312130631783
 31
0.0
  0
LINE
  5
1CA75
330
1C9EA
100
AcDbEntity
  8
DIM
 62
     6
370
    -2
100
AcDbLine
 10
606.2503945739521
 20
242.7719519406362
 30
0.0
 11
606.2503945739521
 21
237.1312130631783
 31
0.0
  0
LINE
  5
1CA76
330
1C9EA
100
AcDbEntity
  8
DIM
 62
     1
370
    -2
100
AcDbLine
 10
593.5503945739522
 20
237.4312130631783
 30
0.0
 11
604.7503945739521
 21
237.4312130631783
 31
0.0
  0
SOLID
  5
1CA77
330
1C9EA
100
AcDbEntity
  8
DIM
 62
     1
100
AcDbTrace
 10
593.5503945739522
 20
237.6812130631783
 30
0.0
 11
593.5503945739522
 21
237.1812130631783
 31
0.0
 12
592.0503945739523
 22
237.4312130631783
 32
0.0
 13
592.0503945739523
 23
237.4312130631783
 33
0.0
  0
SOLID
  5
1CA78
330
1C9EA
100
AcDbEntity
  8
DIM
 62
     1
100
AcDbTrace
 10
604.7503945739521
 20
237.6812130631783
 30
0.0
 11
604.7503945739521
 21
237.1812130631783
 31
0.0
 12
606.2503945739521
 22
237.4312130631783
 32
0.0
 13
606.2503945739521
 23
237.4312130631783
 33
0.0
  0
MTEXT
  5
1CA79
330
1C9EA
100
AcDbEntity
  8
DIM
 62
     4
100
AcDbMText
 10
599.1503945739522
 20
238.7312130631783
 30
0.0
 40
2.0
 41
0.0
 46
0.0
 71
     5
 72
     1
  1
\A1;14.2
  7
Romans字体
 73
     1
 44
1.0
  0
POINT
  5
1CA7A
330
1C9EA
100
AcDbEntity
  8
Defpoints
 62
     0
100
AcDbPoint
 10
592.0503945739523
 20
242.8096972901939
 30
0.0
  0
POINT
  5
1CA7B
330
1C9EA
100
AcDbEntity
  8
Defpoints
 62
     0
100
AcDbPoint
 10
606.2503945739521
 20
242.9719519406362
 30
0.0
  0
POINT
  5
1CA7C
330
1C9EA
100
AcDbEntity
  8
Defpoints
 62
     0
100
AcDbPoint
 10
606.2503945739521
 20
237.4312130631783
 30
0.0
  0
ENDBLK
  5
1C9EC
330
1C9EA
100
AcDbEntity
  8
0
100
AcDbBlockEnd
  0
ENDSEC
  0
SECTION
  2
ENTITIES
  0
HATCH
  5
28AE
330
1F
100
AcDbEntity
  8
图层 1
 62
     7
100
AcDbHatch
 10
0.0
 20
0.0
 30
0.0
210
0.0
220
0.0
230
1.0
  2
SOLID
 70
     1
 71
     0
 91
        1
 92
        1
 93
        2
 72
     4
 94
        3
 73
     0
 74
     0
 95
       17
 96
       13
 40
0.0
 40
0.0
 40
0.0
 40
0.0
 40
0.3527780104152769
 40
0.3527780104152769
 40
0.3527780104152769
 40
0.7055560208305538
 40
0.7055560208305538
 40
0.7055560208305538
 40
1.058334031245828
 40
1.058334031245828
 40
1.058334031245828
 40
1.411112041661104
 40
1.411112041661104
 40
1.411112041661104
 40
1.411112041661104
 10
11.07013262565829
 20
29.50312817963231
 10
11.07013262565829
 20
29.50312817963231
 10
10.9431807732774
 20
29.50312817963231
 10
10.9431807732774
 20
29.50312817963231
 10
10.9431807732774
 20
29.50312817963231
 10
10.85843136843155
 20
29.22786486877117
 10
10.85843136843155
 20
29.22786486877117
 10
10.85843136843155
 20
29.22786486877117
 10
10.90080607085448
 20
29.2068497724476
 10
10.90080607085448
 20
29.2068497724476
 10
10.94455881238059
 20
29.31571486159919
 10
11.00346998404173
 20
29.40907701083995
 10
11.07013262565829
 20
29.50312817963231
 72
     1
 10
11.07013262565829
 20
29.50312817963231
 11
11.07013262565829
 21
29.50312817963231
 97
        0
 75
     0
 76
     1
 98
        0
450
        0
451
        0
460
0.0
461
0.0
452
        0
462
0.0
453
        0
470

  0
HATCH
  5
2C65
330
1F
100
AcDbEntity
  8
图层 1
 62
     7
100
AcDbHatch
 10
0.0
 20
0.0
 30
0.0
210
0.0
220
0.0
230
1.0
  2
SOLID
 70
     1
 71
     0
 91
        1
 92
        1
 93
        2
 72
     4
 94
        3
 73
     0
 74
     0
 95
       47
 96
       43
 40
0.0
 40
0.0
 40
0.0
 40
0.0
 40
0.3527780104152769
 40
0.3527780104152769
 40
0.3527780104152769
 40
0.7055560208305538
 40
0.7055560208305538
 40
0.7055560208305538
 40
1.058334031245828
 40
1.058334031245828
 40
1.058334031245828
 40
1.411112041661104
 40
1.411112041661104
 40
1.411112041661104
 40
1.763890052076384
 40
1.763890052076384
 40
1.763890052076384
 40
2.116668062491659
 40
2.116668062491659
 40
2.116668062491659
 40
2.469446072906936
 40
2.469446072906936
 40
2.469446072906936
 40
2.822224083322215
 40
2.822224083322215
 40
2.822224083322215
 40
3.175002093737492
 40
3.175002093737492
 40
3.175002093737492
 40
3.527780104152768
 40
3.527780104152768
 40
3.527780104152768
 40
3.880558114568044
 40
3.880558114568044
 40
3.880558114568044
 40
4.233336124983321
 40
4.233336124983321
 40
4.233336124983321
 40
4.586114135398599
 40
4.586114135398599
 40
4.586114135398599
 40
4.938892145813873
 40
4.938892145813873
 40
4.938892145813873
 40
4.938892145813873
 10
162.8986914070121
 20
257.4895347631509
 10
162.8986914070121
 20
257.4895347631509
 10
162.9200510131114
 20
257.4471600607279
 10
162.9200510131114
 20
257.4471600607279
 10
162.9200510131114
 20
257.4471600607279
 10
162.9200510131114
 20
257.404785358305
 10
162.9200510131114
 20
257.404785358305
 10
162.9200510131114
 20
257.404785358305
 10
162.8986914070121
 20
257.36258291077
 10
162.8986914070121
 20
257.36258291077
 10
162.8986914070121
 20
257.36258291077
 10
162.8986914070121
 20
257.320208208347
 10
162.8986914070121
 20
257.320208208347
 10
162.8986914070121
 20
257.320208208347
 10
162.8563167045891
 20
257.2990208571356
 10
162.8563167045891
 20
257.2990208571356
 10
162.8563167045891
 20
257.2990208571356
 10
162.8139420021662
 20
257.2563016449369
 10
162.8139420021662
 20
257.2563016449369
 10
162.8139420021662
 20
257.2563016449369
 10
162.7295371070961
 20
257.2563016449369
 10
162.7295371070961
 20
257.2563016449369
 10
162.7295371070961
 20
257.2563016449369
 10
162.6658027985738
 20
257.2778335059241
 10
162.6658027985738
 20
257.2778335059241
 10
162.6658027985738
 20
257.2778335059241
 10
162.6237726059267
 20
257.2990208571356
 10
162.6237726059267
 20
257.2990208571356
 10
162.6237726059267
 20
257.2990208571356
 10
162.5813979035038
 20
257.3413955595585
 10
162.5813979035038
 20
257.3413955595585
 10
162.5813979035038
 20
257.3413955595585
 10
162.5813979035038
 20
257.4895347631509
 10
162.5813979035038
 20
257.4895347631509
 10
162.5813979035038
 20
257.4895347631509
 10
162.6447877022503
 20
257.5525800521216
 10
162.6447877022503
 20
257.5525800521216
 10
162.6447877022503
 20
257.5525800521216
 10
162.7081775009967
 20
257.5525800521216
 10
162.7081775009967
 20
257.5525800521216
 10
162.8749202324821
 20
257.5424170137356
 10
162.7918933765152
 20
257.5939212252171
 10
162.8986914070121
 20
257.4895347631509
 72
     1
 10
162.8986914070121
 20
257.4895347631509
 11
162.8986914070121
 21
257.4895347631509
 97
        0
 75
     0
 76
     1
 98
        0
450
        0
451
        0
460
0.0
461
0.0
452
        0
462
0.0
453
        0
470

  0
HATCH
  5
2EE7
330
1F
100
AcDbEntity
  8
图层 1
 62
     7
100
AcDbHatch
 10
0.0
 20
0.0
 30
0.0
210
0.0
220
0.0
230
1.0
  2
SOLID
 70
     1
 71
     0
 91
        1
 92
        1
 93
        2
 72
     4
 94
        3
 73
     0
 74
     0
 95
       56
 96
       52
 40
0.0
 40
0.0
 40
0.0
 40
0.0
 40
0.3527780104152769
 40
0.3527780104152769
 40
0.3527780104152769
 40
0.7055560208305538
 40
0.7055560208305538
 40
0.7055560208305538
 40
1.058334031245828
 40
1.058334031245828
 40
1.058334031245828
 40
1.411112041661104
 40
1.411112041661104
 40
1.411112041661104
 40
1.763890052076384
 40
1.763890052076384
 40
1.763890052076384
 40
2.116668062491659
 40
2.116668062491659
 40
2.116668062491659
 40
2.469446072906936
 40
2.469446072906936
 40
2.469446072906936
 40
2.822224083322215
 40
2.822224083322215
 40
2.822224083322215
 40
3.175002093737492
 40
3.175002093737492
 40
3.175002093737492
 40
3.527780104152768
 40
3.527780104152768
 40
3.527780104152768
 40
3.880558114568044
 40
3.880558114568044
 40
3.880558114568044
 40
4.233336124983321
 40
4.233336124983321
 40
4.233336124983321
 40
4.586114135398599
 40
4.586114135398599
 40
4.586114135398599
 40
4.938892145813873
 40
4.938892145813873
 40
4.938892145813873
 40
5.291670156229153
 40
5.291670156229153
 40
5.291670156229153
 40
5.64444816664443
 40
5.64444816664443
 40
5.64444816664443
 40
5.997226177059705
 40
5.997226177059705
 40
5.997226177059705
 40
5.997226177059705
 10
185.4837187788815
 20
241.4451977396596
 10
185.4837187788815
 20
241.4451977396596
 10
185.4837187788815
 20
241.4028230372367
 10
185.4837187788815
 20
241.4028230372367
 10
185.4837187788815
 20
241.4028230372367
 10
185.5047338752051
 20
241.3604483348137
 10
185.5047338752051
 20
241.3604483348137
 10
185.4520238795082
 20
241.2782827532863
 10
185.4671823096433
 20
241.1897437409066
 10
185.335579575289
 20
241.2119646214456
 10
185.335579575289
 20
241.2119646214456
 10
185.2932048728662
 20
241.2119646214456
 10
185.2932048728662
 20
241.2119646214456
 10
185.2932048728662
 20
241.2119646214456
 10
185.2294705643439
 20
241.2334964824328
 10
185.2294705643439
 20
241.2334964824328
 10
185.2294705643439
 20
241.2334964824328
 10
185.1660807655974
 20
241.2543393238685
 10
185.1660807655974
 20
241.2543393238685
 10
185.1660807655974
 20
241.2543393238685
 10
185.1450656692739
 20
241.2758711848558
 10
185.1450656692739
 20
241.2758711848558
 10
185.1450656692739
 20
241.2758711848558
 10
185.1450656692739
 20
241.2967140262914
 10
185.1450656692739
 20
241.2967140262914
 10
185.1450656692739
 20
241.2967140262914
 10
185.1237060631745
 20
241.3604483348137
 10
185.1237060631745
 20
241.3604483348137
 10
185.1237060631745
 20
241.3604483348137
 10
185.1237060631745
 20
241.4028230372367
 10
185.1237060631745
 20
241.4028230372367
 10
185.1237060631745
 20
241.4028230372367
 10
185.1660807655974
 20
241.4875724420825
 10
185.1660807655974
 20
241.4875724420825
 10
185.1660807655974
 20
241.4875724420825
 10
185.2084554680203
 20
241.5085875384061
 10
185.2084554680203
 20
241.5085875384061
 10
185.2084554680203
 20
241.5085875384061
 10
185.2718452667668
 20
241.5297748896175
 10
185.2718452667668
 20
241.5297748896175
 10
185.2718452667668
 20
241.5297748896175
 10
185.3565946716127
 20
241.5297748896175
 10
185.3565946716127
 20
241.5297748896175
 10
185.3565946716127
 20
241.5297748896175
 10
185.4199844703592
 20
241.5085875384061
 10
185.4199844703592
 20
241.5085875384061
 10
185.4199844703592
 20
241.5085875384061
 10
185.4623591727821
 20
241.4875724420825
 10
185.4623591727821
 20
241.4875724420825
 10
185.4623591727821
 20
241.4875724420825
 10
185.4837187788815
 20
241.4451977396596
 10
185.4837187788815
 20
241.4451977396596
 72
     1
 10
185.4837187788815
 20
241.4451977396596
 11
185.4837187788815
 21
241.4451977396596
 97
        0
 75
     0
 76
     1
 98
        0
450
        0
451
        0
460
0.0
461
0.0
452
        0
462
0.0
453
        0
470

  0
HATCH
  5
2F93
330
1F
100
AcDbEntity
  8
图层 1
 62
     7
100
AcDbHatch
 10
0.0
 20
0.0
 30
0.0
210
0.0
220
0.0
230
1.0
  2
SOLID
 70
     1
 71
     0
 91
        1
 92
        1
 93
        2
 72
     4
 94
        3
 73
     0
 74
     0
 95
       38
 96
       34
 40
0.0
 40
0.0
 40
0.0
 40
0.0
 40
0.3527780104152769
 40
0.3527780104152769
 40
0.3527780104152769
 40
0.7055560208305538
 40
0.7055560208305538
 40
0.7055560208305538
 40
1.058334031245828
 40
1.058334031245828
 40
1.058334031245828
 40
1.411112041661104
 40
1.411112041661104
 40
1.411112041661104
 40
1.763890052076384
 40
1.763890052076384
 40
1.763890052076384
 40
2.116668062491659
 40
2.116668062491659
 40
2.116668062491659
 40
2.469446072906936
 40
2.469446072906936
 40
2.469446072906936
 40
2.822224083322215
 40
2.822224083322215
 40
2.822224083322215
 40
3.175002093737492
 40
3.175002093737492
 40
3.175002093737492
 40
3.527780104152768
 40
3.527780104152768
 40
3.527780104152768
 40
3.880558114568044
 40
3.880558114568044
 40
3.880558114568044
 40
3.880558114568044
 10
185.907121293335
 20
220.1937677098971
 10
185.9005756075949
 20
220.0449394867532
 10
185.9329595265197
 20
220.1136691870245
 10
185.864746590912
 20
219.9817219428946
 10
185.864746590912
 20
219.9817219428946
 10
185.822371888489
 20
219.9605345916831
 10
185.822371888489
 20
219.9605345916831
 10
185.822371888489
 20
219.9605345916831
 10
185.6528730787974
 20
219.9605345916831
 10
185.6528730787974
 20
219.9605345916831
 10
185.6528730787974
 20
219.9605345916831
 10
185.5894832800509
 20
220.002909294106
 10
185.5894832800509
 20
220.002909294106
 10
185.5894832800509
 20
220.002909294106
 10
185.5681236739515
 20
220.0240966453175
 10
185.5681236739515
 20
220.0240966453175
 10
185.5681236739515
 20
220.0240966453175
 10
185.5681236739515
 20
220.045283996529
 10
185.5681236739515
 20
220.045283996529
 10
185.5681236739515
 20
220.045283996529
 10
185.547108577628
 20
220.0876586989519
 10
185.547108577628
 20
220.0876586989519
 10
185.547108577628
 20
220.0876586989519
 10
185.547108577628
 20
220.1513930074742
 10
185.547108577628
 20
220.1513930074742
 10
185.547108577628
 20
220.1513930074742
 10
185.5894832800509
 20
220.23614241232
 10
185.5894832800509
 20
220.23614241232
 10
185.5894832800509
 20
220.23614241232
 10
185.6318579824738
 20
220.2573297635315
 10
185.6318579824738
 20
220.2573297635315
 10
185.7055830744942
 20
220.2566407439799
 10
185.8416644359337
 20
220.3310548555519
 10
185.907121293335
 20
220.1937677098971
 72
     1
 10
185.907121293335
 20
220.1937677098971
 11
185.907121293335
 21
220.1937677098971
 97
        0
 75
     0
 76
     1
 98
        0
450
        0
451
        0
460
0.0
461
0.0
452
        0
462
0.0
453
        0
470

  0
HATCH
  5
2FDE
330
1F
100
AcDbEntity
  8
图层 1
 62
     7
100
AcDbHatch
 10
0.0
 20
0.0
 30
0.0
210
0.0
220
0.0
230
1.0
  2
SOLID
 70
     1
 71
     0
 91
        1
 92
        1
 93
        2
 72
     4
 94
        3
 73
     0
 74
     0
 95
       50
 96
       46
 40
0.0
 40
0.0
 40
0.0
 40
0.0
 40
0.3527780104152769
 40
0.3527780104152769
 40
0.3527780104152769
 40
0.7055560208305538
 40
0.7055560208305538
 40
0.7055560208305538
 40
1.058334031245828
 40
1.058334031245828
 40
1.058334031245828
 40
1.411112041661104
 40
1.411112041661104
 40
1.411112041661104
 40
1.763890052076384
 40
1.763890052076384
 40
1.763890052076384
 40
2.116668062491659
 40
2.116668062491659
 40
2.116668062491659
 40
2.469446072906936
 40
2.469446072906936
 40
2.469446072906936
 40
2.822224083322215
 40
2.822224083322215
 40
2.822224083322215
 40
3.175002093737492
 40
3.175002093737492
 40
3.175002093737492
 40
3.527780104152768
 40
3.527780104152768
 40
3.527780104152768
 40
3.880558114568044
 40
3.880558114568044
 40
3.880558114568044
 40
4.233336124983321
 40
4.233336124983321
 40
4.233336124983321
 40
4.586114135398599
 40
4.586114135398599
 40
4.586114135398599
 40
4.938892145813873
 40
4.938892145813873
 40
4.938892145813873
 40
5.291670156229153
 40
5.291670156229153
 40
5.291670156229153
 40
5.291670156229153
 10
180.9117295442905
 20
208.9327766684477
 10
180.9117295442905
 20
208.9327766684477
 10
180.9117295442905
 20
208.7637946234197
 10
180.9117295442905
 20
208.7637946234197
 10
181.2273004989198
 20
208.6749111012643
 10
181.3833634273555
 20
208.6776671794706
 10
181.6948002646751
 20
208.5097186637701
 10
181.9542161258496
 20
208.4294478860095
 10
182.1388733656765
 20
208.2134402565853
 10
182.3297317814676
 20
208.02292635057
 10
182.3297317814676
 20
208.02292635057
 10
182.435496282637
 20
208.065301052993
 10
182.435496282637
 20
208.065301052993
 10
182.288390608372
 20
208.2733849575739
 10
182.3752070718726
 20
208.2134402565853
 10
182.1605774815516
 20
208.3824223016133
 10
182.1605774815516
 20
208.3824223016133
 10
182.1182027791287
 20
208.4247970040363
 10
182.1182027791287
 20
208.4247970040363
 10
182.1182027791287
 20
208.4247970040363
 10
182.0968431730294
 20
208.467516216235
 10
182.0968431730294
 20
208.467516216235
 10
182.0968431730294
 20
208.467516216235
 10
182.0544684706064
 20
208.4883590576707
 10
182.0544684706064
 20
208.4883590576707
 10
182.0544684706064
 20
208.4883590576707
 10
181.9910786718599
 20
208.5305615052057
 10
181.9910786718599
 20
208.5305615052057
 10
181.9910786718599
 20
208.5305615052057
 10
181.948703969437
 20
208.552093366193
 10
181.948703969437
 20
208.552093366193
 10
181.948703969437
 20
208.552093366193
 10
181.9063292670141
 20
208.5729362076286
 10
181.9063292670141
 20
208.5729362076286
 10
181.9063292670141
 20
208.5729362076286
 10
181.8639545645911
 20
208.6156554198274
 10
181.8639545645911
 20
208.6156554198274
 10
181.8639545645911
 20
208.6156554198274
 10
181.821924371944
 20
208.6368427710388
 10
181.821924371944
 20
208.6368427710388
 10
181.6637943848536
 20
208.6742220817127
 10
181.5452830219797
 20
208.8092699138248
 10
181.3771622513911
 20
208.8061693258427
 10
181.2803550043924
 20
208.8573290275484
 10
181.0126709085988
 20
208.8971199066528
 10
180.9117295442905
 20
208.9327766684477
 72
     1
 10
180.9117295442905
 20
208.9327766684477
 11
180.9117295442905
 21
208.9327766684477
 97
        0
 75
     0
 76
     1
 98
        0
450
        0
451
        0
460
0.0
461
0.0
452
        0
462
0.0
453
        0
470

  0
HATCH
  5
35C8
330
1F
100
AcDbEntity
  8
图层 1
 62
     7
100
AcDbHatch
 10
0.0
 20
0.0
 30
0.0
210
0.0
220
0.0
230
1.0
  2
SOLID
 70
     1
 71
     0
 91
        1
 92
        1
 93
        2
 72
     4
 94
        3
 73
     0
 74
     0
 95
       38
 96
       34
 40
0.0
 40
0.0
 40
0.0
 40
0.0
 40
0.3527780104152769
 40
0.3527780104152769
 40
0.3527780104152769
 40
0.7055560208305538
 40
0.7055560208305538
 40
0.7055560208305538
 40
1.058334031245828
 40
1.058334031245828
 40
1.058334031245828
 40
1.411112041661104
 40
1.411112041661104
 40
1.411112041661104
 40
1.763890052076384
 40
1.763890052076384
 40
1.763890052076384
 40
2.116668062491659
 40
2.116668062491659
 40
2.116668062491659
 40
2.469446072906936
 40
2.469446072906936
 40
2.469446072906936
 40
2.822224083322215
 40
2.822224083322215
 40
2.822224083322215
 40
3.175002093737492
 40
3.175002093737492
 40
3.175002093737492
 40
3.527780104152768
 40
3.527780104152768
 40
3.527780104152768
 40
3.880558114568044
 40
3.880558114568044
 40
3.880558114568044
 40
3.880558114568044
 10
189.145513185819
 20
166.8326485368285
 10
189.207869455238
 20
166.740492171803
 10
189.1317327947871
 20
166.6833035490209
 10
189.103138483396
 20
166.6209472796017
 10
189.103138483396
 20
166.6209472796017
 10
189.0607637809731
 20
166.5997599283903
 10
189.0607637809731
 20
166.5997599283903
 10
189.0607637809731
 20
166.5997599283903
 10
188.9973739822266
 20
166.5785725771788
 10
188.9973739822266
 20
166.5785725771788
 10
188.9973739822266
 20
166.5785725771788
 10
188.9549992798037
 20
166.5997599283903
 10
188.9549992798037
 20
166.5997599283903
 10
188.9549992798037
 20
166.5997599283903
 10
188.8916094810572
 20
166.5997599283903
 10
188.8916094810572
 20
166.5997599283903
 10
188.8916094810572
 20
166.5997599283903
 10
188.8492347786343
 20
166.6209472796017
 10
188.8492347786343
 20
166.6209472796017
 10
188.8492347786343
 20
166.6209472796017
 10
188.8278751725349
 20
166.6633219820247
 10
188.8278751725349
 20
166.6633219820247
 10
188.8278751725349
 20
166.6633219820247
 10
188.8068600762114
 20
166.6845093332361
 10
188.8068600762114
 20
166.6845093332361
 10
188.8068600762114
 20
166.6845093332361
 10
188.8068600762114
 20
166.8326485368285
 10
188.8068600762114
 20
166.8326485368285
 10
188.8068600762114
 20
166.8326485368285
 10
188.8702498749578
 20
166.896038335575
 10
188.8702498749578
 20
166.896038335575
 10
189.0228677056355
 20
166.8819134347673
 10
189.0686875058164
 20
166.9411691162043
 10
189.145513185819
 20
166.8326485368285
 72
     1
 10
189.145513185819
 20
166.8326485368285
 11
189.145513185819
 21
166.8326485368285
 97
        0
 75
     0
 76
     1
 98
        0
450
        0
451
        0
460
0.0
461
0.0
452
        0
462
0.0
453
        0
470

  0
HATCH
  5
35D8
330
1F
100
AcDbEntity
  8
图层 1
 62
     7
100
AcDbHatch
 10
0.0
 20
0.0
 30
0.0
210
0.0
220
0.0
230
1.0
  2
SOLID
 70
     1
 71
     0
 91
        1
 92
        1
 93
        2
 72
     4
 94
        3
 73
     0
 74
     0
 95
       68
 96
       64
 40
0.0
 40
0.0
 40
0.0
 40
0.0
 40
0.3527780104152769
 40
0.3527780104152769
 40
0.3527780104152769
 40
0.7055560208305538
 40
0.7055560208305538
 40
0.7055560208305538
 40
1.058334031245828
 40
1.058334031245828
 40
1.058334031245828
 40
1.411112041661104
 40
1.411112041661104
 40
1.411112041661104
 40
1.763890052076384
 40
1.763890052076384
 40
1.763890052076384
 40
2.116668062491659
 40
2.116668062491659
 40
2.116668062491659
 40
2.469446072906936
 40
2.469446072906936
 40
2.469446072906936
 40
2.822224083322215
 40
2.822224083322215
 40
2.822224083322215
 40
3.175002093737492
 40
3.175002093737492
 40
3.175002093737492
 40
3.527780104152768
 40
3.527780104152768
 40
3.527780104152768
 40
3.880558114568044
 40
3.880558114568044
 40
3.880558114568044
 40
4.233336124983321
 40
4.233336124983321
 40
4.233336124983321
 40
4.586114135398599
 40
4.586114135398599
 40
4.586114135398599
 40
4.938892145813873
 40
4.938892145813873
 40
4.938892145813873
 40
5.291670156229153
 40
5.291670156229153
 40
5.291670156229153
 40
5.64444816664443
 40
5.64444816664443
 40
5.64444816664443
 40
5.997226177059705
 40
5.997226177059705
 40
5.997226177059705
 40
6.350004187474984
 40
6.350004187474984
 40
6.350004187474984
 40
6.702782197890257
 40
6.702782197890257
 40
6.702782197890257
 40
7.055560208305537
 40
7.055560208305537
 40
7.055560208305537
 40
7.408338218720808
 40
7.408338218720808
 40
7.408338218720808
 40
7.408338218720808
 10
174.7732543591544
 20
135.4846705078077
 10
174.7732543591544
 20
135.4846705078077
 10
174.7732543591544
 20
135.3789060066383
 10
174.7732543591544
 20
135.3789060066383
 10
174.7732543591544
 20
135.3789060066383
 10
174.8156290615773
 20
135.3789060066383
 10
174.8156290615773
 20
135.3789060066383
 10
174.8156290615773
 20
135.3789060066383
 10
174.8580037640002
 20
135.3578909103147
 10
174.8580037640002
 20
135.3578909103147
 10
174.8580037640002
 20
135.3578909103147
 10
174.9213935627468
 20
135.3578909103147
 10
174.9213935627468
 20
135.3578909103147
 10
174.9213935627468
 20
135.3578909103147
 10
174.9637682651697
 20
135.3365313042154
 10
174.9637682651697
 20
135.3365313042154
 10
174.9637682651697
 20
135.3365313042154
 10
174.9847833614933
 20
135.3365313042154
 10
174.9847833614933
 20
135.3365313042154
 10
174.9847833614933
 20
135.3365313042154
 10
175.0271580639162
 20
135.3155162078918
 10
175.0271580639162
 20
135.3155162078918
 10
175.0271580639162
 20
135.3155162078918
 10
175.0485176700155
 20
135.2941566017924
 10
175.0485176700155
 20
135.2941566017924
 10
175.0485176700155
 20
135.2941566017924
 10
175.0695327663391
 20
135.2941566017924
 10
175.0695327663391
 20
135.2941566017924
 10
175.0695327663391
 20
135.2941566017924
 10
175.0908923724385
 20
135.2731415054689
 10
175.0908923724385
 20
135.2731415054689
 10
175.0908923724385
 20
135.2731415054689
 10
175.1332670748614
 20
135.2731415054689
 10
175.1332670748614
 20
135.2731415054689
 10
175.1332670748614
 20
135.2731415054689
 10
175.154282171185
 20
135.2517818993695
 10
175.154282171185
 20
135.2517818993695
 10
175.154282171185
 20
135.2517818993695
 10
175.154282171185
 20
135.3578909103147
 10
175.154282171185
 20
135.3578909103147
 10
175.154282171185
 20
135.3578909103147
 10
175.1332670748614
 20
135.3789060066383
 10
175.1332670748614
 20
135.3789060066383
 10
175.1332670748614
 20
135.3789060066383
 10
175.0908923724385
 20
135.3789060066383
 10
175.0908923724385
 20
135.3789060066383
 10
175.0908923724385
 20
135.3789060066383
 10
175.0908923724385
 20
135.3999211029619
 10
175.0908923724385
 20
135.3999211029619
 10
175.0908923724385
 20
135.3999211029619
 10
175.0695327663391
 20
135.3999211029619
 10
175.0695327663391
 20
135.3999211029619
 10
175.0695327663391
 20
135.3999211029619
 10
175.0271580639162
 20
135.4212807090612
 10
175.0271580639162
 20
135.4212807090612
 10
175.0271580639162
 20
135.4212807090612
 10
175.0061429675926
 20
135.4212807090612
 10
175.0061429675926
 20
135.4212807090612
 10
175.0061429675926
 20
135.4212807090612
 10
174.9637682651697
 20
135.4422958053848
 10
174.9637682651697
 20
135.4422958053848
 10
174.8996894468716
 20
135.4498750204523
 10
174.8394002361073
 20
135.4860485469109
 10
174.7732543591544
 20
135.4846705078077
 72
     1
 10
174.7732543591544
 20
135.4846705078077
 11
174.7732543591544
 21
135.4846705078077
 97
        0
 75
     0
 76
     1
 98
        0
450
        0
451
        0
460
0.0
461
0.0
452
        0
462
0.0
453
        0
470

  0
HATCH
  5
3807
330
1F
100
AcDbEntity
  8
图层 1
 62
     7
100
AcDbHatch
 10
0.0
 20
0.0
 30
0.0
210
0.0
220
0.0
230
1.0
  2
SOLID
 70
     1
 71
     0
 91
        1
 92
        1
 93
        2
 72
     4
 94
        3
 73
     0
 74
     0
 95
       29
 96
       25
 40
0.0
 40
0.0
 40
0.0
 40
0.0
 40
0.3527780104152769
 40
0.3527780104152769
 40
0.3527780104152769
 40
0.7055560208305538
 40
0.7055560208305538
 40
0.7055560208305538
 40
1.058334031245828
 40
1.058334031245828
 40
1.058334031245828
 40
1.411112041661104
 40
1.411112041661104
 40
1.411112041661104
 40
1.763890052076384
 40
1.763890052076384
 40
1.763890052076384
 40
2.116668062491659
 40
2.116668062491659
 40
2.116668062491659
 40
2.469446072906936
 40
2.469446072906936
 40
2.469446072906936
 40
2.822224083322215
 40
2.822224083322215
 40
2.822224083322215
 40
2.822224083322215
 10
175.4929352807925
 20
164.0174869039101
 10
175.4929352807925
 20
164.0174869039101
 10
175.5139503771161
 20
163.9751122014871
 10
175.5139503771161
 20
163.9751122014871
 10
175.5139503771161
 20
163.9751122014871
 10
175.5139503771161
 20
163.9327374990642
 10
175.5139503771161
 20
163.9327374990642
 10
175.5139503771161
 20
163.9327374990642
 10
175.4929352807925
 20
163.8903627966413
 10
175.4929352807925
 20
163.8903627966413
 10
175.4929352807925
 20
163.8903627966413
 10
175.471920184469
 20
163.8691754454298
 10
175.471920184469
 20
163.8691754454298
 10
175.471920184469
 20
163.8691754454298
 10
175.4505605783696
 20
163.8269729978948
 10
175.4505605783696
 20
163.8269729978948
 10
175.3571984291289
 20
163.7715069239916
 10
175.272449024283
 20
163.8195660377152
 10
175.1966568736079
 20
163.8691754454298
 10
175.208370205985
 20
163.9930267098286
 10
175.1563492298397
 20
164.0216210212197
 10
175.2600466723544
 20
164.0596893514451
 10
175.3330827448232
 20
164.1094710140476
 10
175.4357466580104
 20
164.0753645462439
 10
175.4929352807925
 20
164.0174869039101
 72
     1
 10
175.4929352807925
 20
164.0174869039101
 11
175.4929352807925
 21
164.0174869039101
 97
        0
 75
     0
 76
     1
 98
        0
450
        0
451
        0
460
0.0
461
0.0
452
        0
462
0.0
453
        0
470

  0
HATCH
  5
3895
330
1F
100
AcDbEntity
  8
图层 1
 62
     7
100
AcDbHatch
 10
0.0
 20
0.0
 30
0.0
210
0.0
220
0.0
230
1.0
  2
SOLID
 70
     1
 71
     0
 91
        1
 92
        1
 93
        2
 72
     4
 94
        3
 73
     0
 74
     0
 95
       11
 96
        7
 40
0.0
 40
0.0
 40
0.0
 40
0.0
 40
0.3527780104152769
 40
0.3527780104152769
 40
0.3527780104152769
 40
0.7055560208305538
 40
0.7055560208305538
 40
0.7055560208305538
 40
0.7055560208305538
 10
174.9213935627468
 20
174.5369206529582
 10
174.9213935627468
 20
174.5369206529582
 10
174.9213935627468
 20
174.3043765542958
 10
174.9213935627468
 20
174.3043765542958
 10
174.9213935627468
 20
174.3043765542958
 10
174.9213935627468
 20
174.5369206529582
 10
174.9213935627468
 20
174.5369206529582
 72
     1
 10
174.9213935627468
 20
174.5369206529582
 11
174.9213935627468
 21
174.5369206529582
 97
        0
 75
     0
 76
     1
 98
        0
450
        0
451
        0
460
0.0
461
0.0
452
        0
462
0.0
453
        0
470

  0
HATCH
  5
3943
330
1F
100
AcDbEntity
  8
图层 1
 62
     7
100
AcDbHatch
 10
0.0
 20
0.0
 30
0.0
210
0.0
220
0.0
230
1.0
  2
SOLID
 70
     1
 71
     0
 91
        1
 92
        1
 93
        2
 72
     4
 94
        3
 73
     0
 74
     0
 95
      131
 96
      127
 40
0.0
 40
0.0
 40
0.0
 40
0.0
 40
0.3527780104152769
 40
0.3527780104152769
 40
0.3527780104152769
 40
0.7055560208305538
 40
0.7055560208305538
 40
0.7055560208305538
 40
1.058334031245828
 40
1.058334031245828
 40
1.058334031245828
 40
1.411112041661104
 40
1.411112041661104
 40
1.411112041661104
 40
1.763890052076384
 40
1.763890052076384
 40
1.763890052076384
 40
2.116668062491659
 40
2.116668062491659
 40
2.116668062491659
 40
2.469446072906936
 40
2.469446072906936
 40
2.469446072906936
 40
2.822224083322215
 40
2.822224083322215
 40
2.822224083322215
 40
3.175002093737492
 40
3.175002093737492
 40
3.175002093737492
 40
3.527780104152768
 40
3.527780104152768
 40
3.527780104152768
 40
3.880558114568044
 40
3.880558114568044
 40
3.880558114568044
 40
4.233336124983321
 40
4.233336124983321
 40
4.233336124983321
 40
4.586114135398599
 40
4.586114135398599
 40
4.586114135398599
 40
4.938892145813873
 40
4.938892145813873
 40
4.938892145813873
 40
5.291670156229153
 40
5.291670156229153
 40
5.291670156229153
 40
5.64444816664443
 40
5.64444816664443
 40
5.64444816664443
 40
5.997226177059705
 40
5.997226177059705
 40
5.997226177059705
 40
6.350004187474984
 40
6.350004187474984
 40
6.350004187474984
 40
6.702782197890257
 40
6.702782197890257
 40
6.702782197890257
 40
7.055560208305537
 40
7.055560208305537
 40
7.055560208305537
 40
7.408338218720808
 40
7.408338218720808
 40
7.408338218720808
 40
7.76111622913609
 40
7.76111622913609
 40
7.76111622913609
 40
8.113894239551369
 40
8.113894239551369
 40
8.113894239551369
 40
8.466672249966642
 40
8.466672249966642
 40
8.466672249966642
 40
8.819450260381922
 40
8.819450260381922
 40
8.819450260381922
 40
9.172228270797198
 40
9.172228270797198
 40
9.172228270797198
 40
9.525006281212476
 40
9.525006281212476
 40
9.525006281212476
 40
9.877784291627751
 40
9.877784291627751
 40
9.877784291627751
 40
10.23056230204303
 40
10.23056230204303
 40
10.23056230204303
 40
10.58334031245831
 40
10.58334031245831
 40
10.58334031245831
 40
10.93611832287358
 40
10.93611832287358
 40
10.93611832287358
 40
11.28889633328886
 40
11.28889633328886
 40
11.28889633328886
 40
11.64167434370414
 40
11.64167434370414
 40
11.64167434370414
 40
11.99445235411941
 40
11.99445235411941
 40
11.99445235411941
 40
12.34723036453469
 40
12.34723036453469
 40
12.34723036453469
 40
12.70000837494997
 40
12.70000837494997
 40
12.70000837494997
 40
13.05278638536524
 40
13.05278638536524
 40
13.05278638536524
 40
13.40556439578052
 40
13.40556439578052
 40
13.40556439578052
 40
13.7583424061958
 40
13.7583424061958
 40
13.7583424061958
 40
14.11112041661107
 40
14.11112041661107
 40
14.11112041661107
 40
14.46389842702635
 40
14.46389842702635
 40
14.46389842702635
 40
14.81667643744163
 40
14.81667643744163
 40
14.81667643744163
 40
14.81667643744163
 10
173.3972823146245
 20
126.8274843518258
 10
173.3972823146245
 20
126.8274843518258
 10
173.3972823146245
 20
126.7217198506564
 10
173.3972823146245
 20
126.7217198506564
 10
173.3972823146245
 20
126.7217198506564
 10
173.4186419207238
 20
126.7217198506564
 10
173.4186419207238
 20
126.7217198506564
 10
173.4186419207238
 20
126.7217198506564
 10
173.4820317194703
 20
126.7007047543328
 10
173.4820317194703
 20
126.7007047543328
 10
173.4820317194703
 20
126.7007047543328
 10
173.5244064218933
 20
126.6793451482334
 10
173.5244064218933
 20
126.6793451482334
 10
173.5244064218933
 20
126.6793451482334
 10
173.5877962206398
 20
126.6793451482334
 10
173.5877962206398
 20
126.6793451482334
 10
173.5877962206398
 20
126.6793451482334
 10
173.6301709230627
 20
126.6583300519099
 10
173.6301709230627
 20
126.6583300519099
 10
173.7955356154449
 20
126.5911506456296
 10
173.759706598762
 20
126.6380039751379
 10
173.9478089363468
 20
126.5525655507404
 10
173.9478089363468
 20
126.5525655507404
 10
173.9688240326703
 20
126.4464565397952
 10
173.9688240326703
 20
126.4464565397952
 10
173.9688240326703
 20
126.4464565397952
 10
174.0325583411926
 20
126.5101908483175
 10
174.0325583411926
 20
126.5101908483175
 10
174.0325583411926
 20
126.5101908483175
 10
174.0749330436156
 20
126.5101908483175
 10
174.0749330436156
 20
126.5101908483175
 10
174.0749330436156
 20
126.5101908483175
 10
174.1593379386856
 20
126.4678161458946
 10
174.1593379386856
 20
126.4678161458946
 10
174.1593379386856
 20
126.4678161458946
 10
174.180697544785
 20
126.4464565397952
 10
174.180697544785
 20
126.4464565397952
 10
174.2464989119621
 20
126.3982251711837
 10
174.3298702777047
 20
126.3716979184474
 10
174.3922265471239
 20
126.3196769423022
 10
174.608234176548
 20
126.2059887162895
 10
174.7749769080334
 20
126.0278771622029
 10
174.9637682651697
 20
125.8749148217494
 10
174.9637682651697
 20
125.8749148217494
 10
175.0061429675926
 20
125.9172895241723
 10
175.0061429675926
 20
125.9172895241723
 10
174.961356696739
 20
125.9631093243532
 10
174.782211613325
 20
126.1246844092016
 10
174.7308796567315
 20
126.1501781326105
 10
174.7308796567315
 20
126.1501781326105
 10
174.6885049543085
 20
126.1925528350335
 10
174.6885049543085
 20
126.1925528350335
 10
174.6885049543085
 20
126.1925528350335
 10
174.667489857985
 20
126.2349275374564
 10
174.667489857985
 20
126.2349275374564
 10
174.667489857985
 20
126.2349275374564
 10
174.625115155562
 20
126.2559426337799
 10
174.625115155562
 20
126.2559426337799
 10
174.625115155562
 20
126.2559426337799
 10
174.5827404531391
 20
126.2983173362029
 10
174.5827404531391
 20
126.2983173362029
 10
174.5827404531391
 20
126.2983173362029
 10
174.5403657507162
 20
126.3196769423022
 10
174.5403657507162
 20
126.3196769423022
 10
174.5403657507162
 20
126.3196769423022
 10
174.4979910482932
 20
126.3620516447252
 10
174.4979910482932
 20
126.3620516447252
 10
174.4735308542117
 20
126.3875453681341
 10
174.3247026310678
 20
126.4695386947736
 10
174.2864620459544
 20
126.4888312422181
 10
174.2864620459544
 20
126.4888312422181
 10
174.2654469496308
 20
126.5101908483175
 10
174.2654469496308
 20
126.5101908483175
 10
174.2654469496308
 20
126.5101908483175
 10
174.2230722472079
 20
126.5312059446411
 10
174.2230722472079
 20
126.5312059446411
 10
174.2230722472079
 20
126.5312059446411
 10
174.2017126411085
 20
126.5525655507404
 10
174.2017126411085
 20
126.5525655507404
 10
174.2017126411085
 20
126.5525655507404
 10
174.1383228423621
 20
126.573580647064
 10
174.1383228423621
 20
126.573580647064
 10
174.1383228423621
 20
126.573580647064
 10
174.1169632362627
 20
126.5945957433876
 10
174.1169632362627
 20
126.5945957433876
 10
174.1169632362627
 20
126.5945957433876
 10
174.0959481399391
 20
126.7007047543328
 10
174.0959481399391
 20
126.7007047543328
 10
174.0959481399391
 20
126.7007047543328
 10
174.0325583411926
 20
126.6369704458105
 10
174.0325583411926
 20
126.6369704458105
 10
174.0325583411926
 20
126.6369704458105
 10
173.9901836387697
 20
126.6369704458105
 10
173.9901836387697
 20
126.6369704458105
 10
173.9901836387697
 20
126.6369704458105
 10
173.9054342339239
 20
126.6793451482334
 10
173.9054342339239
 20
126.6793451482334
 10
173.9054342339239
 20
126.6793451482334
 10
173.8420444351773
 20
126.7007047543328
 10
173.8420444351773
 20
126.7007047543328
 10
173.8420444351773
 20
126.7007047543328
 10
173.7996697327544
 20
126.7217198506564
 10
173.7996697327544
 20
126.7217198506564
 10
173.7996697327544
 20
126.7217198506564
 10
173.7572950303315
 20
126.7217198506564
 10
173.7572950303315
 20
126.7217198506564
 10
173.7572950303315
 20
126.7217198506564
 10
173.6725456254856
 20
126.7640945530793
 10
173.6725456254856
 20
126.7640945530793
 10
173.6725456254856
 20
126.7640945530793
 10
173.6515305291621
 20
126.7640945530793
 10
173.6515305291621
 20
126.7640945530793
 10
173.6515305291621
 20
126.7640945530793
 10
173.5667811243162
 20
126.7851096494029
 10
173.5667811243162
 20
126.7851096494029
 10
173.5667811243162
 20
126.7851096494029
 10
173.5033913255697
 20
126.8064692555022
 10
173.5033913255697
 20
126.8064692555022
 10
173.5033913255697
 20
126.8064692555022
 10
173.4396570170474
 20
126.8064692555022
 10
173.4396570170474
 20
126.8064692555022
 10
173.4396570170474
 20
126.8064692555022
 10
173.4186419207238
 20
126.8274843518258
 10
173.4186419207238
 20
126.8274843518258
 10
173.4186419207238
 20
126.8274843518258
 10
173.3972823146245
 20
126.8274843518258
 10
173.3972823146245
 20
126.8274843518258
 72
     1
 10
173.3972823146245
 20
126.8274843518258
 11
173.3972823146245
 21
126.8274843518258
 97
        0
 75
     0
 76
     1
 98
        0
450
        0
451
        0
460
0.0
461
0.0
452
        0
462
0.0
453
        0
470

  0
HATCH
  5
4842
330
1F
100
AcDbEntity
  8
图层 1
 62
     7
100
AcDbHatch
 10
0.0
 20
0.0
 30
0.0
210
0.0
220
0.0
230
1.0
  2
SOLID
 70
     1
 71
     0
 91
        1
 92
        1
 93
        2
 72
     4
 94
        3
 73
     0
 74
     0
 95
       47
 96
       43
 40
0.0
 40
0.0
 40
0.0
 40
0.0
 40
0.3527780104152769
 40
0.3527780104152769
 40
0.3527780104152769
 40
0.7055560208305538
 40
0.7055560208305538
 40
0.7055560208305538
 40
1.058334031245828
 40
1.058334031245828
 40
1.058334031245828
 40
1.411112041661104
 40
1.411112041661104
 40
1.411112041661104
 40
1.763890052076384
 40
1.763890052076384
 40
1.763890052076384
 40
2.116668062491659
 40
2.116668062491659
 40
2.116668062491659
 40
2.469446072906936
 40
2.469446072906936
 40
2.469446072906936
 40
2.822224083322215
 40
2.822224083322215
 40
2.822224083322215
 40
3.175002093737492
 40
3.175002093737492
 40
3.175002093737492
 40
3.527780104152768
 40
3.527780104152768
 40
3.527780104152768
 40
3.880558114568044
 40
3.880558114568044
 40
3.880558114568044
 40
4.233336124983321
 40
4.233336124983321
 40
4.233336124983321
 40
4.586114135398599
 40
4.586114135398599
 40
4.586114135398599
 40
4.938892145813873
 40
4.938892145813873
 40
4.938892145813873
 40
4.938892145813873
 10
180.1920486226523
 20
255.6479577566324
 10
180.1920486226523
 20
255.6479577566324
 10
180.2130637189759
 20
255.6055830542095
 10
180.2130637189759
 20
255.6055830542095
 10
180.2130637189759
 20
255.6055830542095
 10
180.2130637189759
 20
255.5210059042515
 10
180.2130637189759
 20
255.5210059042515
 10
180.2130637189759
 20
255.5210059042515
 10
180.1920486226523
 20
255.4786312018286
 10
180.1920486226523
 20
255.4786312018286
 10
180.1920486226523
 20
255.4786312018286
 10
180.1496739202294
 20
255.4359119896299
 10
180.1496739202294
 20
255.4359119896299
 10
180.1496739202294
 20
255.4359119896299
 10
180.1283143141301
 20
255.4147246384184
 10
180.1283143141301
 20
255.4147246384184
 10
180.1283143141301
 20
255.4147246384184
 10
180.0225498129606
 20
255.4147246384184
 10
180.0225498129606
 20
255.4147246384184
 10
180.0225498129606
 20
255.4147246384184
 10
179.9591600142141
 20
255.4359119896299
 10
179.9591600142141
 20
255.4359119896299
 10
179.9591600142141
 20
255.4359119896299
 10
179.9167853117912
 20
255.4570993408414
 10
179.9167853117912
 20
255.4570993408414
 10
179.9167853117912
 20
255.4570993408414
 10
179.8957702154676
 20
255.4786312018286
 10
179.8957702154676
 20
255.4786312018286
 10
179.8957702154676
 20
255.4786312018286
 10
179.8744106093683
 20
255.4994740432643
 10
179.8744106093683
 20
255.4994740432643
 10
179.8744106093683
 20
255.4994740432643
 10
179.8744106093683
 20
255.6479577566324
 10
179.8744106093683
 20
255.6479577566324
 10
179.9608825630931
 20
255.7323626517025
 10
180.045631967939
 20
255.7085914771726
 10
180.1496739202294
 20
255.7115198102668
 10
180.1496739202294
 20
255.7115198102668
 10
180.170689016553
 20
255.6688005980681
 10
180.170689016553
 20
255.6688005980681
 10
180.170689016553
 20
255.6688005980681
 10
180.1920486226523
 20
255.6479577566324
 10
180.1920486226523
 20
255.6479577566324
 72
     1
 10
180.1920486226523
 20
255.6479577566324
 11
180.1920486226523
 21
255.6479577566324
 97
        0
 75
     0
 76
     1
 98
        0
450
        0
451
        0
460
0.0
461
0.0
452
        0
462
0.0
453
        0
470

  0
LINE
  5
15523
330
1F
100
AcDbEntity
  8
图框
 62
     1
370
    18
100
AcDbLine
 10
531.0145826987259
 20
289.1768299845588
 30
0.0
 11
679.5139576665757
 21
289.1768299845588
 31
0.0
1001
AcDbBlockRepETag
1070
     1
1071
      143
1005
15523
  0
MTEXT
  5
15556
102
{ACAD_XDICTIONARY
360
1CB8B
102
}
330
1F
100
AcDbEntity
  8
打标文字
 62
     3
100
AcDbMText
 10
632.9349364160941
 20
266.3296215361975
 30
0.0
 40
1.5
 41
46.88571713065463
 46
47.39332115782246
 71
     1
 72
     5
  3
\A1;{\f仿宋_GB2312|b0|i0|c134|p49;技术参数}:\P- {\f仿宋_GB2312|b0|i0|c134|p49;材料}: {\f仿宋_GB2312|b0|i0|c134|p49;铜合金}\P- {\f仿宋_GB2312|b0|i0|c134|p49;表面处理}: {\f仿宋_GB2312|b0|i0|c134|p49;镀银}\P- {\f仿宋_GB2312|b0|i0|c134|p49;额定电流}: 100A\P- {\f仿宋_GB2312|b0|i0|c134|p4
  3
9;接触电阻}: ≤0.3mΩ\P- {\f仿宋_GB2312|b0|i0|c134|p49;线径范围}: 25mm{\H0.7x;\S2^ ;}\P- {\f仿宋_GB2312|b0|i0|c134|p49;最大电缆直径}: 14mm\P- {\f仿宋_GB2312|b0|i0|c134|p49;剥线长度}: 19mm\P- {\f仿宋_GB2312|b0|i0|c134|p49;可插拔次数}: {\f仿宋_GB2312|b0|i0|c134|p49;≥}500\P- {\f仿宋_GB2312|
  3
b0|i0|c134|p49;电缆绞线标准}: IEC 60228-5\P\PTechnical specification:\P- Material: copper alloy\P- Surface: hard-silver plated\P- Rated current: 100A\P- Contact resistance: ≤0.3mΩ\P- Wire gauge: 25mm{\H0.7x;\S2^ ;}\P- Max. insulation diameter: 14mm\P- Strip
  1
ping length: 19mm\P- Mating cycles: {\f仿宋_GB2312|b0|i0|c134|p49;≥}500\P- For stranded fine wire acc. to: IEC 60228-5
  7
Romans字体
 73
     1
 44
1.0
1001
ACAD
1000
ACAD_MTEXT_DEFINED_HEIGHT_BEGIN
1070
    46
1040
47.39332115782246
1000
ACAD_MTEXT_DEFINED_HEIGHT_END
  0
LINE
  5
1555E
330
1F
100
AcDbEntity
  8
图框
 62
     1
100
AcDbLine
 10
677.7724080811392
 20
281.6769901273708
 30
0.0
 11
677.7724080811392
 21
262.1472338978545
 31
0.0
  0
MTEXT
  5
15566
330
1F
100
AcDbEntity
  8
图框
 62
     3
100
AcDbMText
 10
669.36931007112
 20
202.8738589380055
 30
0.0
 40
1.492756789270166
 41
16.80619601594785
 46
4.343372757943781
 71
     5
 72
     5
  1
CKSF-25G
  7
Romans字体
 73
     1
 44
1.0
1001
ACAD
1000
ACAD_MTEXT_DEFINED_HEIGHT_BEGIN
1070
    46
1040
4.343372757943781
1000
ACAD_MTEXT_DEFINED_HEIGHT_END
  0
MTEXT
  5
15567
330
1F
100
AcDbEntity
  8
图框
 62
     3
100
AcDbMText
 10
669.36931007112
 20
198.484133669437
 30
0.0
 40
1.492756789270166
 41
16.80619601594785
 46
4.436077779192773
 71
     5
 72
     5
  1
1010261201603
  7
Romans字体
 73
     1
 44
1.0
1001
ACAD
1000
ACAD_MTEXT_DEFINED_HEIGHT_BEGIN
1070
    46
1040
4.436077779192773
1000
ACAD_MTEXT_DEFINED_HEIGHT_END
  0
MTEXT
  5
15568
330
1F
100
AcDbEntity
  8
图框
 62
     3
100
AcDbMText
 10
635.3424775658663
 20
191.8303161222501
 30
0.0
 40
1.492756789270166
 41
5.414674223554219
 46
3.943047305235955
 71
     5
 72
     5
  1
2:1 
  7
Romans字体
 73
     1
 44
1.0
1001
ACAD
1000
ACAD_MTEXT_DEFINED_HEIGHT_BEGIN
1070
    46
1040
3.943047305235955
1000
ACAD_MTEXT_DEFINED_HEIGHT_END
  0
MTEXT
  5
15569
330
1F
100
AcDbEntity
  8
图框
 62
     3
100
AcDbMText
 10
646.1718260129758
 20
191.8303161222504
 30
0.0
 40
1.492756789270166
 41
5.414674223555066
 46
3.943047305235906
 71
     5
 72
     5
  1
15.4g
  7
Romans字体
 73
     1
 44
1.0
1001
ACAD
1000
ACAD_MTEXT_DEFINED_HEIGHT_BEGIN
1070
    46
1040
3.943047305235906
1000
ACAD_MTEXT_DEFINED_HEIGHT_END
  0
INSERT
  5
1556A
330
1F
100
AcDbEntity
  8
DIM
100
AcDbBlockReference
  2
A4图框-NEW
 10
114.3081561121811
 20
-56.09055511857542
 30
0.0
 41
0.5000000005871926
 42
0.5000000005871926
 43
0.5000000005871991
  0
LINE
  5
1C8F1
330
1F
100
AcDbEntity
  8
0
100
AcDbLine
 10
591.3234645739517
 20
241.5096957901937
 30
0.0
 11
591.3234645739517
 21
242.773393978739
 31
0.0
  0
LINE
  5
1C8F2
330
1F
100
AcDbEntity
  8
0
100
AcDbLine
 10
591.3234645739517
 20
251.2689831464204
 30
0.0
 11
591.3234645739517
 21
252.5096957901936
 31
0.0
  0
LINE
  5
1C8F3
330
1F
100
AcDbEntity
  8
0
100
AcDbLine
 10
591.3234645739517
 20
241.5096957901937
 30
0.0
 11
590.4734645739512
 21
240.6596957901939
 31
0.0
  0
LINE
  5
1C8F4
330
1F
100
AcDbEntity
  8
0
100
AcDbLine
 10
590.4734645739512
 20
240.6596957901939
 30
0.0
 11
590.4734645739512
 21
244.1974011006605
 31
0.0
  0
LINE
  5
1C8F5
330
1F
100
AcDbEntity
  8
0
100
AcDbLine
 10
590.4734645739512
 20
249.7376376425772
 30
0.0
 11
590.4734645739512
 21
253.3596957901936
 31
0.0
  0
LINE
  5
1C8F6
102
{ACAD_REACTORS
330
1C982
102
}
330
1F
100
AcDbEntity
  8
0
100
AcDbLine
 10
591.3234645739517
 20
252.5096957901936
 30
0.0
 11
590.4734645739512
 21
253.3596957901936
 31
0.0
  0
LWPOLYLINE
  5
1C8F7
330
1F
100
AcDbEntity
  8
0
100
AcDbPolyline
 90
       59
 70
     0
 43
0.0
 10
588.0234645739513
 20
252.5097057901934
 10
588.0233245739512
 20
252.4978557901936
 42
-0.0061475767
 10
588.0229045739508
 20
252.4859157901937
 42
-0.0059699268
 10
588.0221745739512
 20
252.4738657901939
 42
-0.0059270049
 10
588.0211645739513
 20
252.4617357901938
 42
-0.0060584544
 10
588.0198245739514
 20
252.4495257901935
 42
-0.0061222502
 10
588.018184573951
 20
252.4372457901936
 42
-0.0061693787
 10
588.0162245739515
 20
252.4249057901938
 42
-0.006203061
 10
588.0139345739511
 20
252.4125257901937
 42
-0.0062683574
 10
588.0113045739513
 20
252.4001057901937
 42
-0.0063072521
 10
588.0083445739512
 20
252.3876757901939
 42
-0.0063634517
 10
588.005044573951
 20
252.3752357901935
 42
-0.0063980506
 10
588.0013945739513
 20
252.3627957901935
 42
-0.0064517314
 10
587.9974045739512
 20
252.3503757901935
 42
-0.0064841806
 10
587.9930545739511
 20
252.3379957901938
 42
-0.0065331288
 10
587.9883545739516
 20
252.3256557901936
 42
-0.0065625636
 10
587.9833145739516
 20
252.3133757901937
 42
-0.0066068668
 10
587.9779045739517
 20
252.3011757901936
 42
-0.0066332172
 10
587.9721545739514
 20
252.2890657901939
 42
-0.0066723957
 10
587.9660445739513
 20
252.2770657901936
 42
-0.0066954077
 10
587.9595945739513
 20
252.2651757901935
 42
-0.0067291653
 10
587.9527945739511
 20
252.2534357901936
 42
-0.006748658
 10
587.9456645739512
 20
252.2418357901937
 42
-0.006776697
 10
587.9381845739511
 20
252.2304057901938
 42
-0.0067925014
 10
587.9303845739517
 20
252.2191457901935
 42
-0.0068145782
 10
587.9222445739517
 20
252.2080857901937
 42
-0.0068265569
 10
587.9138045739511
 20
252.1972257901938
 42
-0.0068424706
 10
587.9050445739514
 20
252.1865957901936
 42
-0.006850521
 10
587.895994573951
 20
252.1761957901935
 42
-0.0068601389
 10
587.8866445739516
 20
252.1660457901939
 42
-0.006864173
 10
587.8770245739517
 20
252.1561457901939
 42
-0.0068673552
 10
587.8671245739508
 20
252.1465257901936
 42
-0.0068673606
 10
587.8569745739516
 20
252.1371757901938
 42
-0.0068641911
 10
587.846564573951
 20
252.1281257901937
 42
-0.006860162
 10
587.8359345739512
 20
252.1193657901935
 42
-0.0068505374
 10
587.8250845739517
 20
252.1109157901937
 42
-0.0068425187
 10
587.8140245739517
 20
252.1027857901935
 42
-0.006826674
 10
587.8027645739514
 20
252.0949857901937
 42
-0.0068146242
 10
587.7913345739511
 20
252.0875057901935
 42
-0.0067923396
 10
587.7797345739512
 20
252.0803757901935
 42
-0.0067768396
 10
587.7679845739516
 20
252.0735657901937
 42
-0.0067495898
 10
587.7561045739517
 20
252.0671157901938
 42
-0.0067290344
 10
587.7441045739517
 20
252.0610157901937
 42
-0.0066924996
 10
587.7319945739513
 20
252.0552657901939
 42
-0.0066733371
 10
587.7197945739511
 20
252.0498557901937
 42
-0.00664395
 10
587.7075145739512
 20
252.0448057901935
 42
-0.006603998
 10
587.695174573951
 20
252.0401057901935
 42
-0.006525928
 10
587.6827945739509
 20
252.0357657901936
 42
-0.0065439534
 10
587.6703745739517
 20
252.0317657901937
 42
-0.0066085618
 10
587.6579145739517
 20
252.0281257901938
 42
-0.006414413
 10
587.6454945739508
 20
252.0248157901937
 42
-0.0059894188
 10
587.6331545739516
 20
252.0218657901937
 42
-0.0064949791
 10
587.6206445739511
 20
252.0192357901937
 42
-0.0075599167
 10
587.6078845739515
 20
252.0169357901936
 42
-0.0058500898
 10
587.5959245739517
 20
252.0149757901935
 42
-0.002308743
 10
587.5851245739517
 20
252.0133757901935
 42
-0.0078952312
 10
587.571434573951
 20
252.0120057901936
 42
-0.013360338
 10
587.5506045739515
 20
252.0107857901934
 42
-0.006697264
 10
587.5234645739513
 20
252.0097057901935
 42
-0.0036321069
  0
LWPOLYLINE
  5
1C8F8
330
1F
100
AcDbEntity
  8
0
100
AcDbPolyline
 90
       59
 70
     0
 43
0.0
 10
587.5234645739513
 20
242.0096957901936
 10
587.5353145739512
 20
242.0095557901936
 42
-0.0061477634
 10
587.5472545739516
 20
242.0091257901936
 42
-0.0059701087
 10
587.5593045739508
 20
242.0084057901935
 42
-0.0059271857
 10
587.571434573951
 20
242.0073857901938
 42
-0.006058639
 10
587.5836445739516
 20
242.0060557901938
 42
-0.006122436
 10
587.5959245739517
 20
242.0044157901938
 42
-0.0061695647
 10
587.608264573951
 20
242.0024457901936
 42
-0.0062032463
 10
587.6206445739511
 20
242.0001657901934
 42
-0.0062685424
 10
587.6330545739513
 20
241.9975357901935
 42
-0.0063074357
 10
587.6454945739508
 20
241.9945757901937
 42
-0.0063636336
 10
587.6579345739513
 20
241.9912757901938
 42
-0.0063982297
 10
587.6703745739517
 20
241.9876257901937
 42
-0.006451908
 10
587.6827945739509
 20
241.9836357901935
 42
-0.006484353
 10
587.695174573951
 20
241.9792857901938
 42
-0.0065332972
 10
587.7075145739512
 20
241.9745857901939
 42
-0.0065627269
 10
587.7197945739511
 20
241.9695457901939
 42
-0.0066070249
 10
587.7319945739513
 20
241.9641357901937
 42
-0.006633369
 10
587.7441045739517
 20
241.9583857901939
 42
-0.006672541
 10
587.7561045739517
 20
241.9522757901936
 42
-0.0066955454
 10
587.7679845739516
 20
241.9458257901937
 42
-0.0067292958
 10
587.7797345739512
 20
241.9390257901936
 42
-0.0067487797
 10
587.7913345739511
 20
241.9318957901936
 42
-0.00677681
 10
587.8027645739514
 20
241.9244157901935
 42
-0.006792605
 10
587.8140245739517
 20
241.9166157901936
 42
-0.0068146726
 10
587.8250845739517
 20
241.9084757901937
 42
-0.0068266406
 10
587.8359345739512
 20
241.9000357901936
 42
-0.0068425433
 10
587.846564573951
 20
241.8912757901939
 42
-0.0068505838
 10
587.8569745739516
 20
241.8822257901938
 42
-0.0068601928
 10
587.8671245739508
 20
241.8728757901935
 42
-0.0068642121
 10
587.8770245739517
 20
241.8632557901937
 42
-0.0068673777
 10
587.8866445739516
 20
241.8533557901937
 42
-0.0068673746
 10
587.895994573951
 20
241.8432057901936
 42
-0.0068642
 10
587.9050445739514
 20
241.8327957901936
 42
-0.0068601599
 10
587.9138045739511
 20
241.8221657901935
 42
-0.0068505232
 10
587.9222445739517
 20
241.8113157901939
 42
-0.0068424928
 10
587.9303845739517
 20
241.8002557901936
 42
-0.0068266372
 10
587.9381845739511
 20
241.7889957901938
 42
-0.006814576
 10
587.9456645739512
 20
241.7775657901938
 42
-0.0067922808
 10
587.9527945739511
 20
241.7659657901936
 42
-0.00677677
 10
587.9595945739513
 20
241.7542157901939
 42
-0.0067495103
 10
587.9660445739513
 20
241.7423357901939
 42
-0.0067289449
 10
587.9721545739514
 20
241.7303357901936
 42
-0.0066924009
 10
587.9779045739517
 20
241.7182257901936
 42
-0.0066732291
 10
587.9833145739516
 20
241.7060257901935
 42
-0.0066438337
 10
587.9883545739516
 20
241.6937457901935
 42
-0.0066038734
 10
587.9930545739511
 20
241.6814057901937
 42
-0.006525797
 10
587.9974045739512
 20
241.6690257901937
 42
-0.0065438143
 10
588.0013945739513
 20
241.6566057901936
 42
-0.006608414
 10
588.005044573951
 20
241.6441457901937
 42
-0.0064142626
 10
588.0083445739512
 20
241.6317257901937
 42
-0.0059892728
 10
588.0113045739513
 20
241.6193857901939
 42
-0.006494815
 10
588.0139345739511
 20
241.6068757901935
 42
-0.0075597188
 10
588.0162345739512
 20
241.5941157901938
 42
-0.0058499316
 10
588.018184573951
 20
241.5821557901935
 42
-0.0023086796
 10
588.0197945739512
 20
241.5713557901935
 42
-0.0078950112
 10
588.0211645739513
 20
241.5576657901937
 42
-0.013359952
 10
588.0223845739513
 20
241.5368257901936
 42
-0.0066970658
 10
588.0234645739513
 20
241.5096957901937
 42
-0.0036319983
  0
LINE
  5
1C8F9
330
1F
100
AcDbEntity
  8
0
100
AcDbLine
 10
590.4734745739508
 20
253.3596957901936
 30
0.0
 11
588.0234645739513
 21
253.3596957901936
 31
0.0
  0
LINE
  5
1C8FA
102
{ACAD_REACTORS
330
1C982
102
}
330
1F
100
AcDbEntity
  8
0
100
AcDbLine
 10
590.4734745739508
 20
240.6596957901939
 30
0.0
 11
588.0234645739513
 21
240.6596957901939
 31
0.0
  0
LINE
  5
1C8FB
330
1F
100
AcDbEntity
  8
0
100
AcDbLine
 10
569.0555185739516
 20
250.5096957901937
 30
0.0
 11
569.0555185739516
 21
243.5096957901937
 31
0.0
  0
LINE
  5
1C8FC
330
1F
100
AcDbEntity
  8
0
100
AcDbLine
 10
586.3234645739517
 20
250.5096957901937
 30
0.0
 11
569.0555225739513
 21
250.5096957901937
 31
0.0
  0
LINE
  5
1C8FD
330
1F
100
AcDbEntity
  8
0
100
AcDbLine
 10
586.3234645739517
 20
247.0096957901937
 30
0.0
 11
586.3234645739517
 21
250.5096957901937
 31
0.0
  0
LINE
  5
1C8FE
102
{ACAD_REACTORS
330
1C97F
102
}
330
1F
100
AcDbEntity
  8
0
100
AcDbLine
 10
586.3234645739517
 20
243.5096957901937
 30
0.0
 11
586.3234645739517
 21
247.0096957901937
 31
0.0
  0
LINE
  5
1C8FF
330
1F
100
AcDbEntity
  8
0
100
AcDbLine
 10
569.0555225739513
 20
243.5096957901937
 30
0.0
 11
586.3234645739517
 21
243.5096957901937
 31
0.0
  0
LINE
  5
1C900
330
1F
100
AcDbEntity
  8
0
100
AcDbLine
 10
588.3441945739518
 20
247.0096957901937
 30
0.0
 11
586.3234645739517
 21
243.5096957901937
 31
0.0
  0
LINE
  5
1C901
330
1F
100
AcDbEntity
  8
0
100
AcDbLine
 10
588.3441945739518
 20
247.0096957901937
 30
0.0
 11
586.3234645739517
 21
250.5096957901937
 31
0.0
  0
LINE
  5
1C902
330
1F
100
AcDbEntity
  8
0
100
AcDbLine
 10
568.3234675739517
 20
253.3596957901936
 30
0.0
 11
567.3234675739516
 21
253.3596957901936
 31
0.0
  0
LINE
  5
1C903
330
1F
100
AcDbEntity
  8
0
100
AcDbLine
 10
567.3234675739516
 20
240.6596957901939
 30
0.0
 11
568.3234675739517
 21
240.6596957901939
 31
0.0
  0
LINE
  5
1C904
102
{ACAD_REACTORS
330
1C976
102
}
330
1F
100
AcDbEntity
  8
0
100
AcDbLine
 10
569.0555185739516
 20
250.5096957901937
 30
0.0
 11
567.3234675739516
 21
251.5096957901937
 31
0.0
  0
LINE
  5
1C905
102
{ACAD_REACTORS
330
1C976
102
}
330
1F
100
AcDbEntity
  8
0
100
AcDbLine
 10
567.3234675739516
 20
242.5096957901937
 30
0.0
 11
569.0555185739516
 21
243.5096957901937
 31
0.0
  0
LINE
  5
1C906
330
1F
100
AcDbEntity
  8
0
100
AcDbLine
 10
569.673464573951
 20
242.0096957901936
 30
0.0
 11
587.5234645739513
 21
242.0096957901936
 31
0.0
  0
LINE
  5
1C907
102
{ACAD_REACTORS
330
1C979
102
}
330
1F
100
AcDbEntity
  8
0
100
AcDbLine
 10
587.5234645739513
 20
252.0096957901936
 30
0.0
 11
569.673464573951
 21
252.0096957901936
 31
0.0
  0
LINE
  5
1C908
330
1F
100
AcDbEntity
  8
0
100
AcDbLine
 10
568.3234675739517
 20
240.6596957901939
 30
0.0
 11
569.6734675739511
 21
242.0096957901936
 31
0.0
  0
LINE
  5
1C909
330
1F
100
AcDbEntity
  8
0
100
AcDbLine
 10
569.6734675739511
 20
252.0096957901936
 30
0.0
 11
568.3234675739517
 21
253.3596957901936
 31
0.0
  0
LWPOLYLINE
  5
1C90A
330
1F
100
AcDbEntity
  8
0
100
AcDbPolyline
 90
       49
 70
     0
 43
0.0
 10
558.3184314452237
 20
197.308763531898
 10
558.1397134452235
 20
197.4264895318979
 42
-0.029195685
 10
557.9740094452236
 20
197.5651525318981
 42
-0.028671463
 10
557.821677445223
 20
197.7257685318982
 42
-0.027401399
 10
557.6834294452237
 20
197.9064595318983
 42
-0.026376166
 10
557.5613094452237
 20
198.1067125318982
 42
-0.02489306
 10
557.4553624452237
 20
198.324278531898
 42
-0.023103455
 10
557.3667564452233
 20
198.5582375318982
 42
-0.021293746
 10
557.295056445223
 20
198.806059531898
 42
-0.019594099
 10
557.2410974452232
 20
199.0662755318981
 42
-0.017998542
 10
557.2039564452234
 20
199.3363205318983
 42
-0.016480759
 10
557.183967445223
 20
199.614422531898
 42
-0.015163939
 10
557.179835445223
 20
199.8981795318982
 42
-0.013925964
 10
557.1914784452236
 20
200.1856925318981
 42
-0.012902064
 10
557.2173654452234
 20
200.4748965318982
 42
-0.011916248
 10
557.2570804452234
 20
200.7639405318983
 42
-0.011127325
 10
557.3089804452238
 20
201.0511815318983
 42
-0.010333464
 10
557.3724144452235
 20
201.3349385318984
 42
-0.009751598
 10
557.4458264452231
 20
201.6140895318982
 42
-0.0091681726
 10
557.5284574452235
 20
201.8872185318983
 42
-0.0086596302
 10
557.618646445223
 20
202.1534825318982
 42
-0.0080137278
 10
557.7160284452238
 20
202.4128815318982
 42
-0.007990076
 10
557.8227674452237
 20
202.6720585318981
 42
-0.007892189
 10
557.9420204452234
 20
202.9374665318983
 42
-0.0076410409
 10
558.0738014452236
 20
203.2081885318981
 42
-0.0079789299
 10
558.2186954452236
 20
203.4823495318984
 42
-0.0081586443
 10
558.3763324452238
 20
203.7585225318981
 42
-0.0083384772
 10
558.547353445223
 20
204.0355105318982
 42
-0.00847796
 10
558.7310484452236
 20
204.3115895318984
 42
-0.0087858328
 10
558.9276394452236
 20
204.5848315318981
 42
-0.0090341396
 10
559.1360754452233
 20
204.8534335318982
 42
-0.009397734
 10
559.3561684452232
 20
205.1151645318983
 42
-0.009734292
 10
559.5865194452234
 20
205.3682565318982
 42
-0.010195299
 10
559.8264574452231
 20
205.6102165318981
 42
-0.010667358
 10
560.0743124452236
 20
205.8394875318982
 42
-0.01126551
 10
560.3289544452236
 20
206.0535175318983
 42
-0.011870159
 10
560.5884534452234
 20
206.251186531898
 42
-0.012541291
 10
560.851256445223
 20
206.4301105318983
 42
-0.013437172
 10
561.1157024452231
 20
206.5895935318982
 42
-0.014568543
 10
561.3800744452237
 20
206.727570531898
 42
-0.015302351
 10
561.6416484452238
 20
206.8445345318983
 42
-0.015494876
 10
561.8981874452238
 20
206.9391255318984
 42
-0.017937296
 10
562.1520014452235
 20
207.010409531898
 42
-0.022356368
 10
562.402545445223
 20
207.0569115318981
 42
-0.019339923
 10
562.6338494452238
 20
207.0865725318982
 42
-0.0091841849
 10
562.8391354452231
 20
207.1013755318982
 42
-0.02753533
 10
563.0766794452238
 20
207.077045531898
 42
-0.051452967
 10
563.4070114452232
 20
206.9862255318981
 42
-0.028722988
 10
563.8184314452237
 20
206.835043531898
 42
-0.016224536
  0
LWPOLYLINE
  5
1C90B
330
1F
100
AcDbEntity
  8
0
100
AcDbPolyline
 90
       69
 70
     0
 43
0.0
 10
559.3042514452235
 20
196.739599531898
 10
559.0586114452235
 20
196.682319531898
 42
-0.018489671
 10
558.8134614452236
 20
196.6438135318981
 42
-0.018662592
 10
558.5685834452233
 20
196.6246595318981
 42
-0.019555801
 10
558.3256024452238
 20
196.6254525318982
 42
-0.021798376
 10
558.0866504452233
 20
196.648643531898
 42
-0.023622771
 10
557.8531964452231
 20
196.6942015318982
 42
-0.025115881
 10
557.6271114452238
 20
196.7637365318983
 42
-0.026324222
 10
557.409796445223
 20
196.8567055318981
 42
-0.027416999
 10
557.2033794452236
 20
196.974349531898
 42
-0.027894352
 10
557.0089924452231
 20
197.115499531898
 42
-0.02794705
 10
556.8286924452231
 20
197.2807365318982
 42
-0.027379016
 10
556.6632214452238
 20
197.4682945318981
 42
-0.026464529
 10
556.5144444452235
 20
197.6780715318983
 42
-0.025116369
 10
556.3826084452228
 20
197.9077975318983
 42
-0.023604925
 10
556.2692264452233
 20
198.1567015318983
 42
-0.021943462
 10
556.1740104452236
 20
198.4221775318978
 42
-0.020289901
 10
556.0980274452231
 20
198.7028875318979
 42
-0.018693983
 10
556.0404764452231
 20
198.9961025318981
 42
-0.017177626
 10
556.0019394452238
 20
199.3000805318984
 42
-0.015820222
 10
555.9811844452233
 20
199.6121755318982
 42
-0.014540992
 10
555.978330445223
 20
199.9304315318982
 42
-0.01345965
 10
555.9918474452233
 20
200.2524975318979
 42
-0.0124296
 10
556.021468445223
 20
200.5763895318983
 42
-0.011580468
 10
556.0654684452238
 20
200.9000905318981
 42
-0.01074009
 10
556.1232804452238
 20
201.2217055318984
 42
-0.010115065
 10
556.1932644452236
 20
201.5399955318981
 42
-0.0094882964
 10
556.2747104452236
 20
201.8533875318981
 42
-0.0089356377
 10
556.3655964452236
 20
202.159936531898
 42
-0.0083417153
 10
556.4649614452235
 20
202.4579255318982
 42
-0.0080892377
 10
556.5727704452236
 20
202.7505805318984
 42
-0.007644843
 10
556.6903534452229
 20
203.0417755318981
 42
-0.0075242821
 10
556.8195864452236
 20
203.3360445318982
 42
-0.007656149
 10
556.963170445223
 20
203.6371535318981
 42
-0.007572978
 10
557.1207094452238
 20
203.943288531898
 42
-0.0078395581
 10
557.2925834452234
 20
204.2521285318981
 42
-0.0080131542
 10
557.4782984452231
 20
204.5621085318981
 42
-0.0082109713
 10
557.6784884452234
 20
204.8718645318982
 42
-0.0083650674
 10
557.8922794452237
 20
205.1795325318981
 42
-0.0086716202
 10
558.119788445223
 20
205.4829415318982
 42
-0.0089285129
 10
558.3597934452236
 20
205.7801955318983
 42
-0.0092911444
 10
558.6119894452231
 20
206.0688575318982
 42
-0.0096359064
 10
558.8748134452234
 20
206.3471105318982
 42
-0.010096924
 10
559.1474574452231
 20
206.6122795318984
 42
-0.010565893
 10
559.4280834452238
 20
206.8628205318983
 42
-0.011139764
 10
559.7154174452233
 20
207.0960445318984
 42
-0.011758845
 10
560.007463445223
 20
207.3108555318982
 42
-0.012471941
 10
560.3025544452228
 20
207.504758531898
 42
-0.013272367
 10
560.5986954452236
 20
207.6772575318983
 42
-0.014143134
 10
560.8939614452236
 20
207.8262535318982
 42
-0.015147
 10
561.1865254452232
 20
207.9519305318982
 42
-0.016179701
 10
561.4743694452235
 20
208.0527345318984
 42
-0.017376557
 10
561.7559854452236
 20
208.1295425318982
 42
-0.018518278
 10
562.0294304452236
 20
208.1814255318982
 42
-0.019847502
 10
562.2936384452231
 20
208.209832531898
 42
-0.021015339
 10
562.5468824452236
 20
208.2144465318984
 42
-0.022245622
 10
562.7885504452233
 20
208.1972735318982
 42
-0.023037307
 10
563.0172134452232
 20
208.1585795318984
 42
-0.024112987
 10
563.2328804452234
 20
208.100226531898
 42
-0.024917614
 10
563.4345264452231
 20
208.0227645318983
 42
-0.024664915
 10
563.6220374452232
 20
207.9297765318984
 42
-0.022878279
 10
563.7945504452236
 20
207.822659531898
 42
-0.024576454
 10
563.9544554452231
 20
207.6984895318984
 42
-0.028127555
 10
564.101949445223
 20
207.5566005318984
 42
-0.020502476
 10
564.231124445223
 20
207.4192865318983
 42
-0.0050247714
 10
564.3398024452234
 20
207.294159531898
 42
-0.027198266
 10
564.4575554452229
 20
207.1002645318982
 42
-0.044810844
 10
564.6142164452229
 20
206.7517075318984
 42
-0.018306569
 10
564.8042514452234
 20
206.2658785318982
 42
-0.0089684411
  0
LINE
  5
1C90C
330
1F
100
AcDbEntity
  8
0
100
AcDbLine
 10
555.5599774452238
 20
197.9198615318983
 30
0.0
 11
557.2923924452234
 21
196.9196505318983
 31
0.0
  0
LWPOLYLINE
  5
1C90D
330
1F
100
AcDbEntity
  8
0
100
AcDbPolyline
 90
       49
 70
     0
 43
0.0
 10
561.9099814452238
 20
208.9183855318984
 10
561.7177934452238
 20
209.0170565318981
 42
0.027711519
 10
561.5111464452239
 20
209.0969335318983
 42
0.025734677
 10
561.2893564452233
 20
209.1574865318981
 42
0.024549993
 10
561.0535944452229
 20
209.1977875318981
 42
0.024798621
 10
560.804072445223
 20
209.2149675318984
 42
0.024018813
 10
560.5423274452231
 20
209.2087865318982
 42
0.022886697
 10
560.2690074452238
 20
209.1773065318981
 42
0.021484579
 10
559.9860114452232
 20
209.1208535318984
 42
0.020307169
 10
559.6945594452234
 20
209.0378515318981
 42
0.018917932
 10
559.3967854452228
 20
208.9293435318983
 42
0.017695479
 10
559.0943834452237
 20
208.7944795318982
 42
0.016436882
 10
558.7895564452236
 20
208.635002531898
 42
0.01536132
 10
558.4843434452231
 20
208.4508255318984
 42
0.014323591
 10
558.1808234452237
 20
208.244295531898
 42
0.013422342
 10
557.8811944452236
 20
208.0160895318982
 42
0.012604216
 10
557.5872234452234
 20
207.7689695318982
 42
0.011873959
 10
557.3010704452237
 20
207.5042635318983
 42
0.01124937
 10
557.0240444452236
 20
207.2249125318982
 42
0.010666366
 10
556.7580924452231
 20
206.9327075318984
 42
0.010199466
 10
556.5039854452233
 20
206.6305265318984
 42
0.0097345549
 10
556.2633374452234
 20
206.3204125318981
 42
0.0093966501
 10
556.0363644452236
 20
206.0049425318981
 42
0.009034076
 10
555.8242794452235
 20
205.6861965318981
 42
0.0087861198
 10
555.6268274452231
 20
205.3664015318982
 42
0.0084779599
 10
555.4448294452231
 20
205.0475465318982
 42
0.0083384083
 10
555.2775424452238
 20
204.7310155318983
 42
0.008158731
 10
555.1253954452231
 20
204.4184545318981
 42
0.0079789349
 10
554.9877124452231
 20
204.1120295318984
 42
0.007640675
 10
554.8644774452232
 20
203.8127975318981
 42
0.0078922651
 10
554.7520454452231
 20
203.5133105318983
 42
0.0079915676
 10
554.647919445223
 20
203.2058955318981
 42
0.0080133428
 10
554.5525174452231
 20
202.8905565318983
 42
0.0086540266
 10
554.4677524452236
 20
202.5682675318981
 42
0.0091695627
 10
554.3945224452236
 20
202.240652531898
 42
0.0097726354
 10
554.3346264452228
 20
201.9090005318981
 42
0.010328214
 10
554.288748445223
 20
201.5753055318983
 42
0.011047861
 10
554.2587584452229
 20
201.2414825318979
 42
0.01193602
 10
554.2454174452232
 20
200.909459531898
 42
0.013201398
 10
554.2505884452237
 20
200.5815515318982
 42
0.013850278
 10
554.2732664452231
 20
200.2607675318982
 42
0.014045282
 10
554.3145684452237
 20
199.9501605318983
 42
0.016777958
 10
554.3784444452231
 20
199.648556531898
 42
0.021991384
 10
554.4674544452236
 20
199.3578075318983
 42
0.018457931
 10
554.5635244452231
 20
199.0923185318984
 42
0.0071075698
 10
554.6612644452234
 20
198.8593845318983
 42
0.028472969
 10
554.8268374452236
 20
198.6099265318981
 42
0.056463379
 10
555.1313294452238
 20
198.2936265318981
 42
0.030581167
 10
555.5599754452231
 20
197.9198585318982
 42
0.016469115
  0
LINE
  5
1C90E
330
1F
100
AcDbEntity
  8
0
100
AcDbLine
 10
563.6423884452232
 20
207.9181755318983
 30
0.0
 11
561.9099794452231
 21
208.9183825318983
 31
0.0
  0
LWPOLYLINE
  5
1C90F
330
1F
100
AcDbEntity
  8
0
100
AcDbPolyline
 90
       31
 70
     0
 43
0.0
 10
553.3616904452236
 20
201.7048925318982
 10
553.5575308298294
 20
201.6188566940633
 10
553.7272885220726
 20
201.6021788292188
 10
553.8301924806346
 20
201.637600411174
 10
553.9127204787527
 20
201.7171858498119
 10
553.9697575271657
 20
201.8438027653206
 10
553.9961886366098
 20
202.0203187778871
 10
553.9841272717585
 20
202.2595350459501
 10
553.927463866118
 20
202.5214703983257
 10
553.8690966824268
 20
202.6899552385672
 10
553.7942217249455
 20
202.8527378693594
 10
553.7034021870486
 20
203.0049700063424
 10
553.5972012621085
 20
203.1418033651581
 10
553.4968008452551
 20
203.2409420071786
 10
553.3905637405986
 20
203.3202343760454
 10
553.2803153290042
 20
203.3784237611331
 10
553.1678809913382
 20
203.4142534518151
 10
552.9819320063469
 20
203.420778419205
 10
552.8179159093433
 20
203.3615608906221
 10
552.6885055085186
 20
203.2424594001255
 10
552.6063736120668
 20
203.0693324817735
 10
552.585751634314
 20
202.9505559462037
 10
552.5859136657089
 20
202.823072259248
 10
552.6065285278336
 20
202.6891539133172
 10
552.6472650422682
 20
202.5510734008217
 10
552.7303403058249
 20
202.3671400495082
 10
552.8376397329919
 20
202.1951018038549
 10
552.9439816107268
 20
202.0598315420421
 10
553.0695012239483
 20
201.9278096866742
 10
553.2101026199951
 20
201.8068816583696
 10
553.3616898462078
 20
201.7048928777472
  0
LWPOLYLINE
  5
1C910
330
1F
100
AcDbEntity
  8
0
100
AcDbPolyline
 90
       49
 70
     0
 43
0.0
 10
540.9228714452238
 20
206.3706035318983
 10
540.7413264452234
 20
206.4877075318983
 42
-0.027711515
 10
540.5688264452237
 20
206.6267305318984
 42
-0.025734682
 10
540.405490445223
 20
206.7885295318979
 42
-0.024550005
 10
540.2527074452235
 20
206.9725535318981
 42
-0.02479864
 10
540.1130694452231
 20
207.1800565318982
 42
-0.024018837
 10
539.9875484452231
 20
207.4098235318984
 42
-0.022886724
 10
539.8781514452237
 20
207.6622655318984
 42
-0.021484608
 10
539.7855424452236
 20
207.9355735318982
 42
-0.020307199
 10
539.7116984452232
 20
208.2294785318982
 42
-0.018917961
 10
539.6567824452231
 20
208.541612531898
 42
-0.017695507
 10
539.6223764452233
 20
208.8709325318983
 42
-0.016436907
 10
539.6080734452233
 20
209.2146585318984
 42
-0.015361344
 10
539.614968445223
 20
209.5710685318982
 42
-0.014323612
 10
539.6420694452236
 20
209.9371895318983
 42
-0.013422361
 10
539.6898874452236
 20
210.3107785318981
 42
-0.012604233
 10
539.7569134452233
 20
210.6889245318981
 42
-0.011873974
 10
539.8430784452228
 20
211.0690925318982
 42
-0.011249383
 10
539.9464904452234
 20
211.448680531898
 42
-0.010666377
 10
540.0665714452234
 20
211.825103531898
 42
-0.010199475
 10
540.2012154452231
 20
212.1962565318982
 42
-0.0097345629
 10
540.349456445223
 20
212.5597205318982
 42
-0.0093966569
 10
540.5091754452231
 20
212.9140205318982
 42
-0.0090340814
 10
540.6791744452237
 20
213.2570645318984
 42
-0.0087861241
 10
540.8573994452234
 20
213.587959531898
 42
-0.0084779632
 10
541.042536445223
 20
213.905002531898
 42
-0.0083384108
 10
541.2330164452233
 20
214.208142531898
 42
-0.0081587328
 10
541.4276294452238
 20
214.4961865318983
 42
-0.0079789356
 10
541.6241594452229
 20
214.7686355318979
 42
-0.007640674
 10
541.8216844452236
 20
215.0249765318982
 42
-0.007892266
 10
542.0248324452232
 20
215.2720895318981
 42
-0.007991576
 10
542.2389984452238
 20
215.5159725318982
 42
-0.0080133553
 10
542.4643894452239
 20
215.7562625318984
 42
-0.0086540408
 10
542.7011164452233
 20
215.9908145318983
 42
-0.0091695783
 10
542.9482244452239
 20
216.2180415318981
 42
-0.0097726531
 10
543.2054954452231
 20
216.4357385318981
 42
-0.010328234
 10
543.4715444452231
 20
216.6423175318983
 42
-0.011047882
 10
543.7456494452233
 20
216.8352015318983
 42
-0.011936045
 10
544.0265194452231
 20
217.0127665318983
 42
-0.013201425
 10
544.3130814452233
 20
217.1722415318982
 42
-0.013850307
 10
544.6022274452234
 20
217.312993531898
 42
-0.014045312
 10
544.8918714452238
 20
217.4325275318984
 42
-0.016777993
 10
545.1850064452237
 20
217.5280115318984
 42
-0.021991428
 10
545.4813074452231
 20
217.5963005318982
 42
-0.018457965
 10
545.759263445223
 20
217.645845531898
 42
-0.0071075822
 10
546.0098594452237
 20
217.6776665318981
 42
-0.028473016
 10
546.3086834452233
 20
217.6590045318981
 42
-0.056463438
 10
546.734853445223
 20
217.5534565318981
 42
-0.030581176
 10
547.2728694452235
 20
217.3691215318982
 42
-0.016469114
  0
LINE
  5
1C911
330
1F
100
AcDbEntity
  8
0
100
AcDbLine
 10
547.9799764452236
 20
216.9608745318984
 30
0.0
 11
547.2728694452235
 21
217.3691225318981
 31
0.0
  0
LWPOLYLINE
  5
1C912
330
1F
100
AcDbEntity
  8
0
100
AcDbPolyline
 90
       69
 70
     0
 43
0.0
 10
544.2621744452234
 20
206.0014965318984
 10
543.9826794452236
 20
205.8906175318981
 42
-0.014179104
 10
543.7133174452236
 20
205.8021575318981
 42
-0.016520613
 10
543.4543894452234
 20
205.7372375318983
 42
-0.018068117
 10
543.2062974452236
 20
205.6936215318984
 42
-0.018312294
 10
542.9704464452234
 20
205.670490531898
 42
-0.018876168
 10
542.7468104452237
 20
205.6653365318981
 42
-0.019048939
 10
542.535199445223
 20
205.6775175318981
 42
-0.020537663
 10
542.3297844452235
 20
205.7067195318983
 42
-0.021585859
 10
542.1255634452236
 20
205.7545505318981
 42
-0.02203518
 10
541.9235214452237
 20
205.8216625318983
 42
-0.024013475
 10
541.7260624452238
 20
205.9103495318983
 42
-0.025261236
 10
541.5345644452236
 20
206.0208525318981
 42
-0.026092791
 10
541.3508244452231
 20
206.1550895318983
 42
-0.026295637
 10
541.1763244452231
 20
206.3128385318983
 42
-0.026508178
 10
541.0133734452236
 20
206.495672531898
 42
-0.025936521
 10
540.8633084452231
 20
206.7027455318981
 42
-0.025260364
 10
540.7284964452236
 20
206.9350145318982
 42
-0.024008122
 10
540.6099814452236
 20
207.1909295318984
 42
-0.022832589
 10
540.5100744452238
 20
207.4706695318983
 42
-0.021318232
 10
540.4293394452232
 20
207.7719775318984
 42
-0.01997985
 10
540.3697894452234
 20
208.0941565318982
 42
-0.018514572
 10
540.3313734452231
 20
208.4343535318981
 42
-0.017258247
 10
540.3156104452237
 20
208.7910145318979
 42
-0.016004925
 10
540.3217644452232
 20
209.1609045318983
 42
-0.01493082
 10
540.3507174452234
 20
209.5417605318981
 42
-0.013929887
 10
540.4010794452233
 20
209.9302545318983
 42
-0.013054319
 10
540.4730434452232
 20
210.3236555318982
 42
-0.012287718
 10
540.5646904452233
 20
210.718856531898
 42
-0.011591064
 10
540.6755754452233
 20
211.1129505318982
 42
-0.011018732
 10
540.8034324452237
 20
211.503311531898
 42
-0.010466619
 10
540.9473054452237
 20
211.8871345318981
 42
-0.010054079
 10
541.1048304452233
 20
212.2624905318981
 42
-0.009628144
 10
541.2747204452235
 20
212.6269045318982
 42
-0.009324723
 10
541.4546054452229
 20
212.9790905318983
 42
-0.0089639904
 10
541.6430074452237
 20
213.3169935318979
 42
-0.0087952751
 10
541.8381524452232
 20
213.6404525318981
 42
-0.0085870749
 10
542.038676445223
 20
213.948054531898
 42
-0.008367688
 10
542.2417464452236
 20
214.2386635318981
 42
-0.0080094946
 10
542.4457744452238
 20
214.5109905318983
 42
-0.0082167498
 10
542.6546864452229
 20
214.7716995318984
 42
-0.0081933441
 10
542.8734604452237
 20
215.0267755318983
 42
-0.0082480761
 10
543.1035454452231
 20
215.2773995318981
 42
-0.0088760427
 10
543.3463474452237
 20
215.5228245318982
 42
-0.0093224406
 10
543.6007274452231
 20
215.7611415318984
 42
-0.0099798122
 10
543.866161445223
 20
215.9895425318983
 42
-0.010622727
 10
544.1412614452238
 20
216.2062145318983
 42
-0.011443256
 10
544.4253574452232
 20
216.4083985318981
 42
-0.012266635
 10
544.7166644452236
 20
216.5943765318981
 42
-0.013326968
 10
545.0138484452236
 20
216.7610995318983
 42
-0.014429271
 10
545.3148444452234
 20
216.9072035318982
 42
-0.015765006
 10
545.6177994452237
 20
217.0297185318982
 42
-0.017184094
 10
545.9204984452234
 20
217.1278585318983
 42
-0.018819365
 10
546.2206454452235
 20
217.1989835318982
 42
-0.020574804
 10
546.5160844452238
 20
217.2430395318984
 42
-0.022474778
 10
546.8042714452232
 20
217.2579785318981
 42
-0.024358705
 10
547.0833064452234
 20
217.244737531898
 42
-0.026063337
 10
547.3506174452231
 20
217.2021095318983
 42
-0.027881021
 10
547.6048744452237
 20
217.1314165318982
 42
-0.029518016
 10
547.8437524452238
 20
217.0321755318983
 42
-0.029737943
 10
548.0662234452238
 20
216.9082975318984
 42
-0.02834231
 10
548.270262445223
 20
216.7607905318983
 42
-0.029982045
 10
548.4568274452231
 20
216.5866825318981
 42
-0.033013708
 10
548.6248724452233
 20
216.3851425318981
 42
-0.025129456
 10
548.7708824452238
 20
216.1824715318981
 42
-0.011431238
 10
548.8926134452229
 20
215.988331531898
 42
-0.029528735
 10
549.0072864452231
 20
215.7142315318985
 42
-0.043194789
 10
549.1313524452233
 20
215.2656075318983
 42
-0.020075061
 10
549.2621744452234
 20
214.6617505318982
 42
-0.010582998
  0
LINE
  5
1C913
330
1F
100
AcDbEntity
  8
0
100
AcDbLine
 10
540.9228694452231
 20
206.3705995318983
 30
0.0
 11
541.6299764452231
 21
205.9623515318981
 31
0.0
  0
LWPOLYLINE
  5
1C914
330
1F
100
AcDbEntity
  8
0
100
AcDbPolyline
 90
       49
 70
     0
 43
0.0
 10
543.2595674452231
 20
206.5803525318984
 10
543.1166174452235
 20
206.6725605318985
 42
-0.027711545
 10
542.9807914452229
 20
206.7820265318983
 42
-0.025734705
 10
542.8521814452233
 20
206.9094275318981
 42
-0.02455002
 10
542.731879445223
 20
207.0543295318981
 42
-0.024798649
 10
542.6219284452236
 20
207.2177165318981
 42
-0.024018839
 10
542.5230934452238
 20
207.3986365318984
 42
-0.02288672
 10
542.4369544452238
 20
207.5974095318985
 42
-0.021484598
 10
542.3640344452231
 20
207.8126125318982
 42
-0.020307185
 10
542.3058894452233
 20
208.044034531898
 42
-0.018917944
 10
542.262648445223
 20
208.289808531898
 42
-0.017695488
 10
542.2355574452232
 20
208.5491155318983
 42
-0.016436888
 10
542.2242964452234
 20
208.8197665318981
 42
-0.015361324
 10
542.2297254452231
 20
209.1004045318983
 42
-0.014323593
 10
542.2510644452231
 20
209.388688531898
 42
-0.013422342
 10
542.2887164452231
 20
209.6828535318983
 42
-0.012604214
 10
542.341493445223
 20
209.9806055318982
 42
-0.011873956
 10
542.4093404452231
 20
210.279951531898
 42
-0.011249366
 10
542.4907674452233
 20
210.5788385318979
 42
-0.010666361
 10
542.5853194452238
 20
210.875235531898
 42
-0.01019946
 10
542.6913374452233
 20
211.1674825318983
 42
-0.009734549
 10
542.8080634452234
 20
211.4536745318984
 42
-0.0093966439
 10
542.9338264452233
 20
211.7326505318984
 42
-0.0090340693
 10
543.0676844452237
 20
212.002763531898
 42
-0.0087861128
 10
543.2080194452237
 20
212.2633115318982
 42
-0.0084779526
 10
543.3537964452233
 20
212.5129515318982
 42
-0.0083384009
 10
543.5037804452231
 20
212.7516435318981
 42
-0.0081587237
 10
543.657018445223
 20
212.9784505318981
 42
-0.007978927
 10
543.8117674452231
 20
213.1929775318982
 42
-0.0076406657
 10
543.9672984452236
 20
213.394820531898
 42
-0.00789226
 10
544.1272574452231
 20
213.5893975318982
 42
-0.0079915756
 10
544.2958924452231
 20
213.7814315318983
 42
-0.0080133573
 10
544.4733654452238
 20
213.970636531898
 42
-0.0086540427
 10
544.6597654452233
 20
214.1553235318984
 42
-0.0091695804
 10
544.854338445223
 20
214.3342415318981
 42
-0.0097726554
 10
545.0569134452234
 20
214.5056565318983
 42
-0.010328236
 10
545.2664014452238
 20
214.6683175318981
 42
-0.011047885
 10
545.4822324452234
 20
214.8201945318984
 42
-0.011936047
 10
545.7033894452234
 20
214.9600095318984
 42
-0.013201429
 10
545.9290284452236
 20
215.0855805318984
 42
-0.01385031
 10
546.1567024452233
 20
215.1964085318983
 42
-0.014045315
 10
546.3847694452233
 20
215.2905305318983
 42
-0.016777996
 10
546.6155844452231
 20
215.3657135318982
 42
-0.021991432
 10
546.8488914452236
 20
215.419484531898
 42
-0.018457968
 10
547.0677544452237
 20
215.4584965318982
 42
-0.0071075831
 10
547.265074445223
 20
215.4835525318982
 42
-0.028473019
 10
547.5003694452234
 20
215.4688585318982
 42
-0.056463439
 10
547.8359354452232
 20
215.3857485318982
 42
-0.030581174
 10
548.2595704452233
 20
215.2406035318982
 42
-0.016469112
  0
LINE
  5
1C915
330
1F
100
AcDbEntity
  8
0
100
AcDbLine
 10
543.2595674452231
 20
206.5803525318984
 30
0.0
 11
554.2777814452238
 21
200.2189835318982
 31
0.0
  0
LINE
  5
1C916
330
1F
100
AcDbEntity
  8
0
100
AcDbLine
 10
559.2777814452237
 20
208.879237531898
 30
0.0
 11
548.2595704452233
 21
215.2406045318981
 31
0.0
  0
LINE
  5
1C917
330
1F
100
AcDbEntity
  8
hat
  6
CENTERX2
 62
     1
100
AcDbLine
 10
565.9365189108743
 20
247.0096957901937
 30
0.0
 11
606.9130771180229
 21
247.0096957901937
 31
0.0
  0
LINE
  5
1C918
102
{ACAD_REACTORS
330
1C97C
102
}
330
1F
100
AcDbEntity
  8
0
100
AcDbLine
 10
567.3234675739516
 20
253.3596957901936
 30
0.0
 11
567.3234675739516
 21
251.5096957901937
 31
0.0
  0
LINE
  5
1C919
330
1F
100
AcDbEntity
  8
0
100
AcDbLine
 10
567.3234675739516
 20
251.5096957901937
 30
0.0
 11
567.3234675739516
 21
242.5096957901937
 31
0.0
  0
LINE
  5
1C91A
102
{ACAD_REACTORS
330
1C97C
330
1C97F
102
}
330
1F
100
AcDbEntity
  8
0
100
AcDbLine
 10
567.3234675739516
 20
242.5096957901937
 30
0.0
 11
567.3234675739516
 21
240.6596957901939
 31
0.0
  0
LINE
  5
1C91B
330
1F
100
AcDbEntity
  8
0
100
AcDbLine
 10
588.0234645739513
 20
253.3596957901936
 30
0.0
 11
588.0234645739513
 21
252.5097057901934
 31
0.0
  0
LINE
  5
1C91C
330
1F
100
AcDbEntity
  8
0
100
AcDbLine
 10
588.0234645739513
 20
241.5096957901937
 30
0.0
 11
588.0234645739513
 21
240.6596957901939
 31
0.0
  0
LWPOLYLINE
  5
1C91D
330
1F
100
AcDbEntity
  8
0
100
AcDbPolyline
 90
       22
 70
     0
 43
0.0
 10
588.0234645739513
 20
252.5097057901934
 10
588.3925761365466
 20
252.1043989721501
 10
588.7028230358748
 20
251.686031683133
 10
588.9337260892492
 20
251.251706170813
 10
589.0648061139821
 20
250.7985246828607
 10
589.0894625100392
 20
250.4546265495859
 10
589.0646495374052
 20
250.1012063409939
 10
588.9252288772197
 20
249.374091529256
 10
588.7637709157319
 20
248.6337639104435
 10
588.711411316471
 20
248.2638276930087
 10
588.697502435249
 20
247.8968071473541
 10
588.7852298155832
 20
247.25992712993
 10
588.9608918304633
 20
246.6324026453043
 10
589.1471898848863
 20
246.0080671118771
 10
589.2668253838477
 20
245.3807539480481
 10
589.2791071112355
 20
245.0277145255526
 10
589.2520583987801
 20
244.6731691930008
 10
589.1017637413608
 20
243.9649143468791
 10
588.8595295856386
 20
243.2666965079883
 10
588.5689441056633
 20
242.5892227746349
 10
588.3106167340486
 20
242.0414711922503
 10
588.0234651683889
 20
241.5096967984086
  0
INSERT
  5
1C91E
330
1F
100
AcDbEntity
  8
hat
100
AcDbBlockReference
  2
*X11
 10
588.1871645739513
 20
242.0641757901935
 30
0.0
  0
LINE
  5
1C91F
330
1F
100
AcDbEntity
  8
hat
  6
CENTERX2
 62
     1
100
AcDbLine
 10
585.3234645739514
 20
245.7739127266727
 30
0.0
 11
585.3234645739514
 21
248.0491996335435
 31
0.0
  0
CIRCLE
  5
1C920
330
1F
100
AcDbEntity
  8
0
100
AcDbCircle
 10
585.3234645739514
 20
247.0096957901937
 30
0.0
 40
0.7
  0
LINE
  5
1C921
330
1F
100
AcDbEntity
  8
0
100
AcDbLine
 10
568.5199472710237
 20
191.4190494248983
 30
0.0
 11
558.318524764024
 21
197.3087102134982
 31
0.0
  0
LINE
  5
1C922
330
1F
100
AcDbEntity
  8
0
100
AcDbLine
 10
568.5184703785234
 20
192.921003075398
 30
0.0
 11
568.5185021947236
 21
192.920984707298
 31
0.0
  0
LINE
  5
1C923
330
1F
100
AcDbEntity
  8
0
100
AcDbLine
 10
568.5199528274242
 20
191.4190462169981
 30
0.0
 11
568.5193946793242
 21
191.4193685848982
 31
0.0
  0
LINE
  5
1C924
330
1F
100
AcDbEntity
  8
0
100
AcDbLine
 10
574.0198539523244
 20
200.9453827434982
 30
0.0
 11
563.8184314453237
 21
206.8350435320982
 31
0.0
  0
LINE
  5
1C925
330
1F
100
AcDbEntity
  8
0
100
AcDbLine
 10
568.0879457590235
 20
193.9368281746984
 30
0.0
 11
568.0879457588233
 21
193.9368744063982
 31
0.0
  0
SPLINE
  5
1C926
330
1F
100
AcDbEntity
  8
0
100
AcDbSpline
210
0.0
220
0.0
230
1.0
 70
     8
 71
     3
 72
     8
 73
     4
 74
     2
 42
0.0000000001
 43
0.0000000001
 44
0.0000000001
 12
0.8807298687538194
 22
0.4736189378444239
 32
0.0
 13
0.9049878491063804
 23
0.4254374136930215
 33
0.0
 40
0.0
 40
0.0
 40
0.0
 40
0.0
 40
0.1807763451212511
 40
0.1807763451212511
 40
0.1807763451212511
 40
0.1807763451212511
 10
571.4674172082233
 20
199.9685569559984
 30
0.0
 10
571.5204889171274
 20
199.9970966561863
 30
0.0
 10
571.5743014195768
 20
200.0243111596565
 30
0.0
 10
571.6288348848236
 20
200.0499474998983
 30
0.0
 11
571.4674172082233
 21
199.9685569559984
 31
0.0
 11
571.6288348848236
 21
200.0499474998983
 31
0.0
  0
SPLINE
  5
1C927
330
1F
100
AcDbEntity
  8
0
100
AcDbSpline
210
0.0
220
0.0
230
1.0
 70
     8
 71
     3
 72
    12
 73
     8
 74
     6
 42
0.0000000001
 43
0.0000000001
 44
0.0000000001
 12
0.9049878491860424
 22
0.4254374135235652
 32
0.0
 13
0.9324451896393652
 23
-0.3613114561128782
 33
0.0
 40
0.0
 40
0.0
 40
0.0
 40
0.0
 40
0.1435043604862927
 40
0.5005990248950008
 40
0.7810446352337433
 40
0.9878809130727352
 40
1.069502396447547
 40
1.069502396447547
 40
1.069502396447547
 40
1.069502396447547
 10
571.6288348848236
 20
200.0499474998983
 30
0.0
 10
571.6721247856721
 20
200.0702982078832
 30
0.0
 10
571.8247216857655
 20
200.1378328252477
 30
0.0
 10
572.0722420937851
 20
200.2222713986464
 30
0.0
 10
572.3512795995345
 20
200.2678865050948
 30
0.0
 10
572.5430452269237
 20
200.2595160033142
 30
0.0
 10
572.6358678438089
 20
200.2326783189011
 30
0.0
 10
572.6612370303237
 20
200.2228480598983
 30
0.0
 11
571.6288348848236
 21
200.0499474998983
 31
0.0
 11
571.7601102300233
 21
200.1079154670984
 31
0.0
 11
572.0992443419236
 21
200.2197396750981
 31
0.0
 11
572.3766724474244
 21
200.2607687700979
 31
0.0
 11
572.5829848730236
 21
200.2460572482983
 31
0.0
 11
572.6612370303237
 21
200.2228480598983
 31
0.0
  0
SPLINE
  5
1C928
330
1F
100
AcDbEntity
  8
0
100
AcDbSpline
210
0.0
220
0.0
230
1.0
 70
     8
 71
     3
 72
     8
 73
     4
 74
     2
 42
0.0000000001
 43
0.0000000001
 44
0.0000000001
 12
0.9324451896056206
 22
-0.3613114561999638
 32
0.0
 13
0.8660303019834023
 23
-0.4999915159745584
 33
0.0
 40
0.0
 40
0.0
 40
0.0
 40
0.0
 40
0.0632994845435314
 40
0.0632994845435314
 40
0.0632994845435314
 40
0.0632994845435314
 10
572.6612370303237
 20
200.2228480598983
 30
0.0
 10
572.6809114636128
 20
200.2152244502526
 30
0.0
 10
572.7001260264525
 20
200.2062073446773
 30
0.0
 10
572.7183991170242
 20
200.1956576095982
 30
0.0
 11
572.6612370303237
 21
200.2228480598983
 31
0.0
 11
572.7183991170242
 21
200.1956576095982
 31
0.0
  0
SPLINE
  5
1C929
330
1F
100
AcDbEntity
  8
0
100
AcDbSpline
210
0.0
220
0.0
230
1.0
 70
     8
 71
     3
 72
     8
 73
     4
 74
     2
 42
0.0000000001
 43
0.0000000001
 44
0.0000000001
 12
-0.8660303014008448
 22
0.4999915169836004
 32
0.0
 13
-0.7784826621794855
 23
0.627666109237978
 33
0.0
 40
0.0
 40
0.0
 40
0.0
 40
0.0
 40
0.0637727431215866
 40
0.0637727431215866
 40
0.0637727431215866
 40
0.0637727431215866
 10
568.5184703785234
 20
192.921003075398
 30
0.0
 10
568.5000606692077
 20
192.9316316855898
 30
0.0
 10
568.4825203222032
 20
192.9438660434145
 30
0.0
 10
568.4659716639234
 20
192.9572087065981
 30
0.0
 11
568.5184703785234
 21
192.921003075398
 31
0.0
 11
568.4659716639234
 21
192.9572087065981
 31
0.0
  0
SPLINE
  5
1C92A
330
1F
100
AcDbEntity
  8
0
100
AcDbSpline
210
0.0
220
0.0
230
1.0
 70
     8
 71
     3
 72
    12
 73
     8
 74
     6
 42
0.0000000001
 43
0.0000000001
 44
0.0000000001
 12
-0.7784826620475092
 22
0.627666109401666
 32
0.0
 13
-0.0840756629916776
 23
0.9964593734279938
 33
0.0
 40
0.0
 40
0.0
 40
0.0
 40
0.0
 40
0.0814669366225655
 40
0.2889638236596983
 40
0.5699048117222532
 40
0.9265148056613444
 40
1.06901960440544
 40
1.06901960440544
 40
1.06901960440544
 40
1.06901960440544
 10
568.4659716639234
 20
192.9572087065981
 30
0.0
 10
568.4448314646931
 20
192.974253384983
 30
0.0
 10
568.3751063761835
 20
193.0413868981137
 30
0.0
 10
568.2719201116623
 20
193.2036515459677
 30
0.0
 10
568.1720368127523
 20
193.4683973807272
 30
0.0
 10
568.1215875165699
 20
193.7246687286075
 30
0.0
 10
568.1038516569022
 20
193.8900988931423
 30
0.0
 10
568.0998579284241
 20
193.937432307298
 30
0.0
 11
568.4659716639234
 21
192.9572087065981
 31
0.0
 11
568.4069000409236
 21
193.0133104455982
 31
0.0
 11
568.2907588445232
 21
193.1852586372979
 31
0.0
 11
568.1876070105236
 21
193.4465774806982
 31
0.0
 11
568.1151649673237
 21
193.795751990298
 31
0.0
 11
568.0998579284241
 21
193.937432307298
 31
0.0
  0
SPLINE
  5
1C92B
330
1F
100
AcDbEntity
  8
0
100
AcDbSpline
210
0.0
220
0.0
230
1.0
 70
     8
 71
     3
 72
     8
 73
     4
 74
     2
 42
0.0000000001
 43
0.0000000001
 44
0.0000000001
 12
-0.0840756630599208
 22
0.9964593734222358
 32
0.0
 13
-0.0441763683968086
 23
0.9990237477033614
 33
0.0
 40
0.0
 40
0.0
 40
0.0
 40
0.0
 40
0.1316095019951749
 40
0.1316095019951749
 40
0.1316095019951749
 40
0.1316095019951749
 10
568.0998579284241
 20
193.937432307298
 30
0.0
 10
568.0961695430424
 20
193.9811468145962
 30
0.0
 10
568.0933965984722
 20
194.0249465062261
 30
0.0
 10
568.0914585885239
 20
194.0687735121983
 30
0.0
 11
568.0998579284241
 21
193.937432307298
 31
0.0
 11
568.0914585885239
 21
194.0687735121983
 31
0.0
  0
SPLINE
  5
1C92C
330
1F
100
AcDbEntity
  8
0
100
AcDbSpline
210
0.0
220
0.0
230
1.0
 70
     8
 71
     3
 72
    12
 73
     8
 74
     6
 42
0.0000000001
 43
0.0000000001
 44
0.0000000001
 12
0.8657258785286277
 22
-0.5005184344715345
 32
0.0
 13
-0.0000000000317731
 23
-1.0
 33
0.0
 40
0.0
 40
0.0
 40
0.0
 40
0.0
 40
0.3742042415957539
 40
0.9813689401621392
 40
1.638031377788686
 40
2.357931955481787
 40
3.148001316801049
 40
3.148001316801049
 40
3.148001316801049
 40
3.148001316801049
 10
574.0203667723235
 20
200.944994791998
 30
0.0
 10
574.128352870925
 20
200.882562751606
 30
0.0
 10
574.3979824730629
 20
200.6942623646468
 30
0.0
 10
574.7693652919359
 20
200.2849559877256
 30
0.0
 10
575.0794385298832
 20
199.6938714790091
 30
0.0
 10
575.2675130146267
 20
198.9915405313837
 30
0.0
 10
575.3054197977319
 20
198.4867933071712
 30
0.0
 10
575.3054197977235
 20
198.2234368533982
 30
0.0
 11
574.0203667723235
 21
200.944994791998
 31
0.0
 11
574.3271246264238
 21
200.7306855915981
 31
0.0
 11
574.7376028767238
 21
200.2832969716983
 31
0.0
 11
575.0477820862234
 21
199.704509951298
 31
0.0
 11
575.2402449140236
 21
199.0108134025982
 31
0.0
 11
575.3054197977235
 21
198.2234368533982
 31
0.0
  0
SPLINE
  5
1C92D
330
1F
100
AcDbEntity
  8
0
100
AcDbSpline
210
0.0
220
0.0
230
1.0
 70
     8
 71
     3
 72
    21
 73
    17
 74
    15
 42
0.0000000001
 43
0.0000000001
 44
0.0000000001
 12
-0.0000000000272297
 22
-1.0
 32
0.0
 13
-0.8657258785333905
 23
0.5005184344632966
 33
0.0
 40
0.0
 40
0.0
 40
0.0
 40
0.0
 40
0.8444863524610623
 40
1.737434255362183
 40
2.667624274480654
 40
3.617959064547501
 40
4.571978065247696
 40
5.51477916769899
 40
6.429973431938164
 40
7.30588125072172
 40
8.127710346204406
 40
8.8866155605116
 40
9.580200567652118
 40
10.21034597605414
 40
10.80582097551995
 40
11.01794054590848
 40
11.01794054590848
 40
11.01794054590848
 40
11.01794054590848
 10
575.3054197977235
 20
198.2234368533982
 30
0.0
 10
575.3054197977158
 20
197.9419414025778
 30
0.0
 10
575.2587866694367
 20
197.362259854366
 30
0.0
 10
575.0708202604494
 20
196.4910283731747
 30
0.0
 10
574.7711889624201
 20
195.6143505979561
 30
0.0
 10
574.3703981996665
 20
194.7568074431977
 30
0.0
 10
573.8807643761247
 20
193.9418295295721
 30
0.0
 10
573.315817314906
 20
193.191649824145
 30
0.0
 10
572.6897262524914
 20
192.5267381747776
 30
0.0
 10
572.0187826401276
 20
191.9676180391355
 30
0.0
 10
571.3209195366606
 20
191.5333929814197
 30
0.0
 10
570.617138287472
 20
191.2410393446332
 30
0.0
 10
569.9313830476678
 20
191.1029893891998
 30
0.0
 10
569.2858227772997
 20
191.1225335868036
 30
0.0
 10
568.820279009288
 20
191.2605915435475
 30
0.0
 10
568.5806469181666
 20
191.3840474579681
 30
0.0
 10
568.5194344510237
 20
191.4194373763981
 30
0.0
 11
575.3054197977235
 21
198.2234368533982
 31
0.0
 11
575.2421821045236
 21
197.3813215443984
 31
0.0
 11
575.0570119050243
 21
196.507783935298
 31
0.0
 11
574.7580157262238
 21
195.6269577567983
 31
0.0
 11
574.3564176346244
 21
194.765647600098
 31
0.0
 11
573.8649528687237
 21
193.9479590055981
 31
0.0
 11
573.2968253046236
 21
193.1955595174981
 31
0.0
 11
572.6677439150242
 21
192.5308512005982
 31
0.0
 11
571.9925622214232
 21
191.9728689538984
 31
0.0
 11
571.2922025910237
 21
191.5428695930982
 31
0.0
 11
570.5890638767232
 21
191.257329626098
 31
0.0
 11
569.9079154392237
 21
191.126574250598
 31
0.0
 11
569.2782319562239
 21
191.150697827598
 31
0.0
 11
568.7080372425242
 21
191.3223616369983
 31
0.0
 11
568.5194344510237
 21
191.4194373763981
 31
0.0
  0
SPLINE
  5
1C92E
330
1F
100
AcDbEntity
  8
0
100
AcDbSpline
210
0.0
220
0.0
230
1.0
 70
     8
 71
     3
 72
     8
 73
     4
 74
     2
 42
0.0000000001
 43
0.0000000001
 44
0.0000000001
 12
0.8474504774707442
 22
-0.5308744561896038
 32
0.0
 13
0.8234815539796835
 23
-0.5673430445993022
 33
0.0
 40
0.0
 40
0.0
 40
0.0
 40
0.0
 40
0.0602820279440776
 40
0.0602820279440776
 40
0.0602820279440776
 40
0.0602820279440776
 10
572.7071479294236
 20
200.2009977318981
 30
0.0
 10
572.7241766072117
 20
200.1903303356305
 30
0.0
 10
572.7409781525074
 20
200.1792912273212
 30
0.0
 10
572.7575251985236
 20
200.1678910308984
 30
0.0
 11
572.7071479294236
 21
200.2009977318981
 31
0.0
 11
572.7575251985236
 21
200.1678910308984
 31
0.0
  0
SPLINE
  5
1C92F
330
1F
100
AcDbEntity
  8
0
100
AcDbSpline
210
0.0
220
0.0
230
1.0
 70
     8
 71
     3
 72
    11
 73
     7
 74
     5
 42
0.0000000001
 43
0.0000000001
 44
0.0000000001
 12
0.823481554165537
 22
-0.5673430443295412
 32
0.0
 13
0.0
 23
-1.0
 33
0.0
 40
0.0
 40
0.0
 40
0.0
 40
0.0
 40
0.455941681669955
 40
0.9465380585174184
 40
1.489738862573107
 40
2.092801969277654
 40
2.092801969277654
 40
2.092801969277654
 40
2.092801969277654
 10
572.7575251985236
 20
200.1678910308984
 30
0.0
 10
572.8826783867337
 20
200.0816659169933
 30
0.0
 10
573.1139024229717
 20
199.8582193207949
 30
0.0
 10
573.3581575384517
 20
199.4194398739338
 30
0.0
 10
573.5038271954188
 20
198.889328561023
 30
0.0
 10
573.5326259422236
 20
198.5061027081663
 30
0.0
 10
573.5326259422236
 20
198.3050816725982
 30
0.0
 11
572.7575251985236
 21
200.1678910308984
 31
0.0
 11
573.0877953822235
 21
199.8535593225984
 31
0.0
 11
573.3320795302241
 21
199.4281065519981
 31
0.0
 11
573.4820588386237
 21
198.9060210028984
 31
0.0
 11
573.5326259422236
 21
198.3050816725982
 31
0.0
  0
SPLINE
  5
1C930
330
1F
100
AcDbEntity
  8
0
100
AcDbSpline
210
0.0
220
0.0
230
1.0
 70
     8
 71
     3
 72
    20
 73
    16
 74
    14
 42
0.0000000001
 43
0.0000000001
 44
0.0000000001
 12
0.0
 22
-1.0
 32
0.0
 13
-0.8881203407091701
 23
0.4596109881395652
 33
0.0
 40
0.0
 40
0.0
 40
0.0
 40
0.0
 40
0.6612651175631292
 40
1.372523292595525
 40
2.121033787583025
 40
2.891141945749668
 40
3.665644624623338
 40
4.427034603900826
 40
5.158722690619156
 40
5.846328688099239
 40
6.479154229336959
 40
7.051984933680595
 40
7.567321281374584
 40
8.037669359289179
 40
8.311781460913511
 40
8.311781460913511
 40
8.311781460913511
 40
8.311781460913511
 10
573.5326259422236
 20
198.3050816725982
 30
0.0
 10
573.5326259422236
 20
198.0846599667438
 30
0.0
 10
573.494742126004
 20
197.6267504297427
 30
0.0
 10
573.3425715898277
 20
196.9345865811095
 30
0.0
 10
573.0978850352057
 20
196.2309933397003
 30
0.0
 10
572.7688153489955
 20
195.5394729981961
 30
0.0
 10
572.3663029194305
 20
194.8829277149455
 30
0.0
 10
571.9037382592111
 20
194.2832231153091
 30
0.0
 10
571.3964467767245
 20
193.7602498713465
 30
0.0
 10
570.8610264370575
 20
193.331266817276
 30
0.0
 10
570.3145921016177
 20
193.0103903543626
 30
0.0
 10
569.7737939669322
 20
192.8085898799635
 30
0.0
 10
569.254739350262
 20
192.7342740439138
 30
0.0
 10
568.8317284517965
 20
192.7876396983779
 30
0.0
 10
568.5998604437193
 20
192.8807099241354
 30
0.0
 10
568.5187122660236
 20
192.9227049020983
 30
0.0
 11
573.5326259422236
 21
198.3050816725982
 31
0.0
 11
573.4820588386237
 21
197.6457528291981
 31
0.0
 11
573.3320795302241
 21
196.9504871255981
 31
0.0
 11
573.0877953822235
 21
196.2429610015984
 31
0.0
 11
572.7575251985236
 21
195.5472684106981
 31
0.0
 11
572.3525159339242
 21
194.8871003296981
 31
0.0
 11
571.8865596933238
 21
194.284937990798
 31
0.0
 11
571.3755240575237
 21
193.7612873102981
 31
0.0
 11
570.8368117322243
 21
193.3339805839983
 31
0.0
 11
570.2887679195238
 21
193.0175692298981
 31
0.0
 11
569.7500555942242
 21
192.8228282572982
 31
0.0
 11
569.2390199584242
 21
192.7563893364982
 31
0.0
 11
568.7730637178236
 21
192.8205149650981
 31
0.0
 11
568.5187122660236
 21
192.9227049020983
 31
0.0
  0
SPLINE
  5
1C931
330
1F
100
AcDbEntity
  8
0
100
AcDbSpline
210
0.0
220
0.0
230
1.0
 70
     8
 71
     3
 72
     8
 73
     4
 74
     2
 42
0.0000000001
 43
0.0000000001
 44
0.0000000001
 12
-0.8881203407718047
 22
0.4596109880185347
 32
0.0
 13
-0.8794671730673616
 23
0.4759595481728499
 33
0.0
 40
0.0
 40
0.0
 40
0.0
 40
0.0
 40
0.026243052263052
 40
0.026243052263052
 40
0.026243052263052
 40
0.026243052263052
 10
568.5187122660236
 20
192.9227049020983
 30
0.0
 10
568.5109432698506
 20
192.9267254338247
 30
0.0
 10
568.5032110467187
 20
192.9308178407324
 30
0.0
 10
568.4955177457233
 20
192.9349813844984
 30
0.0
 11
568.5187122660236
 21
192.9227049020983
 31
0.0
 11
568.4955177457233
 21
192.9349813844984
 31
0.0
  0
SPLINE
  5
1C932
330
1F
100
AcDbEntity
  8
0
100
AcDbSpline
210
0.0
220
0.0
230
1.0
 70
     8
 71
     3
 72
    16
 73
    12
 74
    10
 42
0.0000000001
 43
0.0000000001
 44
0.0000000001
 12
-0.0000000165550115
 22
1.0
 32
0.0
 13
0.8660239817201873
 23
0.5000024630794461
 33
0.0
 40
0.0
 40
0.0
 40
0.0
 40
0.0
 40
0.78709668460967
 40
1.633783506418837
 40
2.524870723598051
 40
3.441691800486499
 40
4.363743370805643
 40
5.270182456765424
 40
6.141268763924692
 40
6.959881675625517
 40
7.345527299893858
 40
7.345527299893858
 40
7.345527299893858
 40
7.345527299893858
 10
568.0879457588233
 20
193.9368742480984
 30
0.0
 10
568.0879457544798
 20
194.1992398096349
 30
0.0
 10
568.1330327931363
 20
194.7443125000387
 30
0.0
 10
568.3141577853909
 20
195.5682659433989
 30
0.0
 10
568.605430482937
 20
196.4058767315782
 30
0.0
 10
568.9971746620362
 20
197.2291395721768
 30
0.0
 10
569.476351614736
 20
198.0107649337132
 30
0.0
 10
570.0270521096004
 20
198.7247399224438
 30
0.0
 10
570.6309094266684
 20
199.3473043070132
 30
0.0
 10
571.1726031518822
 20
199.7812885494638
 30
0.0
 10
571.5120558960367
 20
199.9963290562613
 30
0.0
 10
571.623382015724
 20
200.060603643598
 30
0.0
 11
568.0879457588233
 21
193.9368742480984
 31
0.0
 11
568.1481257961239
 21
194.721666930298
 31
0.0
 11
568.3266435795238
 21
195.5493202243984
 31
0.0
 11
568.6174405408237
 21
196.3916227566984
 31
0.0
 11
569.0106152388234
 21
197.2198585587981
 31
0.0
 11
569.4927704541242
 21
198.005800952798
 31
0.0
 11
570.047485250524
 21
198.722685400398
 31
0.0
 11
570.6558751899238
 21
199.3461058332982
 31
0.0
 11
571.2972231956237
 21
199.8548295645983
 31
0.0
 11
571.623382015724
 21
200.060603643598
 31
0.0
  0
SPLINE
  5
1C933
330
1F
100
AcDbEntity
  8
0
100
AcDbSpline
210
0.0
220
0.0
230
1.0
 70
     8
 71
     3
 72
    20
 73
    16
 74
    14
 42
0.0000000001
 43
0.0000000001
 44
0.0000000001
 12
0.8665066893425613
 22
-0.4991654608690327
 32
0.0
 13
-0.0000000000597067
 23
1.0
 33
0.0
 40
0.0
 40
0.0
 40
0.0
 40
0.0
 40
0.3126714872077188
 40
0.7840232483641039
 40
1.29922767190752
 40
1.872535734021797
 40
2.505888327259473
 40
3.195358397965009
 40
3.929380643128502
 40
4.694486364185796
 40
5.473234062322912
 40
6.248254014320008
 40
7.002385466703175
 40
7.715090448777916
 40
8.374996808903024
 40
8.374996808903024
 40
8.374996808903024
 40
8.374996808903024
 10
568.5185656379235
 20
192.9210948388982
 30
0.0
 10
568.6088762830008
 20
192.8690699032273
 30
0.0
 10
568.8504866786862
 20
192.7632821580061
 30
0.0
 10
569.2859155225013
 20
192.7016971049898
 30
0.0
 10
569.806396143849
 20
192.7703431147466
 30
0.0
 10
570.3491253073086
 20
192.9680131032798
 30
0.0
 10
570.8982687882707
 20
193.2862662176673
 30
0.0
 10
571.4367650289906
 20
193.7139904332681
 30
0.0
 10
571.9475817324645
 20
194.2372562812178
 30
0.0
 10
572.4137006349695
 20
194.838585457661
 30
0.0
 10
572.8196172372076
 20
195.4981041379658
 30
0.0
 10
573.1516102690049
 20
196.1937164305393
 30
0.0
 10
573.3979471816312
 20
196.9009983136848
 30
0.0
 10
573.5504609763749
 20
197.5950498394899
 30
0.0
 10
573.5882708641368
 20
198.0529870019899
 30
0.0
 10
573.5882708641237
 20
198.2729557886983
 30
0.0
 11
568.5185656379235
 21
192.9210948388982
 31
0.0
 11
568.8049504776236
 21
192.7956070605983
 31
0.0
 11
569.2708866242237
 21
192.7243610779983
 31
0.0
 11
569.7825042395233
 21
192.7850489165981
 31
0.0
 11
570.3232300646233
 21
192.975568511798
 31
0.0
 11
570.8735845838235
 21
193.2890097511982
 31
0.0
 11
571.4156142768242
 21
193.7151233396981
 31
0.0
 11
571.9299868014241
 21
194.238773568698
 31
0.0
 11
572.3996932798236
 21
194.8427293522982
 31
0.0
 11
572.8080928278232
 21
195.5057963070981
 31
0.0
 11
573.141271569224
 21
196.2055447277981
 31
0.0
 11
573.3877007033242
 21
196.9182767456983
 31
0.0
 11
573.5379030674238
 21
197.6149744141981
 31
0.0
 11
573.5882708641237
 21
198.2729557886983
 31
0.0
  0
SPLINE
  5
1C934
330
1F
100
AcDbEntity
  8
0
100
AcDbSpline
210
0.0
220
0.0
230
1.0
 70
     8
 71
     3
 72
     8
 73
     4
 74
     2
 42
0.0000000001
 43
0.0000000001
 44
0.0000000001
 12
0.0342712053101264
 22
-0.9994125697061205
 32
0.0
 13
0.0713378063715591
 23
-0.997452213081957
 33
0.0
 40
0.0
 40
0.0
 40
0.0
 40
0.0
 40
0.1478103195587452
 40
0.1478103195587452
 40
0.1478103195587452
 40
0.1478103195587452
 10
568.0904173822235
 20
194.0853227144981
 30
0.0
 10
568.0921059281597
 20
194.0360815507316
 30
0.0
 10
568.0946782985049
 20
193.9868616393848
 30
0.0
 10
568.0981931198238
 20
193.9377170625981
 30
0.0
 11
568.0904173822235
 21
194.0853227144981
 31
0.0
 11
568.0981931198238
 21
193.9377170625981
 31
0.0
  0
SPLINE
  5
1C935
330
1F
100
AcDbEntity
  8
0
100
AcDbSpline
210
0.0
220
0.0
230
1.0
 70
     8
 71
     3
 72
    10
 73
     6
 74
     4
 42
0.0000000001
 43
0.0000000001
 44
0.0000000001
 12
0.0713378065210658
 22
-0.9974522130712644
 32
0.0
 13
0.4263920724603327
 23
-0.9045384461386827
 33
0.0
 40
0.0
 40
0.0
 40
0.0
 40
0.0
 40
0.3311213118778795
 40
0.930558513797745
 40
1.079285024469722
 40
1.079285024469722
 40
1.079285024469722
 40
1.079285024469722
 10
568.0981931198238
 20
193.9377170625981
 30
0.0
 10
568.1060669425177
 20
193.8276245008222
 30
0.0
 10
568.1414290320389
 20
193.5192653314162
 30
0.0
 10
568.2324999713852
 20
193.1677135578595
 30
0.0
 10
568.3313726893186
 20
192.9386053209523
 30
0.0
 10
568.3525112910237
 20
192.8937623719981
 30
0.0
 11
568.0981931198238
 21
193.9377170625981
 31
0.0
 11
568.1366974008233
 21
193.6088420961983
 31
0.0
 11
568.2934755437236
 21
193.0302700842981
 31
0.0
 11
568.3525112910237
 21
192.8937623719981
 31
0.0
  0
SPLINE
  5
1C936
330
1F
100
AcDbEntity
  8
0
100
AcDbSpline
210
0.0
220
0.0
230
1.0
 70
     8
 71
     3
 72
    22
 73
    18
 74
    16
 42
0.0000000001
 43
0.0000000001
 44
0.0000000001
 12
0.4263920724879234
 22
-0.9045384461256766
 32
0.0
 13
-0.0000000165514269
 23
1.0
 33
0.0
 40
0.0
 40
0.0
 40
0.0
 40
0.0
 40
0.4018660176416611
 40
0.9105258355143439
 40
1.40812002237984
 40
1.928777277597358
 40
2.497874338494944
 40
3.131152923896716
 40
3.830756956180496
 40
4.592348594194592
 40
5.403152743981916
 40
6.248291813588241
 40
7.108499822484146
 40
7.964590159773861
 40
8.797606673723189
 40
9.584863929733094
 40
10.31379938954899
 40
10.31379938954899
 40
10.31379938954899
 40
10.31379938954899
 10
568.3525112910237
 20
192.8937623719981
 30
0.0
 10
568.4096287857319
 20
192.7725946176153
 30
0.0
 10
568.564091636954
 20
192.5089067441545
 30
0.0
 10
568.900371933161
 20
192.1703257031712
 30
0.0
 10
569.3647795396911
 20
191.9404329446732
 30
0.0
 10
569.8964580740883
 20
191.8652972599128
 30
0.0
 10
570.4714779212832
 20
191.9410915106699
 30
0.0
 10
571.0709494321454
 20
192.1594486695437
 30
0.0
 10
571.6775448604277
 20
192.510989342433
 30
0.0
 10
572.272367315706
 20
192.9834564014529
 30
0.0
 10
572.8366182804029
 20
193.5614579795948
 30
0.0
 10
573.3514952277777
 20
194.2256887918829
 30
0.0
 10
573.799870885236
 20
194.9541966403046
 30
0.0
 10
574.1665953882946
 20
195.7225715872514
 30
0.0
 10
574.438690819954
 20
196.5038408642417
 30
0.0
 10
574.6071728458223
 20
197.2704900937199
 30
0.0
 10
574.6489306350447
 20
197.776330508993
 30
0.0
 10
574.648930631023
 20
198.0193089955983
 30
0.0
 11
568.3525112910237
 21
192.8937623719981
 31
0.0
 11
568.5582440521239
 21
192.5485518171982
 31
0.0
 11
568.9198135144232
 21
192.1907776785984
 31
0.0
 11
569.3652541330237
 21
191.9690061066981
 31
0.0
 11
569.8799292540242
 21
191.8903073313982
 31
0.0
 11
570.4450643204236
 21
191.9573433026981
 31
0.0
 11
571.0423524433243
 21
192.1677920255979
 31
0.0
 11
571.6502764307242
 21
192.5140206025981
 31
0.0
 11
572.2490047227237
 21
192.9847076062984
 31
0.0
 11
572.8171827383239
 21
193.5631340163982
 31
0.0
 11
573.3360223970238
 21
194.2302662787984
 31
0.0
 11
573.7871418447239
 21
194.9626931095982
 31
0.0
 11
574.1551730296232
 21
195.7356379410981
 31
0.0
 11
574.4273765775233
 21
196.5229255257982
 31
0.0
 11
574.5932972125237
 21
197.292499648298
 31
0.0
 11
574.648930631023
 21
198.0193089955983
 31
0.0
  0
SPLINE
  5
1C937
330
1F
100
AcDbEntity
  8
0
100
AcDbSpline
210
0.0
220
0.0
230
1.0
 70
     8
 71
     3
 72
    16
 73
    12
 74
    10
 42
0.0000000001
 43
0.0000000001
 44
0.0000000001
 12
-0.8659136249934562
 22
0.5001935565865398
 32
0.0
 13
0.0
 23
1.0
 33
0.0
 40
0.0
 40
0.0
 40
0.0
 40
0.0
 40
0.0722094635652266
 40
0.3757095885404235
 40
0.6858526247139904
 40
1.007386593446477
 40
1.344272359494246
 40
1.699523407031041
 40
2.075162971641826
 40
2.472353113494776
 40
2.891608727908046
 40
2.891608727908046
 40
2.891608727908046
 40
2.891608727908046
 10
568.519397766624
 20
191.4193739293983
 30
0.0
 10
568.4985553805058
 20
191.4314134988649
 30
0.0
 10
568.3913498604955
 20
191.4961839409834
 30
0.0
 10
568.2079163764417
 20
191.6345793382467
 30
0.0
 10
567.991642758764
 20
191.8607855210464
 30
0.0
 10
567.8057299776058
 20
192.1261530729884
 30
0.0
 10
567.6517522918934
 20
192.4280281990353
 30
0.0
 10
567.5308559902334
 20
192.7636883405619
 30
0.0
 10
567.4439694530582
 20
193.1302795143432
 30
0.0
 10
567.3918051588673
 20
193.5247943984145
 30
0.0
 10
567.3808295070237
 20
193.7971213664269
 30
0.0
 10
567.3808295070237
 20
193.936873237898
 30
0.0
 11
568.519397766624
 21
191.4193739293983
 31
0.0
 11
568.4575949322243
 21
191.4567184910979
 31
0.0
 11
568.2151251783233
 21
191.6392581971981
 31
0.0
 11
568.000264205524
 21
191.8629174586982
 31
0.0
 11
567.8149646715237
 21
192.125687654398
 31
0.0
 11
567.660884257124
 21
192.4252727762983
 31
0.0
 11
567.5394152651242
 21
192.7591119452982
 31
0.0
 11
567.4517024945235
 21
193.1243674070979
 31
0.0
 11
567.3986285447243
 21
193.5179956131984
 31
0.0
 11
567.3808295070237
 21
193.936873237898
 31
0.0
  0
SPLINE
  5
1C938
330
1F
100
AcDbEntity
  8
0
100
AcDbSpline
210
0.0
220
0.0
230
1.0
 70
     8
 71
     3
 72
     8
 73
     4
 74
     2
 42
0.0000000001
 43
0.0000000001
 44
0.0000000001
 12
0.0
 22
1.0
 32
0.0
 13
-0.0091760722523866
 23
0.9999578989627607
 33
0.0
 40
0.0
 40
0.0
 40
0.0
 40
0.0
 40
0.0362865038360333
 40
0.0362865038360333
 40
0.0362865038360333
 40
0.0362865038360333
 10
573.5882708641237
 20
198.2729557886983
 30
0.0
 10
573.5882708641237
 20
198.285051289977
 30
0.0
 10
573.5882158896174
 20
198.2971469209525
 30
0.0
 10
573.5881049004238
 20
198.309241912998
 30
0.0
 11
573.5882708641237
 21
198.2729557886983
 31
0.0
 11
573.5881049004238
 21
198.309241912998
 31
0.0
  0
SPLINE
  5
1C939
330
1F
100
AcDbEntity
  8
0
100
AcDbSpline
210
0.0
220
0.0
230
1.0
 70
     8
 71
     3
 72
    12
 73
     8
 74
     6
 42
0.0000000001
 43
0.0000000001
 44
0.0000000001
 12
-0.0091760734362871
 22
0.9999578989518967
 32
0.0
 13
-0.8664937127841405
 23
0.4991879863393704
 33
0.0
 40
0.0
 40
0.0
 40
0.0
 40
0.0
 40
0.5290948991438837
 40
1.071768900113228
 40
1.56939921039283
 40
2.029889965421377
 40
2.168873916601949
 40
2.168873916601949
 40
2.168873916601949
 40
2.168873916601949
 10
573.5881049004238
 20
198.309241912998
 30
0.0
 10
573.5864865625407
 20
198.4855994542293
 30
0.0
 10
573.5590951049715
 20
198.8433209316406
 30
0.0
 10
573.4270023006924
 20
199.3534225234859
 30
0.0
 10
573.1893016464982
 20
199.8000229902917
 30
0.0
 10
572.9267682140125
 20
200.0641611330408
 30
0.0
 10
572.7584785946485
 20
200.1724211361905
 30
0.0
 10
572.7183356880232
 20
200.1955475090982
 30
0.0
 11
573.5881049004238
 21
198.309241912998
 31
0.0
 11
573.5441333370236
 21
198.8365064707982
 31
0.0
 11
573.4022017704237
 21
199.360291256498
 31
0.0
 11
573.1625064968238
 21
199.7963899855982
 31
0.0
 11
572.8351770615236
 21
200.120283758698
 31
0.0
 11
572.7183356880232
 21
200.1955475090982
 31
0.0
  0
SPLINE
  5
1C93A
330
1F
100
AcDbEntity
  8
0
100
AcDbSpline
210
0.0
220
0.0
230
1.0
 70
     8
 71
     3
 72
    16
 73
    12
 74
    10
 42
0.0000000001
 43
0.0000000001
 44
0.0000000001
 12
0.8660239817176249
 22
0.500002463083884
 32
0.0
 13
-0.0000000168803894
 23
-1.0
 33
0.0
 40
0.0
 40
0.0
 40
0.0
 40
0.0
 40
0.3683573296501655
 40
1.050322025100644
 40
1.663830627170473
 40
2.223776209995931
 40
2.757635923913725
 40
3.300444393917392
 40
3.884504943208989
 40
4.531155472417122
 40
5.248982136938986
 40
5.248982136938986
 40
5.248982136938986
 40
5.248982136938986
 10
571.623382015724
 20
200.060603643598
 30
0.0
 10
571.7297174428302
 20
200.1219968343046
 30
0.0
 10
572.0398051170742
 20
200.2851535685819
 30
0.0
 10
572.5627692333756
 20
200.4803475406184
 30
0.0
 10
573.1808165126198
 20
200.5687300940806
 30
0.0
 10
573.7535921787751
 20
200.4965776547946
 30
0.0
 10
574.2557918802813
 20
200.2596319525792
 30
0.0
 10
574.6602796755207
 20
199.8683813385732
 30
0.0
 10
574.951386883848
 20
199.3457633839018
 30
0.0
 10
575.1246550064498
 20
198.7147826018562
 30
0.0
 10
575.1589736010628
 20
198.258585259039
 30
0.0
 10
575.1589735970237
 20
198.0193097041984
 30
0.0
 11
571.623382015724
 21
200.060603643598
 31
0.0
 11
571.9496836504239
 21
200.2315257471983
 31
0.0
 11
572.591031731924
 21
200.463362940498
 31
0.0
 11
573.1994218373237
 21
200.5424469746982
 31
0.0
 11
573.7541366020232
 21
200.4660887036981
 31
0.0
 11
574.2362916939237
 21
200.2368886567984
 31
0.0
 11
574.6294665944242
 21
199.8626500527981
 31
0.0
 11
574.9202642555237
 21
199.3561291296983
 31
0.0
 11
575.0987827505232
 21
198.734608370698
 31
0.0
 11
575.1589735970237
 21
198.0193097041984
 31
0.0
  0
SPLINE
  5
1C93B
330
1F
100
AcDbEntity
  8
0
100
AcDbSpline
210
0.0
220
0.0
230
1.0
 70
     8
 71
     3
 72
    32
 73
    28
 74
    26
 42
0.0000000001
 43
0.0000000001
 44
0.0000000001
 12
0.0
 22
1.0
 32
0.0
 13
0.8660893067921225
 23
-0.4998893004059408
 33
0.0
 40
0.0
 40
0.0
 40
0.0
 40
0.0
 40
0.439672023118342
 40
0.8976493800980376
 40
1.372424838149551
 40
1.861970033637465
 40
2.363895120295072
 40
2.875576707190894
 40
3.394144188553422
 40
3.916494040313105
 40
4.439470618398919
 40
4.959916491236493
 40
5.474740199350702
 40
5.980970262862252
 40
6.475837963551621
 40
6.956785223872822
 40
7.421492558796116
 40
7.868001284252188
 40
8.294792245004162
 40
8.700915113366292
 40
9.086078959248155
 40
9.450750182380611
 40
9.796268288230129
 40
10.1249559056897
 40
10.4401728638003
 40
10.74629653715678
 40
10.97575531396075
 40
10.97575531396075
 40
10.97575531396075
 40
10.97575531396075
 10
567.3808295070237
 20
193.936873237898
 30
0.0
 10
567.3808295070237
 20
194.0834305789374
 30
0.0
 10
567.3934858902955
 20
194.3827523204622
 30
0.0
 10
567.4471951483431
 20
194.837436441963
 30
0.0
 10
567.5353909062569
 20
195.3036276723107
 30
0.0
 10
567.6571992061531
 20
195.7772836701294
 30
0.0
 10
567.8114872644832
 20
196.2543008443594
 30
0.0
 10
567.996858820401
 20
196.7304974392538
 30
0.0
 10
568.2116442931303
 20
197.2016514399227
 30
0.0
 10
568.4538980184804
 20
197.6635376199971
 30
0.0
 10
568.7214149770723
 20
198.1119933589943
 30
0.0
 10
569.011769909151
 20
198.5429941334316
 30
0.0
 10
569.3223432431751
 20
198.9526887328272
 30
0.0
 10
569.6503556448488
 20
199.3374396404263
 30
0.0
 10
569.9928920219194
 20
199.6938424187391
 30
0.0
 10
570.3469152965335
 20
200.0187357597407
 30
0.0
 10
570.7092811665278
 20
200.3092202980086
 30
0.0
 10
571.0767650734319
 20
200.5626882832544
 30
0.0
 10
571.4461128952788
 20
200.7768612270926
 30
0.0
 10
571.8140783723936
 20
200.9498035813971
 30
0.0
 10
572.1774541594591
 20
201.079923217826
 30
0.0
 10
572.5330818943811
 20
201.1659599783444
 30
0.0
 10
572.877850772093
 20
201.2069784004205
 30
0.0
 10
573.2086896064052
 20
201.2023697391596
 30
0.0
 10
573.5225372641328
 20
201.1518874913783
 30
0.0
 10
573.7932499946273
 20
201.0632683978433
 30
0.0
 10
573.9536013427441
 20
200.9836152042675
 30
0.0
 10
574.0198452737239
 20
200.945380541798
 30
0.0
 11
567.3808295070237
 21
193.936873237898
 31
0.0
 11
567.3986191783241
 21
194.376185217598
 31
0.0
 11
567.451681491224
 21
194.831078227498
 31
0.0
 11
567.5393991717237
 21
195.2976801392984
 31
0.0
 11
567.6609006685238
 21
195.7719078110982
 31
0.0
 11
567.815044905924
 21
196.2495775156981
 31
0.0
 11
568.0004357474245
 21
196.7264928983981
 31
0.0
 11
568.2154004393233
 21
197.1984064645981
 31
0.0
 11
568.4579638774238
 21
197.6610211488983
 31
0.0
 11
568.7259053800243
 21
198.1101445755981
 31
0.0
 11
569.0167787761237
 21
198.5417191044981
 31
0.0
 11
569.3279432529233
 21
198.951865564698
 31
0.0
 11
569.6565889865232
 21
199.3369121319979
 31
0.0
 11
569.9997825304235
 21
199.6934401569984
 31
0.0
 11
570.3544603690243
 21
200.0182691858982
 31
0.0
 11
570.7174214188235
 21
200.308462541198
 31
0.0
 11
571.0853842293236
 21
200.5613921993982
 31
0.0
 11
571.4550107175236
 21
200.774762261498
 31
0.0
 11
571.8229659867238
 21
200.9466479911981
 31
0.0
 11
572.1859376091232
 21
201.0754998033982
 31
0.0
 11
572.5406480684232
 21
201.1601496175982
 31
0.0
 11
572.8838804786237
 21
201.1998267401982
 31
0.0
 11
573.2125194672242
 21
201.1941729765982
 31
0.0
 11
573.5235951497234
 21
201.1432450820981
 31
0.0
 11
573.814355978624
 21
201.0474857808982
 31
0.0
 11
574.0198452737239
 21
200.945380541798
 31
0.0
  0
SPLINE
  5
1C93C
330
1F
100
AcDbEntity
  8
0
100
AcDbSpline
210
0.0
220
0.0
230
1.0
 70
     8
 71
     3
 72
    24
 73
    20
 74
    18
 42
0.0000000001
 43
0.0000000001
 44
0.0000000001
 12
0.0000000165557084
 22
-1.0
 32
0.0
 13
-0.0000096986478163
 23
0.9999999999529681
 33
0.0
 40
0.0
 40
0.0
 40
0.0
 40
0.0
 40
0.7870914282948927
 40
1.633778249985001
 40
2.524865467258459
 40
3.441686544100185
 40
4.363738114366539
 40
5.270177200326969
 40
6.141263507486298
 40
6.959876419186963
 40
7.713271839223351
 40
8.395236534674578
 40
9.008745136842836
 40
9.568690719669199
 40
10.10255043354332
 40
10.64535890361914
 40
11.22941945294805
 40
11.87606998218396
 40
12.59384363765813
 40
12.59384363765813
 40
12.59384363765813
 40
12.59384363765813
 10
575.1589735980231
 20
198.0193098617984
 30
0.0
 10
575.1589736023667
 20
197.7569460523667
 30
0.0
 10
575.1138702274637
 20
197.2118763698884
 30
0.0
 10
574.9327527035994
 20
196.3879241794194
 30
0.0
 10
574.6414775682411
 20
195.5503132800825
 30
0.0
 10
574.2497355566881
 20
194.7270514222353
 30
0.0
 10
573.770552448682
 20
193.9454222249238
 30
0.0
 10
573.2198737607657
 20
193.2314611869228
 30
0.0
 10
572.6159400860617
 20
192.6088478597594
 30
0.0
 10
571.9785178047408
 20
192.098128064015
 30
0.0
 10
571.327960039298
 20
191.7161217632328
 30
0.0
 10
570.6841776256274
 20
191.4758623186493
 30
0.0
 10
570.0660835175745
 20
191.3874555436048
 30
0.0
 10
569.4933187791447
 20
191.4596136438385
 30
0.0
 10
568.9911164324032
 20
191.6965579450294
 30
0.0
 10
568.586629087727
 20
192.0878089187984
 30
0.0
 10
568.2955228672238
 20
192.6104268558014
 30
0.0
 10
568.1222542916381
 20
193.241390094114
 30
0.0
 10
568.0879480795015
 20
193.6975702895516
 30
0.0
 10
568.0879457590235
 20
193.9368281746984
 30
0.0
 11
575.1589735980231
 21
198.0193098617984
 31
0.0
 11
575.098783030624
 21
197.2345232588983
 31
0.0
 11
574.9202652473232
 21
196.4068699648983
 31
0.0
 11
574.6294682860242
 21
195.5645674324983
 31
0.0
 11
574.2362935879237
 21
194.7363316304982
 31
0.0
 11
573.7541383727239
 21
193.9503892364983
 31
0.0
 11
573.199423576323
 21
193.2335047888983
 31
0.0
 11
572.5910336369232
 21
192.610084355998
 31
0.0
 11
571.9496856312233
 21
192.101360624698
 31
0.0
 11
571.2972251765241
 21
191.724664442098
 31
0.0
 11
570.6558770950232
 21
191.4928272487983
 31
0.0
 11
570.0474869895242
 21
191.4137432145981
 31
0.0
 11
569.4927722248238
 21
191.4901014855982
 31
0.0
 11
569.0106171329244
 21
191.7193015323983
 31
0.0
 11
568.6174422323237
 21
192.0935401363982
 31
0.0
 11
568.3266445713234
 21
192.6000610595979
 31
0.0
 11
568.1481260762239
 21
193.2215818185983
 31
0.0
 11
568.0879457590235
 21
193.9368281746984
 31
0.0
  0
SPLINE
  5
1C93D
330
1F
100
AcDbEntity
  8
0
100
AcDbSpline
210
0.0
220
0.0
230
1.0
 70
     8
 71
     3
 72
    16
 73
    12
 74
    10
 42
0.0000000001
 43
0.0000000001
 44
0.0000000001
 12
-0.000000016542533
 22
1.0
 32
0.0
 13
-0.8996075184352102
 23
-0.4366993391051134
 33
0.0
 40
0.0
 40
0.0
 40
0.0
 40
0.0
 40
0.6244069423298156
 40
1.223847420579979
 40
1.773531275639113
 40
2.282191462502018
 40
2.779785216285344
 40
3.300442271292278
 40
3.869539238848547
 40
4.502817771437595
 40
4.576177373665932
 40
4.576177373665932
 40
4.576177373665932
 40
4.576177373665932
 10
574.648930631023
 20
198.0193089955983
 30
0.0
 10
574.6489306275799
 20
198.2274446430415
 30
0.0
 10
574.6200502391243
 20
198.6363857653106
 30
0.0
 10
574.4708437556112
 20
199.2127530893323
 30
0.0
 10
574.2080476380103
 20
199.7062342255989
 30
0.0
 10
573.8365084781936
 20
200.0803187011227
 30
0.0
 10
573.3720965534699
 20
200.3102246012955
 30
0.0
 10
572.8403935128026
 20
200.3853440849593
 30
0.0
 10
572.2654920709528
 20
200.3096071922108
 30
0.0
 10
571.8630532335557
 20
200.1629803549366
 30
0.0
 10
571.6502223385616
 20
200.0621332079016
 30
0.0
 10
571.6282240553237
 20
200.0514545112983
 30
0.0
 11
574.648930631023
 21
198.0193089955983
 31
0.0
 11
574.6001773901244
 21
198.6418097193983
 31
0.0
 11
574.4433952458239
 21
199.2203840414982
 31
0.0
 11
574.1786290504243
 21
199.702100973198
 31
0.0
 11
573.8170592577244
 21
200.0598753024984
 31
0.0
 11
573.3716190149244
 21
200.2816466574981
 31
0.0
 11
572.8569440800237
 21
200.3603453252982
 31
0.0
 11
572.2918091145237
 21
200.2933092957984
 31
0.0
 11
571.6945210619232
 21
200.0828605322982
 31
0.0
 11
571.6282240553237
 21
200.0514545112983
 31
0.0
  0
SPLINE
  5
1C93E
330
1F
100
AcDbEntity
  8
0
100
AcDbSpline
210
0.0
220
0.0
230
1.0
 70
     8
 71
     3
 72
     8
 73
     4
 74
     2
 42
0.0000000001
 43
0.0000000001
 44
0.0000000001
 12
-0.8996075183737321
 22
-0.4366993392317597
 32
0.0
 13
-0.8818892751238889
 23
-0.471456579571716
 33
0.0
 40
0.0
 40
0.0
 40
0.0
 40
0.0
 40
0.1559879060870546
 40
0.1559879060870546
 40
0.1559879060870546
 40
0.1559879060870546
 10
571.6282240553237
 20
200.0514545112983
 30
0.0
 10
571.5814480909599
 20
200.0287479061262
 30
0.0
 10
571.5351197833662
 20
200.0050978051511
 30
0.0
 10
571.4892650962237
 20
199.9805839635983
 30
0.0
 11
571.6282240553237
 21
200.0514545112983
 31
0.0
 11
571.4892650962237
 21
199.9805839635983
 31
0.0
  0
LINE
  5
1C93F
330
1F
100
AcDbEntity
  8
hat
100
AcDbLine
 10
592.014829373173
 20
252.4511075946965
 30
0.0
 11
592.0734175686706
 21
252.5096957901936
 31
0.0
1001
ACAD
1010
0.0
1020
0.0
1030
0.0
  0
LINE
  5
1C940
330
1F
100
AcDbEntity
  8
hat
100
AcDbLine
 10
590.2373393928448
 20
249.2594040519952
 30
0.0
 11
591.8629239016021
 21
250.8849885607523
 31
0.0
1001
ACAD
1010
0.0
1020
0.0
1030
0.0
  0
LINE
  5
1C941
330
1F
100
AcDbEntity
  8
hat
100
AcDbLine
 10
592.1876326310424
 20
251.2096972901927
 30
0.0
 11
593.4876311310438
 21
252.5096957901936
 31
0.0
1001
ACAD
1010
0.0
1020
0.0
1030
0.0
  0
LINE
  5
1C942
330
1F
100
AcDbEntity
  8
hat
100
AcDbLine
 10
589.6063737450707
 20
247.2142248418476
 30
0.0
 11
589.931072249012
 21
247.538923345789
 31
0.0
1001
ACAD
1010
0.0
1020
0.0
1030
0.0
  0
LINE
  5
1C943
330
1F
100
AcDbEntity
  8
hat
100
AcDbLine
 10
593.6018461934168
 20
251.2096972901936
 30
0.0
 11
594.9018446934164
 21
252.5096957901932
 31
0.0
1001
ACAD
1010
0.0
1020
0.0
1030
0.0
  0
LINE
  5
1C944
330
1F
100
AcDbEntity
  8
hat
100
AcDbLine
 10
589.7071079598593
 20
245.9007454942634
 30
0.0
 11
590.061289977832
 21
246.254927512236
 31
0.0
1001
ACAD
1010
0.0
1020
0.0
1030
0.0
  0
LINE
  5
1C945
330
1F
100
AcDbEntity
  8
hat
100
AcDbLine
 10
595.01605975579
 20
251.2096972901936
 30
0.0
 11
596.3160582557897
 21
252.5096957901932
 31
0.0
1001
ACAD
1010
0.0
1020
0.0
1030
0.0
  0
LINE
  5
1C946
330
1F
100
AcDbEntity
  8
hat
100
AcDbLine
 10
590.0966344388037
 20
244.8760584108349
 30
0.0
 11
590.5789280680377
 21
245.3583520400684
 31
0.0
1001
ACAD
1010
0.0
1020
0.0
1030
0.0
  0
LINE
  5
1C947
330
1F
100
AcDbEntity
  8
hat
100
AcDbLine
 10
596.6802733181623
 20
251.4596972901931
 30
0.0
 11
597.730271818163
 21
252.5096957901932
 31
0.0
1001
ACAD
1010
0.0
1020
0.0
1030
0.0
  0
LINE
  5
1C948
330
1F
100
AcDbEntity
  8
hat
100
AcDbLine
 10
590.6092249213683
 20
243.9744353310261
 30
0.0
 11
591.0965661582435
 21
244.4617765679013
 31
0.0
1001
ACAD
1010
0.0
1020
0.0
1030
0.0
  0
LINE
  5
1C949
330
1F
100
AcDbEntity
  8
hat
100
AcDbLine
 10
598.0944868805358
 20
251.4596972901935
 30
0.0
 11
599.1444853805362
 21
252.5096957901936
 31
0.0
1001
ACAD
1010
0.0
1020
0.0
1030
0.0
  0
LINE
  5
1C94A
330
1F
100
AcDbEntity
  8
hat
100
AcDbLine
 10
591.1421912675481
 20
243.093188114833
 30
0.0
 11
591.6142042484493
 21
243.5652010957332
 31
0.0
1001
ACAD
1010
0.0
1020
0.0
1030
0.0
  0
LINE
  5
1C94B
330
1F
100
AcDbEntity
  8
hat
100
AcDbLine
 10
599.5087004429091
 20
251.4596972901935
 30
0.0
 11
600.5586989429096
 21
252.5096957901936
 31
0.0
1001
ACAD
1010
0.0
1020
0.0
1030
0.0
  0
LINE
  5
1C94C
330
1F
100
AcDbEntity
  8
hat
100
AcDbLine
 10
591.6455121540024
 20
242.182295438914
 30
0.0
 11
592.2729140052827
 21
242.8096972901939
 31
0.0
1001
ACAD
1010
0.0
1020
0.0
1030
0.0
  0
LINE
  5
1C94D
330
1F
100
AcDbEntity
  8
hat
100
AcDbLine
 10
600.9229140052823
 20
251.4596972901931
 30
0.0
 11
601.9729125052829
 21
252.5096957901941
 31
0.0
1001
ACAD
1010
0.0
1020
0.0
1030
0.0
  0
LINE
  5
1C94E
330
1F
100
AcDbEntity
  8
hat
100
AcDbLine
 10
592.3871260676545
 20
241.5096957901933
 30
0.0
 11
593.6871275676552
 21
242.8096972901944
 31
0.0
1001
ACAD
1010
0.0
1020
0.0
1030
0.0
  0
LINE
  5
1C94F
330
1F
100
AcDbEntity
  8
hat
100
AcDbLine
 10
602.3371275676549
 20
251.4596972901935
 30
0.0
 11
603.3871260676554
 21
252.5096957901941
 31
0.0
1001
ACAD
1010
0.0
1020
0.0
1030
0.0
  0
LINE
  5
1C950
330
1F
100
AcDbEntity
  8
hat
100
AcDbLine
 10
593.8013396300277
 20
241.5096957901937
 30
0.0
 11
595.1013411300285
 21
242.8096972901939
 31
0.0
1001
ACAD
1010
0.0
1020
0.0
1030
0.0
  0
LINE
  5
1C951
330
1F
100
AcDbEntity
  8
hat
100
AcDbLine
 10
603.7513411300282
 20
251.4596972901935
 30
0.0
 11
604.8013396300287
 21
252.5096957901936
 31
0.0
1001
ACAD
1010
0.0
1020
0.0
1030
0.0
  0
LINE
  5
1C952
330
1F
100
AcDbEntity
  8
hat
100
AcDbLine
 10
595.2155531924013
 20
241.5096957901933
 30
0.0
 11
596.2655546924017
 21
242.5596972901939
 31
0.0
1001
ACAD
1010
0.0
1020
0.0
1030
0.0
  0
LINE
  5
1C953
330
1F
100
AcDbEntity
  8
hat
100
AcDbLine
 10
604.9182042658116
 20
251.2123468636036
 30
0.0
 11
606.0860978267612
 21
252.3802404245539
 31
0.0
1001
ACAD
1010
0.0
1020
0.0
1030
0.0
  0
LINE
  5
1C954
330
1F
100
AcDbEntity
  8
hat
100
AcDbLine
 10
596.6297667547744
 20
241.5096957901933
 30
0.0
 11
597.6797682547742
 21
242.5596972901935
 31
0.0
1001
ACAD
1010
0.0
1020
0.0
1030
0.0
  0
LINE
  5
1C955
330
1F
100
AcDbEntity
  8
hat
100
AcDbLine
 10
598.043980317147
 20
241.5096957901933
 30
0.0
 11
599.0939818171475
 21
242.5596972901939
 31
0.0
1001
ACAD
1010
0.0
1020
0.0
1030
0.0
  0
LINE
  5
1C956
330
1F
100
AcDbEntity
  8
hat
100
AcDbLine
 10
599.4581938795203
 20
241.5096957901937
 30
0.0
 11
600.508195379521
 21
242.5596972901939
 31
0.0
1001
ACAD
1010
0.0
1020
0.0
1030
0.0
  0
LINE
  5
1C957
330
1F
100
AcDbEntity
  8
hat
100
AcDbLine
 10
600.8724074418936
 20
241.5096957901933
 30
0.0
 11
601.9224089418941
 21
242.5596972901939
 31
0.0
1001
ACAD
1010
0.0
1020
0.0
1030
0.0
  0
LINE
  5
1C958
330
1F
100
AcDbEntity
  8
hat
100
AcDbLine
 10
602.2866210042669
 20
241.5096957901933
 30
0.0
 11
603.3366225042676
 21
242.5596972901939
 31
0.0
1001
ACAD
1010
0.0
1020
0.0
1030
0.0
  0
LINE
  5
1C959
330
1F
100
AcDbEntity
  8
hat
100
AcDbLine
 10
603.7008345666402
 20
241.5096957901941
 30
0.0
 11
604.9919666938023
 21
242.8008279173563
 31
0.0
1001
ACAD
1010
0.0
1020
0.0
1030
0.0
  0
LINE
  5
1C95A
330
1F
100
AcDbEntity
  8
hat
100
AcDbLine
 10
605.1150481290127
 20
241.5096957901937
 30
0.0
 11
605.932729075101
 21
242.3273767362815
 31
0.0
1001
ACAD
1010
0.0
1020
0.0
1030
0.0
  0
LINE
  5
1C95B
330
1F
100
AcDbEntity
  8
0
100
AcDbLine
 10
591.3234645739517
 20
241.509692790194
 30
0.0
 11
591.3234645739517
 21
242.7733939787385
 31
0.0
  0
LINE
  5
1C95C
330
1F
100
AcDbEntity
  8
0
100
AcDbLine
 10
591.3234645739517
 20
251.2689831464199
 30
0.0
 11
591.3234645739517
 21
252.5096957901936
 31
0.0
  0
LINE
  5
1C95D
102
{ACAD_REACTORS
330
1C985
102
}
330
1F
100
AcDbEntity
  8
0
100
AcDbLine
 10
591.3234645739517
 20
241.5096957901937
 30
0.0
 11
605.7503945739521
 21
241.5096957901937
 31
0.0
  0
LINE
  5
1C95E
330
1F
100
AcDbEntity
  8
0
100
AcDbLine
 10
595.5503945739514
 20
242.5596972901939
 30
0.0
 11
604.7503945739521
 21
242.5596972901939
 31
0.0
  0
LINE
  5
1C95F
330
1F
100
AcDbEntity
  8
0
100
AcDbLine
 10
592.0503945739523
 20
242.8096972901939
 30
0.0
 11
595.5503945739514
 21
242.8096972901939
 31
0.0
  0
LINE
  5
1C960
330
1F
100
AcDbEntity
  8
0
100
AcDbLine
 10
604.7503945739521
 20
242.8096972901939
 30
0.0
 11
604.8290880496518
 21
242.8096972901939
 31
0.0
  0
LINE
  5
1C961
330
1F
100
AcDbEntity
  8
0
100
AcDbLine
 10
589.6255234433513
 20
247.0096972901937
 30
0.0
 11
592.0503945739523
 21
251.2096972901936
 31
0.0
  0
LINE
  5
1C962
330
1F
100
AcDbEntity
  8
0
100
AcDbLine
 10
589.6255234433513
 20
247.0096972901937
 30
0.0
 11
592.0503945739523
 21
242.8096972901939
 31
0.0
  0
LINE
  5
1C963
330
1F
100
AcDbEntity
  8
0
100
AcDbLine
 10
592.0503945739523
 20
251.2096972901936
 30
0.0
 11
595.5503945739514
 21
251.2096972901936
 31
0.0
  0
LINE
  5
1C964
330
1F
100
AcDbEntity
  8
0
100
AcDbLine
 10
604.7503945739521
 20
251.2096972901936
 30
0.0
 11
604.8290880496518
 21
251.2096972901936
 31
0.0
  0
LINE
  5
1C965
330
1F
100
AcDbEntity
  8
0
100
AcDbLine
 10
595.5503945739514
 20
251.4596972901935
 30
0.0
 11
604.7503945739521
 21
251.4596972901935
 31
0.0
  0
LINE
  5
1C966
330
1F
100
AcDbEntity
  8
0
100
AcDbLine
 10
592.0503945739523
 20
251.2096972901936
 30
0.0
 11
592.0503945739523
 21
242.8096972901939
 31
0.0
  0
LINE
  5
1C967
102
{ACAD_REACTORS
330
1C985
102
}
330
1F
100
AcDbEntity
  8
0
100
AcDbLine
 10
605.7503945739521
 20
252.5096957901936
 30
0.0
 11
591.3234645739517
 21
252.5096957901936
 31
0.0
  0
LINE
  5
1C968
330
1F
100
AcDbEntity
  8
0
100
AcDbLine
 10
595.5503945739514
 20
242.5596972901939
 30
0.0
 11
595.5503945739514
 21
251.4596972901935
 31
0.0
  0
LINE
  5
1C969
330
1F
100
AcDbEntity
  8
0
100
AcDbLine
 10
606.2503945738519
 20
252.0096823965936
 30
0.0
 11
605.8897466416514
 21
251.6490355386935
 31
0.0
  0
LINE
  5
1C96A
330
1F
100
AcDbEntity
  8
0
100
AcDbLine
 10
606.250394573752
 20
242.0097121838939
 30
0.0
 11
605.8897466416514
 21
242.3703590416939
 31
0.0
  0
LINE
  5
1C96B
330
1F
100
AcDbEntity
  8
0
100
AcDbLine
 10
604.7503945739521
 20
242.5596972901939
 30
0.0
 11
604.7503945739521
 21
251.4596972901935
 31
0.0
  0
LINE
  5
1C96C
330
1F
100
AcDbEntity
  8
0
100
AcDbLine
 10
605.8897466416514
 20
251.6490355386935
 30
0.0
 11
605.8897466416514
 21
242.3703590416939
 31
0.0
  0
LINE
  5
1C96D
102
{ACAD_REACTORS
330
1C988
102
}
330
1F
100
AcDbEntity
  8
0
100
AcDbLine
 10
606.2503945739521
 20
252.0096957901936
 30
0.0
 11
606.2503945739521
 21
242.0096957901936
 31
0.0
  0
LINE
  5
1C96E
102
{ACAD_REACTORS
330
1C988
102
}
330
1F
100
AcDbEntity
  8
0
100
AcDbLine
 10
592.0503945739523
 20
251.2096972901936
 30
0.0
 11
592.0503945739523
 21
242.8096972901939
 31
0.0
  0
ARC
  5
1C96F
330
1F
100
AcDbEntity
  8
0
100
AcDbCircle
 10
604.8290880496518
 20
241.3096972901939
 30
0.0
 40
1.5
100
AcDbArc
 50
45.0000853325952
 51
90.0
  0
ARC
  5
1C970
330
1F
100
AcDbEntity
  8
0
100
AcDbCircle
 10
605.7503945739521
 20
242.0096957901936
 30
0.0
 40
0.5
100
AcDbArc
 50
270.0
 51
0.0
  0
ARC
  5
1C971
330
1F
100
AcDbEntity
  8
0
100
AcDbCircle
 10
604.8290880496518
 20
252.7096972901936
 30
0.0
 40
1.5
100
AcDbArc
 50
270.0
 51
314.9999146674968
  0
ARC
  5
1C972
330
1F
100
AcDbEntity
  8
0
100
AcDbCircle
 10
605.7503945739521
 20
252.0096957901936
 30
0.0
 40
0.5
100
AcDbArc
 50
0.0000488241903011
 51
90.0
  0
SPLINE
  5
1C973
330
1F
100
AcDbEntity
  8
0
100
AcDbSpline
210
0.0
220
0.0
230
1.0
 70
     8
 71
     3
 72
    13
 73
     9
 74
     7
 42
0.0000000001
 43
0.0000000001
 44
0.0000000001
 40
0.0
 40
0.0
 40
0.0
 40
0.0
 40
2.470469800528243
 40
4.551227627951069
 40
6.404296741440996
 40
8.126934042945039
 40
9.942706805894435
 40
12.13763635144448
 40
12.13763635144448
 40
12.13763635144448
 40
12.13763635144448
 10
592.0493372040786
 20
252.5096957901936
 30
0.0
 10
591.631241425143
 20
251.7998541596526
 30
0.0
 10
590.8610036914884
 20
250.4921470831697
 30
0.0
 10
589.8681469707084
 20
248.604407588283
 30
0.0
 10
589.4263333304979
 20
246.7070322826323
 30
0.0
 10
589.9732215199446
 20
244.9300259318567
 30
0.0
 10
591.0377374402879
 20
243.3426910253845
 30
0.0
 10
591.6602701672035
 20
242.1580254838008
 30
0.0
 10
592.0009624874694
 20
241.5096957901941
 30
0.0
 11
592.0493372040786
 21
252.5096957901936
 31
0.0
 11
590.8141023038138
 21
250.3702061836543
 31
0.0
 11
589.917508508743
 21
248.4925287078822
 31
0.0
 11
589.5885668508384
 21
246.6688887968621
 31
0.0
 11
590.0344181922712
 21
245.0049489380103
 31
0.0
 11
590.9423045737461
 21
243.4324435977964
 31
0.0
 11
592.0009624874694
 21
241.5096957901941
 31
0.0
  0
DIMENSION
  5
1C974
102
{ACAD_XDICTIONARY
360
1C975
102
}
102
{ACAD_REACTORS
330
1C976
102
}
330
1F
100
AcDbEntity
  8
DIM
100
AcDbDimension
  2
*D21
 10
564.7343033521586
 20
243.5096957901937
 30
0.0
 11
563.4343033521587
 21
247.0096957901938
 31
0.0
 70
    32
  1
%%C<>
 71
     5
 42
7.0
 73
     0
 74
     0
 75
     0
  3
01
100
AcDbAlignedDimension
 13
569.0555185739516
 23
250.5096957901937
 33
0.0
 14
569.0555185739516
 24
243.5096957901937
 34
0.0
 50
90.0
100
AcDbRotatedDimension
  0
DIMENSION
  5
1C977
102
{ACAD_XDICTIONARY
360
1C978
102
}
102
{ACAD_REACTORS
330
1C979
102
}
330
1F
100
AcDbEntity
  8
DIM
100
AcDbDimension
  2
*D22
 10
561.8274686885037
 20
242.0096957901936
 30
0.0
 11
560.5274686885037
 21
247.0096957901938
 31
0.0
 70
    32
  1
%%C<>
 71
     5
 42
10.0
 73
     0
 74
     0
 75
     0
  3
01
100
AcDbAlignedDimension
 13
570.1656091613069
 23
252.0096957901936
 33
0.0
 14
570.1656091613069
 24
242.0096957901936
 34
0.0
 50
90.0
100
AcDbRotatedDimension
  0
DIMENSION
  5
1C97A
102
{ACAD_XDICTIONARY
360
1C97B
102
}
102
{ACAD_REACTORS
330
1C97C
102
}
330
1F
100
AcDbEntity
  8
DIM
100
AcDbDimension
  2
*D23
 10
559.0152589249553
 20
240.6596957901939
 30
0.0
 11
557.7152589249553
 21
247.0096957901938
 31
0.0
 70
    32
  1
%%C<>
 71
     5
 42
12.69999999999982
 73
     0
 74
     0
 75
     0
  3
01
100
AcDbAlignedDimension
 13
567.3234675739516
 23
253.3596957901936
 33
0.0
 14
567.3234675739516
 24
240.6596957901939
 34
0.0
 50
90.0
100
AcDbRotatedDimension
  0
DIMENSION
  5
1C97D
102
{ACAD_XDICTIONARY
360
1C97E
102
}
102
{ACAD_REACTORS
330
1C97F
102
}
330
1F
100
AcDbEntity
  8
DIM
100
AcDbDimension
  2
*D24
 10
586.3234645739517
 20
237.4312130631783
 30
0.0
 11
576.8234660739516
 21
238.7312130631783
 31
0.0
 70
    32
 71
     5
 42
18.99999699999989
 73
     0
 74
     0
 75
     0
  3
01
100
AcDbAlignedDimension
 13
567.3234675739516
 23
241.9797688338276
 33
0.0
 14
586.3234645739517
 24
244.01519110361
 34
0.0
100
AcDbRotatedDimension
  0
DIMENSION
  5
1C980
102
{ACAD_XDICTIONARY
360
1C981
102
}
102
{ACAD_REACTORS
330
1C982
102
}
330
1F
100
AcDbEntity
  8
DIM
100
AcDbDimension
  2
*D25
 10
613.1942366354206
 20
240.6596957901939
 30
0.0
 11
611.8942366354207
 21
247.0096957901938
 31
0.0
 70
    32
  1
%%C<>
 71
     5
 42
12.69999999999982
 73
     0
 74
     0
 75
     0
  3
01
100
AcDbAlignedDimension
 13
590.4734645739512
 23
253.3596957901936
 33
0.0
 14
590.4734745739508
 24
240.6596957901939
 34
0.0
 50
90.0
100
AcDbRotatedDimension
  0
DIMENSION
  5
1C983
102
{ACAD_XDICTIONARY
360
1C984
102
}
102
{ACAD_REACTORS
330
1C985
102
}
330
1F
100
AcDbEntity
  8
DIM
100
AcDbDimension
  2
*D26
 10
609.8547374129467
 20
241.5096957901937
 30
0.0
 11
608.5547374129467
 21
247.0096957901938
 31
0.0
 70
    32
  1
%%C<>
 71
     5
 42
11.0
 73
     0
 74
     0
 75
     0
  3
01
100
AcDbAlignedDimension
 13
605.1691550098625
 23
252.5096957901936
 33
0.0
 14
605.1691550098625
 24
241.5096957901937
 34
0.0
 50
90.0
100
AcDbRotatedDimension
  0
DIMENSION
  5
1C986
102
{ACAD_XDICTIONARY
360
1C987
102
}
102
{ACAD_REACTORS
330
1C988
102
}
330
1F
100
AcDbEntity
  8
DIM
100
AcDbDimension
  2
*D27
 10
606.2503945739521
 20
237.4312130631783
 30
0.0
 11
599.1503945739522
 21
238.7312130631783
 31
0.0
 70
    32
 71
     5
 42
14.19999999999982
 73
     0
 74
     0
 75
     0
  3
01
100
AcDbAlignedDimension
 13
592.0503945739523
 23
242.8096972901939
 33
0.0
 14
606.2503945739521
 24
242.9719519406362
 34
0.0
100
AcDbRotatedDimension
  0
DIMENSION
  5
1C989
330
1F
100
AcDbEntity
  8
DIM
100
AcDbDimension
  2
*D20
 10
606.2503945739521
 20
233.786608600322
 30
0.0
 11
586.7869310739519
 21
235.086608600322
 31
0.0
 70
    32
  1
38.95
 71
     5
 42
38.92692700000043
 73
     0
 74
     0
 75
     0
  3
01
100
AcDbAlignedDimension
 13
567.3234675739516
 23
243.1542029885349
 33
0.0
 14
606.2503945739521
 24
240.0070474012891
 34
0.0
100
AcDbRotatedDimension
  0
LINE
  5
1C98A
330
1F
100
AcDbEntity
  8
0
100
AcDbLine
 10
595.5503945739532
 20
242.5596972901939
 30
0.0
 11
604.7503945739521
 21
242.5596972901939
 31
0.0
  0
LINE
  5
1C98B
330
1F
100
AcDbEntity
  8
0
100
AcDbLine
 10
604.7503945739521
 20
242.8096972901939
 30
0.0
 11
604.8290880496527
 21
242.8096972901939
 31
0.0
  0
LINE
  5
1C98C
330
1F
100
AcDbEntity
  8
0
100
AcDbLine
 10
604.7503945739521
 20
251.2096972901936
 30
0.0
 11
604.8290880496527
 21
251.2096972901936
 31
0.0
  0
LINE
  5
1C98D
330
1F
100
AcDbEntity
  8
0
100
AcDbLine
 10
595.5503945739532
 20
251.4596972901935
 30
0.0
 11
604.7503945739521
 21
251.4596972901935
 31
0.0
  0
LINE
  5
1C98E
330
1F
100
AcDbEntity
  8
0
100
AcDbLine
 10
604.7503945739521
 20
242.5596972901939
 30
0.0
 11
604.7503945739521
 21
251.4596972901935
 31
0.0
  0
ARC
  5
1C98F
330
1F
100
AcDbEntity
  8
hat
370
    13
100
AcDbCircle
 10
600.1733743117187
 20
257.0452550490599
 30
0.0
 40
6.482794178784552
100
AcDbArc
 50
242.4960153626379
 51
296.634094924865
  0
REGION
  5
1C990
330
1F
100
AcDbEntity
  8
hat
370
    13
100
AcDbModelerGeometry
 70
     1
  1
mnmoo mh m mi          
  1
ni ^ *+0;:,4 ^ *+0\^ [ nh ^ LR nmqoqnqgmo QK o  
  1
mjqlffffffffffffff fqfffffffffffffffj:rooh n:rono 
  1
>,27:>;:- {rn rn _nn mnmqoqnqgmo |
  1
=0;& {rn rn {rn {m {rn {rn |
  1
3*2/ {rn rn {rn {rn {l {n |
  1
,7:33 {rn rn {rn {rn {rn {k {rn {m |
  1
9><: {rn rn {rn {rn {j {l {rn {i 90-(>-; ;0*=3: 0*+ |
  1
300/ {rn rn {rn {rn {h {k |
  1
/3>1:r,*-9><: {rn rn {rn iooqnniookojlmlgfj mjoqkjogihmihhilgk o o o n n o o 90-(>-;@) V V V V |
  1
<0:;8: {rn rn {rn {g {f {rn {no 90-(>-; {j {rn |
  1
<0:;8: {rn rn {rn {nn {h {rn {nm -:):-,:; {j {rn |
  1
<0:;8: {rn rn {rn {h {nn {rn {nl 90-(>-; {j {rn |
  1
:;8: {rn rn {rn {nk rnqfnnlnokkigmofnfm {nj rnqmoljhgkjlflnoglm {h {ni 90-(>-; _h *1410(1 |
  1
<0:;8: {rn rn {rn {f {g {rn {nh -:):-,:; {j {rn |
  1
:;8: {rn rn {rn {ng o {nj nqjoiflmjgkhlomflj {g {nf 90-(>-; _h *1410(1 |
  1
:;8: {rn rn {rn {mo rkqjkhkhljoggikiknm:ronl {nk nqjgjhnlllhnlfiml {f {mn 90-(>-; _h *1410(1 |
  1
):-+:' {rn rn {rn {no m {mm |
  1
):-+:' {rn rn {rn {no m {ml |
  1
:336/,:r<*-): {rn rn {rn iooqommfmkliilgjin mjhqfikhkomgfhmgon o o o n gqjnlgohhgliojklik o o n V V |
  1
:;8: {rn rn {rn {mo rmqohimghfhijnkminh {ng rnqoijlokihhohjjgfg {nn {mk 90-(>-; _h *1410(1 |
  1
):-+:' {rn rn {rn {nm m {mj |
  1
,+->687+r<*-): {rn rn {rn iolqohfjjlnfnjikfh mjnqjmjkgmlfogglj o o rn o V V |
  1
):-+:' {rn rn {rn {nh m {mi |
  1
,+->687+r<*-): {rn rn {rn jfhqnhfjjlnfnjiimk mjnqjmjkgmlfoggmnl o o rn o V V |
  1
/061+ {rn rn {rn jfhqnhfjjlnfnjihnj mkfqflfhifojlhkmjn o |
  1
/061+ {rn rn {rn iolqohfjjlnfnjijgg mjoqongjkfgoinjlm o |
  1
:336/,:r<*-): {rn rn {rn iooqnmfjjlnfnjiioi mjiqgjjilfmkifmf o o o n iqofmokffnollfnnlh o o n V V |
  1
/061+ {rn rn {rn iolqohfjjlnfnjikfh mjnqjmjkgmlfogglj o |
  1
/061+ {rn rn {rn jfhqnhfjjlnfnjiimk mjnqjmjkgmlfoggmjf o |
  0
REGION
  5
1C991
330
1F
100
AcDbEntity
  8
hat
370
    13
100
AcDbModelerGeometry
 70
     1
  1
mnmoo mh m mi          
  1
ni ^ *+0;:,4 ^ *+0\^ [ nh ^ LR nmqoqnqgmo QK o  
  1
mjqlffffffffffffff fqfffffffffffffffj:rooh n:rono 
  1
>,27:>;:- {rn rn _nn mnmqoqnqgmo |
  1
=0;& {rn rn {rn {m {rn {rn |
  1
3*2/ {rn rn {rn {rn {l {n |
  1
,7:33 {rn rn {rn {rn {rn {k {rn {m |
  1
9><: {rn rn {rn {rn {j {l {rn {i 90-(>-; ;0*=3: 0*+ |
  1
300/ {rn rn {rn {rn {h {k |
  1
/3>1:r,*-9><: {rn rn {rn iooqnmlfhmijgkikgm mkgqjnofkjmgnnhmj o o o n n o o 90-(>-;@) V V V V |
  1
<0:;8: {rn rn {rn {g {f {rn {no 90-(>-; {j {rn |
  1
<0:;8: {rn rn {rn {nn {h {rn {nm -:):-,:; {j {rn |
  1
<0:;8: {rn rn {rn {h {nn {rn {nl 90-(>-; {j {rn |
  1
:;8: {rn rn {rn {nk rnqgnkfjhjillgjhlnn {nj rnqlnhliojgikhjkiih {h {ni 90-(>-; _h *1410(1 |
  1
<0:;8: {rn rn {rn {f {g {rn {nh -:):-,:; {j {rn |
  1
:;8: {rn rn {rn {ng o {nj oqhojmnnolhmihghmi {g {nf 90-(>-; _h *1410(1 |
  1
:;8: {rn rn {rn {mo rnqlikmkmojmikhjlik:ronm {nk oqhlmjhnonflgkjmmjn {f {mn 90-(>-; _h *1410(1 |
  1
):-+:' {rn rn {rn {no m {mm |
  1
):-+:' {rn rn {rn {no m {ml |
  1
:336/,:r<*-): {rn rn {rn iooqohjhogmooioioh mjfqfijhohkffningj o o o n nnqfgolmfnikkgfll o o n V V |
  1
:;8: {rn rn {rn {mo rnqgllflhnmlggilgmm {ng rnqlohijjjmfholfoh {nn {mk 90-(>-; _h *1410(1 |
  1
):-+:' {rn rn {rn {nm m {mj |
  1
,+->687+r<*-): {rn rn {rn iolqohfjjlnfnjikfh mkfqohlmgohjmgmoin o o rn o V V |
  1
):-+:' {rn rn {rn {nh m {mi |
  1
,+->687+r<*-): {rn rn {rn jfhqnhfjjlnfnjiimk mkfqohlmgohjmgmoin o rnqgimmijflmiihimhk:ronm rn o V V |
  1
/061+ {rn rn {rn jfhqnhfjjlnfnjihnj mkgqlkohofhllkliof o |
  1
/061+ {rn rn {rn iolqohfjjlnfnjiihf mkgqligoifhnjjjmhk o |
  1
:336/,:r<*-): {rn rn {rn iooqnmfjjlnfnjijnj mioqomkojniofgjll o o o n nnqlknnjghhjnjlkki o o n V V |
  1
/061+ {rn rn {rn iolqohfjjlnfnjikfh mkfqohlmgohjmgmoin o |
  1
/061+ {rn rn {rn jfhqnhfjjlnfnjjfgg mkfqohlmgohjmgmnfh o |
  0
REGION
  5
1C992
330
1F
100
AcDbEntity
  8
hat
370
    13
100
AcDbModelerGeometry
 70
     1
  1
mnmoo kh m mi          
  1
ni ^ *+0;:,4 ^ *+0\^ [ nh ^ LR nmqoqnqgmo QK o  
  1
mjqlffffffffffffff fqfffffffffffffffj:rooh n:rono 
  1
>,27:>;:- {rn rn _nn mnmqoqnqgmo |
  1
=0;& {rn rn {rn {m {rn {rn |
  1
3*2/ {rn rn {rn {rn {l {n |
  1
,7:33 {rn rn {rn {rn {rn {k {rn {m |
  1
9><: {rn rn {rn {rn {j {l {rn {i 90-(>-; ;0*=3: 0*+ |
  1
300/ {rn rn {rn {rn {h {k |
  1
/3>1:r,*-9><: {rn rn {rn iooqnjknfifhklkioi mkhqokmhgjinjjlghg o o o n n o o 90-(>-;@) V V V V |
  1
<0:;8: {rn rn {rn {g {f {rn {no -:):-,:; {j {rn |
  1
<0:;8: {rn rn {rn {nn {h {rn {nm 90-(>-; {j {rn |
  1
<0:;8: {rn rn {rn {h {nl {rn {nk 90-(>-; {j {rn |
  1
:;8: {rn rn {rn {nj nqoijlokihhohjkoof {ni mqohimghfhijnkminh {h {nh 90-(>-; _h *1410(1 |
  1
<0:;8: {rn rn {rn {ng {g {rn {nf -:):-,:; {j {rn |
  1
:;8: {rn rn {rn {nj o {mo nqjkffffffffffmhmk {g {mn 90-(>-; _h *1410(1 |
  1
<0:;8: {rn rn {rn {f {mm {rn {ml 90-(>-; {j {rn |
  1
:;8: {rn rn {rn {mk o {ni nqkfffffffffffofoj {f {mj 90-(>-; _h *1410(1 |
  1
):-+:' {rn rn {rn {no m {mi |
  1
):-+:' {rn rn {rn {no m {mh |
  1
:336/,:r<*-): {rn rn {rn iooqnmfjjlnfnjiioi mlhqmmfflnfgknkgjm o o o n iqofmokffnollfnnlh o o n V V |
  1
<0:;8: {rn rn {rn {mg {nn {rn {mf -:):-,:; {j {rn |
  1
:;8: {rn rn {rn {lo o {mo gqfijlfljjoigfgfin {nn {ln 90-(>-; _h *1410(1 |
  1
):-+:' {rn rn {rn {nf m {lm |
  1
,+->687+r<*-): {rn rn {rn iolqohfjjlnfnjiihf mkmqjioogggkonfmmk o n o o V V |
  1
<0:;8: {rn rn {rn {nl {mg {rn {ll -:):-,:; {j {rn |
  1
:;8: {rn rn {rn {lk o {mk gqfijlfljjoiggjlng {nl {lj 90-(>-; _h *1410(1 |
  1
):-+:' {rn rn {rn {nk m {li |
  1
,+->687+r<*-): {rn rn {rn jfjqihfjjlnfnjihnj mkmqjioogggkonfli o n o o V V |
  1
/061+ {rn rn {rn iolqohfjjlnfnjiihf mkmqjioogggkonfkfi o |
  1
/061+ {rn rn {rn jfhqnhfjjlnfnjiimk mkmqjioogggkonfkfi o |
  1
<0:;8: {rn rn {rn {mm {ng {rn {lh -:):-,:; {j {rn |
  1
:;8: {rn rn {rn {lg o {lo nqjjooooooooonofnk {ng {lf 90-(>-; _h *1410(1 |
  1
):-+:' {rn rn {rn {mf m {ko |
  1
,+->687+r<*-): {rn rn {rn iokqimfjjlnfnjiioi mjnqjmjkgmlfogglj o o rn o V V |
  1
/061+ {rn rn {rn iokqimfjjlnfnjiioi mkmqjioogggkonfli o |
  1
:;8: {rn rn {rn {lk o {kn nqj {mm {km 90-(>-; _h *1410(1 |
  1
):-+:' {rn rn {rn {ml m {kl |
  1
,+->687+r<*-): {rn rn {rn jfjqihfjjlnfnjihnj mjnqjmjkgmlfoggmnl o o rn o V V |
  1
/061+ {rn rn {rn jfjqihfjjlnfnjihnj mkmqjioogggkonfli o |
  1
:;8: {rn rn {rn {kn rmqohimghfhijnkmolj {lg rnqoijlokihhohjkoof {mg {kk 90-(>-; _h *1410(1 |
  1
):-+:' {rn rn {rn {lh m {kj |
  1
,+->687+r<*-): {rn rn {rn iolqohfjjlnfnjiihf mjnqjmjkgmlfogglj o n o o V V |
  1
/061+ {rn rn {rn iokqimfjjlnfnjihgg mjnqjmjkgmlfogglj o |
  1
):-+:' {rn rn {rn {ll m {ki |
  1
,+->687+r<*-): {rn rn {rn jfjqihfjjlnfnjihnj mjnqjmjkgmlfoggmnl o n fqofkfkhonhhmijmkg:ronl o V V |
  1
/061+ {rn rn {rn jfjqihfjjlnfnjihnj mjnqjmjkgmlfoggmnl o |
  1
:336/,:r<*-): {rn rn {rn iooqnmfjjlnfnjiioi mjiqgjjilfmkifmf o o o n iqofmokffnollfnnlh o o n V V |
  1
/061+ {rn rn {rn iolqohfjjlnfnjiihf mjnqjmjkgmlfoggmjf o |
  1
/061+ {rn rn {rn jfhqnhfjjlnfnjihnj mjnqjmjkgmlfogglj o |
  0
REGION
  5
1C993
330
1F
100
AcDbEntity
  8
hat
370
    13
100
AcDbModelerGeometry
 70
     1
  1
mnmoo mh m mi          
  1
ni ^ *+0;:,4 ^ *+0\^ [ nh ^ LR nmqoqnqgmo QK o  
  1
mjqlffffffffffffff fqfffffffffffffffj:rooh n:rono 
  1
>,27:>;:- {rn rn _nn mnmqoqnqgmo |
  1
=0;& {rn rn {rn {m {rn {rn |
  1
3*2/ {rn rn {rn {rn {l {n |
  1
,7:33 {rn rn {rn {rn {rn {k {rn {m |
  1
9><: {rn rn {rn {rn {j {l {rn {i 90-(>-; ;0*=3: 0*+ |
  1
300/ {rn rn {rn {rn {h {k |
  1
/3>1:r,*-9><: {rn rn {rn iooqnojmokmooininf mklqhiogiilhfgglml o o o n n o o 90-(>-;@) V V V V |
  1
<0:;8: {rn rn {rn {g {f {rn {no -:):-,:; {j {rn |
  1
<0:;8: {rn rn {rn {nn {h {rn {nm -:):-,:; {j {rn |
  1
<0:;8: {rn rn {rn {h {nn {rn {nl 90-(>-; {j {rn |
  1
:;8: {rn rn {rn {nk nqnojfklihhoihmlfl {nj mqojoglnkninlknmf {h {ni 90-(>-; _h *1410(1 |
  1
<0:;8: {rn rn {rn {f {g {rn {nh 90-(>-; {j {rn |
  1
:;8: {rn rn {rn {ng rfqofkfkhonhhmfmgmk:ronl {nk nqmlngnjhnnliofmlm {g {nf 90-(>-; _h *1410(1 |
  1
:;8: {rn rn {rn {mo o {nj nqljjlgjjmofhjighj {f {mn 90-(>-; _h *1410(1 |
  1
):-+:' {rn rn {rn {no m {mm |
  1
):-+:' {rn rn {rn {no m {ml |
  1
:336/,:r<*-): {rn rn {rn iooqnhllhklnnhngh mlhqokolningmonhni o o o n iqkgmhfknhghgkjjli o o n V V |
  1
:;8: {rn rn {rn {ng nqmoljhgkjlflnoglm {mo nqfnnlnokkigmnnfmn {nn {mk 90-(>-; _h *1410(1 |
  1
):-+:' {rn rn {rn {nh m {mj |
  1
,+->687+r<*-): {rn rn {rn iolqohfjjlnfnjiihf mkkqoihomnkmkfmmfg o o rn o V V |
  1
):-+:' {rn rn {rn {nl m {mi |
  1
,+->687+r<*-): {rn rn {rn jfhqnhfjjlnfnjijll mkkqnkjgomnhhllmhh o nqooijlklmiinkimjj:ronm rn o V V |
  1
/061+ {rn rn {rn iolqohfjjlnfnjiihf mkmqgljmojhnljimoi o |
  1
/061+ {rn rn {rn jfhqnhfjjlnfnjijll mkmqhfokniijiljhog o |
  1
:336/,:r<*-): {rn rn {rn iooqommfmkliilgjin mliqnmoglofknlkfoi o o o n gqjnlgohhgliojklik o o n V V |
  1
/061+ {rn rn {rn iolqohfjjlnfnjijgg mkkqoihomnkmkfmlgf o |
  1
/061+ {rn rn {rn jfhqnhfjjlnfnjijll mkkqnkjgomnhhllmhh o |
  0
REGION
  5
1C994
330
1F
100
AcDbEntity
  8
hat
370
    13
100
AcDbModelerGeometry
 70
     1
  1
mnmoo mh m mi          
  1
ni ^ *+0;:,4 ^ *+0\^ [ nh ^ LR nmqoqnqgmo QK o  
  1
mjqlffffffffffffff fqfffffffffffffffj:rooh n:rono 
  1
>,27:>;:- {rn rn _nn mnmqoqnqgmo |
  1
=0;& {rn rn {rn {m {rn {rn |
  1
3*2/ {rn rn {rn {rn {l {n |
  1
,7:33 {rn rn {rn {rn {rn {k {rn {m |
  1
9><: {rn rn {rn {rn {j {l {rn {i 90-(>-; ;0*=3: 0*+ |
  1
300/ {rn rn {rn {rn {h {k |
  1
/3>1:r,*-9><: {rn rn {rn iooqnmlfhmijgkikgm mkjqjhkimjfkffoki o o o n n o o 90-(>-;@) V V V V |
  1
<0:;8: {rn rn {rn {g {f {rn {no 90-(>-; {j {rn |
  1
<0:;8: {rn rn {rn {nn {h {rn {nm 90-(>-; {j {rn |
  1
<0:;8: {rn rn {rn {h {nn {rn {nl -:):-,:; {j {rn |
  1
:;8: {rn rn {rn {nk nqlnhliojgikhjkiih {nj nqgnkfjhjillgjhlnn {h {ni 90-(>-; _h *1410(1 |
  1
<0:;8: {rn rn {rn {f {g {rn {nh -:):-,:; {j {rn |
  1
:;8: {rn rn {rn {nj rnqlikmkmojmijflfmk:ronm {ng oqhlmjhnonflgkjmmjn {g {nf 90-(>-; _h *1410(1 |
  1
:;8: {rn rn {rn {nk rnqlikmkmojmijflfmk:ronm {mo oqhojmnnolhmijnkknn {f {mn 90-(>-; _h *1410(1 |
  1
):-+:' {rn rn {rn {no m {mm |
  1
):-+:' {rn rn {rn {no m {ml |
  1
:336/,:r<*-): {rn rn {rn iooqohjhogmooioioh mlkqnnfgilhlnfnjmm o o o n nnqfgolmfnikkgfll o o n V V |
  1
:;8: {rn rn {rn {mo nqlohijjjmfhokmkg {ng nqgllflhnmlggjfnhh {nn {mk 90-(>-; _h *1410(1 |
  1
):-+:' {rn rn {rn {nm m {mj |
  1
,+->687+r<*-): {rn rn {rn jfhqnhfjjlnfnjijll mkjqhkkginkfhilfij o o rn o V V |
  1
):-+:' {rn rn {rn {nh m {mi |
  1
,+->687+r<*-): {rn rn {rn iolqohfjjlnfnjikfh mkjqhnhjonjnjjml o o rn o V V |
  1
/061+ {rn rn {rn iolqohfjjlnfnjiihf mkjqhnhjonjnjjmkli o |
  1
/061+ {rn rn {rn jfhqnhfjjlnfnjihnj mkjqhkkginkfhiknon o |
  1
:336/,:r<*-): {rn rn {rn iooqnmfjjlnfnjijnj mlkqoinjnfimnmmlhh o o o n nnqlknnjghhjnjlkki o o n V V |
  1
/061+ {rn rn {rn jfhqnhfjjlnfnjijll mkjqonmmfokhgmjjnm o |
  1
/061+ {rn rn {rn iolqohfjjlnfnjinll mkjqonmmfokhgmjhgj o |
  0
REGION
  5
1C995
330
1F
100
AcDbEntity
  8
hat
370
    13
100
AcDbModelerGeometry
 70
     1
  1
mnmoo mh m mi          
  1
ni ^ *+0;:,4 ^ *+0\^ [ nh ^ LR nmqoqnqgmo QK o  
  1
mjqlffffffffffffff fqfffffffffffffffj:rooh n:rono 
  1
>,27:>;:- {rn rn _nn mnmqoqnqgmo |
  1
=0;& {rn rn {rn {m {rn {rn |
  1
3*2/ {rn rn {rn {rn {l {n |
  1
,7:33 {rn rn {rn {rn {rn {k {rn {m |
  1
9><: {rn rn {rn {rn {j {l {rn {i 90-(>-; ;0*=3: 0*+ |
  1
300/ {rn rn {rn {rn {h {k |
  1
/3>1:r,*-9><: {rn rn {rn iooqnknoiijjhigff mkhqokmhgjinjjlglm o o o n n o o 90-(>-;@) V V V V |
  1
<0:;8: {rn rn {rn {g {f {rn {no -:):-,:; {j {rn |
  1
<0:;8: {rn rn {rn {nn {h {rn {nm -:):-,:; {j {rn |
  1
<0:;8: {rn rn {rn {h {nn {rn {nl 90-(>-; {j {rn |
  1
:;8: {rn rn {rn {nk nqlkfgoognliofgjk {nj nqhgmjnniggoljnjhm {h {ni 90-(>-; _h *1410(1 |
  1
<0:;8: {rn rn {rn {f {g {rn {nh -:):-,:; {j {rn |
  1
:;8: {rn rn {rn {ng o {nk nqjjjfomlnlhifgmoj {g {nf 90-(>-; _h *1410(1 |
  1
:;8: {rn rn {rn {mo o {nj nqjonnkfomklkmllfj {f {mn 90-(>-; _h *1410(1 |
  1
):-+:' {rn rn {rn {no m {mm |
  1
):-+:' {rn rn {rn {no m {ml |
  1
:336/,:r<*-): {rn rn {rn iooqoihmhjhnkongjf mlmqgjifighonhlfmj o o o n nlqhkmohifgnnfgili o o n V V |
  1
:;8: {rn rn {rn {mo rnqhgmjnniggoljogjj {ng rnqlkfgoognliofgjk {nn {mk 90-(>-; _h *1410(1 |
  1
):-+:' {rn rn {rn {nh m {mj |
  1
,+->687+r<*-): {rn rn {rn iolqohfjjlnfnjikfh mkhqgmohlihhmkmlki o o rn o V V |
  1
):-+:' {rn rn {rn {nl m {mi |
  1
,+->687+r<*-): {rn rn {rn jfhqnhfjjlnfnjijll mkhqhfllionmhhofkf o fqoghfgjkhllifmgjh:ronl rn o V V |
  1
/061+ {rn rn {rn iolqohfjjlnfnjiihf mkiqmikglkkjgijlik o |
  1
/061+ {rn rn {rn jfhqnhfjjlnfnjikkm mkiqmfmmnnnollihnj o |
  1
:336/,:r<*-): {rn rn {rn iooqoihmhjhnkongjf minqmmgiomjmfllhgm o o o n nlqhkmohifgnnfgili o o n V V |
  1
/061+ {rn rn {rn iolqohfjjlnfnjiihf mkhqgmohlihhmkmlki o |
  1
/061+ {rn rn {rn jfhqnhfjjlnfnjijll mkhqhfllionmhhofkf o |
  0
ENDSEC
  0
SECTION
  2
OBJECTS
  0
DICTIONARY
  5
C
330
0
100
AcDbDictionary
281
     1
  3
ACAD_COLOR
350
4FFE
  3
ACAD_GROUP
350
D
  3
ACAD_LAYOUT
350
1A
  3
ACAD_MATERIAL
350
4FE5
  3
ACAD_MLEADERSTYLE
350
5022
  3
ACAD_MLINESTYLE
350
17
  3
ACAD_PLOTSETTINGS
350
19
  3
ACAD_PLOTSTYLENAME
350
E
  3
ACAD_RENDER_PLOT_SETTINGS
350
6537
  3
ACAD_SCALELIST
350
5000
  3
ACAD_TABLESTYLE
350
4FE3
  3
ACAD_VISUALSTYLE
350
2A
  3
ACDB_RECOMPOSE_DATA
350
50EC
  3
AcDbVariableDictionary
350
5108
  3
ASE_INDEX_DICTIONARY
350
14143
  0
DICTIONARY
  5
50EE
330
8
100
AcDbDictionary
280
     1
281
     1
  0
DICTIONARY
  5
50B8
330
2
100
AcDbDictionary
280
     1
281
     1
  3
ACAD_LAYERFILTERS
360
146E2
  3
ACAD_LAYERSTATES
360
50B9
  3
ACLYDICTIONARY
360
146E1
  0
DICTIONARY
  5
50D0
330
10
100
AcDbDictionary
280
     1
281
     1
  3
ADSK_XREC_LAYER_RECONCILED
360
50D1
  0
DICTIONARY
  5
50D2
330
3B
100
AcDbDictionary
280
     1
281
     1
  3
ADSK_XREC_LAYER_RECONCILED
360
50D3
  0
DICTIONARY
  5
50AF
330
50AE
100
AcDbDictionary
280
     1
281
     1
  3
ADSK_XREC_LAYER_RECONCILED
360
50D4
  0
DICTIONARY
  5
67C0
330
1F
100
AcDbDictionary
280
     1
281
     1
  3
ACAD_SORTENTS
360
67C1
  0
DICTIONARY
  5
1CB5C
330
13E17
100
AcDbDictionary
280
     1
281
     1
  0
DICTIONARY
  5
1CB8D
330
1CAC7
100
AcDbDictionary
280
     1
281
     1
  3
ACAD_MTEXT_2008_RT
360
1CB8E
  0
DICTIONARY
  5
1CB8F
330
1CB0B
100
AcDbDictionary
280
     1
281
     1
  3
ACAD_MTEXT_2008_RT
360
1CB90
  0
DICTIONARY
  5
1CB91
330
1CB0C
100
AcDbDictionary
280
     1
281
     1
  3
ACAD_MTEXT_2008_RT
360
1CB92
  0
DICTIONARY
  5
1CB93
330
1CB31
100
AcDbDictionary
280
     1
281
     1
  3
ACAD_MTEXT_2008_RT
360
1CB94
  0
DICTIONARY
  5
1CB95
330
1CB34
100
AcDbDictionary
280
     1
281
     1
  3
ACAD_MTEXT_2008_RT
360
1CB96
  0
DICTIONARY
  5
1CB97
330
1CB35
100
AcDbDictionary
280
     1
281
     1
  3
ACAD_MTEXT_2008_RT
360
1CB98
  0
DICTIONARY
  5
1CB99
330
1CB3F
100
AcDbDictionary
280
     1
281
     1
  3
ACAD_MTEXT_2008_RT
360
1CB9A
  0
DICTIONARY
  5
1CB9B
330
1CB40
100
AcDbDictionary
280
     1
281
     1
  3
ACAD_MTEXT_2008_RT
360
1CB9C
  0
DICTIONARY
  5
1CB9D
330
1CB41
100
AcDbDictionary
280
     1
281
     1
  3
ACAD_MTEXT_2008_RT
360
1CB9E
  0
DICTIONARY
  5
1CB9F
330
1CB4F
100
AcDbDictionary
280
     1
281
     1
  3
ACAD_MTEXT_2008_RT
360
1CBA0
  0
DICTIONARY
  5
1CBA1
330
1CB50
100
AcDbDictionary
280
     1
281
     1
  3
ACAD_MTEXT_2008_RT
360
1CBA2
  0
DICTIONARY
  5
1CBA3
330
1CB51
100
AcDbDictionary
280
     1
281
     1
  3
ACAD_MTEXT_2008_RT
360
1CBA4
  0
DICTIONARY
  5
1CB8B
330
15556
100
AcDbDictionary
280
     1
281
     1
  3
ACAD_MTEXT_2008_RT
360
1CB8C
  0
DICTIONARY
  5
1C975
330
1C974
100
AcDbDictionary
280
     1
281
     1
  3
ACAD_DIMASSOC
360
1C976
  0
DICTIONARY
  5
1C978
330
1C977
100
AcDbDictionary
280
     1
281
     1
  3
ACAD_DIMASSOC
360
1C979
  0
DICTIONARY
  5
1C97B
330
1C97A
100
AcDbDictionary
280
     1
281
     1
  3
ACAD_DIMASSOC
360
1C97C
  0
DICTIONARY
  5
1C97E
330
1C97D
100
AcDbDictionary
280
     1
281
     1
  3
ACAD_DIMASSOC
360
1C97F
  0
DICTIONARY
  5
1C981
330
1C980
100
AcDbDictionary
280
     1
281
     1
  3
ACAD_DIMASSOC
360
1C982
  0
DICTIONARY
  5
1C984
330
1C983
100
AcDbDictionary
280
     1
281
     1
  3
ACAD_DIMASSOC
360
1C985
  0
DICTIONARY
  5
1C987
330
1C986
100
AcDbDictionary
280
     1
281
     1
  3
ACAD_DIMASSOC
360
1C988
  0
DICTIONARY
  5
4FFE
102
{ACAD_REACTORS
330
C
102
}
330
C
100
AcDbDictionary
281
     1
  0
DICTIONARY
  5
D
102
{ACAD_REACTORS
330
C
102
}
330
C
100
AcDbDictionary
281
     1
  0
DICTIONARY
  5
1A
102
{ACAD_REACTORS
330
C
102
}
330
C
100
AcDbDictionary
281
     1
  3
Layout1
350
1E
  3
Layout2
350
26
  3
Model
350
22
  0
DICTIONARY
  5
4FE5
102
{ACAD_REACTORS
330
C
102
}
330
C
100
AcDbDictionary
281
     1
  3
ByBlock
350
4FEE
  3
ByLayer
350
4FE6
  3
Global
350
4FF6
  0
DICTIONARY
  5
5022
102
{ACAD_REACTORS
330
C
102
}
330
C
100
AcDbDictionary
281
     1
  3
Standard
350
5023
  0
DICTIONARY
  5
17
102
{ACAD_REACTORS
330
C
102
}
330
C
100
AcDbDictionary
281
     1
  3
Standard
350
18
  0
DICTIONARY
  5
19
102
{ACAD_REACTORS
330
C
102
}
330
C
100
AcDbDictionary
281
     1
  0
ACDBDICTIONARYWDFLT
  5
E
102
{ACAD_REACTORS
330
C
102
}
330
C
100
AcDbDictionary
281
     1
  3
Normal
350
F
100
AcDbDictionaryWithDefault
340
F
  0
DICTIONARY
  5
6537
102
{ACAD_REACTORS
330
C
102
}
330
C
100
AcDbDictionary
281
     1
  3
{1DC63513-1B1A-422F-9880-65CFD2B8D533}
350
6538
  0
DICTIONARY
  5
5000
102
{ACAD_REACTORS
330
C
102
}
330
C
100
AcDbDictionary
281
     1
  3
A0
350
5001
  3
A1
350
5002
  3
A2
350
5003
  3
A3
350
5004
  3
A4
350
5005
  3
A5
350
5006
  3
A6
350
5007
  3
A7
350
5008
  3
A8
350
5009
  3
A9
350
500A
  3
B0
350
500B
  3
B1
350
500C
  3
B2
350
500D
  3
B3
350
500E
  3
B4
350
500F
  3
B5
350
5010
  3
B6
350
5011
  3
B7
350
5012
  3
B8
350
5013
  3
B9
350
5014
  3
C0
350
5015
  3
C1
350
5016
  3
C2
350
5017
  3
C3
350
5018
  3
C4
350
5019
  3
C5
350
501A
  3
C6
350
501B
  3
C7
350
501C
  3
C8
350
501D
  3
C9
350
501E
  3
D0
350
501F
  3
D1
350
5020
  3
D2
350
5021
  0
DICTIONARY
  5
4FE3
102
{ACAD_REACTORS
330
C
102
}
330
C
100
AcDbDictionary
281
     1
  3
Standard
350
4FFF
  0
DICTIONARY
  5
2A
102
{ACAD_REACTORS
330
C
102
}
330
C
100
AcDbDictionary
281
     1
  3
2dWireframe
350
2F
  3
3D Hidden
350
31
  3
3dWireframe
350
30
  3
Basic
350
32
  3
Brighten
350
36
  3
ColorChange
350
3A
  3
Conceptual
350
34
  3
Dim
350
35
  3
Facepattern
350
39
  3
Flat
350
2B
  3
FlatWithEdges
350
2C
  3
Gouraud
350
2D
  3
GouraudWithEdges
350
2E
  3
Linepattern
350
38
  3
Realistic
350
33
  3
Thicken
350
37
  0
XRECORD
  5
50EC
102
{ACAD_REACTORS
330
C
102
}
330
C
100
AcDbXrecord
280
     1
 90
        1
330
4FFF
330
15556
330
1CAC7
330
1CB0B
330
1CB0C
330
1CB31
330
1CB34
330
1CB35
330
1CB3F
330
1CB40
330
1CB41
330
1CB4F
330
1CB50
330
1CB51
  0
DICTIONARY
  5
5108
102
{ACAD_REACTORS
330
C
102
}
330
C
100
AcDbDictionary
281
     1
  3
CANNOSCALE
350
510B
  3
CMLEADERSTYLE
350
510A
  3
CTABLESTYLE
350
5109
  3
DIMASSOC
350
510E
  3
INDEXCTL
350
510D
  3
LIGHTINGUNITS
350
1CB7C
  3
MSLTSCALE
350
1CB7B
  3
SORTENTS
350
510C
  0
DICTIONARY
  5
14143
102
{ACAD_REACTORS
330
C
102
}
330
C
100
AcDbDictionary
281
     1
  3
ASEBlockHierarchyIndexRecord
350
14144
1001
DCO15
1040
1903428632.093
  0
DICTIONARY
  5
146E2
102
{ACAD_REACTORS
330
50B8
102
}
330
50B8
100
AcDbDictionary
281
     1
  0
DICTIONARY
  5
50B9
102
{ACAD_REACTORS
330
50B8
102
}
330
50B8
100
AcDbDictionary
281
     1
  0
DICTIONARY
  5
146E1
102
{ACAD_REACTORS
330
50B8
102
}
330
50B8
100
AcDbDictionary
281
     1
1001
ACAD
1000
<All
  0
XRECORD
  5
50D1
102
{ACAD_REACTORS
330
50D0
102
}
330
50D0
100
AcDbXrecord
280
     1
290
     1
  0
XRECORD
  5
50D3
102
{ACAD_REACTORS
330
50D2
102
}
330
50D2
100
AcDbXrecord
280
     1
290
     1
  0
XRECORD
  5
50D4
102
{ACAD_REACTORS
330
50AF
102
}
330
50AF
100
AcDbXrecord
280
     1
290
     1
  0
SORTENTSTABLE
  5
67C1
102
{ACAD_REACTORS
330
67C0
102
}
330
67C0
100
AcDbSortentsTable
330
1F
331
2FDE
  5
35C8
331
3895
  5
3943
331
15523
  5
15523
331
1556A
  5
1556A
331
15569
  5
15569
331
2C65
  5
2EE7
331
15568
  5
15568
331
15567
  5
15567
331
3807
  5
3895
331
4842
  5
4E94
331
15566
  5
15566
331
35D8
  5
3807
331
15556
  5
15556
331
2F93
  5
2FDE
331
28AE
  5
2A38
331
3943
  5
4842
331
2EE7
  5
2F93
331
35C8
  5
35D8
331
1555E
  5
1555E
  0
XRECORD
  5
1CB8E
102
{ACAD_REACTORS
330
1CB8D
102
}
330
1CB8D
100
AcDbXrecord
280
     1
 40
1527.0
  1
\pxqc;BQ LUO
  0
XRECORD
  5
1CB90
102
{ACAD_REACTORS
330
1CB8F
102
}
330
1CB8F
100
AcDbXrecord
280
     1
 40
1262561.0
  1
\pxqc;档案员{\H0.7x;\P\Fromans|c134;Filing Clerk\fFangSong_GB2312|b0|i0|c134|p49; }
  0
XRECORD
  5
1CB92
102
{ACAD_REACTORS
330
1CB91
102
}
330
1CB91
100
AcDbXrecord
280
     1
 40
650528.0
  1
\pxqc;日期{\Fromans|c134;/Date}
  0
XRECORD
  5
1CB94
102
{ACAD_REACTORS
330
1CB93
102
}
330
1CB93
100
AcDbXrecord
280
     1
 40
1836818.0
  1
\pxsm0.7;{\fFangSong_GB2312|b0|i0|c134|p49;标准化}\PStand.
  0
XRECORD
  5
1CB96
102
{ACAD_REACTORS
330
1CB95
102
}
330
1CB95
100
AcDbXrecord
280
     1
 40
118135.0
  1
\pxsm0.7;签名\P{\Fromans|c134;Signature} 
  0
XRECORD
  5
1CB98
102
{ACAD_REACTORS
330
1CB97
102
}
330
1CB97
100
AcDbXrecord
280
     1
 40
108939.0
  1
\pxsm0.7,qc;处数\P{\Fromans|c134;Number }
  0
XRECORD
  5
1CB9A
102
{ACAD_REACTORS
330
1CB99
102
}
330
1CB99
100
AcDbXrecord
280
     1
 40
125762.0
  1
\pxsm0.7;标记\P{\Fromans|c134;Mark}
  0
XRECORD
  5
1CB9C
102
{ACAD_REACTORS
330
1CB9B
102
}
330
1CB9B
100
AcDbXrecord
280
     1
 40
111973.0
  1
\pxsm0.7;审核\P{\Fromans|c134;Checked}
  0
XRECORD
  5
1CB9E
102
{ACAD_REACTORS
330
1CB9D
102
}
330
1CB9D
100
AcDbXrecord
280
     1
 40
137968.0
  1
\pxsm0.7;绘图\P{\Fromans|c134;Drawn\Ftxt|c134; }
  0
XRECORD
  5
1CBA0
102
{ACAD_REACTORS
330
1CB9F
102
}
330
1CB9F
100
AcDbXrecord
280
     1
 40
106320.0
  1
\pxsm0.7;批准\P{\Fromans|c134;Approved}
  0
XRECORD
  5
1CBA2
102
{ACAD_REACTORS
330
1CBA1
102
}
330
1CBA1
100
AcDbXrecord
280
     1
 40
127283.0
  1
\pxsm0.7;工艺\P{\Fromans|c134;Process}
  0
XRECORD
  5
1CBA4
102
{ACAD_REACTORS
330
1CBA3
102
}
330
1CBA3
100
AcDbXrecord
280
     1
 40
106220.0
  1
\pxsm0.7;日期\P{\Fromans|c134;Date}
  0
XRECORD
  5
1CB8C
102
{ACAD_REACTORS
330
1CB8B
102
}
330
1CB8B
100
AcDbXrecord
280
     1
 40
615119703.0
  1
\A1;\pxql;{\f仿宋_GB2312|b0|i0|c134|p49;技术参数}:\P\pq*;- {\f仿宋_GB2312|b0|i0|c134|p49;材料}: {\f仿宋_GB2312|b0|i0|c134|p49;铜合金}\P- {\f仿宋_GB2312|b0|i0|c134|p49;表面处理}: {\f仿宋_GB2312|b0|i0|c134|p49;镀银}\P\pql;- {\f仿宋_GB2312|b0|i0|c134|p49;额定电流}: 100A\P- {\f仿宋_GB23
  1
12|b0|i0|c134|p49;接触电阻}: ≤0.3mΩ\P- {\f仿宋_GB2312|b0|i0|c134|p49;线径范围}: 25mm{\H0.7x;\S2^ ;}\P- {\f仿宋_GB2312|b0|i0|c134|p49;最大电缆直径}: 14mm\P- {\f仿宋_GB2312|b0|i0|c134|p49;剥线长度}: 19mm\P- {\f仿宋_GB2312|b0|i0|c134|p49;可插拔次数}: {\f仿宋_GB2312|b0|i0|c134|p49;≥}500\
  1
P- {\f仿宋_GB2312|b0|i0|c134|p49;电缆绞线标准}: IEC 60228-5\P\pq*;\P\pql;Technical specification:\P- Material: copper alloy\P- Surface: hard-silver plated\P- Rated current: 100A\P- Contact resistance: ≤0.3mΩ\P- Wire gauge: 25mm{\H0.7x;\S2^ ;}\P- Max. insulati
  1
on diameter: 14mm\P- Stripping length: 19mm\P- Mating cycles: {\f仿宋_GB2312|b0|i0|c134|p49;≥}500\P- For stranded fine wire acc. to: IEC 60228-5
  0
DIMASSOC
  5
1C976
102
{ACAD_REACTORS
330
1C975
102
}
330
1C975
100
AcDbDimAssoc
330
1C974
 90
        3
 70
     0
 71
     0
  1
AcDbOsnapPointRef
 72
    13
331
1C904
 73
     2
 91
        0
 40
0.0
 10
0.0
 20
0.0
 30
2.000000000000000E+50
 75
     0
  1
AcDbOsnapPointRef
 72
     1
331
1C905
 73
     2
 91
        0
 40
1.0
 10
0.0
 20
0.0
 30
2.000000000000000E+50
 75
     0
  0
DIMASSOC
  5
1C979
102
{ACAD_REACTORS
330
1C978
102
}
330
1C978
100
AcDbDimAssoc
330
1C977
 90
        1
 70
     0
 71
     0
  1
AcDbOsnapPointRef
 72
    10
331
1C907
 73
     2
 91
        0
 40
0.9724288746579247
 10
0.0
 20
0.0
 30
0.0
 75
     0
  0
DIMASSOC
  5
1C97C
102
{ACAD_REACTORS
330
1C97B
102
}
330
1C97B
100
AcDbDimAssoc
330
1C97A
 90
        3
 70
     0
 71
     0
  1
AcDbOsnapPointRef
 72
    13
331
1C918
 73
     2
 91
        0
 40
0.0
 10
0.0
 20
0.0
 30
2.000000000000000E+50
 75
     0
  1
AcDbOsnapPointRef
 72
     1
331
1C91A
 73
     2
 91
        0
 40
1.0
 10
0.0
 20
0.0
 30
2.000000000000000E+50
 75
     0
  0
DIMASSOC
  5
1C97F
102
{ACAD_REACTORS
330
1C97E
102
}
330
1C97E
100
AcDbDimAssoc
330
1C97D
 90
        3
 70
     0
 71
     0
  1
AcDbOsnapPointRef
 72
    10
331
1C91A
 73
     2
 91
        0
 40
0.286447003441163
 10
0.0
 20
0.0
 30
0.0
 75
     0
  1
AcDbOsnapPointRef
 72
    10
331
1C8FE
 73
     2
 91
        0
 40
0.1444272324046584
 10
0.0
 20
0.0
 30
0.0
 75
     0
  0
DIMASSOC
  5
1C982
102
{ACAD_REACTORS
330
1C981
102
}
330
1C981
100
AcDbDimAssoc
330
1C980
 90
        3
 70
     0
 71
     0
  1
AcDbOsnapPointRef
 72
     1
331
1C8F6
 73
     2
 91
        0
 40
0.9999999999999998
 10
0.0
 20
0.0
 30
2.000000000000000E+50
 75
     0
  1
AcDbOsnapPointRef
 72
    13
331
1C8FA
 73
     2
 91
        0
 40
0.0
 10
0.0
 20
0.0
 30
2.000000000000000E+50
 75
     0
  0
DIMASSOC
  5
1C985
102
{ACAD_REACTORS
330
1C984
102
}
330
1C984
100
AcDbDimAssoc
330
1C983
 90
        3
 70
     0
 71
     0
  1
AcDbOsnapPointRef
 72
    10
331
1C967
 73
     2
 91
        0
 40
0.0402885135014592
 10
0.0
 20
0.0
 30
0.0
 75
     0
  1
AcDbOsnapPointRef
 72
     8
331
1C95D
 73
     2
 91
        0
 40
0.9597114864985407
 10
0.0
 20
0.0
 30
0.0
 75
     1
  1
AcDbOsnapPointRef
 72
    10
331
1C967
 73
     2
 91
        0
 40
0.0402885135014592
 10
0.0
 20
0.0
 30
0.0
 75
     0
  0
DIMASSOC
  5
1C988
102
{ACAD_REACTORS
330
1C987
102
}
330
1C987
100
AcDbDimAssoc
330
1C986
 90
        2
 70
     0
 71
     0
  1
AcDbOsnapPointRef
 72
    10
331
1C96D
 73
     2
 91
        0
 40
0.9037743849557498
 10
0.0
 20
0.0
 30
0.0
 75
     0
  0
LAYOUT
  5
1E
102
{ACAD_REACTORS
330
1A
102
}
330
1A
100
AcDbPlotSettings
  1

  2
none_device
  4

  6

 40
0.0
 41
0.0
 42
0.0
 43
0.0
 44
0.0
 45
0.0
 46
0.0
 47
0.0
 48
0.0
 49
0.0
140
0.0
141
0.0
142
1.0
143
1.0
 70
   688
 72
     0
 73
     0
 74
     5
  7

 75
    16
147
1.0
 76
     0
 77
     2
 78
   300
148
0.0
149
0.0
100
AcDbLayout
  1
Layout1
 70
     1
 71
     1
 10
0.0
 20
0.0
 11
12.0
 21
9.0
 12
0.0
 22
0.0
 32
0.0
 14
1.000000000000000E+20
 24
1.000000000000000E+20
 34
1.000000000000000E+20
 15
-1.000000000000000E+20
 25
-1.000000000000000E+20
 35
-1.000000000000000E+20
146
0.0
 13
0.0
 23
0.0
 33
0.0
 16
1.0
 26
0.0
 36
0.0
 17
0.0
 27
1.0
 37
0.0
 76
     0
330
1B
  0
LAYOUT
  5
26
102
{ACAD_REACTORS
330
1A
102
}
330
1A
100
AcDbPlotSettings
  1

  2
none_device
  4

  6

 40
0.0
 41
0.0
 42
0.0
 43
0.0
 44
0.0
 45
0.0
 46
0.0
 47
0.0
 48
0.0
 49
0.0
140
0.0
141
0.0
142
1.0
143
1.0
 70
   688
 72
     0
 73
     0
 74
     5
  7

 75
    16
147
1.0
 76
     0
 77
     2
 78
   300
148
0.0
149
0.0
100
AcDbLayout
  1
Layout2
 70
     1
 71
     2
 10
0.0
 20
0.0
 11
0.0
 21
0.0
 12
0.0
 22
0.0
 32
0.0
 14
0.0
 24
0.0
 34
0.0
 15
0.0
 25
0.0
 35
0.0
146
0.0
 13
0.0
 23
0.0
 33
0.0
 16
1.0
 26
0.0
 36
0.0
 17
0.0
 27
1.0
 37
0.0
 76
     0
330
23
  0
LAYOUT
  5
22
102
{ACAD_REACTORS
330
1A
102
}
330
1A
100
AcDbPlotSettings
  1

  2
Adobe PDF Converter.pc3
  4
A4
  6

 40
3.174999952316281
 41
3.174999952316281
 42
3.17498779296875
 43
3.175003051757812
 44
297.0318298339844
 45
209.9733276367186
 46
0.0000000000000076
 47
1.630241740247063
 48
246.9897427644609
 49
39.36804549891383
140
544.952097801264
141
244.7492402188181
142
1.0
143
1.025046328645055
 70
  3764
 72
     1
 73
     0
 74
     4
  7
monochrome.ctb
 75
     0
147
0.9755656618192436
 76
     1
 77
     2
 78
   300
148
-246.9897427644609
149
-39.36804549891383
100
AcDbLayout
  1
Model
 70
     1
 71
     0
 10
0.0
 20
0.0
 11
12.0
 21
9.0
 12
0.0
 22
0.0
 32
0.0
 14
1.000000000000000E+20
 24
1.000000000000000E+20
 34
1.000000000000000E+20
 15
-1.000000000000000E+20
 25
-1.000000000000000E+20
 35
-1.000000000000000E+20
146
0.0
 13
0.0
 23
0.0
 33
0.0
 16
1.0
 26
0.0
 36
0.0
 17
0.0
 27
1.0
 37
0.0
 76
     0
330
1F
331
29
1001
ACAD_PSEXT
1000
Adobe PDF Converter.pc3
1000
Adobe PDF Converter
1000
桌面\*.pdf
1000

1070
     0
  0
MATERIAL
  5
4FEE
102
{ACAD_XDICTIONARY
360
4FEF
102
}
102
{ACAD_REACTORS
330
4FE5
102
}
330
4FE5
100
AcDbMaterial
  1
ByBlock
 72
     0
 43
0.0208333333333333
 43
0.0
 43
0.0
 43
0.0
 43
0.0
 43
0.0208333333333333
 43
0.0
 43
0.0
 43
0.0
 43
0.0
 43
1.0
 43
0.0
 43
0.0
 43
0.0
 43
0.0
 43
1.0
 77
     0
 47
0.0208333333333333
 47
0.0
 47
0.0
 47
0.0
 47
0.0
 47
0.0208333333333333
 47
0.0
 47
0.0
 47
0.0
 47
0.0
 47
1.0
 47
0.0
 47
0.0
 47
0.0
 47
0.0
 47
1.0
171
     0
 49
0.0208333333333333
 49
0.0
 49
0.0
 49
0.0
 49
0.0
 49
0.0208333333333333
 49
0.0
 49
0.0
 49
0.0
 49
0.0
 49
1.0
 49
0.0
 49
0.0
 49
0.0
 49
0.0
 49
1.0
175
     0
142
0.0208333333333333
142
0.0
142
0.0
142
0.0
142
0.0
142
0.0208333333333333
142
0.0
142
0.0
142
0.0
142
0.0
142
1.0
142
0.0
142
0.0
142
0.0
142
0.0
142
1.0
179
     0
144
0.0208333333333333
144
0.0
144
0.0
144
0.0
144
0.0
144
0.0208333333333333
144
0.0
144
0.0
144
0.0
144
0.0
144
1.0
144
0.0
144
0.0
144
0.0
144
0.0
144
1.0
147
0.0208333333333333
147
0.0
147
0.0
147
0.0
147
0.0
147
0.0208333333333333
147
0.0
147
0.0
147
0.0
147
0.0
147
1.0
147
0.0
147
0.0
147
0.0
147
0.0
147
1.0
  0
MATERIAL
  5
4FE6
102
{ACAD_XDICTIONARY
360
4FE7
102
}
102
{ACAD_REACTORS
330
4FE5
102
}
330
4FE5
100
AcDbMaterial
  1
ByLayer
 72
     0
 43
0.0208333333333333
 43
0.0
 43
0.0
 43
0.0
 43
0.0
 43
0.0208333333333333
 43
0.0
 43
0.0
 43
0.0
 43
0.0
 43
1.0
 43
0.0
 43
0.0
 43
0.0
 43
0.0
 43
1.0
 77
     0
 47
0.0208333333333333
 47
0.0
 47
0.0
 47
0.0
 47
0.0
 47
0.0208333333333333
 47
0.0
 47
0.0
 47
0.0
 47
0.0
 47
1.0
 47
0.0
 47
0.0
 47
0.0
 47
0.0
 47
1.0
171
     0
 49
0.0208333333333333
 49
0.0
 49
0.0
 49
0.0
 49
0.0
 49
0.0208333333333333
 49
0.0
 49
0.0
 49
0.0
 49
0.0
 49
1.0
 49
0.0
 49
0.0
 49
0.0
 49
0.0
 49
1.0
175
     0
142
0.0208333333333333
142
0.0
142
0.0
142
0.0
142
0.0
142
0.0208333333333333
142
0.0
142
0.0
142
0.0
142
0.0
142
1.0
142
0.0
142
0.0
142
0.0
142
0.0
142
1.0
179
     0
144
0.0208333333333333
144
0.0
144
0.0
144
0.0
144
0.0
144
0.0208333333333333
144
0.0
144
0.0
144
0.0
144
0.0
144
1.0
144
0.0
144
0.0
144
0.0
144
0.0
144
1.0
147
0.0208333333333333
147
0.0
147
0.0
147
0.0
147
0.0
147
0.0208333333333333
147
0.0
147
0.0
147
0.0
147
0.0
147
1.0
147
0.0
147
0.0
147
0.0
147
0.0
147
1.0
  0
MATERIAL
  5
4FF6
102
{ACAD_XDICTIONARY
360
4FF7
102
}
102
{ACAD_REACTORS
330
4FE5
102
}
330
4FE5
100
AcDbMaterial
  1
Global
 72
     0
 43
0.0208333333333333
 43
0.0
 43
0.0
 43
0.0
 43
0.0
 43
0.0208333333333333
 43
0.0
 43
0.0
 43
0.0
 43
0.0
 43
1.0
 43
0.0
 43
0.0
 43
0.0
 43
0.0
 43
1.0
 77
     0
 47
0.0208333333333333
 47
0.0
 47
0.0
 47
0.0
 47
0.0
 47
0.0208333333333333
 47
0.0
 47
0.0
 47
0.0
 47
0.0
 47
1.0
 47
0.0
 47
0.0
 47
0.0
 47
0.0
 47
1.0
171
     0
 49
0.0208333333333333
 49
0.0
 49
0.0
 49
0.0
 49
0.0
 49
0.0208333333333333
 49
0.0
 49
0.0
 49
0.0
 49
0.0
 49
1.0
 49
0.0
 49
0.0
 49
0.0
 49
0.0
 49
1.0
175
     0
142
0.0208333333333333
142
0.0
142
0.0
142
0.0
142
0.0
142
0.0208333333333333
142
0.0
142
0.0
142
0.0
142
0.0
142
1.0
142
0.0
142
0.0
142
0.0
142
0.0
142
1.0
179
     0
144
0.0208333333333333
144
0.0
144
0.0
144
0.0
144
0.0
144
0.0208333333333333
144
0.0
144
0.0
144
0.0
144
0.0
144
1.0
144
0.0
144
0.0
144
0.0
144
0.0
144
1.0
147
0.0208333333333333
147
0.0
147
0.0
147
0.0
147
0.0
147
0.0208333333333333
147
0.0
147
0.0
147
0.0
147
0.0
147
1.0
147
0.0
147
0.0
147
0.0
147
0.0
147
1.0
  0
MLEADERSTYLE
  5
5023
102
{ACAD_REACTORS
330
5022
102
}
330
5022
100
AcDbMLeaderStyle
170
     2
171
     1
172
     0
 90
        2
 40
0.0
 41
0.0
173
     1
 91
-1056964608
340
14
 92
       -2
290
     1
 42
0.09
291
     1
 43
0.36
  3
Standard
 44
0.18
300

342
11
174
     1
178
     6
175
     1
176
     0
 93
-1056964608
 45
0.18
292
     0
297
     0
 46
0.18
 94
-1056964608
 47
1.0
 49
1.0
140
1.0
293
     1
141
0.0
294
     1
177
     0
142
1.0
295
     0
296
     0
143
0.125
1001
ACAD_MLEADERVER
1070
     2
  0
MLINESTYLE
  5
18
102
{ACAD_REACTORS
330
17
102
}
330
17
100
AcDbMlineStyle
  2
STANDARD
 70
     0
  3

 62
   256
 51
90.0
 52
90.0
 71
     2
 49
0.5
 62
   256
  6
BYLAYER
 49
-0.5
 62
   256
  6
BYLAYER
  0
ACDBPLACEHOLDER
  5
F
102
{ACAD_REACTORS
330
E
102
}
330
E
  0
MENTALRAYRENDERSETTINGS
  5
6538
102
{ACAD_REACTORS
330
6537
102
}
330
6537
100
AcDbRenderSettings
 90
        2
  1
中
290
     1
290
     1
290
     1
290
     1
  1

  1
渲染质量好于“低级”。包括纹理过滤并且强制双面处于激活状态。处理中等级反锯齿和 5 反射/折射的光线跟踪深度。
 90
        0
100
AcDbMentalRayRenderSettings
 90
        2
 90
        0
 90
        1
 70
     2
 40
3.0
 40
3.0
 40
0.0500000007450581
 40
0.0500000007450581
 40
0.0500000007450581
 40
0.0500000007450581
 70
     0
290
     0
290
     1
 90
        5
 90
        5
 90
        5
290
     0
 90
      500
290
     0
 40
1.0
 90
    10000
 90
        5
 90
        5
 90
        5
290
     0
 90
      200
290
     0
290
     0
290
     0
 40
0.1
 40
1.0
 40
1500.0
 70
     0
 70
     0
 40
10.0
 70
     0
 70
     0
290
     0
  1

 90
       32
 70
     0
 90
     1048
290
     0
 40
1.0
  0
SCALE
  5
5001
102
{ACAD_REACTORS
330
5000
102
}
330
5000
100
AcDbScale
 70
     0
300
1:1
140
1.0
141
1.0
290
     1
  0
SCALE
  5
5002
102
{ACAD_REACTORS
330
5000
102
}
330
5000
100
AcDbScale
 70
     0
300
1:2
140
1.0
141
2.0
290
     0
  0
SCALE
  5
5003
102
{ACAD_REACTORS
330
5000
102
}
330
5000
100
AcDbScale
 70
     0
300
1:4
140
1.0
141
4.0
290
     0
  0
SCALE
  5
5004
102
{ACAD_REACTORS
330
5000
102
}
330
5000
100
AcDbScale
 70
     0
300
1:5
140
1.0
141
5.0
290
     0
  0
SCALE
  5
5005
102
{ACAD_REACTORS
330
5000
102
}
330
5000
100
AcDbScale
 70
     0
300
1:8
140
1.0
141
8.0
290
     0
  0
SCALE
  5
5006
102
{ACAD_REACTORS
330
5000
102
}
330
5000
100
AcDbScale
 70
     0
300
1:10
140
1.0
141
10.0
290
     0
  0
SCALE
  5
5007
102
{ACAD_REACTORS
330
5000
102
}
330
5000
100
AcDbScale
 70
     0
300
1:16
140
1.0
141
16.0
290
     0
  0
SCALE
  5
5008
102
{ACAD_REACTORS
330
5000
102
}
330
5000
100
AcDbScale
 70
     0
300
1:20
140
1.0
141
20.0
290
     0
  0
SCALE
  5
5009
102
{ACAD_REACTORS
330
5000
102
}
330
5000
100
AcDbScale
 70
     0
300
1:30
140
1.0
141
30.0
290
     0
  0
SCALE
  5
500A
102
{ACAD_REACTORS
330
5000
102
}
330
5000
100
AcDbScale
 70
     0
300
1:40
140
1.0
141
40.0
290
     0
  0
SCALE
  5
500B
102
{ACAD_REACTORS
330
5000
102
}
330
5000
100
AcDbScale
 70
     0
300
1:50
140
1.0
141
50.0
290
     0
  0
SCALE
  5
500C
102
{ACAD_REACTORS
330
5000
102
}
330
5000
100
AcDbScale
 70
     0
300
1:100
140
1.0
141
100.0
290
     0
  0
SCALE
  5
500D
102
{ACAD_REACTORS
330
5000
102
}
330
5000
100
AcDbScale
 70
     0
300
2:1
140
2.0
141
1.0
290
     0
  0
SCALE
  5
500E
102
{ACAD_REACTORS
330
5000
102
}
330
5000
100
AcDbScale
 70
     0
300
4:1
140
4.0
141
1.0
290
     0
  0
SCALE
  5
500F
102
{ACAD_REACTORS
330
5000
102
}
330
5000
100
AcDbScale
 70
     0
300
8:1
140
8.0
141
1.0
290
     0
  0
SCALE
  5
5010
102
{ACAD_REACTORS
330
5000
102
}
330
5000
100
AcDbScale
 70
     0
300
10:1
140
10.0
141
1.0
290
     0
  0
SCALE
  5
5011
102
{ACAD_REACTORS
330
5000
102
}
330
5000
100
AcDbScale
 70
     0
300
100:1
140
100.0
141
1.0
290
     0
  0
SCALE
  5
5012
102
{ACAD_REACTORS
330
5000
102
}
330
5000
100
AcDbScale
 70
     0
300
1/128" = 1'-0"
140
0.0078125
141
12.0
290
     0
  0
SCALE
  5
5013
102
{ACAD_REACTORS
330
5000
102
}
330
5000
100
AcDbScale
 70
     0
300
1/64" = 1'-0"
140
0.015625
141
12.0
290
     0
  0
SCALE
  5
5014
102
{ACAD_REACTORS
330
5000
102
}
330
5000
100
AcDbScale
 70
     0
300
1/32" = 1'-0"
140
0.03125
141
12.0
290
     0
  0
SCALE
  5
5015
102
{ACAD_REACTORS
330
5000
102
}
330
5000
100
AcDbScale
 70
     0
300
1/16" = 1'-0"
140
0.0625
141
12.0
290
     0
  0
SCALE
  5
5016
102
{ACAD_REACTORS
330
5000
102
}
330
5000
100
AcDbScale
 70
     0
300
3/32" = 1'-0"
140
0.09375
141
12.0
290
     0
  0
SCALE
  5
5017
102
{ACAD_REACTORS
330
5000
102
}
330
5000
100
AcDbScale
 70
     0
300
1/8" = 1'-0"
140
0.125
141
12.0
290
     0
  0
SCALE
  5
5018
102
{ACAD_REACTORS
330
5000
102
}
330
5000
100
AcDbScale
 70
     0
300
3/16" = 1'-0"
140
0.1875
141
12.0
290
     0
  0
SCALE
  5
5019
102
{ACAD_REACTORS
330
5000
102
}
330
5000
100
AcDbScale
 70
     0
300
1/4" = 1'-0"
140
0.25
141
12.0
290
     0
  0
SCALE
  5
501A
102
{ACAD_REACTORS
330
5000
102
}
330
5000
100
AcDbScale
 70
     0
300
3/8" = 1'-0"
140
0.375
141
12.0
290
     0
  0
SCALE
  5
501B
102
{ACAD_REACTORS
330
5000
102
}
330
5000
100
AcDbScale
 70
     0
300
1/2" = 1'-0"
140
0.5
141
12.0
290
     0
  0
SCALE
  5
501C
102
{ACAD_REACTORS
330
5000
102
}
330
5000
100
AcDbScale
 70
     0
300
3/4" = 1'-0"
140
0.75
141
12.0
290
     0
  0
SCALE
  5
501D
102
{ACAD_REACTORS
330
5000
102
}
330
5000
100
AcDbScale
 70
     0
300
1" = 1'-0"
140
1.0
141
12.0
290
     0
  0
SCALE
  5
501E
102
{ACAD_REACTORS
330
5000
102
}
330
5000
100
AcDbScale
 70
     0
300
1-1/2" = 1'-0"
140
1.5
141
12.0
290
     0
  0
SCALE
  5
501F
102
{ACAD_REACTORS
330
5000
102
}
330
5000
100
AcDbScale
 70
     0
300
3" = 1'-0"
140
3.0
141
12.0
290
     0
  0
SCALE
  5
5020
102
{ACAD_REACTORS
330
5000
102
}
330
5000
100
AcDbScale
 70
     0
300
6" = 1'-0"
140
6.0
141
12.0
290
     0
  0
SCALE
  5
5021
102
{ACAD_REACTORS
330
5000
102
}
330
5000
100
AcDbScale
 70
     0
300
1'-0" = 1'-0"
140
12.0
141
12.0
290
     0
  0
TABLESTYLE
  5
4FFF
102
{ACAD_XDICTIONARY
360
50D6
102
}
102
{ACAD_REACTORS
330
4FE3
102
}
330
4FE3
100
AcDbTableStyle
  3
Standard
 70
     0
 71
     0
 40
0.06
 41
0.06
280
     0
281
     0
  7
Standard
140
0.18
170
     2
 62
     0
 63
     7
283
     0
 90
      512
 91
        0
  1

274
    -2
284
     1
 64
     0
275
    -2
285
     1
 65
     0
276
    -2
286
     1
 66
     0
277
    -2
287
     1
 67
     0
278
    -2
288
     1
 68
     0
279
    -2
289
     1
 69
     0
  7
Standard
140
0.25
170
     5
 62
     0
 63
     7
283
     0
 90
      512
 91
        0
  1

274
    -2
284
     1
 64
     0
275
    -2
285
     1
 65
     0
276
    -2
286
     1
 66
     0
277
    -2
287
     1
 67
     0
278
    -2
288
     1
 68
     0
279
    -2
289
     1
 69
     0
  7
Standard
140
0.18
170
     5
 62
     0
 63
     7
283
     0
 90
      512
 91
        0
  1

274
    -2
284
     1
 64
     0
275
    -2
285
     1
 65
     0
276
    -2
286
     1
 66
     0
277
    -2
287
     1
 67
     0
278
    -2
288
     1
 68
     0
279
    -2
289
     1
 69
     0
  0
VISUALSTYLE
  5
2F
102
{ACAD_REACTORS
330
2A
102
}
330
2A
100
AcDbVisualStyle
  2
2dWireframe
 70
     4
 71
     0
 72
     2
 73
     0
 90
        0
 40
-0.6
 41
-30.0
 62
     5
 63
     7
 74
     1
 91
        4
 64
     7
 65
   257
 75
     1
175
     1
 42
1.0
 92
        0
 66
   257
 43
1.0
 76
     1
 77
     6
 78
     2
 67
     7
 79
     5
170
     0
171
     0
290
     0
174
     0
 93
        1
 44
0.0
173
     0
291
     0
 45
0.0
1001
ACAD
1000
AcDbSavedByObjectVersion
1070
     0
1000
AcDbSavedByObjectVersion
1070
     0
1000
AcDbSavedByObjectVersion
1070
     0
1000
AcDbSavedByObjectVersion
1070
     0
1000
AcDbSavedByObjectVersion
1070
     0
1000
AcDbSavedByObjectVersion
1070
     0
1000
AcDbSavedByObjectVersion
1070
     0
1000
AcDbSavedByObjectVersion
1070
     0
1000
AcDbSavedByObjectVersion
1070
     0
1000
AcDbSavedByObjectVersion
1070
     0
1000
AcDbSavedByObjectVersion
1070
     0
1000
AcDbSavedByObjectVersion
1070
     0
1000
AcDbSavedByObjectVersion
1070
     0
1000
AcDbSavedByObjectVersion
1070
     0
1000
AcDbSavedByObjectVersion
1070
     0
1000
AcDbSavedByObjectVersion
1070
     0
1000
AcDbSavedByObjectVersion
1070
     0
1000
AcDbSavedByObjectVersion
1070
     0
1000
AcDbSavedByObjectVersion
1070
     0
1000
AcDbSavedByObjectVersion
1070
     0
1000
AcDbSavedByObjectVersion
1070
     0
1000
AcDbSavedByObjectVersion
1070
     0
1000
AcDbSavedByObjectVersion
1070
     0
1000
AcDbSavedByObjectVersion
1070
     0
1000
AcDbSavedByObjectVersion
1070
     0
1000
AcDbSavedByObjectVersion
1070
     0
1000
AcDbSavedByObjectVersion
1070
     0
1000
AcDbSavedByObjectVersion
1070
     0
1000
AcDbSavedByObjectVersion
1070
     0
1000
AcDbSavedByObjectVersion
1070
     0
1000
AcDbSavedByObjectVersion
1070
     0
1000
AcDbSavedByObjectVersion
1070
     0
1000
AcDbSavedByObjectVersion
1070
     0
1000
AcDbSavedByObjectVersion
1070
     0
1000
AcDbSavedByObjectVersion
1070
     0
1000
AcDbSavedByObjectVersion
1070
     0
1000
AcDbSavedByObjectVersion
1070
     0
1000
AcDbSavedByObjectVersion
1070
     0
1000
AcDbSavedByObjectVersion
1070
     0
1000
AcDbSavedByObjectVersion
1070
     0
1000
AcDbSavedByObjectVersion
1070
     0
1000
AcDbSavedByObjectVersion
1070
     0
1000
AcDbSavedByObjectVersion
1070
     0
1000
AcDbSavedByObjectVersion
1070
     0
1000
AcDbSavedByObjectVersion
1070
     0
1000
AcDbSavedByObjectVersion
1070
     0
1000
AcDbSavedByObjectVersion
1070
     0
1000
AcDbSavedByObjectVersion
1070
     0
1000
AcDbSavedByObjectVersion
1070
     0
1000
AcDbSavedByObjectVersion
1070
     0
1000
AcDbSavedByObjectVersion
1070
     0
1000
AcDbSavedByObjectVersion
1070
     0
1000
AcDbSavedByObjectVersion
1070
     0
1000
AcDbSavedByObjectVersion
1070
     0
1000
AcDbSavedByObjectVersion
1070
     0
1000
AcDbSavedByObjectVersion
1070
     0
1000
AcDbSavedByObjectVersion
1070
     0
1000
AcDbSavedByObjectVersion
1070
     0
1000
AcDbSavedByObjectVersion
1070
     0
1000
AcDbSavedByObjectVersion
1070
     0
1000
AcDbSavedByObjectVersion
1070
     0
1000
AcDbSavedByObjectVersion
1070
     0
  0
VISUALSTYLE
  5
31
102
{ACAD_REACTORS
330
2A
102
}
330
2A
100
AcDbVisualStyle
  2
3D Hidden
 70
     6
 71
     1
 72
     2
 73
     2
 90
        0
 40
-0.6
 41
-30.0
 62
     5
 63
     7
 74
     2
 91
        2
 64
     7
 65
   257
 75
     2
175
     1
 42
40.0
 92
        0
 66
   257
 43
1.0
 76
     1
 77
     6
 78
     2
 67
     7
 79
     3
170
     0
171
     0
290
     0
174
     0
 93
        1
 44
0.0
173
     0
291
     0
 45
0.0
1001
ACAD
1000
AcDbSavedByObjectVersion
1070
     0
1000
AcDbSavedByObjectVersion
1070
     0
1000
AcDbSavedByObjectVersion
1070
     0
1000
AcDbSavedByObjectVersion
1070
     0
1000
AcDbSavedByObjectVersion
1070
     0
1000
AcDbSavedByObjectVersion
1070
     0
1000
AcDbSavedByObjectVersion
1070
     0
1000
AcDbSavedByObjectVersion
1070
     0
1000
AcDbSavedByObjectVersion
1070
     0
1000
AcDbSavedByObjectVersion
1070
     0
1000
AcDbSavedByObjectVersion
1070
     0
1000
AcDbSavedByObjectVersion
1070
     0
1000
AcDbSavedByObjectVersion
1070
     0
1000
AcDbSavedByObjectVersion
1070
     0
1000
AcDbSavedByObjectVersion
1070
     0
1000
AcDbSavedByObjectVersion
1070
     0
1000
AcDbSavedByObjectVersion
1070
     0
1000
AcDbSavedByObjectVersion
1070
     0
1000
AcDbSavedByObjectVersion
1070
     0
1000
AcDbSavedByObjectVersion
1070
     0
1000
AcDbSavedByObjectVersion
1070
     0
1000
AcDbSavedByObjectVersion
1070
     0
1000
AcDbSavedByObjectVersion
1070
     0
1000
AcDbSavedByObjectVersion
1070
     0
1000
AcDbSavedByObjectVersion
1070
     0
1000
AcDbSavedByObjectVersion
1070
     0
1000
AcDbSavedByObjectVersion
1070
     0
1000
AcDbSavedByObjectVersion
1070
     0
1000
AcDbSavedByObjectVersion
1070
     0
1000
AcDbSavedByObjectVersion
1070
     0
1000
AcDbSavedByObjectVersion
1070
     0
1000
AcDbSavedByObjectVersion
1070
     0
1000
AcDbSavedByObjectVersion
1070
     0
1000
AcDbSavedByObjectVersion
1070
     0
1000
AcDbSavedByObjectVersion
1070
     0
1000
AcDbSavedByObjectVersion
1070
     0
1000
AcDbSavedByObjectVersion
1070
     0
1000
AcDbSavedByObjectVersion
1070
     0
1000
AcDbSavedByObjectVersion
1070
     0
1000
AcDbSavedByObjectVersion
1070
     0
1000
AcDbSavedByObjectVersion
1070
     0
1000
AcDbSavedByObjectVersion
1070
     0
1000
AcDbSavedByObjectVersion
1070
     0
1000
AcDbSavedByObjectVersion
1070
     0
1000
AcDbSavedByObjectVersion
1070
     0
1000
AcDbSavedByObjectVersion
1070
     0
1000
AcDbSavedByObjectVersion
1070
     0
1000
AcDbSavedByObjectVersion
1070
     0
1000
AcDbSavedByObjectVersion
1070
     0
1000
AcDbSavedByObjectVersion
1070
     0
1000
AcDbSavedByObjectVersion
1070
     0
1000
AcDbSavedByObjectVersion
1070
     0
1000
AcDbSavedByObjectVersion
1070
     0
1000
AcDbSavedByObjectVersion
1070
     0
1000
AcDbSavedByObjectVersion
1070
     0
1000
AcDbSavedByObjectVersion
1070
     0
1000
AcDbSavedByObjectVersion
1070
     0
1000
AcDbSavedByObjectVersion
1070
     0
1000
AcDbSavedByObjectVersion
1070
     0
1000
AcDbSavedByObjectVersion
1070
     0
1000
AcDbSavedByObjectVersion
1070
     0
1000
AcDbSavedByObjectVersion
1070
     0
  0
VISUALSTYLE
  5
30
102
{ACAD_REACTORS
330
2A
102
}
330
2A
100
AcDbVisualStyle
  2
3dWireframe
 70
     5
 71
     0
 72
     2
 73
     0
 90
        0
 40
-0.6
 41
-30.0
 62
     5
 63
     7
 74
     1
 91
        4
 64
     7
 65
   257
 75
     1
175
     1
 42
1.0
 92
        0
 66
   257
 43
1.0
 76
     1
 77
     6
 78
     2
 67
     7
 79
     5
170
     0
171
     0
290
     0
174
     0
 93
        1
 44
0.0
173
     0
291
     0
 45
0.0
1001
ACAD
1000
AcDbSavedByObjectVersion
1070
     0
1000
AcDbSavedByObjectVersion
1070
     0
1000
AcDbSavedByObjectVersion
1070
     0
1000
AcDbSavedByObjectVersion
1070
     0
1000
AcDbSavedByObjectVersion
1070
     0
1000
AcDbSavedByObjectVersion
1070
     0
1000
AcDbSavedByObjectVersion
1070
     0
1000
AcDbSavedByObjectVersion
1070
     0
1000
AcDbSavedByObjectVersion
1070
     0
1000
AcDbSavedByObjectVersion
1070
     0
1000
AcDbSavedByObjectVersion
1070
     0
1000
AcDbSavedByObjectVersion
1070
     0
1000
AcDbSavedByObjectVersion
1070
     0
1000
AcDbSavedByObjectVersion
1070
     0
1000
AcDbSavedByObjectVersion
1070
     0
1000
AcDbSavedByObjectVersion
1070
     0
1000
AcDbSavedByObjectVersion
1070
     0
1000
AcDbSavedByObjectVersion
1070
     0
1000
AcDbSavedByObjectVersion
1070
     0
1000
AcDbSavedByObjectVersion
1070
     0
1000
AcDbSavedByObjectVersion
1070
     0
1000
AcDbSavedByObjectVersion
1070
     0
1000
AcDbSavedByObjectVersion
1070
     0
1000
AcDbSavedByObjectVersion
1070
     0
1000
AcDbSavedByObjectVersion
1070
     0
1000
AcDbSavedByObjectVersion
1070
     0
1000
AcDbSavedByObjectVersion
1070
     0
1000
AcDbSavedByObjectVersion
1070
     0
1000
AcDbSavedByObjectVersion
1070
     0
1000
AcDbSavedByObjectVersion
1070
     0
1000
AcDbSavedByObjectVersion
1070
     0
1000
AcDbSavedByObjectVersion
1070
     0
1000
AcDbSavedByObjectVersion
1070
     0
1000
AcDbSavedByObjectVersion
1070
     0
1000
AcDbSavedByObjectVersion
1070
     0
1000
AcDbSavedByObjectVersion
1070
     0
1000
AcDbSavedByObjectVersion
1070
     0
1000
AcDbSavedByObjectVersion
1070
     0
1000
AcDbSavedByObjectVersion
1070
     0
1000
AcDbSavedByObjectVersion
1070
     0
1000
AcDbSavedByObjectVersion
1070
     0
1000
AcDbSavedByObjectVersion
1070
     0
1000
AcDbSavedByObjectVersion
1070
     0
1000
AcDbSavedByObjectVersion
1070
     0
1000
AcDbSavedByObjectVersion
1070
     0
1000
AcDbSavedByObjectVersion
1070
     0
1000
AcDbSavedByObjectVersion
1070
     0
1000
AcDbSavedByObjectVersion
1070
     0
1000
AcDbSavedByObjectVersion
1070
     0
1000
AcDbSavedByObjectVersion
1070
     0
1000
AcDbSavedByObjectVersion
1070
     0
1000
AcDbSavedByObjectVersion
1070
     0
1000
AcDbSavedByObjectVersion
1070
     0
1000
AcDbSavedByObjectVersion
1070
     0
1000
AcDbSavedByObjectVersion
1070
     0
1000
AcDbSavedByObjectVersion
1070
     0
1000
AcDbSavedByObjectVersion
1070
     0
1000
AcDbSavedByObjectVersion
1070
     0
1000
AcDbSavedByObjectVersion
1070
     0
1000
AcDbSavedByObjectVersion
1070
     0
1000
AcDbSavedByObjectVersion
1070
     0
1000
AcDbSavedByObjectVersion
1070
     0
  0
VISUALSTYLE
  5
32
102
{ACAD_REACTORS
330
2A
102
}
330
2A
100
AcDbVisualStyle
  2
Basic
 70
     7
 71
     1
 72
     0
 73
     1
 90
        0
 40
-0.6
 41
-30.0
 62
     5
 63
     7
 74
     0
 91
        4
 64
     7
 65
   257
 75
     1
175
     1
 42
1.0
 92
        8
 66
     7
 43
1.0
 76
     1
 77
     6
 78
     2
 67
     7
 79
     5
170
     0
171
     0
290
     0
174
     0
 93
        1
 44
0.0
173
     0
291
     1
 45
0.0
1001
ACAD
1000
AcDbSavedByObjectVersion
1070
     0
1000
AcDbSavedByObjectVersion
1070
     0
1000
AcDbSavedByObjectVersion
1070
     0
1000
AcDbSavedByObjectVersion
1070
     0
1000
AcDbSavedByObjectVersion
1070
     0
1000
AcDbSavedByObjectVersion
1070
     0
1000
AcDbSavedByObjectVersion
1070
     0
1000
AcDbSavedByObjectVersion
1070
     0
1000
AcDbSavedByObjectVersion
1070
     0
1000
AcDbSavedByObjectVersion
1070
     0
1000
AcDbSavedByObjectVersion
1070
     0
1000
AcDbSavedByObjectVersion
1070
     0
1000
AcDbSavedByObjectVersion
1070
     0
1000
AcDbSavedByObjectVersion
1070
     0
1000
AcDbSavedByObjectVersion
1070
     0
1000
AcDbSavedByObjectVersion
1070
     0
1000
AcDbSavedByObjectVersion
1070
     0
1000
AcDbSavedByObjectVersion
1070
     0
1000
AcDbSavedByObjectVersion
1070
     0
1000
AcDbSavedByObjectVersion
1070
     0
1000
AcDbSavedByObjectVersion
1070
     0
1000
AcDbSavedByObjectVersion
1070
     0
1000
AcDbSavedByObjectVersion
1070
     0
1000
AcDbSavedByObjectVersion
1070
     0
1000
AcDbSavedByObjectVersion
1070
     0
1000
AcDbSavedByObjectVersion
1070
     0
1000
AcDbSavedByObjectVersion
1070
     0
1000
AcDbSavedByObjectVersion
1070
     0
1000
AcDbSavedByObjectVersion
1070
     0
1000
AcDbSavedByObjectVersion
1070
     0
1000
AcDbSavedByObjectVersion
1070
     0
1000
AcDbSavedByObjectVersion
1070
     0
1000
AcDbSavedByObjectVersion
1070
     0
1000
AcDbSavedByObjectVersion
1070
     0
1000
AcDbSavedByObjectVersion
1070
     0
1000
AcDbSavedByObjectVersion
1070
     0
1000
AcDbSavedByObjectVersion
1070
     0
1000
AcDbSavedByObjectVersion
1070
     0
1000
AcDbSavedByObjectVersion
1070
     0
1000
AcDbSavedByObjectVersion
1070
     0
1000
AcDbSavedByObjectVersion
1070
     0
1000
AcDbSavedByObjectVersion
1070
     0
1000
AcDbSavedByObjectVersion
1070
     0
1000
AcDbSavedByObjectVersion
1070
     0
1000
AcDbSavedByObjectVersion
1070
     0
1000
AcDbSavedByObjectVersion
1070
     0
1000
AcDbSavedByObjectVersion
1070
     0
1000
AcDbSavedByObjectVersion
1070
     0
1000
AcDbSavedByObjectVersion
1070
     0
1000
AcDbSavedByObjectVersion
1070
     0
1000
AcDbSavedByObjectVersion
1070
     0
1000
AcDbSavedByObjectVersion
1070
     0
1000
AcDbSavedByObjectVersion
1070
     0
1000
AcDbSavedByObjectVersion
1070
     0
1000
AcDbSavedByObjectVersion
1070
     0
1000
AcDbSavedByObjectVersion
1070
     0
1000
AcDbSavedByObjectVersion
1070
     0
1000
AcDbSavedByObjectVersion
1070
     0
1000
AcDbSavedByObjectVersion
1070
     0
1000
AcDbSavedByObjectVersion
1070
     0
1000
AcDbSavedByObjectVersion
1070
     0
1000
AcDbSavedByObjectVersion
1070
     0
  0
VISUALSTYLE
  5
36
102
{ACAD_REACTORS
330
2A
102
}
330
2A
100
AcDbVisualStyle
  2
Brighten
 70
    12
 71
     2
 72
     2
 73
     0
 90
        0
 40
-0.6
 41
-30.0
 62
     5
 63
     7
 74
     1
 91
        4
 64
     7
 65
   257
 75
     1
175
     1
 42
1.0
 92
        8
 66
     7
 43
1.0
 76
     1
 77
     6
 78
     2
 67
     7
 79
     5
170
     0
171
     0
290
     0
174
     0
 93
        1
 44
50.0
173
     0
291
     1
 45
0.0
1001
ACAD
1000
AcDbSavedByObjectVersion
1070
     0
1000
AcDbSavedByObjectVersion
1070
     0
1000
AcDbSavedByObjectVersion
1070
     0
1000
AcDbSavedByObjectVersion
1070
     0
1000
AcDbSavedByObjectVersion
1070
     0
1000
AcDbSavedByObjectVersion
1070
     0
1000
AcDbSavedByObjectVersion
1070
     0
1000
AcDbSavedByObjectVersion
1070
     0
1000
AcDbSavedByObjectVersion
1070
     0
1000
AcDbSavedByObjectVersion
1070
     0
1000
AcDbSavedByObjectVersion
1070
     0
1000
AcDbSavedByObjectVersion
1070
     0
1000
AcDbSavedByObjectVersion
1070
     0
1000
AcDbSavedByObjectVersion
1070
     0
1000
AcDbSavedByObjectVersion
1070
     0
1000
AcDbSavedByObjectVersion
1070
     0
1000
AcDbSavedByObjectVersion
1070
     0
1000
AcDbSavedByObjectVersion
1070
     0
1000
AcDbSavedByObjectVersion
1070
     0
1000
AcDbSavedByObjectVersion
1070
     0
1000
AcDbSavedByObjectVersion
1070
     0
1000
AcDbSavedByObjectVersion
1070
     0
1000
AcDbSavedByObjectVersion
1070
     0
1000
AcDbSavedByObjectVersion
1070
     0
1000
AcDbSavedByObjectVersion
1070
     0
1000
AcDbSavedByObjectVersion
1070
     0
1000
AcDbSavedByObjectVersion
1070
     0
1000
AcDbSavedByObjectVersion
1070
     0
1000
AcDbSavedByObjectVersion
1070
     0
1000
AcDbSavedByObjectVersion
1070
     0
1000
AcDbSavedByObjectVersion
1070
     0
1000
AcDbSavedByObjectVersion
1070
     0
1000
AcDbSavedByObjectVersion
1070
     0
1000
AcDbSavedByObjectVersion
1070
     0
1000
AcDbSavedByObjectVersion
1070
     0
1000
AcDbSavedByObjectVersion
1070
     0
1000
AcDbSavedByObjectVersion
1070
     0
1000
AcDbSavedByObjectVersion
1070
     0
1000
AcDbSavedByObjectVersion
1070
     0
1000
AcDbSavedByObjectVersion
1070
     0
1000
AcDbSavedByObjectVersion
1070
     0
1000
AcDbSavedByObjectVersion
1070
     0
1000
AcDbSavedByObjectVersion
1070
     0
1000
AcDbSavedByObjectVersion
1070
     0
1000
AcDbSavedByObjectVersion
1070
     0
1000
AcDbSavedByObjectVersion
1070
     0
1000
AcDbSavedByObjectVersion
1070
     0
1000
AcDbSavedByObjectVersion
1070
     0
1000
AcDbSavedByObjectVersion
1070
     0
1000
AcDbSavedByObjectVersion
1070
     0
1000
AcDbSavedByObjectVersion
1070
     0
1000
AcDbSavedByObjectVersion
1070
     0
1000
AcDbSavedByObjectVersion
1070
     0
1000
AcDbSavedByObjectVersion
1070
     0
1000
AcDbSavedByObjectVersion
1070
     0
1000
AcDbSavedByObjectVersion
1070
     0
1000
AcDbSavedByObjectVersion
1070
     0
1000
AcDbSavedByObjectVersion
1070
     0
1000
AcDbSavedByObjectVersion
1070
     0
1000
AcDbSavedByObjectVersion
1070
     0
1000
AcDbSavedByObjectVersion
1070
     0
1000
AcDbSavedByObjectVersion
1070
     0
  0
VISUALSTYLE
  5
3A
102
{ACAD_REACTORS
330
2A
102
}
330
2A
100
AcDbVisualStyle
  2
ColorChange
 70
    16
 71
     2
 72
     2
 73
     3
 90
        0
 40
-0.6
 41
-30.0
 62
     5
 63
     8
 74
     1
 91
        4
 64
     7
 65
   257
 75
     1
175
     1
 42
1.0
 92
        8
 66
     8
 43
1.0
 76
     1
 77
     6
 78
     2
 67
     7
 79
     5
170
     0
171
     0
290
     0
174
     0
 93
        1
 44
0.0
173
     0
291
     1
 45
0.0
1001
ACAD
1000
AcDbSavedByObjectVersion
1070
     0
1000
AcDbSavedByObjectVersion
1070
     0
1000
AcDbSavedByObjectVersion
1070
     0
1000
AcDbSavedByObjectVersion
1070
     0
1000
AcDbSavedByObjectVersion
1070
     0
1000
AcDbSavedByObjectVersion
1070
     0
1000
AcDbSavedByObjectVersion
1070
     0
1000
AcDbSavedByObjectVersion
1070
     0
1000
AcDbSavedByObjectVersion
1070
     0
1000
AcDbSavedByObjectVersion
1070
     0
1000
AcDbSavedByObjectVersion
1070
     0
1000
AcDbSavedByObjectVersion
1070
     0
1000
AcDbSavedByObjectVersion
1070
     0
1000
AcDbSavedByObjectVersion
1070
     0
1000
AcDbSavedByObjectVersion
1070
     0
1000
AcDbSavedByObjectVersion
1070
     0
1000
AcDbSavedByObjectVersion
1070
     0
1000
AcDbSavedByObjectVersion
1070
     0
1000
AcDbSavedByObjectVersion
1070
     0
1000
AcDbSavedByObjectVersion
1070
     0
1000
AcDbSavedByObjectVersion
1070
     0
1000
AcDbSavedByObjectVersion
1070
     0
1000
AcDbSavedByObjectVersion
1070
     0
1000
AcDbSavedByObjectVersion
1070
     0
1000
AcDbSavedByObjectVersion
1070
     0
1000
AcDbSavedByObjectVersion
1070
     0
1000
AcDbSavedByObjectVersion
1070
     0
1000
AcDbSavedByObjectVersion
1070
     0
1000
AcDbSavedByObjectVersion
1070
     0
1000
AcDbSavedByObjectVersion
1070
     0
1000
AcDbSavedByObjectVersion
1070
     0
1000
AcDbSavedByObjectVersion
1070
     0
1000
AcDbSavedByObjectVersion
1070
     0
1000
AcDbSavedByObjectVersion
1070
     0
1000
AcDbSavedByObjectVersion
1070
     0
1000
AcDbSavedByObjectVersion
1070
     0
1000
AcDbSavedByObjectVersion
1070
     0
1000
AcDbSavedByObjectVersion
1070
     0
1000
AcDbSavedByObjectVersion
1070
     0
1000
AcDbSavedByObjectVersion
1070
     0
1000
AcDbSavedByObjectVersion
1070
     0
1000
AcDbSavedByObjectVersion
1070
     0
1000
AcDbSavedByObjectVersion
1070
     0
1000
AcDbSavedByObjectVersion
1070
     0
1000
AcDbSavedByObjectVersion
1070
     0
1000
AcDbSavedByObjectVersion
1070
     0
1000
AcDbSavedByObjectVersion
1070
     0
1000
AcDbSavedByObjectVersion
1070
     0
1000
AcDbSavedByObjectVersion
1070
     0
1000
AcDbSavedByObjectVersion
1070
     0
1000
AcDbSavedByObjectVersion
1070
     0
1000
AcDbSavedByObjectVersion
1070
     0
1000
AcDbSavedByObjectVersion
1070
     0
1000
AcDbSavedByObjectVersion
1070
     0
1000
AcDbSavedByObjectVersion
1070
     0
1000
AcDbSavedByObjectVersion
1070
     0
1000
AcDbSavedByObjectVersion
1070
     0
1000
AcDbSavedByObjectVersion
1070
     0
1000
AcDbSavedByObjectVersion
1070
     0
1000
AcDbSavedByObjectVersion
1070
     0
1000
AcDbSavedByObjectVersion
1070
     0
1000
AcDbSavedByObjectVersion
1070
     0
  0
VISUALSTYLE
  5
34
102
{ACAD_REACTORS
330
2A
102
}
330
2A
100
AcDbVisualStyle
  2
Conceptual
 70
     9
 71
     3
 72
     2
 73
     0
 90
        0
 40
-0.6
 41
-30.0
 62
     5
 63
     7
 74
     2
 91
        2
 64
     7
 65
   257
 75
     1
175
     1
 42
40.0
 92
        8
 66
     7
 43
1.0
 76
     1
 77
     6
 78
     2
 67
     7
 79
     3
170
     0
171
     0
290
     0
174
     0
 93
        1
 44
0.0
173
     0
291
     0
 45
0.0
1001
ACAD
1000
AcDbSavedByObjectVersion
1070
     0
1000
AcDbSavedByObjectVersion
1070
     0
1000
AcDbSavedByObjectVersion
1070
     0
1000
AcDbSavedByObjectVersion
1070
     0
1000
AcDbSavedByObjectVersion
1070
     0
1000
AcDbSavedByObjectVersion
1070
     0
1000
AcDbSavedByObjectVersion
1070
     0
1000
AcDbSavedByObjectVersion
1070
     0
1000
AcDbSavedByObjectVersion
1070
     0
1000
AcDbSavedByObjectVersion
1070
     0
1000
AcDbSavedByObjectVersion
1070
     0
1000
AcDbSavedByObjectVersion
1070
     0
1000
AcDbSavedByObjectVersion
1070
     0
1000
AcDbSavedByObjectVersion
1070
     0
1000
AcDbSavedByObjectVersion
1070
     0
1000
AcDbSavedByObjectVersion
1070
     0
1000
AcDbSavedByObjectVersion
1070
     0
1000
AcDbSavedByObjectVersion
1070
     0
1000
AcDbSavedByObjectVersion
1070
     0
1000
AcDbSavedByObjectVersion
1070
     0
1000
AcDbSavedByObjectVersion
1070
     0
1000
AcDbSavedByObjectVersion
1070
     0
1000
AcDbSavedByObjectVersion
1070
     0
1000
AcDbSavedByObjectVersion
1070
     0
1000
AcDbSavedByObjectVersion
1070
     0
1000
AcDbSavedByObjectVersion
1070
     0
1000
AcDbSavedByObjectVersion
1070
     0
1000
AcDbSavedByObjectVersion
1070
     0
1000
AcDbSavedByObjectVersion
1070
     0
1000
AcDbSavedByObjectVersion
1070
     0
1000
AcDbSavedByObjectVersion
1070
     0
1000
AcDbSavedByObjectVersion
1070
     0
1000
AcDbSavedByObjectVersion
1070
     0
1000
AcDbSavedByObjectVersion
1070
     0
1000
AcDbSavedByObjectVersion
1070
     0
1000
AcDbSavedByObjectVersion
1070
     0
1000
AcDbSavedByObjectVersion
1070
     0
1000
AcDbSavedByObjectVersion
1070
     0
1000
AcDbSavedByObjectVersion
1070
     0
1000
AcDbSavedByObjectVersion
1070
     0
1000
AcDbSavedByObjectVersion
1070
     0
1000
AcDbSavedByObjectVersion
1070
     0
1000
AcDbSavedByObjectVersion
1070
     0
1000
AcDbSavedByObjectVersion
1070
     0
1000
AcDbSavedByObjectVersion
1070
     0
1000
AcDbSavedByObjectVersion
1070
     0
1000
AcDbSavedByObjectVersion
1070
     0
1000
AcDbSavedByObjectVersion
1070
     0
1000
AcDbSavedByObjectVersion
1070
     0
1000
AcDbSavedByObjectVersion
1070
     0
1000
AcDbSavedByObjectVersion
1070
     0
1000
AcDbSavedByObjectVersion
1070
     0
1000
AcDbSavedByObjectVersion
1070
     0
1000
AcDbSavedByObjectVersion
1070
     0
1000
AcDbSavedByObjectVersion
1070
     0
1000
AcDbSavedByObjectVersion
1070
     0
1000
AcDbSavedByObjectVersion
1070
     0
1000
AcDbSavedByObjectVersion
1070
     0
1000
AcDbSavedByObjectVersion
1070
     0
1000
AcDbSavedByObjectVersion
1070
     0
1000
AcDbSavedByObjectVersion
1070
     0
1000
AcDbSavedByObjectVersion
1070
     0
  0
VISUALSTYLE
  5
35
102
{ACAD_REACTORS
330
2A
102
}
330
2A
100
AcDbVisualStyle
  2
Dim
 70
    11
 71
     2
 72
     2
 73
     0
 90
        0
 40
-0.6
 41
-30.0
 62
     5
 63
     7
 74
     1
 91
        4
 64
     7
 65
   257
 75
     1
175
     1
 42
1.0
 92
        8
 66
     7
 43
1.0
 76
     1
 77
     6
 78
     2
 67
     7
 79
     5
170
     0
171
     0
290
     0
174
     0
 93
        1
 44
-50.0
173
     0
291
     1
 45
0.0
1001
ACAD
1000
AcDbSavedByObjectVersion
1070
     0
1000
AcDbSavedByObjectVersion
1070
     0
1000
AcDbSavedByObjectVersion
1070
     0
1000
AcDbSavedByObjectVersion
1070
     0
1000
AcDbSavedByObjectVersion
1070
     0
1000
AcDbSavedByObjectVersion
1070
     0
1000
AcDbSavedByObjectVersion
1070
     0
1000
AcDbSavedByObjectVersion
1070
     0
1000
AcDbSavedByObjectVersion
1070
     0
1000
AcDbSavedByObjectVersion
1070
     0
1000
AcDbSavedByObjectVersion
1070
     0
1000
AcDbSavedByObjectVersion
1070
     0
1000
AcDbSavedByObjectVersion
1070
     0
1000
AcDbSavedByObjectVersion
1070
     0
1000
AcDbSavedByObjectVersion
1070
     0
1000
AcDbSavedByObjectVersion
1070
     0
1000
AcDbSavedByObjectVersion
1070
     0
1000
AcDbSavedByObjectVersion
1070
     0
1000
AcDbSavedByObjectVersion
1070
     0
1000
AcDbSavedByObjectVersion
1070
     0
1000
AcDbSavedByObjectVersion
1070
     0
1000
AcDbSavedByObjectVersion
1070
     0
1000
AcDbSavedByObjectVersion
1070
     0
1000
AcDbSavedByObjectVersion
1070
     0
1000
AcDbSavedByObjectVersion
1070
     0
1000
AcDbSavedByObjectVersion
1070
     0
1000
AcDbSavedByObjectVersion
1070
     0
1000
AcDbSavedByObjectVersion
1070
     0
1000
AcDbSavedByObjectVersion
1070
     0
1000
AcDbSavedByObjectVersion
1070
     0
1000
AcDbSavedByObjectVersion
1070
     0
1000
AcDbSavedByObjectVersion
1070
     0
1000
AcDbSavedByObjectVersion
1070
     0
1000
AcDbSavedByObjectVersion
1070
     0
1000
AcDbSavedByObjectVersion
1070
     0
1000
AcDbSavedByObjectVersion
1070
     0
1000
AcDbSavedByObjectVersion
1070
     0
1000
AcDbSavedByObjectVersion
1070
     0
1000
AcDbSavedByObjectVersion
1070
     0
1000
AcDbSavedByObjectVersion
1070
     0
1000
AcDbSavedByObjectVersion
1070
     0
1000
AcDbSavedByObjectVersion
1070
     0
1000
AcDbSavedByObjectVersion
1070
     0
1000
AcDbSavedByObjectVersion
1070
     0
1000
AcDbSavedByObjectVersion
1070
     0
1000
AcDbSavedByObjectVersion
1070
     0
1000
AcDbSavedByObjectVersion
1070
     0
1000
AcDbSavedByObjectVersion
1070
     0
1000
AcDbSavedByObjectVersion
1070
     0
1000
AcDbSavedByObjectVersion
1070
     0
1000
AcDbSavedByObjectVersion
1070
     0
1000
AcDbSavedByObjectVersion
1070
     0
1000
AcDbSavedByObjectVersion
1070
     0
1000
AcDbSavedByObjectVersion
1070
     0
1000
AcDbSavedByObjectVersion
1070
     0
1000
AcDbSavedByObjectVersion
1070
     0
1000
AcDbSavedByObjectVersion
1070
     0
1000
AcDbSavedByObjectVersion
1070
     0
1000
AcDbSavedByObjectVersion
1070
     0
1000
AcDbSavedByObjectVersion
1070
     0
1000
AcDbSavedByObjectVersion
1070
     0
1000
AcDbSavedByObjectVersion
1070
     0
  0
VISUALSTYLE
  5
39
102
{ACAD_REACTORS
330
2A
102
}
330
2A
100
AcDbVisualStyle
  2
Facepattern
 70
    15
 71
     2
 72
     2
 73
     0
 90
        0
 40
-0.6
 41
-30.0
 62
     5
 63
     7
 74
     1
 91
        4
 64
     7
 65
   257
 75
     1
175
     1
 42
1.0
 92
        8
 66
     7
 43
1.0
 76
     1
 77
     6
 78
     2
 67
     7
 79
     5
170
     0
171
     0
290
     0
174
     0
 93
        1
 44
0.0
173
     0
291
     1
 45
0.0
1001
ACAD
1000
AcDbSavedByObjectVersion
1070
     0
1000
AcDbSavedByObjectVersion
1070
     0
1000
AcDbSavedByObjectVersion
1070
     0
1000
AcDbSavedByObjectVersion
1070
     0
1000
AcDbSavedByObjectVersion
1070
     0
1000
AcDbSavedByObjectVersion
1070
     0
1000
AcDbSavedByObjectVersion
1070
     0
1000
AcDbSavedByObjectVersion
1070
     0
1000
AcDbSavedByObjectVersion
1070
     0
1000
AcDbSavedByObjectVersion
1070
     0
1000
AcDbSavedByObjectVersion
1070
     0
1000
AcDbSavedByObjectVersion
1070
     0
1000
AcDbSavedByObjectVersion
1070
     0
1000
AcDbSavedByObjectVersion
1070
     0
1000
AcDbSavedByObjectVersion
1070
     0
1000
AcDbSavedByObjectVersion
1070
     0
1000
AcDbSavedByObjectVersion
1070
     0
1000
AcDbSavedByObjectVersion
1070
     0
1000
AcDbSavedByObjectVersion
1070
     0
1000
AcDbSavedByObjectVersion
1070
     0
1000
AcDbSavedByObjectVersion
1070
     0
1000
AcDbSavedByObjectVersion
1070
     0
1000
AcDbSavedByObjectVersion
1070
     0
1000
AcDbSavedByObjectVersion
1070
     0
1000
AcDbSavedByObjectVersion
1070
     0
1000
AcDbSavedByObjectVersion
1070
     0
1000
AcDbSavedByObjectVersion
1070
     0
1000
AcDbSavedByObjectVersion
1070
     0
1000
AcDbSavedByObjectVersion
1070
     0
1000
AcDbSavedByObjectVersion
1070
     0
1000
AcDbSavedByObjectVersion
1070
     0
1000
AcDbSavedByObjectVersion
1070
     0
1000
AcDbSavedByObjectVersion
1070
     0
1000
AcDbSavedByObjectVersion
1070
     0
1000
AcDbSavedByObjectVersion
1070
     0
1000
AcDbSavedByObjectVersion
1070
     0
1000
AcDbSavedByObjectVersion
1070
     0
1000
AcDbSavedByObjectVersion
1070
     0
1000
AcDbSavedByObjectVersion
1070
     0
1000
AcDbSavedByObjectVersion
1070
     0
1000
AcDbSavedByObjectVersion
1070
     0
1000
AcDbSavedByObjectVersion
1070
     0
1000
AcDbSavedByObjectVersion
1070
     0
1000
AcDbSavedByObjectVersion
1070
     0
1000
AcDbSavedByObjectVersion
1070
     0
1000
AcDbSavedByObjectVersion
1070
     0
1000
AcDbSavedByObjectVersion
1070
     0
1000
AcDbSavedByObjectVersion
1070
     0
1000
AcDbSavedByObjectVersion
1070
     0
1000
AcDbSavedByObjectVersion
1070
     0
1000
AcDbSavedByObjectVersion
1070
     0
1000
AcDbSavedByObjectVersion
1070
     0
1000
AcDbSavedByObjectVersion
1070
     0
1000
AcDbSavedByObjectVersion
1070
     0
1000
AcDbSavedByObjectVersion
1070
     0
1000
AcDbSavedByObjectVersion
1070
     0
1000
AcDbSavedByObjectVersion
1070
     0
1000
AcDbSavedByObjectVersion
1070
     0
1000
AcDbSavedByObjectVersion
1070
     0
1000
AcDbSavedByObjectVersion
1070
     0
1000
AcDbSavedByObjectVersion
1070
     0
1000
AcDbSavedByObjectVersion
1070
     0
  0
VISUALSTYLE
  5
2B
102
{ACAD_REACTORS
330
2A
102
}
330
2A
100
AcDbVisualStyle
  2
Flat
 70
     0
 71
     2
 72
     1
 73
     1
 90
        2
 40
-0.6
 41
30.0
 62
     5
 63
     7
 74
     0
 91
        4
 64
     7
 65
   257
 75
     1
175
     1
 42
1.0
 92
        8
 66
     7
 43
1.0
 76
     1
 77
     6
 78
     2
 67
     7
 79
     5
170
     0
171
     0
290
     0
174
     0
 93
       13
 44
0.0
173
     0
291
     1
 45
0.0
1001
ACAD
1000
AcDbSavedByObjectVersion
1070
     0
1000
AcDbSavedByObjectVersion
1070
     0
1000
AcDbSavedByObjectVersion
1070
     0
1000
AcDbSavedByObjectVersion
1070
     0
1000
AcDbSavedByObjectVersion
1070
     0
1000
AcDbSavedByObjectVersion
1070
     0
1000
AcDbSavedByObjectVersion
1070
     0
1000
AcDbSavedByObjectVersion
1070
     0
1000
AcDbSavedByObjectVersion
1070
     0
1000
AcDbSavedByObjectVersion
1070
     0
1000
AcDbSavedByObjectVersion
1070
     0
1000
AcDbSavedByObjectVersion
1070
     0
1000
AcDbSavedByObjectVersion
1070
     0
1000
AcDbSavedByObjectVersion
1070
     0
1000
AcDbSavedByObjectVersion
1070
     0
1000
AcDbSavedByObjectVersion
1070
     0
1000
AcDbSavedByObjectVersion
1070
     0
1000
AcDbSavedByObjectVersion
1070
     0
1000
AcDbSavedByObjectVersion
1070
     0
1000
AcDbSavedByObjectVersion
1070
     0
1000
AcDbSavedByObjectVersion
1070
     0
1000
AcDbSavedByObjectVersion
1070
     0
1000
AcDbSavedByObjectVersion
1070
     0
1000
AcDbSavedByObjectVersion
1070
     0
1000
AcDbSavedByObjectVersion
1070
     0
1000
AcDbSavedByObjectVersion
1070
     0
1000
AcDbSavedByObjectVersion
1070
     0
1000
AcDbSavedByObjectVersion
1070
     0
1000
AcDbSavedByObjectVersion
1070
     0
1000
AcDbSavedByObjectVersion
1070
     0
1000
AcDbSavedByObjectVersion
1070
     0
1000
AcDbSavedByObjectVersion
1070
     0
1000
AcDbSavedByObjectVersion
1070
     0
1000
AcDbSavedByObjectVersion
1070
     0
1000
AcDbSavedByObjectVersion
1070
     0
1000
AcDbSavedByObjectVersion
1070
     0
1000
AcDbSavedByObjectVersion
1070
     0
1000
AcDbSavedByObjectVersion
1070
     0
1000
AcDbSavedByObjectVersion
1070
     0
1000
AcDbSavedByObjectVersion
1070
     0
1000
AcDbSavedByObjectVersion
1070
     0
1000
AcDbSavedByObjectVersion
1070
     0
1000
AcDbSavedByObjectVersion
1070
     0
1000
AcDbSavedByObjectVersion
1070
     0
1000
AcDbSavedByObjectVersion
1070
     0
1000
AcDbSavedByObjectVersion
1070
     0
1000
AcDbSavedByObjectVersion
1070
     0
1000
AcDbSavedByObjectVersion
1070
     0
1000
AcDbSavedByObjectVersion
1070
     0
1000
AcDbSavedByObjectVersion
1070
     0
1000
AcDbSavedByObjectVersion
1070
     0
1000
AcDbSavedByObjectVersion
1070
     0
1000
AcDbSavedByObjectVersion
1070
     0
1000
AcDbSavedByObjectVersion
1070
     0
1000
AcDbSavedByObjectVersion
1070
     0
1000
AcDbSavedByObjectVersion
1070
     0
1000
AcDbSavedByObjectVersion
1070
     0
1000
AcDbSavedByObjectVersion
1070
     0
1000
AcDbSavedByObjectVersion
1070
     0
1000
AcDbSavedByObjectVersion
1070
     0
1000
AcDbSavedByObjectVersion
1070
     0
1000
AcDbSavedByObjectVersion
1070
     0
  0
VISUALSTYLE
  5
2C
102
{ACAD_REACTORS
330
2A
102
}
330
2A
100
AcDbVisualStyle
  2
FlatWithEdges
 70
     1
 71
     2
 72
     1
 73
     1
 90
        2
 40
-0.6
 41
30.0
 62
     5
 63
     7
 74
     1
 91
        4
 64
     7
 65
   257
 75
     1
175
     1
 42
1.0
 92
        0
 66
   257
 43
1.0
 76
     1
 77
     6
 78
     2
 67
     7
 79
     5
170
     0
171
     0
290
     0
174
     0
 93
       13
 44
0.0
173
     0
291
     1
 45
0.0
1001
ACAD
1000
AcDbSavedByObjectVersion
1070
     0
1000
AcDbSavedByObjectVersion
1070
     0
1000
AcDbSavedByObjectVersion
1070
     0
1000
AcDbSavedByObjectVersion
1070
     0
1000
AcDbSavedByObjectVersion
1070
     0
1000
AcDbSavedByObjectVersion
1070
     0
1000
AcDbSavedByObjectVersion
1070
     0
1000
AcDbSavedByObjectVersion
1070
     0
1000
AcDbSavedByObjectVersion
1070
     0
1000
AcDbSavedByObjectVersion
1070
     0
1000
AcDbSavedByObjectVersion
1070
     0
1000
AcDbSavedByObjectVersion
1070
     0
1000
AcDbSavedByObjectVersion
1070
     0
1000
AcDbSavedByObjectVersion
1070
     0
1000
AcDbSavedByObjectVersion
1070
     0
1000
AcDbSavedByObjectVersion
1070
     0
1000
AcDbSavedByObjectVersion
1070
     0
1000
AcDbSavedByObjectVersion
1070
     0
1000
AcDbSavedByObjectVersion
1070
     0
1000
AcDbSavedByObjectVersion
1070
     0
1000
AcDbSavedByObjectVersion
1070
     0
1000
AcDbSavedByObjectVersion
1070
     0
1000
AcDbSavedByObjectVersion
1070
     0
1000
AcDbSavedByObjectVersion
1070
     0
1000
AcDbSavedByObjectVersion
1070
     0
1000
AcDbSavedByObjectVersion
1070
     0
1000
AcDbSavedByObjectVersion
1070
     0
1000
AcDbSavedByObjectVersion
1070
     0
1000
AcDbSavedByObjectVersion
1070
     0
1000
AcDbSavedByObjectVersion
1070
     0
1000
AcDbSavedByObjectVersion
1070
     0
1000
AcDbSavedByObjectVersion
1070
     0
1000
AcDbSavedByObjectVersion
1070
     0
1000
AcDbSavedByObjectVersion
1070
     0
1000
AcDbSavedByObjectVersion
1070
     0
1000
AcDbSavedByObjectVersion
1070
     0
1000
AcDbSavedByObjectVersion
1070
     0
1000
AcDbSavedByObjectVersion
1070
     0
1000
AcDbSavedByObjectVersion
1070
     0
1000
AcDbSavedByObjectVersion
1070
     0
1000
AcDbSavedByObjectVersion
1070
     0
1000
AcDbSavedByObjectVersion
1070
     0
1000
AcDbSavedByObjectVersion
1070
     0
1000
AcDbSavedByObjectVersion
1070
     0
1000
AcDbSavedByObjectVersion
1070
     0
1000
AcDbSavedByObjectVersion
1070
     0
1000
AcDbSavedByObjectVersion
1070
     0
1000
AcDbSavedByObjectVersion
1070
     0
1000
AcDbSavedByObjectVersion
1070
     0
1000
AcDbSavedByObjectVersion
1070
     0
1000
AcDbSavedByObjectVersion
1070
     0
1000
AcDbSavedByObjectVersion
1070
     0
1000
AcDbSavedByObjectVersion
1070
     0
1000
AcDbSavedByObjectVersion
1070
     0
1000
AcDbSavedByObjectVersion
1070
     0
1000
AcDbSavedByObjectVersion
1070
     0
1000
AcDbSavedByObjectVersion
1070
     0
1000
AcDbSavedByObjectVersion
1070
     0
1000
AcDbSavedByObjectVersion
1070
     0
1000
AcDbSavedByObjectVersion
1070
     0
1000
AcDbSavedByObjectVersion
1070
     0
1000
AcDbSavedByObjectVersion
1070
     0
  0
VISUALSTYLE
  5
2D
102
{ACAD_REACTORS
330
2A
102
}
330
2A
100
AcDbVisualStyle
  2
Gouraud
 70
     2
 71
     2
 72
     2
 73
     1
 90
        2
 40
-0.6
 41
30.0
 62
     5
 63
     7
 74
     0
 91
        4
 64
     7
 65
   257
 75
     1
175
     1
 42
1.0
 92
        0
 66
     7
 43
1.0
 76
     1
 77
     6
 78
     2
 67
     7
 79
     5
170
     0
171
     0
290
     0
174
     0
 93
       13
 44
0.0
173
     0
291
     1
 45
0.0
1001
ACAD
1000
AcDbSavedByObjectVersion
1070
     0
1000
AcDbSavedByObjectVersion
1070
     0
1000
AcDbSavedByObjectVersion
1070
     0
1000
AcDbSavedByObjectVersion
1070
     0
1000
AcDbSavedByObjectVersion
1070
     0
1000
AcDbSavedByObjectVersion
1070
     0
1000
AcDbSavedByObjectVersion
1070
     0
1000
AcDbSavedByObjectVersion
1070
     0
1000
AcDbSavedByObjectVersion
1070
     0
1000
AcDbSavedByObjectVersion
1070
     0
1000
AcDbSavedByObjectVersion
1070
     0
1000
AcDbSavedByObjectVersion
1070
     0
1000
AcDbSavedByObjectVersion
1070
     0
1000
AcDbSavedByObjectVersion
1070
     0
1000
AcDbSavedByObjectVersion
1070
     0
1000
AcDbSavedByObjectVersion
1070
     0
1000
AcDbSavedByObjectVersion
1070
     0
1000
AcDbSavedByObjectVersion
1070
     0
1000
AcDbSavedByObjectVersion
1070
     0
1000
AcDbSavedByObjectVersion
1070
     0
1000
AcDbSavedByObjectVersion
1070
     0
1000
AcDbSavedByObjectVersion
1070
     0
1000
AcDbSavedByObjectVersion
1070
     0
1000
AcDbSavedByObjectVersion
1070
     0
1000
AcDbSavedByObjectVersion
1070
     0
1000
AcDbSavedByObjectVersion
1070
     0
1000
AcDbSavedByObjectVersion
1070
     0
1000
AcDbSavedByObjectVersion
1070
     0
1000
AcDbSavedByObjectVersion
1070
     0
1000
AcDbSavedByObjectVersion
1070
     0
1000
AcDbSavedByObjectVersion
1070
     0
1000
AcDbSavedByObjectVersion
1070
     0
1000
AcDbSavedByObjectVersion
1070
     0
1000
AcDbSavedByObjectVersion
1070
     0
1000
AcDbSavedByObjectVersion
1070
     0
1000
AcDbSavedByObjectVersion
1070
     0
1000
AcDbSavedByObjectVersion
1070
     0
1000
AcDbSavedByObjectVersion
1070
     0
1000
AcDbSavedByObjectVersion
1070
     0
1000
AcDbSavedByObjectVersion
1070
     0
1000
AcDbSavedByObjectVersion
1070
     0
1000
AcDbSavedByObjectVersion
1070
     0
1000
AcDbSavedByObjectVersion
1070
     0
1000
AcDbSavedByObjectVersion
1070
     0
1000
AcDbSavedByObjectVersion
1070
     0
1000
AcDbSavedByObjectVersion
1070
     0
1000
AcDbSavedByObjectVersion
1070
     0
1000
AcDbSavedByObjectVersion
1070
     0
1000
AcDbSavedByObjectVersion
1070
     0
1000
AcDbSavedByObjectVersion
1070
     0
1000
AcDbSavedByObjectVersion
1070
     0
1000
AcDbSavedByObjectVersion
1070
     0
1000
AcDbSavedByObjectVersion
1070
     0
1000
AcDbSavedByObjectVersion
1070
     0
1000
AcDbSavedByObjectVersion
1070
     0
1000
AcDbSavedByObjectVersion
1070
     0
1000
AcDbSavedByObjectVersion
1070
     0
1000
AcDbSavedByObjectVersion
1070
     0
1000
AcDbSavedByObjectVersion
1070
     0
1000
AcDbSavedByObjectVersion
1070
     0
1000
AcDbSavedByObjectVersion
1070
     0
1000
AcDbSavedByObjectVersion
1070
     0
  0
VISUALSTYLE
  5
2E
102
{ACAD_REACTORS
330
2A
102
}
330
2A
100
AcDbVisualStyle
  2
GouraudWithEdges
 70
     3
 71
     2
 72
     2
 73
     1
 90
        2
 40
-0.6
 41
30.0
 62
     5
 63
     7
 74
     1
 91
        4
 64
     7
 65
   257
 75
     1
175
     1
 42
1.0
 92
        0
 66
   257
 43
1.0
 76
     1
 77
     6
 78
     2
 67
     7
 79
     5
170
     0
171
     0
290
     0
174
     0
 93
       13
 44
0.0
173
     0
291
     1
 45
0.0
1001
ACAD
1000
AcDbSavedByObjectVersion
1070
     0
1000
AcDbSavedByObjectVersion
1070
     0
1000
AcDbSavedByObjectVersion
1070
     0
1000
AcDbSavedByObjectVersion
1070
     0
1000
AcDbSavedByObjectVersion
1070
     0
1000
AcDbSavedByObjectVersion
1070
     0
1000
AcDbSavedByObjectVersion
1070
     0
1000
AcDbSavedByObjectVersion
1070
     0
1000
AcDbSavedByObjectVersion
1070
     0
1000
AcDbSavedByObjectVersion
1070
     0
1000
AcDbSavedByObjectVersion
1070
     0
1000
AcDbSavedByObjectVersion
1070
     0
1000
AcDbSavedByObjectVersion
1070
     0
1000
AcDbSavedByObjectVersion
1070
     0
1000
AcDbSavedByObjectVersion
1070
     0
1000
AcDbSavedByObjectVersion
1070
     0
1000
AcDbSavedByObjectVersion
1070
     0
1000
AcDbSavedByObjectVersion
1070
     0
1000
AcDbSavedByObjectVersion
1070
     0
1000
AcDbSavedByObjectVersion
1070
     0
1000
AcDbSavedByObjectVersion
1070
     0
1000
AcDbSavedByObjectVersion
1070
     0
1000
AcDbSavedByObjectVersion
1070
     0
1000
AcDbSavedByObjectVersion
1070
     0
1000
AcDbSavedByObjectVersion
1070
     0
1000
AcDbSavedByObjectVersion
1070
     0
1000
AcDbSavedByObjectVersion
1070
     0
1000
AcDbSavedByObjectVersion
1070
     0
1000
AcDbSavedByObjectVersion
1070
     0
1000
AcDbSavedByObjectVersion
1070
     0
1000
AcDbSavedByObjectVersion
1070
     0
1000
AcDbSavedByObjectVersion
1070
     0
1000
AcDbSavedByObjectVersion
1070
     0
1000
AcDbSavedByObjectVersion
1070
     0
1000
AcDbSavedByObjectVersion
1070
     0
1000
AcDbSavedByObjectVersion
1070
     0
1000
AcDbSavedByObjectVersion
1070
     0
1000
AcDbSavedByObjectVersion
1070
     0
1000
AcDbSavedByObjectVersion
1070
     0
1000
AcDbSavedByObjectVersion
1070
     0
1000
AcDbSavedByObjectVersion
1070
     0
1000
AcDbSavedByObjectVersion
1070
     0
1000
AcDbSavedByObjectVersion
1070
     0
1000
AcDbSavedByObjectVersion
1070
     0
1000
AcDbSavedByObjectVersion
1070
     0
1000
AcDbSavedByObjectVersion
1070
     0
1000
AcDbSavedByObjectVersion
1070
     0
1000
AcDbSavedByObjectVersion
1070
     0
1000
AcDbSavedByObjectVersion
1070
     0
1000
AcDbSavedByObjectVersion
1070
     0
1000
AcDbSavedByObjectVersion
1070
     0
1000
AcDbSavedByObjectVersion
1070
     0
1000
AcDbSavedByObjectVersion
1070
     0
1000
AcDbSavedByObjectVersion
1070
     0
1000
AcDbSavedByObjectVersion
1070
     0
1000
AcDbSavedByObjectVersion
1070
     0
1000
AcDbSavedByObjectVersion
1070
     0
1000
AcDbSavedByObjectVersion
1070
     0
1000
AcDbSavedByObjectVersion
1070
     0
1000
AcDbSavedByObjectVersion
1070
     0
1000
AcDbSavedByObjectVersion
1070
     0
1000
AcDbSavedByObjectVersion
1070
     0
  0
VISUALSTYLE
  5
38
102
{ACAD_REACTORS
330
2A
102
}
330
2A
100
AcDbVisualStyle
  2
Linepattern
 70
    14
 71
     2
 72
     2
 73
     0
 90
        0
 40
-0.6
 41
-30.0
 62
     5
 63
     7
 74
     1
 91
        4
 64
     7
 65
   257
 75
     7
175
     7
 42
1.0
 92
        8
 66
     7
 43
1.0
 76
     1
 77
     6
 78
     2
 67
     7
 79
     5
170
     0
171
     0
290
     0
174
     0
 93
        1
 44
0.0
173
     0
291
     1
 45
0.0
1001
ACAD
1000
AcDbSavedByObjectVersion
1070
     0
1000
AcDbSavedByObjectVersion
1070
     0
1000
AcDbSavedByObjectVersion
1070
     0
1000
AcDbSavedByObjectVersion
1070
     0
1000
AcDbSavedByObjectVersion
1070
     0
1000
AcDbSavedByObjectVersion
1070
     0
1000
AcDbSavedByObjectVersion
1070
     0
1000
AcDbSavedByObjectVersion
1070
     0
1000
AcDbSavedByObjectVersion
1070
     0
1000
AcDbSavedByObjectVersion
1070
     0
1000
AcDbSavedByObjectVersion
1070
     0
1000
AcDbSavedByObjectVersion
1070
     0
1000
AcDbSavedByObjectVersion
1070
     0
1000
AcDbSavedByObjectVersion
1070
     0
1000
AcDbSavedByObjectVersion
1070
     0
1000
AcDbSavedByObjectVersion
1070
     0
1000
AcDbSavedByObjectVersion
1070
     0
1000
AcDbSavedByObjectVersion
1070
     0
1000
AcDbSavedByObjectVersion
1070
     0
1000
AcDbSavedByObjectVersion
1070
     0
1000
AcDbSavedByObjectVersion
1070
     0
1000
AcDbSavedByObjectVersion
1070
     0
1000
AcDbSavedByObjectVersion
1070
     0
1000
AcDbSavedByObjectVersion
1070
     0
1000
AcDbSavedByObjectVersion
1070
     0
1000
AcDbSavedByObjectVersion
1070
     0
1000
AcDbSavedByObjectVersion
1070
     0
1000
AcDbSavedByObjectVersion
1070
     0
1000
AcDbSavedByObjectVersion
1070
     0
1000
AcDbSavedByObjectVersion
1070
     0
1000
AcDbSavedByObjectVersion
1070
     0
1000
AcDbSavedByObjectVersion
1070
     0
1000
AcDbSavedByObjectVersion
1070
     0
1000
AcDbSavedByObjectVersion
1070
     0
1000
AcDbSavedByObjectVersion
1070
     0
1000
AcDbSavedByObjectVersion
1070
     0
1000
AcDbSavedByObjectVersion
1070
     0
1000
AcDbSavedByObjectVersion
1070
     0
1000
AcDbSavedByObjectVersion
1070
     0
1000
AcDbSavedByObjectVersion
1070
     0
1000
AcDbSavedByObjectVersion
1070
     0
1000
AcDbSavedByObjectVersion
1070
     0
1000
AcDbSavedByObjectVersion
1070
     0
1000
AcDbSavedByObjectVersion
1070
     0
1000
AcDbSavedByObjectVersion
1070
     0
1000
AcDbSavedByObjectVersion
1070
     0
1000
AcDbSavedByObjectVersion
1070
     0
1000
AcDbSavedByObjectVersion
1070
     0
1000
AcDbSavedByObjectVersion
1070
     0
1000
AcDbSavedByObjectVersion
1070
     0
1000
AcDbSavedByObjectVersion
1070
     0
1000
AcDbSavedByObjectVersion
1070
     0
1000
AcDbSavedByObjectVersion
1070
     0
1000
AcDbSavedByObjectVersion
1070
     0
1000
AcDbSavedByObjectVersion
1070
     0
1000
AcDbSavedByObjectVersion
1070
     0
1000
AcDbSavedByObjectVersion
1070
     0
1000
AcDbSavedByObjectVersion
1070
     0
1000
AcDbSavedByObjectVersion
1070
     0
1000
AcDbSavedByObjectVersion
1070
     0
1000
AcDbSavedByObjectVersion
1070
     0
1000
AcDbSavedByObjectVersion
1070
     0
  0
VISUALSTYLE
  5
33
102
{ACAD_REACTORS
330
2A
102
}
330
2A
100
AcDbVisualStyle
  2
Realistic
 70
     8
 71
     2
 72
     2
 73
     0
 90
        0
 40
-0.6
 41
-30.0
 62
     5
 63
     7
 74
     1
 91
        0
 64
     7
 65
   257
 75
     1
175
     1
 42
1.0
 92
        8
 66
     8
 43
1.0
 76
     1
 77
     6
 78
     2
 67
     7
 79
     5
170
     0
171
     0
290
     0
174
     0
 93
       13
 44
0.0
173
     0
291
     0
 45
0.0
1001
ACAD
1000
AcDbSavedByObjectVersion
1070
     0
1000
AcDbSavedByObjectVersion
1070
     0
1000
AcDbSavedByObjectVersion
1070
     0
1000
AcDbSavedByObjectVersion
1070
     0
1000
AcDbSavedByObjectVersion
1070
     0
1000
AcDbSavedByObjectVersion
1070
     0
1000
AcDbSavedByObjectVersion
1070
     0
1000
AcDbSavedByObjectVersion
1070
     0
1000
AcDbSavedByObjectVersion
1070
     0
1000
AcDbSavedByObjectVersion
1070
     0
1000
AcDbSavedByObjectVersion
1070
     0
1000
AcDbSavedByObjectVersion
1070
     0
1000
AcDbSavedByObjectVersion
1070
     0
1000
AcDbSavedByObjectVersion
1070
     0
1000
AcDbSavedByObjectVersion
1070
     0
1000
AcDbSavedByObjectVersion
1070
     0
1000
AcDbSavedByObjectVersion
1070
     0
1000
AcDbSavedByObjectVersion
1070
     0
1000
AcDbSavedByObjectVersion
1070
     0
1000
AcDbSavedByObjectVersion
1070
     0
1000
AcDbSavedByObjectVersion
1070
     0
1000
AcDbSavedByObjectVersion
1070
     0
1000
AcDbSavedByObjectVersion
1070
     0
1000
AcDbSavedByObjectVersion
1070
     0
1000
AcDbSavedByObjectVersion
1070
     0
1000
AcDbSavedByObjectVersion
1070
     0
1000
AcDbSavedByObjectVersion
1070
     0
1000
AcDbSavedByObjectVersion
1070
     0
1000
AcDbSavedByObjectVersion
1070
     0
1000
AcDbSavedByObjectVersion
1070
     0
1000
AcDbSavedByObjectVersion
1070
     0
1000
AcDbSavedByObjectVersion
1070
     0
1000
AcDbSavedByObjectVersion
1070
     0
1000
AcDbSavedByObjectVersion
1070
     0
1000
AcDbSavedByObjectVersion
1070
     0
1000
AcDbSavedByObjectVersion
1070
     0
1000
AcDbSavedByObjectVersion
1070
     0
1000
AcDbSavedByObjectVersion
1070
     0
1000
AcDbSavedByObjectVersion
1070
     0
1000
AcDbSavedByObjectVersion
1070
     0
1000
AcDbSavedByObjectVersion
1070
     0
1000
AcDbSavedByObjectVersion
1070
     0
1000
AcDbSavedByObjectVersion
1070
     0
1000
AcDbSavedByObjectVersion
1070
     0
1000
AcDbSavedByObjectVersion
1070
     0
1000
AcDbSavedByObjectVersion
1070
     0
1000
AcDbSavedByObjectVersion
1070
     0
1000
AcDbSavedByObjectVersion
1070
     0
1000
AcDbSavedByObjectVersion
1070
     0
1000
AcDbSavedByObjectVersion
1070
     0
1000
AcDbSavedByObjectVersion
1070
     0
1000
AcDbSavedByObjectVersion
1070
     0
1000
AcDbSavedByObjectVersion
1070
     0
1000
AcDbSavedByObjectVersion
1070
     0
1000
AcDbSavedByObjectVersion
1070
     0
1000
AcDbSavedByObjectVersion
1070
     0
1000
AcDbSavedByObjectVersion
1070
     0
1000
AcDbSavedByObjectVersion
1070
     0
1000
AcDbSavedByObjectVersion
1070
     0
1000
AcDbSavedByObjectVersion
1070
     0
1000
AcDbSavedByObjectVersion
1070
     0
1000
AcDbSavedByObjectVersion
1070
     0
  0
VISUALSTYLE
  5
37
102
{ACAD_REACTORS
330
2A
102
}
330
2A
100
AcDbVisualStyle
  2
Thicken
 70
    13
 71
     2
 72
     2
 73
     0
 90
        0
 40
-0.6
 41
-30.0
 62
     5
 63
     7
 74
     1
 91
        4
 64
     7
 65
   257
 75
     1
175
     1
 42
1.0
 92
       12
 66
     7
 43
1.0
 76
     1
 77
     6
 78
     2
 67
     7
 79
     5
170
     0
171
     0
290
     0
174
     0
 93
        1
 44
0.0
173
     0
291
     1
 45
0.0
1001
ACAD
1000
AcDbSavedByObjectVersion
1070
     0
1000
AcDbSavedByObjectVersion
1070
     0
1000
AcDbSavedByObjectVersion
1070
     0
1000
AcDbSavedByObjectVersion
1070
     0
1000
AcDbSavedByObjectVersion
1070
     0
1000
AcDbSavedByObjectVersion
1070
     0
1000
AcDbSavedByObjectVersion
1070
     0
1000
AcDbSavedByObjectVersion
1070
     0
1000
AcDbSavedByObjectVersion
1070
     0
1000
AcDbSavedByObjectVersion
1070
     0
1000
AcDbSavedByObjectVersion
1070
     0
1000
AcDbSavedByObjectVersion
1070
     0
1000
AcDbSavedByObjectVersion
1070
     0
1000
AcDbSavedByObjectVersion
1070
     0
1000
AcDbSavedByObjectVersion
1070
     0
1000
AcDbSavedByObjectVersion
1070
     0
1000
AcDbSavedByObjectVersion
1070
     0
1000
AcDbSavedByObjectVersion
1070
     0
1000
AcDbSavedByObjectVersion
1070
     0
1000
AcDbSavedByObjectVersion
1070
     0
1000
AcDbSavedByObjectVersion
1070
     0
1000
AcDbSavedByObjectVersion
1070
     0
1000
AcDbSavedByObjectVersion
1070
     0
1000
AcDbSavedByObjectVersion
1070
     0
1000
AcDbSavedByObjectVersion
1070
     0
1000
AcDbSavedByObjectVersion
1070
     0
1000
AcDbSavedByObjectVersion
1070
     0
1000
AcDbSavedByObjectVersion
1070
     0
1000
AcDbSavedByObjectVersion
1070
     0
1000
AcDbSavedByObjectVersion
1070
     0
1000
AcDbSavedByObjectVersion
1070
     0
1000
AcDbSavedByObjectVersion
1070
     0
1000
AcDbSavedByObjectVersion
1070
     0
1000
AcDbSavedByObjectVersion
1070
     0
1000
AcDbSavedByObjectVersion
1070
     0
1000
AcDbSavedByObjectVersion
1070
     0
1000
AcDbSavedByObjectVersion
1070
     0
1000
AcDbSavedByObjectVersion
1070
     0
1000
AcDbSavedByObjectVersion
1070
     0
1000
AcDbSavedByObjectVersion
1070
     0
1000
AcDbSavedByObjectVersion
1070
     0
1000
AcDbSavedByObjectVersion
1070
     0
1000
AcDbSavedByObjectVersion
1070
     0
1000
AcDbSavedByObjectVersion
1070
     0
1000
AcDbSavedByObjectVersion
1070
     0
1000
AcDbSavedByObjectVersion
1070
     0
1000
AcDbSavedByObjectVersion
1070
     0
1000
AcDbSavedByObjectVersion
1070
     0
1000
AcDbSavedByObjectVersion
1070
     0
1000
AcDbSavedByObjectVersion
1070
     0
1000
AcDbSavedByObjectVersion
1070
     0
1000
AcDbSavedByObjectVersion
1070
     0
1000
AcDbSavedByObjectVersion
1070
     0
1000
AcDbSavedByObjectVersion
1070
     0
1000
AcDbSavedByObjectVersion
1070
     0
1000
AcDbSavedByObjectVersion
1070
     0
1000
AcDbSavedByObjectVersion
1070
     0
1000
AcDbSavedByObjectVersion
1070
     0
1000
AcDbSavedByObjectVersion
1070
     0
1000
AcDbSavedByObjectVersion
1070
     0
1000
AcDbSavedByObjectVersion
1070
     0
1000
AcDbSavedByObjectVersion
1070
     0
  0
DICTIONARYVAR
  5
510B
102
{ACAD_REACTORS
330
5108
102
}
330
5108
100
DictionaryVariables
280
     0
  1
1:1
  0
DICTIONARYVAR
  5
510A
102
{ACAD_REACTORS
330
5108
102
}
330
5108
100
DictionaryVariables
280
     0
  1
STANDARD
  0
DICTIONARYVAR
  5
5109
102
{ACAD_REACTORS
330
5108
102
}
330
5108
100
DictionaryVariables
280
     0
  1
STANDARD
  0
DICTIONARYVAR
  5
510E
102
{ACAD_REACTORS
330
5108
102
}
330
5108
100
DictionaryVariables
280
     0
  1
1
  0
DICTIONARYVAR
  5
510D
102
{ACAD_REACTORS
330
5108
102
}
330
5108
100
DictionaryVariables
280
     0
  1
0
  0
DICTIONARYVAR
  5
1CB7C
102
{ACAD_REACTORS
330
5108
102
}
330
5108
100
DictionaryVariables
280
     0
  1
0
  0
DICTIONARYVAR
  5
1CB7B
102
{ACAD_REACTORS
330
5108
102
}
330
5108
100
DictionaryVariables
280
     0
  1
0
  0
DICTIONARYVAR
  5
510C
102
{ACAD_REACTORS
330
5108
102
}
330
5108
100
DictionaryVariables
280
     0
  1
127
  0
XRECORD
  5
14144
102
{ACAD_REACTORS
330
14143
102
}
330
14143
100
AcDbXrecord
280
     1
330
0
  0
DICTIONARY
  5
4FEF
330
4FEE
100
AcDbDictionary
280
     1
281
     1
  3
ACAD_XREC_ROUNDTRIP
360
7C2C
  3
BUMPTILE
360
4FF1
  3
DIFFUSETILE
360
4FF0
  3
OPACITYTILE
360
4FF4
  3
REFLECTIONTILE
360
4FF3
  3
REFRACTIONTILE
360
4FF5
  3
SPECULARTILE
360
4FF2
  0
DICTIONARY
  5
4FE7
330
4FE6
100
AcDbDictionary
280
     1
281
     1
  3
ACAD_XREC_ROUNDTRIP
360
7C2B
  3
BUMPTILE
360
4FE9
  3
DIFFUSETILE
360
4FE8
  3
OPACITYTILE
360
4FEC
  3
REFLECTIONTILE
360
4FEB
  3
REFRACTIONTILE
360
4FED
  3
SPECULARTILE
360
4FEA
  0
DICTIONARY
  5
4FF7
330
4FF6
100
AcDbDictionary
280
     1
281
     1
  3
ACAD_XREC_ROUNDTRIP
360
7C2D
  3
BUMPTILE
360
4FF9
  3
DIFFUSETILE
360
4FF8
  3
OPACITYTILE
360
4FFC
  3
REFLECTIONTILE
360
4FFB
  3
REFRACTIONTILE
360
4FFD
  3
SPECULARTILE
360
4FFA
  0
DICTIONARY
  5
50D6
330
4FFF
100
AcDbDictionary
280
     1
281
     1
  3
ACAD_ROUNDTRIP_2008_TABLESTYLE_CELLSTYLEMAP
360
1CB8A
  0
XRECORD
  5
7C2C
102
{ACAD_REACTORS
330
4FEF
102
}
330
4FEF
100
AcDbXrecord
280
     1
102
MATERIAL
148
0.0
149
0.0
149
0.0
 93
        0
 94
      127
282
     0
 72
     0
 77
     0
171
     0
175
     0
179
     0
273
     0
  0
XRECORD
  5
4FF1
102
{ACAD_REACTORS
330
4FEF
102
}
330
4FEF
100
AcDbXrecord
280
     1
270
     1
271
     1
  0
XRECORD
  5
4FF0
102
{ACAD_REACTORS
330
4FEF
102
}
330
4FEF
100
AcDbXrecord
280
     1
270
     1
271
     1
  0
XRECORD
  5
4FF4
102
{ACAD_REACTORS
330
4FEF
102
}
330
4FEF
100
AcDbXrecord
280
     1
270
     1
271
     1
  0
XRECORD
  5
4FF3
102
{ACAD_REACTORS
330
4FEF
102
}
330
4FEF
100
AcDbXrecord
280
     1
270
     1
271
     1
  0
XRECORD
  5
4FF5
102
{ACAD_REACTORS
330
4FEF
102
}
330
4FEF
100
AcDbXrecord
280
     1
270
     1
271
     1
  0
XRECORD
  5
4FF2
102
{ACAD_REACTORS
330
4FEF
102
}
330
4FEF
100
AcDbXrecord
280
     1
270
     1
271
     1
  0
XRECORD
  5
7C2B
102
{ACAD_REACTORS
330
4FE7
102
}
330
4FE7
100
AcDbXrecord
280
     1
102
MATERIAL
148
0.0
149
0.0
149
0.0
 93
        0
 94
      127
282
     0
 72
     0
 77
     0
171
     0
175
     0
179
     0
273
     0
  0
XRECORD
  5
4FE9
102
{ACAD_REACTORS
330
4FE7
102
}
330
4FE7
100
AcDbXrecord
280
     1
270
     1
271
     1
  0
XRECORD
  5
4FE8
102
{ACAD_REACTORS
330
4FE7
102
}
330
4FE7
100
AcDbXrecord
280
     1
270
     1
271
     1
  0
XRECORD
  5
4FEC
102
{ACAD_REACTORS
330
4FE7
102
}
330
4FE7
100
AcDbXrecord
280
     1
270
     1
271
     1
  0
XRECORD
  5
4FEB
102
{ACAD_REACTORS
330
4FE7
102
}
330
4FE7
100
AcDbXrecord
280
     1
270
     1
271
     1
  0
XRECORD
  5
4FED
102
{ACAD_REACTORS
330
4FE7
102
}
330
4FE7
100
AcDbXrecord
280
     1
270
     1
271
     1
  0
XRECORD
  5
4FEA
102
{ACAD_REACTORS
330
4FE7
102
}
330
4FE7
100
AcDbXrecord
280
     1
270
     1
271
     1
  0
XRECORD
  5
7C2D
102
{ACAD_REACTORS
330
4FF7
102
}
330
4FF7
100
AcDbXrecord
280
     1
102
MATERIAL
148
0.0
149
0.0
149
0.0
 93
        0
 94
      127
282
     0
 72
     0
 77
     0
171
     0
175
     0
179
     0
273
     0
  0
XRECORD
  5
4FF9
102
{ACAD_REACTORS
330
4FF7
102
}
330
4FF7
100
AcDbXrecord
280
     1
270
     1
271
     1
  0
XRECORD
  5
4FF8
102
{ACAD_REACTORS
330
4FF7
102
}
330
4FF7
100
AcDbXrecord
280
     1
270
     1
271
     1
  0
XRECORD
  5
4FFC
102
{ACAD_REACTORS
330
4FF7
102
}
330
4FF7
100
AcDbXrecord
280
     1
270
     1
271
     1
  0
XRECORD
  5
4FFB
102
{ACAD_REACTORS
330
4FF7
102
}
330
4FF7
100
AcDbXrecord
280
     1
270
     1
271
     1
  0
XRECORD
  5
4FFD
102
{ACAD_REACTORS
330
4FF7
102
}
330
4FF7
100
AcDbXrecord
280
     1
270
     1
271
     1
  0
XRECORD
  5
4FFA
102
{ACAD_REACTORS
330
4FF7
102
}
330
4FF7
100
AcDbXrecord
280
     1
270
     1
271
     1
  0
CELLSTYLEMAP
  5
1CB8A
102
{ACAD_REACTORS
330
50D6
102
}
330
50D6
100
AcDbCellStyleMap
 90
        3
300
CELLSTYLE
  1
TABLEFORMAT_BEGIN
 90
        5
170
     1
 91
        0
 92
    32768
 62
   257
 93
        1
300
CONTENTFORMAT
  1
CONTENTFORMAT_BEGIN
 90
        0
 91
        0
 92
      512
 93
        0
300

 40
0.0
140
1.0
 94
        5
 62
     0
340
11
144
0.25
309
CONTENTFORMAT_END
171
     1
301
MARGIN
  1
CELLMARGIN_BEGIN
 40
0.06
 40
0.06
 40
0.06
 40
0.06
 40
0.18
 40
0.18
309
CELLMARGIN_END
 94
        6
 95
        1
302
GRIDFORMAT
  1
GRIDFORMAT_BEGIN
 90
        0
 91
        1
 62
     0
 92
       -2
340
0
 93
        0
 40
0.045
309
GRIDFORMAT_END
 95
        2
302
GRIDFORMAT
  1
GRIDFORMAT_BEGIN
 90
        0
 91
        1
 62
     0
 92
       -2
340
0
 93
        0
 40
0.045
309
GRIDFORMAT_END
 95
        4
302
GRIDFORMAT
  1
GRIDFORMAT_BEGIN
 90
        0
 91
        1
 62
     0
 92
       -2
340
0
 93
        0
 40
0.045
309
GRIDFORMAT_END
 95
        8
302
GRIDFORMAT
  1
GRIDFORMAT_BEGIN
 90
        0
 91
        1
 62
     0
 92
       -2
340
0
 93
        0
 40
0.045
309
GRIDFORMAT_END
 95
       16
302
GRIDFORMAT
  1
GRIDFORMAT_BEGIN
 90
        0
 91
        1
 62
     0
 92
       -2
340
0
 93
        0
 40
0.045
309
GRIDFORMAT_END
 95
       32
302
GRIDFORMAT
  1
GRIDFORMAT_BEGIN
 90
        0
 91
        1
 62
     0
 92
       -2
340
0
 93
        0
 40
0.045
309
GRIDFORMAT_END
309
TABLEFORMAT_END
  1
CELLSTYLE_BEGIN
 90
        1
 91
        1
300
_TITLE
309
CELLSTYLE_END
300
CELLSTYLE
  1
TABLEFORMAT_BEGIN
 90
        5
170
     1
 91
        0
 92
        0
 62
   257
 93
        1
300
CONTENTFORMAT
  1
CONTENTFORMAT_BEGIN
 90
        0
 91
        0
 92
      512
 93
        0
300

 40
0.0
140
1.0
 94
        5
 62
     0
340
11
144
0.18
309
CONTENTFORMAT_END
171
     1
301
MARGIN
  1
CELLMARGIN_BEGIN
 40
0.06
 40
0.06
 40
0.06
 40
0.06
 40
0.18
 40
0.18
309
CELLMARGIN_END
 94
        6
 95
        1
302
GRIDFORMAT
  1
GRIDFORMAT_BEGIN
 90
        0
 91
        1
 62
     0
 92
       -2
340
0
 93
        0
 40
0.045
309
GRIDFORMAT_END
 95
        2
302
GRIDFORMAT
  1
GRIDFORMAT_BEGIN
 90
        0
 91
        1
 62
     0
 92
       -2
340
0
 93
        0
 40
0.045
309
GRIDFORMAT_END
 95
        4
302
GRIDFORMAT
  1
GRIDFORMAT_BEGIN
 90
        0
 91
        1
 62
     0
 92
       -2
340
0
 93
        0
 40
0.045
309
GRIDFORMAT_END
 95
        8
302
GRIDFORMAT
  1
GRIDFORMAT_BEGIN
 90
        0
 91
        1
 62
     0
 92
       -2
340
0
 93
        0
 40
0.045
309
GRIDFORMAT_END
 95
       16
302
GRIDFORMAT
  1
GRIDFORMAT_BEGIN
 90
        0
 91
        1
 62
     0
 92
       -2
340
0
 93
        0
 40
0.045
309
GRIDFORMAT_END
 95
       32
302
GRIDFORMAT
  1
GRIDFORMAT_BEGIN
 90
        0
 91
        1
 62
     0
 92
       -2
340
0
 93
        0
 40
0.045
309
GRIDFORMAT_END
309
TABLEFORMAT_END
  1
CELLSTYLE_BEGIN
 90
        2
 91
        1
300
_HEADER
309
CELLSTYLE_END
300
CELLSTYLE
  1
TABLEFORMAT_BEGIN
 90
        5
170
     1
 91
        0
 92
        0
 62
   257
 93
        1
300
CONTENTFORMAT
  1
CONTENTFORMAT_BEGIN
 90
        0
 91
        0
 92
      512
 93
        0
300

 40
0.0
140
1.0
 94
        2
 62
     0
340
11
144
0.18
309
CONTENTFORMAT_END
171
     1
301
MARGIN
  1
CELLMARGIN_BEGIN
 40
0.06
 40
0.06
 40
0.06
 40
0.06
 40
0.18
 40
0.18
309
CELLMARGIN_END
 94
        6
 95
        1
302
GRIDFORMAT
  1
GRIDFORMAT_BEGIN
 90
        0
 91
        1
 62
     0
 92
       -2
340
0
 93
        0
 40
0.045
309
GRIDFORMAT_END
 95
        2
302
GRIDFORMAT
  1
GRIDFORMAT_BEGIN
 90
        0
 91
        1
 62
     0
 92
       -2
340
0
 93
        0
 40
0.045
309
GRIDFORMAT_END
 95
        4
302
GRIDFORMAT
  1
GRIDFORMAT_BEGIN
 90
        0
 91
        1
 62
     0
 92
       -2
340
0
 93
        0
 40
0.045
309
GRIDFORMAT_END
 95
        8
302
GRIDFORMAT
  1
GRIDFORMAT_BEGIN
 90
        0
 91
        1
 62
     0
 92
       -2
340
0
 93
        0
 40
0.045
309
GRIDFORMAT_END
 95
       16
302
GRIDFORMAT
  1
GRIDFORMAT_BEGIN
 90
        0
 91
        1
 62
     0
 92
       -2
340
0
 93
        0
 40
0.045
309
GRIDFORMAT_END
 95
       32
302
GRIDFORMAT
  1
GRIDFORMAT_BEGIN
 90
        0
 91
        1
 62
     0
 92
       -2
340
0
 93
        0
 40
0.045
309
GRIDFORMAT_END
309
TABLEFORMAT_END
  1
CELLSTYLE_BEGIN
 90
        3
 91
        2
300
_DATA
309
CELLSTYLE_END
  0
ENDSEC
  0
EOF
