  0
SECTION
  2
HEADER
  9
$ACADVER
  1
AC1021
  9
$ACADMAINTVER
 70
    25
  9
$DWGCODEPAGE
  3
ANSI_936
  9
$LASTSAVEDBY
  1
14609
  9
$INSBASE
 10
0.0
 20
0.0
 30
0.0
  9
$EXTMIN
 10
531.0145825243231
 20
184.1768297936648
 30
0.0
  9
$EXTMAX
 10
679.5139576665757
 20
289.1768299845588
 30
0.0
  9
$LIMMIN
 10
0.0
 20
0.0
  9
$LIMMAX
 10
12.0
 20
9.0
  9
$ORTHOMODE
 70
     0
  9
$REGENMODE
 70
     1
  9
$FILLMODE
 70
     1
  9
$QTEXTMODE
 70
     0
  9
$MIRRTEXT
 70
     1
  9
$LTSCALE
 40
1.0
  9
$ATTMODE
 70
     1
  9
$TEXTSIZE
 40
0.2
  9
$TRACEWID
 40
0.05
  9
$TEXTSTYLE
  7
Standard
  9
$CLAYER
  8
DIM
  9
$CELTYPE
  6
ByLayer
  9
$CECOLOR
 62
   256
  9
$CELTSCALE
 40
1.0
  9
$DISPSILH
 70
     0
  9
$DIMSCALE
 40
1.0
  9
$DIMASZ
 40
1.5
  9
$DIMEXO
 40
0.2
  9
$DIMDLI
 40
0.2
  9
$DIMRND
 40
0.0
  9
$DIMDLE
 40
0.0
  9
$DIMEXE
 40
0.3
  9
$DIMTP
 40
0.0
  9
$DIMTM
 40
0.0
  9
$DIMTXT
 40
2.0
  9
$DIMCEN
 40
0.0
  9
$DIMTSZ
 40
0.0
  9
$DIMTOL
 70
     0
  9
$DIMLIM
 70
     0
  9
$DIMTIH
 70
     0
  9
$DIMTOH
 70
     0
  9
$DIMSE1
 70
     0
  9
$DIMSE2
 70
     0
  9
$DIMTAD
 70
     1
  9
$DIMZIN
 70
     8
  9
$DIMBLK
  1

  9
$DIMASO
 70
     1
  9
$DIMSHO
 70
     1
  9
$DIMPOST
  1

  9
$DIMAPOST
  1

  9
$DIMALT
 70
     0
  9
$DIMALTD
 70
     2
  9
$DIMALTF
 40
25.4
  9
$DIMLFAC
 40
1.0
  9
$DIMTOFL
 70
     0
  9
$DIMTVP
 40
0.0
  9
$DIMTIX
 70
     0
  9
$DIMSOXD
 70
     0
  9
$DIMSAH
 70
     0
  9
$DIMBLK1
  1

  9
$DIMBLK2
  1

  9
$DIMSTYLE
  2
01
  9
$DIMCLRD
 70
     1
  9
$DIMCLRE
 70
     6
  9
$DIMCLRT
 70
     4
  9
$DIMTFAC
 40
1.0
  9
$DIMGAP
 40
0.3
  9
$DIMJUST
 70
     0
  9
$DIMSD1
 70
     0
  9
$DIMSD2
 70
     0
  9
$DIMTOLJ
 70
     1
  9
$DIMTZIN
 70
     0
  9
$DIMALTZ
 70
     0
  9
$DIMALTTZ
 70
     0
  9
$DIMUPT
 70
     0
  9
$DIMDEC
 70
     1
  9
$DIMTDEC
 70
     1
  9
$DIMALTU
 70
     2
  9
$DIMALTTD
 70
     2
  9
$DIMTXSTY
  7
Romans字体
  9
$DIMAUNIT
 70
     0
  9
$DIMADEC
 70
     2
  9
$DIMALTRND
 40
0.0
  9
$DIMAZIN
 70
     2
  9
$DIMDSEP
 70
    46
  9
$DIMATFIT
 70
     3
  9
$DIMFRAC
 70
     0
  9
$DIMLDRBLK
  1

  9
$DIMLUNIT
 70
     2
  9
$DIMLWD
 70
    -2
  9
$DIMLWE
 70
    -2
  9
$DIMTMOVE
 70
     0
  9
$DIMFXL
 40
1.0
  9
$DIMFXLON
 70
     0
  9
$DIMJOGANG
 40
0.7853981633974483
  9
$DIMTFILL
 70
     0
  9
$DIMTFILLCLR
 70
     0
  9
$DIMARCSYM
 70
     0
  9
$DIMLTYPE
  6

  9
$DIMLTEX1
  6

  9
$DIMLTEX2
  6

  9
$LUNITS
 70
     2
  9
$LUPREC
 70
     4
  9
$SKETCHINC
 40
0.1
  9
$FILLETRAD
 40
0.5
  9
$AUNITS
 70
     0
  9
$AUPREC
 70
     0
  9
$MENU
  1
.
  9
$ELEVATION
 40
0.0
  9
$PELEVATION
 40
0.0
  9
$THICKNESS
 40
0.0
  9
$LIMCHECK
 70
     0
  9
$CHAMFERA
 40
0.5
  9
$CHAMFERB
 40
0.5
  9
$CHAMFERC
 40
1.0
  9
$CHAMFERD
 40
0.0
  9
$SKPOLY
 70
     0
  9
$TDCREATE
 40
2456524.383632987
  9
$TDUCREATE
 40
2456524.050299653
  9
$TDUPDATE
 40
2460346.562364375
  9
$TDUUPDATE
 40
2460346.229031042
  9
$TDINDWG
 40
1.5450654514
  9
$TDUSRTIMER
 40
1.5450429630
  9
$USRTIMER
 70
     1
  9
$ANGBASE
 50
0.0
  9
$ANGDIR
 70
     0
  9
$PDMODE
 70
     0
  9
$PDSIZE
 40
0.0
  9
$PLINEWID
 40
0.0
  9
$SPLFRAME
 70
     0
  9
$SPLINETYPE
 70
     6
  9
$SPLINESEGS
 70
     8
  9
$HANDSEED
  5
1C8D1
  9
$SURFTAB1
 70
     6
  9
$SURFTAB2
 70
     6
  9
$SURFTYPE
 70
     6
  9
$SURFU
 70
     6
  9
$SURFV
 70
     6
  9
$UCSBASE
  2

  9
$UCSNAME
  2

  9
$UCSORG
 10
0.0
 20
0.0
 30
0.0
  9
$UCSXDIR
 10
1.0
 20
0.0
 30
0.0
  9
$UCSYDIR
 10
0.0
 20
1.0
 30
0.0
  9
$UCSORTHOREF
  2

  9
$UCSORTHOVIEW
 70
     0
  9
$UCSORGTOP
 10
0.0
 20
0.0
 30
0.0
  9
$UCSORGBOTTOM
 10
0.0
 20
0.0
 30
0.0
  9
$UCSORGLEFT
 10
0.0
 20
0.0
 30
0.0
  9
$UCSORGRIGHT
 10
0.0
 20
0.0
 30
0.0
  9
$UCSORGFRONT
 10
0.0
 20
0.0
 30
0.0
  9
$UCSORGBACK
 10
0.0
 20
0.0
 30
0.0
  9
$PUCSBASE
  2

  9
$PUCSNAME
  2

  9
$PUCSORG
 10
0.0
 20
0.0
 30
0.0
  9
$PUCSXDIR
 10
1.0
 20
0.0
 30
0.0
  9
$PUCSYDIR
 10
0.0
 20
1.0
 30
0.0
  9
$PUCSORTHOREF
  2

  9
$PUCSORTHOVIEW
 70
     0
  9
$PUCSORGTOP
 10
0.0
 20
0.0
 30
0.0
  9
$PUCSORGBOTTOM
 10
0.0
 20
0.0
 30
0.0
  9
$PUCSORGLEFT
 10
0.0
 20
0.0
 30
0.0
  9
$PUCSORGRIGHT
 10
0.0
 20
0.0
 30
0.0
  9
$PUCSORGFRONT
 10
0.0
 20
0.0
 30
0.0
  9
$PUCSORGBACK
 10
0.0
 20
0.0
 30
0.0
  9
$USERI1
 70
     0
  9
$USERI2
 70
     0
  9
$USERI3
 70
     0
  9
$USERI4
 70
     0
  9
$USERI5
 70
     0
  9
$USERR1
 40
0.0
  9
$USERR2
 40
0.0
  9
$USERR3
 40
0.0
  9
$USERR4
 40
0.0
  9
$USERR5
 40
0.0
  9
$WORLDVIEW
 70
     1
  9
$SHADEDGE
 70
     3
  9
$SHADEDIF
 70
    70
  9
$TILEMODE
 70
     1
  9
$MAXACTVP
 70
    64
  9
$PINSBASE
 10
0.0
 20
0.0
 30
0.0
  9
$PLIMCHECK
 70
     0
  9
$PEXTMIN
 10
1.000000000000000E+20
 20
1.000000000000000E+20
 30
1.000000000000000E+20
  9
$PEXTMAX
 10
-1.000000000000000E+20
 20
-1.000000000000000E+20
 30
-1.000000000000000E+20
  9
$PLIMMIN
 10
0.0
 20
0.0
  9
$PLIMMAX
 10
12.0
 20
9.0
  9
$UNITMODE
 70
     0
  9
$VISRETAIN
 70
     1
  9
$PLINEGEN
 70
     0
  9
$PSLTSCALE
 70
     1
  9
$TREEDEPTH
 70
  3020
  9
$CMLSTYLE
  2
Standard
  9
$CMLJUST
 70
     0
  9
$CMLSCALE
 40
1.0
  9
$PROXYGRAPHICS
 70
     1
  9
$MEASUREMENT
 70
     0
  9
$CELWEIGHT
370
    -1
  9
$ENDCAPS
280
     0
  9
$JOINSTYLE
280
     0
  9
$LWDISPLAY
290
     0
  9
$INSUNITS
 70
     4
  9
$HYPERLINKBASE
  1

  9
$STYLESHEET
  1
MONOCHROME.CTB
  9
$XEDIT
290
     1
  9
$CEPSNTYPE
380
     0
  9
$PSTYLEMODE
290
     1
  9
$FINGERPRINTGUID
  2
{4A02065B-8BB3-4A96-9036-502DC906C165}
  9
$VERSIONGUID
  2
{1BA8FBE7-A87A-4247-BB1C-B47DC3D91EDA}
  9
$EXTNAMES
290
     1
  9
$PSVPSCALE
 40
0.0
  9
$OLESTARTUP
290
     0
  9
$SORTENTS
280
   127
  9
$INDEXCTL
280
     0
  9
$HIDETEXT
280
     0
  9
$XCLIPFRAME
290
     0
  9
$HALOGAP
280
     0
  9
$OBSCOLOR
 70
   257
  9
$OBSLTYPE
280
     0
  9
$INTERSECTIONDISPLAY
280
     0
  9
$INTERSECTIONCOLOR
 70
   257
  9
$DIMASSOC
280
     1
  9
$PROJECTNAME
  1

  9
$CAMERADISPLAY
290
     0
  9
$LENSLENGTH
 40
50.0
  9
$CAMERAHEIGHT
 40
0.0
  9
$STEPSPERSEC
 40
2.0
  9
$STEPSIZE
 40
6.0
  9
$3DDWFPREC
 40
2.0
  9
$PSOLWIDTH
 40
0.25
  9
$PSOLHEIGHT
 40
4.0
  9
$LOFTANG1
 40
1.570796326794896
  9
$LOFTANG2
 40
1.570796326794896
  9
$LOFTMAG1
 40
0.0
  9
$LOFTMAG2
 40
0.0
  9
$LOFTPARAM
 70
     7
  9
$LOFTNORMALS
280
     1
  9
$LATITUDE
 40
37.795
  9
$LONGITUDE
 40
-122.394
  9
$NORTHDIRECTION
 40
0.0
  9
$TIMEZONE
 70
 -8000
  9
$LIGHTGLYPHDISPLAY
280
     1
  9
$TILEMODELIGHTSYNCH
280
     1
  9
$CMATERIAL
347
4FE6
  9
$SOLIDHIST
280
     1
  9
$SHOWHIST
280
     1
  9
$DWFFRAME
280
     2
  9
$DGNFRAME
280
     0
  9
$REALWORLDSCALE
290
     1
  9
$INTERFERECOLOR
 62
     1
  9
$INTERFEREOBJVS
345
33
  9
$INTERFEREVPVS
346
30
  9
$CSHADOW
280
     0
  9
$SHADOWPLANELOCATION
 40
0.0
  0
ENDSEC
  0
SECTION
  2
CLASSES
  0
CLASS
  1
ACDBDICTIONARYWDFLT
  2
AcDbDictionaryWithDefault
  3
ObjectDBX Classes
 90
        0
 91
        1
280
     0
281
     0
  0
CLASS
  1
VISUALSTYLE
  2
AcDbVisualStyle
  3
ObjectDBX Classes
 90
     4095
 91
       16
280
     0
281
     0
  0
CLASS
  1
MATERIAL
  2
AcDbMaterial
  3
ObjectDBX Classes
 90
     1153
 91
        3
280
     0
281
     0
  0
CLASS
  1
TABLESTYLE
  2
AcDbTableStyle
  3
ObjectDBX Classes
 90
     4095
 91
        1
280
     0
281
     0
  0
CLASS
  1
SCALE
  2
AcDbScale
  3
ObjectDBX Classes
 90
     1153
 91
       33
280
     0
281
     0
  0
CLASS
  1
MLEADERSTYLE
  2
AcDbMLeaderStyle
  3
ACDB_MLEADERSTYLE_CLASS
 90
     4095
 91
        1
280
     0
281
     0
  0
CLASS
  1
CELLSTYLEMAP
  2
AcDbCellStyleMap
  3
ObjectDBX Classes
 90
     1152
 91
        2
280
     0
281
     0
  0
CLASS
  1
DICTIONARYVAR
  2
AcDbDictionaryVar
  3
ObjectDBX Classes
 90
        0
 91
        8
280
     0
281
     0
  0
CLASS
  1
SORTENTSTABLE
  2
AcDbSortentsTable
  3
ObjectDBX Classes
 90
        0
 91
        1
280
     0
281
     0
  0
CLASS
  1
ACAD_EVALUATION_GRAPH
  2
AcDbEvalGraph
  3
ObjectDBX Classes
 90
     1153
 91
        0
280
     0
281
     0
  0
CLASS
  1
ACAECUSTOBJ
  2
AcAeEditorObj
  3
AcAeEditorObj
 90
     1024
 91
        0
280
     0
281
     0
  0
CLASS
  1
ACDB_DYNAMICBLOCKPURGEPREVENTER_VERSION
  2
AcDbDynamicBlockPurgePreventer
  3
ObjectDBX Classes
 90
     1153
 91
        0
280
     0
281
     0
  0
CLASS
  1
MENTALRAYRENDERSETTINGS
  2
AcDbMentalRayRenderSettings
  3
SCENEOE
 90
     1024
 91
        1
280
     0
281
     0
  0
CLASS
  1
ACDB_BLOCKREPRESENTATION_DATA
  2
AcDbBlockRepresentationData
  3
ObjectDBX Classes
 90
     1153
 91
        0
280
     0
281
     0
  0
CLASS
  1
DIMASSOC
  2
AcDbDimAssoc
  3
"AcDbDimAssoc|Product Desc:     AcDim ARX App For Dimension|Company:          Autodesk, Inc.|WEB Address:      www.autodesk.com"
 90
        0
 91
        7
280
     0
281
     0
  0
ENDSEC
  0
SECTION
  2
TABLES
  0
TABLE
  2
VPORT
  5
8
102
{ACAD_XDICTIONARY
360
50EE
102
}
330
0
100
AcDbSymbolTable
 70
     1
  0
VPORT
  5
29
330
8
100
AcDbSymbolTableRecord
100
AcDbViewportTableRecord
  2
*Active
 70
     0
 10
0.0
 20
0.0
 11
1.0
 21
1.0
 12
524.6349670185772
 22
85.39078962810204
 13
0.0
 23
0.0
 14
0.5
 24
0.5
 15
0.5
 25
0.5
 16
0.0
 26
0.0
 36
1.0
 17
104.9654968719086
 27
148.5022307685978
 37
0.0
 40
118.1392205191901
 41
1.967136150234741
 42
50.0
 43
0.0
 44
0.0
 50
0.0
 51
0.0
 71
     0
 72
   100
 73
     1
 74
     3
 75
     0
 76
     0
 77
     0
 78
     0
281
     0
 65
     1
110
0.0
120
0.0
130
0.0
111
1.0
121
0.0
131
0.0
112
0.0
122
1.0
132
0.0
 79
     0
146
0.0
348
2F
 60
     3
 61
     5
292
     1
282
     1
141
0.0
142
0.0
 63
   250
421
  3355443
  0
ENDTAB
  0
TABLE
  2
LTYPE
  5
5
330
0
100
AcDbSymbolTable
 70
     2
  0
LTYPE
  5
14
330
5
100
AcDbSymbolTableRecord
100
AcDbLinetypeTableRecord
  2
ByBlock
 70
     0
  3

 72
    65
 73
     0
 40
0.0
  0
LTYPE
  5
15
330
5
100
AcDbSymbolTableRecord
100
AcDbLinetypeTableRecord
  2
ByLayer
 70
     0
  3

 72
    65
 73
     0
 40
0.0
  0
LTYPE
  5
16
330
5
100
AcDbSymbolTableRecord
100
AcDbLinetypeTableRecord
  2
Continuous
 70
     0
  3
Solid line
 72
    65
 73
     0
 40
0.0
  0
LTYPE
  5
16179
330
5
100
AcDbSymbolTableRecord
100
AcDbLinetypeTableRecord
  2
CENTERX2
 70
     0
  3
Center (2x) ________  __  ________  __  _____
 72
    65
 73
     4
 40
4.0
 49
2.5
 74
     0
 49
-0.5
 74
     0
 49
0.5
 74
     0
 49
-0.5
 74
     0
  0
ENDTAB
  0
TABLE
  2
LAYER
  5
2
102
{ACAD_XDICTIONARY
360
50B8
102
}
330
0
100
AcDbSymbolTable
 70
     8
  0
LAYER
  5
10
102
{ACAD_XDICTIONARY
360
50D0
102
}
330
2
100
AcDbSymbolTableRecord
100
AcDbLayerTableRecord
  2
0
 70
     0
 62
     7
  6
Continuous
370
    30
390
F
347
4FF6
  0
LAYER
  5
3B
102
{ACAD_XDICTIONARY
360
50D2
102
}
330
2
100
AcDbSymbolTableRecord
100
AcDbLayerTableRecord
  2
图层 1
 70
     0
 62
     7
  6
Continuous
370
    -3
390
F
347
4FF6
  0
LAYER
  5
50AE
102
{ACAD_XDICTIONARY
360
50AF
102
}
330
2
100
AcDbSymbolTableRecord
100
AcDbLayerTableRecord
  2
图框
 70
     0
 62
     7
  6
Continuous
370
    20
390
F
347
4FF6
  0
LAYER
  5
5141
330
2
100
AcDbSymbolTableRecord
100
AcDbLayerTableRecord
  2
Defpoints
 70
     0
 62
     7
  6
Continuous
290
     0
370
    -3
390
F
347
4FF6
  0
LAYER
  5
5144
330
2
100
AcDbSymbolTableRecord
100
AcDbLayerTableRecord
  2
DIM
 70
     0
 62
     3
  6
Continuous
370
    15
390
F
347
4FF6
1001
AcAecLayerStandard
1000

1000

  0
LAYER
  5
52F3
330
2
100
AcDbSymbolTableRecord
100
AcDbLayerTableRecord
  2
打标文字
 70
     0
 62
     3
  6
Continuous
370
    20
390
F
347
4FF6
  0
LAYER
  5
11B6B
330
2
100
AcDbSymbolTableRecord
100
AcDbLayerTableRecord
  2
hat
 70
     0
 62
     6
  6
Continuous
370
    15
390
F
347
4FF6
1001
AcAecLayerStandard
1000

1000

  0
LAYER
  5
1BBEF
330
2
100
AcDbSymbolTableRecord
100
AcDbLayerTableRecord
  2
2
 70
     0
 62
     7
  6
Continuous
370
    -3
390
F
347
4FF6
  0
ENDTAB
  0
TABLE
  2
STYLE
  5
3
330
0
100
AcDbSymbolTable
 70
     4
  0
STYLE
  5
11
330
3
100
AcDbSymbolTableRecord
100
AcDbTextStyleTableRecord
  2
Standard
 70
     0
 40
0.0
 41
0.75
 50
0.0
 71
     0
 42
0.2
  3

  4

1001
ACAD
1000
仿宋_GB2312
1071
    34353
  0
STYLE
  5
FD48
330
3
100
AcDbSymbolTableRecord
100
AcDbTextStyleTableRecord
  2
Romans字体
 70
     0
 40
0.0
 41
0.75
 50
0.0
 71
     0
 42
0.2
  3
romans.shx
  4

  0
STYLE
  5
11080
330
3
100
AcDbSymbolTableRecord
100
AcDbTextStyleTableRecord
  2
工程字
 70
     0
 40
0.0
 41
1.0
 50
0.0
 71
     0
 42
3.5
  3
gbenor.shx
  4
gbcbig.shx
  0
STYLE
  5
11081
330
3
100
AcDbSymbolTableRecord
100
AcDbTextStyleTableRecord
  2
Chinese
 70
     0
 40
0.0
 41
1.0
 50
0.0
 71
     0
 42
2.5
  3

  4

1001
ACAD
1000
PMingLiU
1071
    34834
  0
ENDTAB
  0
TABLE
  2
VIEW
  5
6
330
0
100
AcDbSymbolTable
 70
     0
  0
ENDTAB
  0
TABLE
  2
UCS
  5
7
330
0
100
AcDbSymbolTable
 70
     0
  0
ENDTAB
  0
TABLE
  2
APPID
  5
9
330
0
100
AcDbSymbolTable
 70
    19
  0
APPID
  5
12
330
9
100
AcDbSymbolTableRecord
100
AcDbRegAppTableRecord
  2
ACAD
 70
     0
  0
APPID
  5
5024
330
9
100
AcDbSymbolTableRecord
100
AcDbRegAppTableRecord
  2
ACAD_MLEADERVER
 70
     0
  0
APPID
  5
50B5
330
9
100
AcDbSymbolTableRecord
100
AcDbRegAppTableRecord
  2
AcDbDynamicBlockGUID
 70
     0
  0
APPID
  5
50B6
330
9
100
AcDbSymbolTableRecord
100
AcDbRegAppTableRecord
  2
AcDbBlockRepETag
 70
     0
  0
APPID
  5
50B7
330
9
100
AcDbSymbolTableRecord
100
AcDbRegAppTableRecord
  2
ACAD_PSEXT
 70
     0
  0
APPID
  5
50CF
330
9
100
AcDbSymbolTableRecord
100
AcDbRegAppTableRecord
  2
AcadAnnoPO
 70
     0
  0
APPID
  5
5146
330
9
100
AcDbSymbolTableRecord
100
AcDbRegAppTableRecord
  2
AcAecLayerStandard
 70
     0
  0
APPID
  5
5147
330
9
100
AcDbSymbolTableRecord
100
AcDbRegAppTableRecord
  2
ACAD_DSTYLE_DIMJAG
 70
     0
  0
APPID
  5
5148
330
9
100
AcDbSymbolTableRecord
100
AcDbRegAppTableRecord
  2
ACAD_DSTYLE_DIMTALN
 70
     0
  0
APPID
  5
52AD
330
9
100
AcDbSymbolTableRecord
100
AcDbRegAppTableRecord
  2
ACAUTHENVIRON
 70
     0
  0
APPID
  5
52B0
330
9
100
AcDbSymbolTableRecord
100
AcDbRegAppTableRecord
  2
AcDbDynamicBlockTrueName
 70
     0
  0
APPID
  5
67C6
330
9
100
AcDbSymbolTableRecord
100
AcDbRegAppTableRecord
  2
ACAD_EXEMPT_FROM_CAD_STANDARDS
 70
     0
  0
APPID
  5
6838
330
9
100
AcDbSymbolTableRecord
100
AcDbRegAppTableRecord
  2
ACAD_NAV_VCDISPLAY
 70
     0
  0
APPID
  5
70A9
330
9
100
AcDbSymbolTableRecord
100
AcDbRegAppTableRecord
  2
DCO15
 70
     0
  0
APPID
  5
8725
330
9
100
AcDbSymbolTableRecord
100
AcDbRegAppTableRecord
  2
AcDbBlockRepBTag
 70
     0
  0
APPID
  5
FE64
330
9
100
AcDbSymbolTableRecord
100
AcDbRegAppTableRecord
  2
ACAD_DSTYLE_DIMRADIAL_EXTENSION
 70
     0
  0
APPID
  5
FF93
330
9
100
AcDbSymbolTableRecord
100
AcDbRegAppTableRecord
  2
ACAD_DSTYLE_DIMBREAK
 70
     0
  0
APPID
  5
15463
330
9
100
AcDbSymbolTableRecord
100
AcDbRegAppTableRecord
  2
ACAD_DSTYLE_DIMINSPECT
 70
     0
  0
APPID
  5
1BBF2
330
9
100
AcDbSymbolTableRecord
100
AcDbRegAppTableRecord
  2
AcadAnnotative
 70
     0
  0
ENDTAB
  0
TABLE
  2
DIMSTYLE
  5
A
330
0
100
AcDbSymbolTable
 70
     2
100
AcDbDimStyleTable
 71
     2
340
5145
340
27
  0
DIMSTYLE
105
27
330
A
100
AcDbSymbolTableRecord
100
AcDbDimStyleTableRecord
  2
Standard
 70
     0
340
11
  0
DIMSTYLE
105
5145
102
{ACAD_REACTORS
330
1C5C2
330
1C5C5
330
1C5C8
330
1C5CE
330
1C5D1
330
1C5D4
330
1C5D7
330
1C5CB
102
}
330
A
100
AcDbSymbolTableRecord
100
AcDbDimStyleTableRecord
  2
01
 70
     0
 41
1.5
 42
0.2
 43
0.2
 44
0.3
 73
     0
 74
     0
 77
     1
 78
     8
 79
     2
140
2.0
141
0.0
147
0.3
176
     1
177
     6
178
     4
179
     2
271
     1
272
     1
340
FD48
1001
ACAD_DSTYLE_DIMJAG
1070
   388
1040
1.5
1001
ACAD_DSTYLE_DIMTALN
1070
   392
1070
     0
  0
ENDTAB
  0
TABLE
  2
BLOCK_RECORD
  5
1
330
0
100
AcDbSymbolTable
 70
    11
  0
BLOCK_RECORD
  5
1F
102
{ACAD_XDICTIONARY
360
67C0
102
}
330
1
100
AcDbSymbolTableRecord
100
AcDbBlockTableRecord
  2
*Model_Space
340
22
 70
     0
280
     1
281
     0
  0
BLOCK_RECORD
  5
1B
330
1
100
AcDbSymbolTableRecord
100
AcDbBlockTableRecord
  2
*Paper_Space
340
1E
 70
     0
280
     1
281
     0
  0
BLOCK_RECORD
  5
23
330
1
100
AcDbSymbolTableRecord
100
AcDbBlockTableRecord
  2
*Paper_Space0
340
26
 70
     0
280
     1
281
     0
  0
BLOCK_RECORD
  5
13E17
102
{ACAD_XDICTIONARY
360
1C84E
102
}
330
1
100
AcDbSymbolTableRecord
100
AcDbBlockTableRecord
  2
A4图框-NEW
340
0
310
2800000020000000200000000100080000000000000400000000000000000000000000000000000000000000000080000080000000808000800000008000800080800000C0C0C000C0DCC000F0CAA6000020400000206000002080000020A0000020C0000020E00000400000004020000040400000406000004080000040A0
310
000040C0000040E00000600000006020000060400000606000006080000060A0000060C0000060E00000800000008020000080400000806000008080000080A0000080C0000080E00000A0000000A0200000A0400000A0600000A0800000A0A00000A0C00000A0E00000C0000000C0200000C0400000C0600000C0800000C0
310
A00000C0C00000C0E00000E0000000E0200000E0400000E0600000E0800000E0A00000E0C00000E0E00040000000400020004000400040006000400080004000A0004000C0004000E00040200000402020004020400040206000402080004020A0004020C0004020E000404000004040200040404000404060004040800040
310
40A0004040C0004040E00040600000406020004060400040606000406080004060A0004060C0004060E00040800000408020004080400040806000408080004080A0004080C0004080E00040A0000040A0200040A0400040A0600040A0800040A0A00040A0C00040A0E00040C0000040C0200040C0400040C0600040C08000
310
40C0A00040C0C00040C0E00040E0000040E0200040E0400040E0600040E0800040E0A00040E0C00040E0E00080000000800020008000400080006000800080008000A0008000C0008000E00080200000802020008020400080206000802080008020A0008020C0008020E00080400000804020008040400080406000804080
310
008040A0008040C0008040E00080600000806020008060400080606000806080008060A0008060C0008060E00080800000808020008080400080806000808080008080A0008080C0008080E00080A0000080A0200080A0400080A0600080A0800080A0A00080A0C00080A0E00080C0000080C0200080C0400080C0600080C0
310
800080C0A00080C0C00080C0E00080E0000080E0200080E0400080E0600080E0800080E0A00080E0C00080E0E000C0000000C0002000C0004000C0006000C0008000C000A000C000C000C000E000C0200000C0202000C0204000C0206000C0208000C020A000C020C000C020E000C0400000C0402000C0404000C0406000C0
310
408000C040A000C040C000C040E000C0600000C0602000C0604000C0606000C0608000C060A000C060C000C060E000C0800000C0802000C0804000C0806000C0808000C080A000C080C000C080E000C0A00000C0A02000C0A04000C0A06000C0A08000C0A0A000C0A0C000C0A0E000C0C00000C0C02000C0C04000C0C06000
310
C0C08000C0C0A000F0FBFF00A4A0A000808080000000FF0000FF000000FFFF00FF000000FF00FF00FFFF0000FFFFFF0000000000000000000000000000000000000000000000000000000000000000000000000000000000000000000000000000000000000000000000000000000000000000000000000000000000000000
310
000000000000000000000000000000000000000000000000000000000000000000000000000000000000000000000000000000000000000000000000000000000000000000000000000000000000000000000000000000000000000000000000000000000000000000000000000000000000F9F9F9F9F9F9F9F9F9F9F9F9F9
310
F9F9F9F9F9F9F9F9F9F9F9F9F9F9FF00000000F9FF000000000000000000FFFFFFFFFFFFFFFFFFFFFFFFF9FAFAFAFF00000000F9FF000000000000000000FFFFFFFFFFFFFFFFFFFFFFFFFFFFFFFFFF00000000F9FD000000000000000000FFFFFFFFFFFFFFFFFFFFFFFFFFFFFFFFFF00000000F9FF000000000000000000FF
310
FFFFFFFFFFFFFFFFFFFFFFFFFFFFFFFF00000000F9FD000000000000000000FFFFFFFFFFFFFFFFFFFFFFFFFFFFFFFFFF00000000F9FF00000000000000000000000000000000000000000000000000FF00000000F9FD00000000000000000000000000000000000000000000000000FF00000000F9FF000000000000000000
310
00000000000000000000000000000000FF00000000F9FD00000000000000000000000000000000000000000000000000FF00000000F9FF00000000000000000000000000000000000000000000000000FF00000000F9FD00000000000000000000000000000000000000000000000000FF00000000F9FD0000000000000000
310
0000000000000000000000000000000000FF00000000F9FF00000000000000000000000000000000000000000000000000FF00000000F9FD00000000000000000000000000000000000000000000000000FF00000000F9FF00000000000000000000000000000000000000000000000000FF00000000F9FD00000000000000
310
000000000000000000000000000000000000FF00000000F9FF00000000000000000000000000000000000000000000000000FF00000000F9FFFFFFFFFFFFFFFFFFFFFFFFFFFFFFFFFFFFFFFFFFFFFFFFFFFFFF00000000F9FFFFFFF9F9F9F9F9F9F9F9F9F9F9F9F9F9F9F9F9F9F9F9F9F9F9F9000000000000000000000000
310
00000000000000000000000000000000000000000000000000000000000000000000000000000000000000000000000000000000000000000000000000000000000000000000000000000000000000000000000000000000000000000000000000000000000000000000000000000000000000000000000000000000000000
310
0000000000000000000000000000000000000000000000000000000000000000000000000000000000000000000000000000000000000000
102
{BLKREFS
331
1556A
102
}
 70
     4
280
     1
281
     0
1001
AcDbDynamicBlockGUID
1000
{87AA557F-98A8-4103-8341-55622E2CC258}
1001
AcDbBlockRepETag
1070
     1
1071
      149
  0
BLOCK_RECORD
  5
1C427
330
1
100
AcDbSymbolTableRecord
100
AcDbBlockTableRecord
  2
*X2
340
0
102
{BLKREFS
331
1C56C
102
}
 70
     0
280
     1
281
     0
  0
BLOCK_RECORD
  5
1C5DF
330
1
100
AcDbSymbolTableRecord
100
AcDbBlockTableRecord
  2
*D3
340
0
 70
     0
280
     1
281
     0
  0
BLOCK_RECORD
  5
1C5EB
330
1
100
AcDbSymbolTableRecord
100
AcDbBlockTableRecord
  2
*D4
340
0
 70
     0
280
     1
281
     0
  0
BLOCK_RECORD
  5
1C5F7
330
1
100
AcDbSymbolTableRecord
100
AcDbBlockTableRecord
  2
*D5
340
0
 70
     0
280
     1
281
     0
  0
BLOCK_RECORD
  5
1C603
330
1
100
AcDbSymbolTableRecord
100
AcDbBlockTableRecord
  2
*D6
340
0
 70
     0
280
     1
281
     0
  0
BLOCK_RECORD
  5
1C60F
330
1
100
AcDbSymbolTableRecord
100
AcDbBlockTableRecord
  2
*D7
340
0
 70
     0
280
     1
281
     0
  0
BLOCK_RECORD
  5
1C61B
330
1
100
AcDbSymbolTableRecord
100
AcDbBlockTableRecord
  2
*D8
340
0
 70
     0
280
     1
281
     0
  0
BLOCK_RECORD
  5
1C627
330
1
100
AcDbSymbolTableRecord
100
AcDbBlockTableRecord
  2
*D9
340
0
 70
     0
280
     1
281
     0
  0
BLOCK_RECORD
  5
1C633
330
1
100
AcDbSymbolTableRecord
100
AcDbBlockTableRecord
  2
*D10
340
0
 70
     0
280
     1
281
     0
  0
ENDTAB
  0
ENDSEC
  0
SECTION
  2
BLOCKS
  0
BLOCK
  5
20
330
1F
100
AcDbEntity
  8
0
100
AcDbBlockBegin
  2
*Model_Space
 70
     0
 10
0.0
 20
0.0
 30
0.0
  3
*Model_Space
  1

  0
ENDBLK
  5
21
330
1F
100
AcDbEntity
  8
0
100
AcDbBlockEnd
  0
BLOCK
  5
1C
330
1B
100
AcDbEntity
 67
     1
  8
0
100
AcDbBlockBegin
  2
*Paper_Space
 70
     0
 10
0.0
 20
0.0
 30
0.0
  3
*Paper_Space
  1

  0
ENDBLK
  5
1D
330
1B
100
AcDbEntity
 67
     1
  8
0
100
AcDbBlockEnd
  0
BLOCK
  5
24
330
23
100
AcDbEntity
 67
     1
  8
0
100
AcDbBlockBegin
  2
*Paper_Space0
 70
     0
 10
0.0
 20
0.0
 30
0.0
  3
*Paper_Space0
  1

  0
ENDBLK
  5
25
330
23
100
AcDbEntity
 67
     1
  8
0
100
AcDbBlockEnd
  0
BLOCK
  5
13E19
330
13E17
100
AcDbEntity
  8
0
100
AcDbBlockBegin
  2
A4图框-NEW
 70
     0
 10
0.0
 20
0.0
 30
0.0
  3
A4图框-NEW
  1

  0
MTEXT
  5
1C7B9
102
{ACAD_XDICTIONARY
360
1C8B9
102
}
330
13E17
100
AcDbEntity
  8
图框
 62
     3
100
AcDbMText
 10
967.6594956750133
 20
499.7664151964293
 30
0.0
 40
2.985513575034151
 41
15.50176341157864
 46
6.292658374511018
 71
     5
 72
     5
  1
BQ LUO
  7
Romans字体
 73
     1
 44
1.0
1001
AcDbBlockRepETag
1070
     1
1071
        0
1005
1C7B9
1001
ACAD
1000
ACAD_MTEXT_DEFINED_HEIGHT_BEGIN
1070
    46
1040
6.292658374511018
1000
ACAD_MTEXT_DEFINED_HEIGHT_END
  0
MTEXT
  5
1C7BA
330
13E17
100
AcDbEntity
  8
图框
 62
     3
100
AcDbMText
 10
983.041569333247
 20
499.7664151964293
 30
0.0
 40
2.487927979195124
 41
15.26238390489062
 46
6.292658374511042
 71
     5
 72
     5
  1
{\W0.7;18.10.2010}
  7
Romans字体
 73
     1
 44
1.0
1001
AcDbBlockRepETag
1070
     1
1071
        1
1005
1C7BA
1001
ACAD
1000
ACAD_MTEXT_DEFINED_HEIGHT_BEGIN
1070
    46
1040
6.292658374511042
1000
ACAD_MTEXT_DEFINED_HEIGHT_END
  0
MTEXT
  5
1C7BB
330
13E17
100
AcDbEntity
  8
图框
 62
     3
100
AcDbMText
 10
1012.477254728976
 20
487.1810984474071
 30
0.0
 40
2.985513575034151
 41
17.64876416884615
 46
6.292658374511455
 71
     5
 72
     5
  1
YY LIN
  7
Romans字体
 73
     1
 44
1.0
1001
AcDbBlockRepETag
1070
     1
1071
        2
1005
1C7BB
1001
ACAD
1000
ACAD_MTEXT_DEFINED_HEIGHT_BEGIN
1070
    46
1040
6.292658374511455
1000
ACAD_MTEXT_DEFINED_HEIGHT_END
  0
MTEXT
  5
1C7BC
330
13E17
100
AcDbEntity
  8
图框
 62
     3
100
AcDbMText
 10
1028.977802139886
 20
487.1810984474071
 30
0.0
 40
2.487927979195124
 41
15.35233065297276
 46
6.292658374511495
 71
     5
 72
     5
  1
{\W0.7;18.10.2010}
  7
Romans字体
 73
     1
 44
1.0
1001
AcDbBlockRepETag
1070
     1
1071
        3
1005
1C7BC
1001
ACAD
1000
ACAD_MTEXT_DEFINED_HEIGHT_BEGIN
1070
    46
1040
6.292658374511495
1000
ACAD_MTEXT_DEFINED_HEIGHT_END
  0
MTEXT
  5
1C7BD
330
13E17
100
AcDbEntity
  8
图框
 62
     3
100
AcDbMText
 10
1063.722665487208
 20
525.4145966538831
 30
0.0
 40
2.985513575034151
 41
32.4973914334545
 46
11.82914190181707
 71
     5
 72
     5
  1
-
  7
Romans字体
 73
     1
 44
1.0
1001
AcDbBlockRepETag
1070
     1
1071
        4
1005
1C7BD
1001
ACAD
1000
ACAD_MTEXT_DEFINED_HEIGHT_BEGIN
1070
    46
1040
11.82914190181707
1000
ACAD_MTEXT_DEFINED_HEIGHT_END
  0
MTEXT
  5
1C7BE
330
13E17
100
AcDbEntity
  8
图框
 62
     3
100
AcDbMText
 10
1063.727338552349
 20
513.5854547520641
 30
0.0
 40
2.985513575034151
 41
32.48804530317308
 46
11.82914190182139
 71
     5
 72
     5
  1
-
  7
Romans字体
 73
     1
 44
1.0
1001
AcDbBlockRepETag
1070
     1
1071
        5
1005
1C7BE
1001
ACAD
1000
ACAD_MTEXT_DEFINED_HEIGHT_BEGIN
1070
    46
1040
11.82914190182139
1000
ACAD_MTEXT_DEFINED_HEIGHT_END
  0
MTEXT
  5
1C7BF
330
13E17
100
AcDbEntity
  8
图框
 62
     3
100
AcDbMText
 10
1110.122306614152
 20
526.8006839312707
 30
0.0
 40
2.985513575034151
 41
33.61239199242139
 46
9.05696734704178
 71
     5
 72
     5
  1
-
  7
Romans字体
 73
     1
 44
1.0
1001
AcDbBlockRepETag
1070
     1
1071
        6
1005
1C7BF
1001
ACAD
1000
ACAD_MTEXT_DEFINED_HEIGHT_BEGIN
1070
    46
1040
9.05696734704178
1000
ACAD_MTEXT_DEFINED_HEIGHT_END
  0
MTEXT
  5
1C7C0
330
13E17
100
AcDbEntity
  8
图框
 62
     3
100
AcDbMText
 10
1110.122306614152
 20
500.2775205517162
 30
0.0
 40
2.985513575034151
 41
33.61239199242139
 46
8.871557304763419
 71
     5
 72
     5
  1
-
  7
Romans字体
 73
     1
 44
1.0
1001
AcDbBlockRepETag
1070
     1
1071
        7
1005
1C7C0
1001
ACAD
1000
ACAD_MTEXT_DEFINED_HEIGHT_BEGIN
1070
    46
1040
8.871557304763419
1000
ACAD_MTEXT_DEFINED_HEIGHT_END
  0
MTEXT
  5
1C7C1
330
13E17
100
AcDbEntity
  8
图框
 62
     3
100
AcDbMText
 10
967.6594956750133
 20
493.4737568219182
 30
0.0
 40
2.985513575034151
 41
15.50176341157864
 46
6.292658374510335
 71
     5
 72
     5
  1
P RAO
  7
Romans字体
 73
     1
 44
1.0
1001
AcDbBlockRepETag
1070
     1
1071
        8
1005
1C7C1
1001
ACAD
1000
ACAD_MTEXT_DEFINED_HEIGHT_BEGIN
1070
    46
1040
6.292658374510335
1000
ACAD_MTEXT_DEFINED_HEIGHT_END
  0
MTEXT
  5
1C7C2
330
13E17
100
AcDbEntity
  8
图框
 62
     3
100
AcDbMText
 10
983.041569333247
 20
493.2441970450405
 30
0.0
 40
2.487927979195124
 41
15.26238390489051
 46
6.751777928266487
 71
     5
 72
     5
  1
{\W0.7;18.10.2010}
  7
Romans字体
 73
     1
 44
1.0
1001
AcDbBlockRepETag
1070
     1
1071
        9
1005
1C7C2
1001
ACAD
1000
ACAD_MTEXT_DEFINED_HEIGHT_BEGIN
1070
    46
1040
6.751777928266487
1000
ACAD_MTEXT_DEFINED_HEIGHT_END
  0
MTEXT
  5
1C7C3
330
13E17
100
AcDbEntity
  8
图框
 62
     3
100
AcDbMText
 10
1012.477254728976
 20
499.7664151964291
 30
0.0
 40
2.985513575034151
 41
17.64876416884615
 46
6.292658374511397
 71
     5
 72
     5
  1
-
  7
Romans字体
 73
     1
 44
1.0
1001
AcDbBlockRepETag
1070
     1
1071
       10
1005
1C7C3
1001
ACAD
1000
ACAD_MTEXT_DEFINED_HEIGHT_BEGIN
1070
    46
1040
6.292658374511397
1000
ACAD_MTEXT_DEFINED_HEIGHT_END
  0
MTEXT
  5
1C7C4
330
13E17
100
AcDbEntity
  8
图框
 62
     3
100
AcDbMText
 10
1028.977802139886
 20
499.7664151964289
 30
0.0
 40
2.487927979195124
 41
15.35233065297265
 46
6.292658374511382
 71
     5
 72
     5
  1
-
  7
Romans字体
 73
     1
 44
1.0
1001
AcDbBlockRepETag
1070
     1
1071
       11
1005
1C7C4
1001
ACAD
1000
ACAD_MTEXT_DEFINED_HEIGHT_BEGIN
1070
    46
1040
6.292658374511382
1000
ACAD_MTEXT_DEFINED_HEIGHT_END
  0
MTEXT
  5
1C7C5
330
13E17
100
AcDbEntity
  8
图框
 62
     3
100
AcDbMText
 10
967.6594956750133
 20
487.1810984474071
 30
0.0
 40
2.985513575034151
 41
15.50176341157863
 46
6.292658374511478
 71
     5
 72
     5
  1
-
  7
Romans字体
 73
     1
 44
1.0
1001
AcDbBlockRepETag
1070
     1
1071
       12
1005
1C7C5
1001
ACAD
1000
ACAD_MTEXT_DEFINED_HEIGHT_BEGIN
1070
    46
1040
6.292658374511478
1000
ACAD_MTEXT_DEFINED_HEIGHT_END
  0
MTEXT
  5
1C7C6
330
13E17
100
AcDbEntity
  8
图框
 62
     3
100
AcDbMText
 10
983.041569333247
 20
487.1810984474071
 30
0.0
 40
2.487927979195124
 41
15.26238390489062
 46
6.292658374511495
 71
     5
 72
     5
  1
-
  7
Romans字体
 73
     1
 44
1.0
1001
AcDbBlockRepETag
1070
     1
1071
       13
1005
1C7C6
1001
ACAD
1000
ACAD_MTEXT_DEFINED_HEIGHT_BEGIN
1070
    46
1040
6.292658374511495
1000
ACAD_MTEXT_DEFINED_HEIGHT_END
  0
MTEXT
  5
1C7C7
330
13E17
100
AcDbEntity
  8
图框
 62
     3
100
AcDbMText
 10
1074.556686986741
 20
495.8417418993361
 30
0.0
 40
2.985513575034151
 41
10.82934843438978
 46
7.886094601210427
 71
     5
 72
     5
  1
-
  7
Romans字体
 73
     1
 44
1.0
1001
AcDbBlockRepETag
1070
     1
1071
       14
1005
1C7C7
1001
ACAD
1000
ACAD_MTEXT_DEFINED_HEIGHT_BEGIN
1070
    46
1040
7.886094601210427
1000
ACAD_MTEXT_DEFINED_HEIGHT_END
  0
LINE
  5
1C7C8
330
13E17
100
AcDbEntity
  8
图框
370
    -3
100
AcDbLine
 10
1036.653967466372
 20
499.7847891999413
 30
0.0
 11
1079.971361203936
 21
499.7847891999413
 31
0.0
1001
AcDbBlockRepETag
1070
     1
1071
       15
1005
1C7C8
  0
MTEXT
  5
1C7C9
330
13E17
100
AcDbEntity
  8
图框
 62
     1
370
    20
100
AcDbMText
 10
1108.26336443907
 20
491.5162596080882
 30
0.0
 40
2.699054613030988
 41
82.30831305643079
 46
0.0
 71
     5
 72
     5
  1
{\fSimHei|b0|i0|c134|p2;厦门唯恩电气有限公司}
 73
     1
 44
1.0
1001
AcDbBlockRepETag
1070
     1
1071
       16
1005
1C7C9
  0
MTEXT
  5
1C7CA
330
13E17
100
AcDbEntity
  8
图框
 62
     3
370
    20
100
AcDbMText
 10
1108.435451459908
 20
487.298967726064
 30
0.0
 40
1.652482416141417
 41
68.08558693693567
 46
0.0
 71
     5
 72
     5
  1
{\fArial Narrow|b0|i0|c0|p34;XIAMEN WAIN ELECTRICAL CO.LTD}
  7
工程字
 73
     1
 44
1.0
1001
AcDbBlockRepETag
1070
     1
1071
       17
1005
1C7CA
  0
MTEXT
  5
1C7CB
330
13E17
100
AcDbEntity
  8
图框
 62
     1
370
    20
100
AcDbMText
 10
1085.711816899387
 20
491.0944802995856
 30
0.0
 40
2.005930044038334
 41
5.047240019334847
 46
0.0
 71
     1
 72
     5
  1
{\fArial|b0|i0|c0|p34;A}
  7
Chinese
 73
     1
 44
1.0
1001
AcDbBlockRepETag
1070
     1
1071
       18
1005
1C7CB
  0
MTEXT
  5
1C7CC
330
13E17
100
AcDbEntity
  8
图框
 62
     1
370
    20
100
AcDbMText
 10
1088.213485935716
 20
491.0944802995856
 30
0.0
 40
2.005930044038334
 41
5.047240019334847
 46
0.0
 71
     1
 72
     5
  1
{\fArial|b0|i0|c0|p34;I}
  7
Chinese
 73
     1
 44
1.0
1001
AcDbBlockRepETag
1070
     1
1071
       19
1005
1C7CC
  0
MTEXT
  5
1C7CD
330
13E17
100
AcDbEntity
  8
图框
 62
     1
370
    20
100
AcDbMText
 10
1089.142375222864
 20
491.0822866326808
 30
0.0
 40
2.005930044038334
 41
5.047240019334847
 46
0.0
 71
     1
 72
     5
  1
{\fArial|b0|i0|c0|p34;N}
  7
Chinese
 73
     1
 44
1.0
1001
AcDbBlockRepETag
1070
     1
1071
       20
1005
1C7CD
  0
MTEXT
  5
1C7CE
330
13E17
100
AcDbEntity
  8
图框
100
AcDbMText
 10
1069.142012769545
 20
487.9667319294409
 30
0.0
 40
2.252848170144607
 41
21.65869686878327
 46
7.863925338579296
 71
     5
 72
     5
  1
{\W0.5;\C1;All Dimensions in mm\POriginal Size DIN A 4}
  7
Romans字体
 73
     1
 44
1.0
1001
AcDbBlockRepETag
1070
     1
1071
       21
1005
1C7CE
1001
ACAD
1000
ACAD_MTEXT_DEFINED_HEIGHT_BEGIN
1070
    46
1040
7.863925338579296
1000
ACAD_MTEXT_DEFINED_HEIGHT_END
  0
MTEXT
  5
1C7CF
330
13E17
100
AcDbEntity
  8
图框
  6
ByBlock
 62
     6
370
    18
100
AcDbMText
 10
1127.40434942308
 20
508.7896535755975
 30
0.0
 40
2.651776162684904
 41
2.557913877927211
 46
0.0
 71
     1
 72
     5
  1
A
  7
Romans字体
 11
0.0000000000000001
 21
1.0
 31
0.0
 73
     1
 44
1.0
1001
AcDbBlockRepETag
1070
     1
1071
       22
1005
1C7CF
  0
MTEXT
  5
1C7D0
330
13E17
100
AcDbEntity
  8
图框
 62
     6
100
AcDbMText
 10
1127.40434942308
 20
556.3746573232886
 30
0.0
 40
2.651776162684904
 41
2.557913877927211
 46
0.0
 71
     1
 72
     5
  1
B
  7
Romans字体
 11
0.0000000000000001
 21
1.0
 31
0.0
 73
     1
 44
1.0
1001
AcDbBlockRepETag
1070
     1
1071
       23
1005
1C7D0
  0
MTEXT
  5
1C7D1
330
13E17
100
AcDbEntity
  8
图框
 62
     6
100
AcDbMText
 10
1127.40434942308
 20
607.5539372630998
 30
0.0
 40
2.651776162684904
 41
2.557913877927211
 46
0.0
 71
     1
 72
     5
  1
C
  7
Romans字体
 11
0.0000000000000001
 21
1.0
 31
0.0
 73
     1
 44
1.0
1001
AcDbBlockRepETag
1070
     1
1071
       24
1005
1C7D1
  0
MTEXT
  5
1C7D2
330
13E17
100
AcDbEntity
  8
图框
 62
     6
100
AcDbMText
 10
1127.40434942308
 20
658.7332172029115
 30
0.0
 40
2.651776162684904
 41
2.557913877927211
 46
0.0
 71
     1
 72
     5
  1
D
  7
Romans字体
 11
0.0000000000000001
 21
1.0
 31
0.0
 73
     1
 44
1.0
1001
AcDbBlockRepETag
1070
     1
1071
       25
1005
1C7D2
  0
LINE
  5
1C7D3
330
13E17
100
AcDbEntity
  8
图框
 62
     6
100
AcDbLine
 10
1130.411601781241
 20
634.0726090796082
 30
0.0
 11
1126.928502610363
 21
634.0726090796082
 31
0.0
1001
AcDbBlockRepETag
1070
     1
1071
       26
1005
1C7D3
  0
LINE
  5
1C7D4
330
13E17
100
AcDbEntity
  8
图框
 62
     6
100
AcDbLine
 10
1130.411601781241
 20
582.89332913979
 30
0.0
 11
1126.928502610363
 21
582.89332913979
 31
0.0
1001
AcDbBlockRepETag
1070
     1
1071
       27
1005
1C7D4
  0
MTEXT
  5
1C7D5
330
13E17
100
AcDbEntity
  8
图框
 62
     6
100
AcDbMText
 10
1105.329704038389
 20
483.6164543011163
 30
0.0
 40
2.651776162684904
 41
2.557913877927211
 46
0.0
 71
     1
 72
     5
  1
6
  7
Romans字体
 73
     1
 44
1.0
1001
AcDbBlockRepETag
1070
     1
1071
       28
1005
1C7D5
  0
LINE
  5
1C7D6
330
13E17
100
AcDbEntity
  8
图框
 62
     6
100
AcDbLine
 10
1081.088565155284
 20
484.0347692601515
 30
0.0
 11
1081.088565155284
 21
480.5347692601475
 31
0.0
1001
AcDbBlockRepETag
1070
     1
1071
       29
1005
1C7D6
  0
MTEXT
  5
1C7D7
330
13E17
100
AcDbEntity
  8
图框
 62
     6
100
AcDbMText
 10
1055.900596365941
 20
483.520053108993
 30
0.0
 40
2.651776162684904
 41
2.557913877927211
 46
0.0
 71
     1
 72
     5
  1
5
  7
Romans字体
 73
     1
 44
1.0
1001
AcDbBlockRepETag
1070
     1
1071
       30
1005
1C7D7
  0
LINE
  5
1C7D8
330
13E17
100
AcDbEntity
  8
图框
 62
     6
100
AcDbLine
 10
1031.553386436349
 20
484.0347692601515
 30
0.0
 11
1031.553386436349
 21
480.5347692601475
 31
0.0
1001
AcDbBlockRepETag
1070
     1
1071
       31
1005
1C7D8
  0
MTEXT
  5
1C7D9
330
13E17
100
AcDbEntity
  8
图框
 62
     6
100
AcDbMText
 10
1006.383180575197
 20
483.5687958215896
 30
0.0
 40
2.651776162684904
 41
2.557913877927211
 46
0.0
 71
     1
 72
     5
  1
4
  7
Romans字体
 73
     1
 44
1.0
1001
AcDbBlockRepETag
1070
     1
1071
       32
1005
1C7D9
  0
LINE
  5
1C7DA
330
13E17
100
AcDbEntity
  8
图框
 62
     6
100
AcDbLine
 10
982.0182077173887
 20
484.0347692601515
 30
0.0
 11
982.0182077173887
 21
480.5347692601475
 31
0.0
1001
AcDbBlockRepETag
1070
     1
1071
       33
1005
1C7DA
  0
MTEXT
  5
1C7DB
330
13E17
100
AcDbEntity
  8
图框
 62
     6
100
AcDbMText
 10
956.8302389280352
 20
483.5989680297948
 30
0.0
 40
2.651776162684904
 41
2.557913877927211
 46
0.0
 71
     1
 72
     5
  1
3
  7
Romans字体
 73
     1
 44
1.0
1001
AcDbBlockRepETag
1070
     1
1071
       34
1005
1C7DB
  0
LINE
  5
1C7DC
330
13E17
100
AcDbEntity
  8
图框
 62
     6
100
AcDbLine
 10
932.4830289984245
 20
484.0347692601515
 30
0.0
 11
932.4830289984245
 21
480.5347692601475
 31
0.0
1001
AcDbBlockRepETag
1070
     1
1071
       35
1005
1C7DC
  0
MTEXT
  5
1C7DD
330
13E17
100
AcDbEntity
  8
图框
 62
     6
100
AcDbMText
 10
906.0252349826365
 20
483.6475250013156
 30
0.0
 40
2.651776162684904
 41
2.557913877927211
 46
0.0
 71
     1
 72
     5
  1
2
  7
Romans字体
 73
     1
 44
1.0
1001
AcDbBlockRepETag
1070
     1
1071
       36
1005
1C7DD
  0
LINE
  5
1C7DE
330
13E17
100
AcDbEntity
  8
图框
 62
     6
100
AcDbLine
 10
882.9478502794648
 20
484.0347692601515
 30
0.0
 11
882.9478502794648
 21
480.5347692601475
 31
0.0
1001
AcDbBlockRepETag
1070
     1
1071
       37
1005
1C7DE
  0
MTEXT
  5
1C7DF
330
13E17
100
AcDbEntity
  8
图框
 62
     6
100
AcDbMText
 10
857.7598814901191
 20
483.651829494754
 30
0.0
 40
2.651776162684904
 41
2.557913877927211
 46
0.0
 71
     1
 72
     5
  1
1
  7
Romans字体
 73
     1
 44
1.0
1001
AcDbBlockRepETag
1070
     1
1071
       38
1005
1C7DF
  0
LINE
  5
1C7E0
330
13E17
100
AcDbEntity
  8
图框
370
    50
100
AcDbLine
 10
836.8548209370597
 20
484.0347692601515
 30
0.0
 11
1126.928502610363
 21
484.0347692601515
 31
0.0
1001
AcDbBlockRepETag
1070
     1
1071
       39
1005
1C7E0
  0
LINE
  5
1C7E1
330
13E17
100
AcDbEntity
  8
图框
370
    50
100
AcDbLine
 10
836.9128518455362
 20
484.0178684310246
 30
0.0
 11
836.9128518455394
 21
675.0207195125422
 31
0.0
1001
AcDbBlockRepETag
1070
     1
1071
       40
1005
1C7E1
  0
MTEXT
  5
1C7E2
330
13E17
100
AcDbEntity
  8
图框
 62
     6
100
AcDbMText
 10
833.8475685789031
 20
658.7332172029115
 30
0.0
 40
2.651776162684904
 41
2.557913877927211
 46
0.0
 71
     1
 72
     5
  1
D
  7
Romans字体
 11
0.0000000000000001
 21
1.0
 31
0.0
 73
     1
 44
1.0
1001
AcDbBlockRepETag
1070
     1
1071
       41
1005
1C7E2
  0
LINE
  5
1C7E3
330
13E17
100
AcDbEntity
  8
图框
 62
     6
100
AcDbLine
 10
836.9128518455386
 20
634.0726090796082
 30
0.0
 11
833.4128518455365
 21
634.0726090796082
 31
0.0
1001
AcDbBlockRepETag
1070
     1
1071
       42
1005
1C7E3
  0
MTEXT
  5
1C7E4
330
13E17
100
AcDbEntity
  8
图框
 62
     6
100
AcDbMText
 10
833.9039177480142
 20
607.5539372630998
 30
0.0
 40
2.651776162684904
 41
2.557913877927211
 46
0.0
 71
     1
 72
     5
  1
C
  7
Romans字体
 11
0.0000000000000001
 21
1.0
 31
0.0
 73
     1
 44
1.0
1001
AcDbBlockRepETag
1070
     1
1071
       43
1005
1C7E4
  0
LINE
  5
1C7E5
330
13E17
100
AcDbEntity
  8
图框
 62
     6
100
AcDbLine
 10
836.9128518455378
 20
582.89332913979
 30
0.0
 11
833.4128518455365
 21
582.89332913979
 31
0.0
1001
AcDbBlockRepETag
1070
     1
1071
       44
1005
1C7E5
  0
MTEXT
  5
1C7E6
330
13E17
100
AcDbEntity
  8
图框
 62
     6
100
AcDbMText
 10
833.9039177480142
 20
556.3746573232886
 30
0.0
 40
2.651776162684904
 41
2.557913877927211
 46
0.0
 71
     1
 72
     5
  1
B
  7
Romans字体
 11
0.0000000000000001
 21
1.0
 31
0.0
 73
     1
 44
1.0
1001
AcDbBlockRepETag
1070
     1
1071
       45
1005
1C7E6
  0
LINE
  5
1C7E7
330
13E17
100
AcDbEntity
  8
图框
 62
     6
100
AcDbLine
 10
836.9128518455367
 20
531.714049199969
 30
0.0
 11
833.4128518455365
 21
531.714049199969
 31
0.0
1001
AcDbBlockRepETag
1070
     1
1071
       46
1005
1C7E7
  0
MTEXT
  5
1C7E8
330
13E17
100
AcDbEntity
  8
图框
 62
     6
100
AcDbMText
 10
833.9039177480142
 20
508.7896535755975
 30
0.0
 40
2.651776162684904
 41
2.557913877927211
 46
0.0
 71
     1
 72
     5
  1
A
  7
Romans字体
 11
0.0000000000000001
 21
1.0
 31
0.0
 73
     1
 44
1.0
1001
AcDbBlockRepETag
1070
     1
1071
       47
1005
1C7E8
  0
LINE
  5
1C7E9
330
13E17
100
AcDbEntity
  8
图框
370
    -3
100
AcDbLine
 10
836.9128518455394
 20
675.0207195125422
 30
0.0
 11
836.9128518455394
 21
684.5021384922564
 31
0.0
1001
AcDbBlockRepETag
1070
     1
1071
       48
1005
1C7E9
  0
LINE
  5
1C7EA
330
13E17
100
AcDbEntity
  8
图框
370
    -3
100
AcDbLine
 10
842.6237321475781
 20
675.5347692601515
 30
0.0
 11
842.6237321475781
 21
685.0161882398658
 31
0.0
1001
AcDbBlockRepETag
1070
     1
1071
       49
1005
1C7EA
  0
LINE
  5
1C7EB
330
13E17
100
AcDbEntity
  8
图框
370
    -3
100
AcDbLine
 10
848.3346124496179
 20
675.5347692601515
 30
0.0
 11
848.3346124496179
 21
685.0161882398658
 31
0.0
1001
AcDbBlockRepETag
1070
     1
1071
       50
1005
1C7EB
  0
LINE
  5
1C7EC
330
13E17
100
AcDbEntity
  8
图框
370
    -3
100
AcDbLine
 10
854.0454927516588
 20
675.5347692601515
 30
0.0
 11
854.0454927516588
 21
685.0161882398658
 31
0.0
1001
AcDbBlockRepETag
1070
     1
1071
       51
1005
1C7EC
  0
LINE
  5
1C7ED
330
13E17
100
AcDbEntity
  8
图框
370
    -3
100
AcDbLine
 10
861.5351874539182
 20
675.5347692601515
 30
0.0
 11
861.5351874539182
 21
686.7901958362482
 31
0.0
1001
AcDbBlockRepETag
1070
     1
1071
       52
1005
1C7ED
  0
MTEXT
  5
1C7EE
330
13E17
100
AcDbEntity
  8
图框
 62
     6
100
AcDbMText
 10
1105.329704038389
 20
678.859919059449
 30
0.0
 40
2.651776162684904
 41
2.557913877927211
 46
0.0
 71
     1
 72
     5
  1
6
  7
Romans字体
 73
     1
 44
1.0
1001
AcDbBlockRepETag
1070
     1
1071
       53
1005
1C7EE
  0
LINE
  5
1C7EF
330
13E17
100
AcDbEntity
  8
图框
 62
     6
100
AcDbLine
 10
1081.088565155284
 20
679.0347692601516
 30
0.0
 11
1081.088565155284
 21
675.5347692601515
 31
0.0
1001
AcDbBlockRepETag
1070
     1
1071
       54
1005
1C7EF
  0
MTEXT
  5
1C7F0
330
13E17
100
AcDbEntity
  8
图框
 62
     6
100
AcDbMText
 10
1055.900596365941
 20
678.859919059449
 30
0.0
 40
2.651776162684904
 41
2.557913877927211
 46
0.0
 71
     1
 72
     5
  1
5
  7
Romans字体
 73
     1
 44
1.0
1001
AcDbBlockRepETag
1070
     1
1071
       55
1005
1C7F0
  0
LINE
  5
1C7F1
330
13E17
100
AcDbEntity
  8
图框
 62
     6
100
AcDbLine
 10
1031.553386436349
 20
679.0347692601516
 30
0.0
 11
1031.553386436349
 21
675.5347692601515
 31
0.0
1001
AcDbBlockRepETag
1070
     1
1071
       56
1005
1C7F1
  0
MTEXT
  5
1C7F2
330
13E17
100
AcDbEntity
  8
图框
 62
     6
100
AcDbMText
 10
1006.36541764698
 20
678.7312083656147
 30
0.0
 40
2.651776162684904
 41
2.557913877927211
 46
0.0
 71
     1
 72
     5
  1
4
  7
Romans字体
 73
     1
 44
1.0
1001
AcDbBlockRepETag
1070
     1
1071
       57
1005
1C7F2
  0
LINE
  5
1C7F3
330
13E17
100
AcDbEntity
  8
图框
 62
     6
100
AcDbLine
 10
982.0182077173887
 20
679.0347692601516
 30
0.0
 11
982.0182077173887
 21
675.5347692601515
 31
0.0
1001
AcDbBlockRepETag
1070
     1
1071
       58
1005
1C7F3
  0
MTEXT
  5
1C7F4
330
13E17
100
AcDbEntity
  8
图框
 62
     6
100
AcDbMText
 10
956.8302389280352
 20
678.859919059449
 30
0.0
 40
2.651776162684904
 41
2.557913877927211
 46
0.0
 71
     1
 72
     5
  1
3
  7
Romans字体
 73
     1
 44
1.0
1001
AcDbBlockRepETag
1070
     1
1071
       59
1005
1C7F4
  0
LINE
  5
1C7F5
330
13E17
100
AcDbEntity
  8
图框
 62
     6
100
AcDbLine
 10
932.4830289984245
 20
679.0347692601516
 30
0.0
 11
932.4830289984245
 21
675.5347692601515
 31
0.0
1001
AcDbBlockRepETag
1070
     1
1071
       60
1005
1C7F5
  0
MTEXT
  5
1C7F6
330
13E17
100
AcDbEntity
  8
图框
 62
     6
100
AcDbMText
 10
907.295060209082
 20
678.859919059449
 30
0.0
 40
2.651776162684904
 41
2.557913877927211
 46
0.0
 71
     1
 72
     5
  1
2
  7
Romans字体
 73
     1
 44
1.0
1001
AcDbBlockRepETag
1070
     1
1071
       61
1005
1C7F6
  0
LINE
  5
1C7F7
330
13E17
100
AcDbEntity
  8
图框
 62
     6
100
AcDbLine
 10
882.9478502794648
 20
678.7962435131815
 30
0.0
 11
882.9478502794648
 21
675.5347692601515
 31
0.0
1001
AcDbBlockRepETag
1070
     1
1071
       62
1005
1C7F7
  0
MTEXT
  5
1C7F8
330
13E17
100
AcDbEntity
  8
图框
 62
     6
100
AcDbMText
 10
862.6286629643733
 20
678.859919059449
 30
0.0
 40
2.651776162684904
 41
2.557913877927211
 46
0.0
 71
     1
 72
     5
  1
1
  7
Romans字体
 73
     1
 44
1.0
1001
AcDbBlockRepETag
1070
     1
1071
       63
1005
1C7F8
  0
LINE
  5
1C7F9
330
13E17
100
AcDbEntity
  8
图框
370
    -3
100
AcDbLine
 10
836.9128518455394
 20
675.0207195125422
 30
0.0
 11
836.9128518455394
 21
686.7901958362482
 31
0.0
1001
AcDbBlockRepETag
1070
     1
1071
       64
1005
1C7F9
  0
LINE
  5
1C7FA
330
13E17
100
AcDbEntity
  8
图框
370
    50
100
AcDbLine
 10
836.9128518455394
 20
675.5347692601515
 30
0.0
 11
1126.928502610363
 21
675.5347692601515
 31
0.0
1001
AcDbBlockRepETag
1070
     1
1071
       65
1005
1C7FA
  0
LINE
  5
1C7FB
330
13E17
100
AcDbEntity
  8
图框
370
    -3
100
AcDbLine
 10
842.6237321475781
 20
675.5347692601515
 30
0.0
 11
842.6237321475781
 21
686.7901958362482
 31
0.0
1001
AcDbBlockRepETag
1070
     1
1071
       66
1005
1C7FB
  0
LINE
  5
1C7FC
330
13E17
100
AcDbEntity
  8
图框
370
    -3
100
AcDbLine
 10
848.3346124496179
 20
675.5347692601515
 30
0.0
 11
848.3346124496179
 21
686.7901958362482
 31
0.0
1001
AcDbBlockRepETag
1070
     1
1071
       67
1005
1C7FC
  0
MTEXT
  5
1C7FD
102
{ACAD_XDICTIONARY
360
1C8BB
102
}
330
13E17
100
AcDbEntity
  8
图框
100
AcDbMText
 10
857.7903401027889
 20
686.7901958362482
 30
0.0
 40
1.958998408821398
 41
11.25542657609672
 46
7.489694702258906
 71
     4
 72
     5
  1
\pi2.8203;档案员{\H0.7x;\P\pi1.4159;\Fromans|c134;Filing Clerk\fFangSong_GB2312|b0|i0|c134|p49; }
 11
-0.0000000000000002
 21
-1.0
 31
0.0
 73
     1
 44
1.0
1001
AcDbBlockRepETag
1070
     1
1071
       68
1005
1C7FD
1001
ACAD
1000
ACAD_MTEXT_DEFINED_HEIGHT_BEGIN
1070
    46
1040
7.489694702258906
1000
ACAD_MTEXT_DEFINED_HEIGHT_END
  0
MTEXT
  5
1C7FE
102
{ACAD_XDICTIONARY
360
1C8BD
102
}
330
13E17
100
AcDbEntity
  8
图框
100
AcDbMText
 10
845.479172298598
 20
686.7901958362482
 30
0.0
 40
1.958998408821398
 41
11.25542657609672
 46
5.710880302039671
 71
     4
 72
     5
  1
\pi0.7115;日期{\Fromans|c134;/Date}
 11
-0.0000000000000002
 21
-1.0
 31
0.0
 73
     1
 44
1.0
1001
AcDbBlockRepETag
1070
     1
1071
       69
1005
1C7FE
1001
ACAD
1000
ACAD_MTEXT_DEFINED_HEIGHT_BEGIN
1070
    46
1040
5.710880302039671
1000
ACAD_MTEXT_DEFINED_HEIGHT_END
  0
LINE
  5
1C7FF
330
13E17
100
AcDbEntity
  8
图框
370
    -3
100
AcDbLine
 10
854.0454927516588
 20
675.5347692601515
 30
0.0
 11
854.0454927516588
 21
686.7901958362482
 31
0.0
1001
AcDbBlockRepETag
1070
     1
1071
       70
1005
1C7FF
  0
LINE
  5
1C800
330
13E17
100
AcDbEntity
  8
图框
370
    -3
100
AcDbLine
 10
1036.653967466372
 20
531.3291676047914
 30
0.0
 11
1036.653967466372
 21
484.0126019753161
 31
0.0
1001
AcDbBlockRepETag
1070
     1
1071
       71
1005
1C800
  0
LINE
  5
1C801
330
13E17
100
AcDbEntity
  8
图框
370
    -3
100
AcDbLine
 10
1047.483315900763
 20
507.6708838011533
 30
0.0
 11
1047.483315900763
 21
491.8986945987308
 31
0.0
1001
AcDbBlockRepETag
1070
     1
1071
       72
1005
1C801
  0
LINE
  5
1C802
330
13E17
100
AcDbEntity
  8
图框
370
    -3
100
AcDbLine
 10
1058.312664335153
 20
507.6708838011533
 30
0.0
 11
1058.312664335153
 21
484.0347692601515
 31
0.0
1001
AcDbBlockRepETag
1070
     1
1071
       73
1005
1C802
  0
LINE
  5
1C803
330
13E17
100
AcDbEntity
  8
图框
370
    25
100
AcDbLine
 10
1048.474135214456
 20
488.1095628329926
 30
0.0
 11
1054.946420288459
 21
488.1095628329926
 31
0.0
1001
AcDbBlockRepETag
1070
     1
1071
       74
1005
1C803
  0
LINE
  5
1C804
330
13E17
100
AcDbEntity
  8
图框
370
    25
100
AcDbLine
 10
1054.232527365989
 20
487.0761716842634
 30
0.0
 11
1049.156490914508
 21
486.4576273751
 31
0.0
1001
AcDbBlockRepETag
1070
     1
1071
       75
1005
1C804
  0
LINE
  5
1C805
330
13E17
100
AcDbEntity
  8
图框
370
    25
100
AcDbLine
 10
1054.232527365989
 20
489.1429539817209
 30
0.0
 11
1049.156490914508
 21
489.7614982908846
 31
0.0
1001
AcDbBlockRepETag
1070
     1
1071
       76
1005
1C805
  0
LINE
  5
1C806
330
13E17
100
AcDbEntity
  8
图框
370
    25
100
AcDbLine
 10
1049.156490914508
 20
489.7614982908846
 30
0.0
 11
1049.156490914508
 21
486.4576273751
 31
0.0
1001
AcDbBlockRepETag
1070
     1
1071
       77
1005
1C806
  0
LINE
  5
1C807
330
13E17
100
AcDbEntity
  8
图框
370
    25
100
AcDbLine
 10
1054.232527365989
 20
489.1429539817209
 30
0.0
 11
1054.232527365989
 21
487.0761716842634
 31
0.0
1001
AcDbBlockRepETag
1070
     1
1071
       78
1005
1C807
  0
CIRCLE
  5
1C808
330
13E17
100
AcDbEntity
  8
图框
370
    25
100
AcDbCircle
 10
1042.502700458579
 20
488.1095628329926
 30
0.0
 40
1.651935457891863
1001
AcDbBlockRepETag
1070
     1
1071
       79
1005
1C808
  0
CIRCLE
  5
1C809
330
13E17
100
AcDbEntity
  8
图框
370
    25
100
AcDbCircle
 10
1042.502700458579
 20
488.1095628329926
 30
0.0
 40
1.033391148728775
1001
AcDbBlockRepETag
1070
     1
1071
       80
1005
1C809
  0
LINE
  5
1C80A
330
13E17
100
AcDbEntity
  8
图框
370
    25
100
AcDbLine
 10
1040.136872078216
 20
488.1095628329926
 30
0.0
 11
1044.868528838943
 21
488.1095628329926
 31
0.0
1001
AcDbBlockRepETag
1070
     1
1071
       81
1005
1C80A
  0
LINE
  5
1C80B
330
13E17
100
AcDbEntity
  8
图框
370
    25
100
AcDbLine
 10
1042.502700458579
 20
490.475391213355
 30
0.0
 11
1042.502700458579
 21
485.743734452629
 31
0.0
1001
AcDbBlockRepETag
1070
     1
1071
       82
1005
1C80B
  0
LINE
  5
1C80C
330
13E17
100
AcDbEntity
  8
图框
370
    -3
100
AcDbLine
 10
1069.142012769546
 20
507.6708838011533
 30
0.0
 11
1069.142012769546
 21
491.8986945987308
 31
0.0
1001
AcDbBlockRepETag
1070
     1
1071
       83
1005
1C80C
  0
MTEXT
  5
1C80D
330
13E17
100
AcDbEntity
  8
图框
100
AcDbMText
 10
1086.643735910939
 20
526.8006839312707
 30
0.0
 40
2.154898249703542
 41
13.34474941400573
 46
9.056967347041775
 71
     5
 72
     5
  1
图号{\Ftxt|c134;\P\Fromans|c134;\W0.65;Drawing No.}
 73
     1
 44
1.0
1001
AcDbBlockRepETag
1070
     1
1071
       84
1005
1C80D
1001
ACAD
1000
ACAD_MTEXT_DEFINED_HEIGHT_BEGIN
1070
    46
1040
9.056967347041775
1000
ACAD_MTEXT_DEFINED_HEIGHT_END
  0
LINE
  5
1C80E
330
13E17
100
AcDbEntity
  8
图框
370
    -3
100
AcDbLine
 10
1093.316110617942
 20
531.3291676047914
 30
0.0
 11
1093.316110617942
 21
495.8417418993347
 31
0.0
1001
AcDbBlockRepETag
1070
     1
1071
       85
1005
1C80E
  0
LINE
  5
1C80F
330
13E17
100
AcDbEntity
  8
图框
370
    -3
100
AcDbLine
 10
1047.473969770481
 20
531.3291676047914
 30
0.0
 11
1047.473969770481
 21
507.6708838011533
 31
0.0
1001
AcDbBlockRepETag
1070
     1
1071
       86
1005
1C80F
  0
MTEXT
  5
1C810
330
13E17
100
AcDbEntity
  8
图框
100
AcDbMText
 10
1063.72733855235
 20
503.7278365005473
 30
0.0
 40
2.252848170144607
 41
10.82934843439208
 46
7.886094601212128
 71
     5
 72
     5
  1
重量\P{\Fromans|c134;Weight}
 73
     1
 44
1.0
1001
AcDbBlockRepETag
1070
     1
1071
       87
1005
1C810
1001
ACAD
1000
ACAD_MTEXT_DEFINED_HEIGHT_BEGIN
1070
    46
1040
7.886094601212128
1000
ACAD_MTEXT_DEFINED_HEIGHT_END
  0
LINE
  5
1C811
330
13E17
100
AcDbEntity
  8
图框
370
    -3
100
AcDbLine
 10
1036.653967466372
 20
519.5000257029746
 30
0.0
 11
1079.971361203936
 21
519.5000257029746
 31
0.0
1001
AcDbBlockRepETag
1070
     1
1071
       88
1005
1C811
  0
MTEXT
  5
1C812
330
13E17
100
AcDbEntity
  8
图框
100
AcDbMText
 10
1074.556686986741
 20
503.7278365005473
 30
0.0
 40
2.252848170144607
 41
10.82934843438984
 46
7.886094601212141
 71
     5
 72
     5
  1
数量\P{\Fromans|c134;Qty.}
 73
     1
 44
1.0
1001
AcDbBlockRepETag
1070
     1
1071
       89
1005
1C812
1001
ACAD
1000
ACAD_MTEXT_DEFINED_HEIGHT_BEGIN
1070
    46
1040
7.886094601212141
1000
ACAD_MTEXT_DEFINED_HEIGHT_END
  0
LINE
  5
1C813
330
13E17
100
AcDbEntity
  8
图框
370
    -3
100
AcDbLine
 10
1079.971361203936
 20
495.8417418993347
 30
0.0
 11
1126.928502610363
 21
495.8417418993342
 31
0.0
1001
AcDbBlockRepETag
1070
     1
1071
       90
1005
1C813
  0
LINE
  5
1C814
330
13E17
100
AcDbEntity
  8
图框
370
    -3
100
AcDbLine
 10
1079.971361203936
 20
504.7132992040975
 30
0.0
 11
1126.928502610363
 21
504.7132992040975
 31
0.0
1001
AcDbBlockRepETag
1070
     1
1071
       91
1005
1C814
  0
MTEXT
  5
1C815
330
13E17
100
AcDbEntity
  8
图框
100
AcDbMText
 10
1052.893317052817
 20
503.7278365005473
 30
0.0
 40
2.252848170144607
 41
10.83869456467139
 46
7.886094601212101
 71
     5
 72
     5
  1
版本\P{\Fromans|c134;REV.}
 73
     1
 44
1.0
1001
AcDbBlockRepETag
1070
     1
1071
       92
1005
1C815
1001
ACAD
1000
ACAD_MTEXT_DEFINED_HEIGHT_BEGIN
1070
    46
1040
7.886094601212101
1000
ACAD_MTEXT_DEFINED_HEIGHT_END
  0
MTEXT
  5
1C816
330
13E17
100
AcDbEntity
  8
图框
100
AcDbMText
 10
1042.068641683568
 20
503.7278365005473
 30
0.0
 40
2.252848170144607
 41
10.8293484343908
 46
7.886094601212136
 71
     5
 72
     5
  1
比例\P{\Fromans|c134;Scale}
 73
     1
 44
1.0
1001
AcDbBlockRepETag
1070
     1
1071
       93
1005
1C816
1001
ACAD
1000
ACAD_MTEXT_DEFINED_HEIGHT_BEGIN
1070
    46
1040
7.886094601212136
1000
ACAD_MTEXT_DEFINED_HEIGHT_END
  0
LINE
  5
1C817
330
13E17
100
AcDbEntity
  8
图框
370
    -3
100
AcDbLine
 10
1036.653967466372
 20
507.6708838011533
 30
0.0
 11
1079.971361203936
 21
507.6708838011533
 31
0.0
1001
AcDbBlockRepETag
1070
     1
1071
       94
1005
1C817
  0
LINE
  5
1C818
330
13E17
100
AcDbEntity
  8
图框
370
    -3
100
AcDbLine
 10
1036.653967466372
 20
491.8986945987308
 30
0.0
 11
1079.971361203936
 21
491.8986945987308
 31
0.0
1001
AcDbBlockRepETag
1070
     1
1071
       95
1005
1C818
  0
LINE
  5
1C819
330
13E17
100
AcDbEntity
  8
图框
370
    -3
100
AcDbLine
 10
1079.971361203936
 20
531.3291676047914
 30
0.0
 11
1079.971361203936
 21
484.0125999975168
 31
0.0
1001
AcDbBlockRepETag
1070
     1
1071
       96
1005
1C819
  0
MTEXT
  5
1C81A
330
13E17
100
AcDbEntity
  8
图框
100
AcDbMText
 10
1042.063968618426
 20
525.4145966538832
 30
0.0
 40
2.252848170144607
 41
10.82000230410933
 46
11.82914190181708
 71
     5
 72
     5
  1
表面处理\P{\Fromans|c134;Finish}
 73
     1
 44
1.0
1001
AcDbBlockRepETag
1070
     1
1071
       97
1005
1C81A
1001
ACAD
1000
ACAD_MTEXT_DEFINED_HEIGHT_BEGIN
1070
    46
1040
11.82914190181708
1000
ACAD_MTEXT_DEFINED_HEIGHT_END
  0
MTEXT
  5
1C81B
330
13E17
100
AcDbEntity
  8
图框
100
AcDbMText
 10
1042.063968618426
 20
513.5854547520639
 30
0.0
 40
2.252848170144607
 41
10.82000230410933
 46
11.8291419018212
 71
     5
 72
     5
  1
材料\P{\Fromans|c134;Material}
 73
     1
 44
1.0
1001
AcDbBlockRepETag
1070
     1
1071
       98
1005
1C81B
1001
ACAD
1000
ACAD_MTEXT_DEFINED_HEIGHT_BEGIN
1070
    46
1040
11.8291419018212
1000
ACAD_MTEXT_DEFINED_HEIGHT_END
  0
LINE
  5
1C81C
330
13E17
100
AcDbEntity
  8
图框
370
    -3
100
AcDbLine
 10
1079.971361203936
 20
522.27220025775
 30
0.0
 11
1126.928502610363
 21
522.27220025775
 31
0.0
1001
AcDbBlockRepETag
1070
     1
1071
       99
1005
1C81C
  0
LINE
  5
1C81D
330
13E17
100
AcDbEntity
  8
图框
370
    -3
100
AcDbLine
 10
1079.971361203936
 20
513.5854547520641
 30
0.0
 11
1126.928502610363
 21
513.5854547520639
 31
0.0
1001
AcDbBlockRepETag
1070
     1
1071
      100
1005
1C81D
  0
MTEXT
  5
1C81E
330
13E17
100
AcDbEntity
  8
图框
100
AcDbMText
 10
1086.643735910939
 20
517.9288275049072
 30
0.0
 40
1.958998408821398
 41
13.34474941400573
 46
8.686745505685811
 71
     5
 72
     5
  1
产品代号\P{\Fromans|c134;Part Code}
 73
     1
 44
1.0
1001
AcDbBlockRepETag
1070
     1
1071
      101
1005
1C81E
1001
ACAD
1000
ACAD_MTEXT_DEFINED_HEIGHT_BEGIN
1070
    46
1040
8.686745505685811
1000
ACAD_MTEXT_DEFINED_HEIGHT_END
  0
LINE
  5
1C81F
330
13E17
100
AcDbEntity
  8
图框
370
    -3
100
AcDbLine
 10
946.9285026103634
 20
525.7982263931411
 30
0.0
 11
1036.653967466372
 21
525.7982263931411
 31
0.0
1001
AcDbBlockRepETag
1070
     1
1071
      102
1005
1C81F
  0
LINE
  5
1C820
330
13E17
100
AcDbEntity
  8
图框
370
    -3
100
AcDbLine
 10
946.9285026103634
 20
520.2672851814959
 30
0.0
 11
1036.653967466372
 21
520.2672851814959
 31
0.0
1001
AcDbBlockRepETag
1070
     1
1071
      103
1005
1C820
  0
LINE
  5
1C821
330
13E17
100
AcDbEntity
  8
图框
370
    35
100
AcDbLine
 10
946.9285026103634
 20
531.3291676047914
 30
0.0
 11
1126.928502610363
 21
531.3291676047914
 31
0.0
1001
AcDbBlockRepETag
1070
     1
1071
      104
1005
1C821
  0
LINE
  5
1C822
330
13E17
100
AcDbEntity
  8
图框
370
    -3
100
AcDbLine
 10
990.6727612856927
 20
509.2054027581959
 30
0.0
 11
990.6727612856927
 21
484.0347692601515
 31
0.0
1001
AcDbBlockRepETag
1070
     1
1071
      105
1005
1C822
  0
MTEXT
  5
1C823
102
{ACAD_XDICTIONARY
360
1C8BF
102
}
330
13E17
100
AcDbEntity
  8
图框
100
AcDbMText
 10
997.1628169651232
 20
499.816589978722
 30
0.0
 40
2.252848170144607
 41
12.98011135886052
 46
6.19230880992475
 71
     5
 72
     5
  1
{\fSimSun|b0|i0|c134|p2;标准化}\PStand.
  7
Romans字体
 73
     1
 44
1.0
1001
AcDbBlockRepETag
1070
     1
1071
      106
1005
1C823
1001
ACAD
1000
ACAD_MTEXT_DEFINED_HEIGHT_BEGIN
1070
    46
1040
6.19230880992475
1000
ACAD_MTEXT_DEFINED_HEIGHT_END
  0
LINE
  5
1C824
330
13E17
100
AcDbEntity
  8
图框
370
    -3
100
AcDbLine
 10
975.4103773808022
 20
509.2054027581959
 30
0.0
 11
975.4103773808022
 21
484.0347692601515
 31
0.0
1001
AcDbBlockRepETag
1070
     1
1071
      107
1005
1C824
  0
MTEXT
  5
1C825
330
13E17
100
AcDbEntity
  8
图框
100
AcDbMText
 10
984.5089229802068
 20
511.9708733640202
 30
0.0
 40
2.448748011026752
 41
38.287899328693
 46
5.530941211648832
 71
     5
 72
     5
  1
  变更描述{\Fromans|c134;/Description}
 73
     1
 44
1.0
1001
AcDbBlockRepETag
1070
     1
1071
      108
1005
1C825
1001
ACAD
1000
ACAD_MTEXT_DEFINED_HEIGHT_BEGIN
1070
    46
1040
5.530941211648832
1000
ACAD_MTEXT_DEFINED_HEIGHT_END
  0
MTEXT
  5
1C826
102
{ACAD_XDICTIONARY
360
1C8C1
102
}
330
13E17
100
AcDbEntity
  8
图框
100
AcDbMText
 10
1012.477254728976
 20
511.9708733640202
 30
0.0
 40
1.958998408821398
 41
17.64876416884548
 46
5.530941211649166
 71
     5
 72
     5
  1
签名\P{\Fromans|c134;Signature} 
 73
     1
 44
1.0
1001
AcDbBlockRepETag
1070
     1
1071
      109
1005
1C826
1001
ACAD
1000
ACAD_MTEXT_DEFINED_HEIGHT_BEGIN
1070
    46
1040
5.530941211649166
1000
ACAD_MTEXT_DEFINED_HEIGHT_END
  0
MTEXT
  5
1C827
102
{ACAD_XDICTIONARY
360
1C8C3
102
}
330
13E17
100
AcDbEntity
  8
图框
100
AcDbMText
 10
960.7558556394856
 20
511.9708733640202
 30
0.0
 40
1.958998408821398
 41
9.218235352749283
 46
5.530941211648841
 71
     5
 72
     5
  1
处数\P{\Fromans|c134;Number }
 73
     1
 44
1.0
1001
AcDbBlockRepETag
1070
     1
1071
      110
1005
1C827
1001
ACAD
1000
ACAD_MTEXT_DEFINED_HEIGHT_BEGIN
1070
    46
1040
5.530941211648841
1000
ACAD_MTEXT_DEFINED_HEIGHT_END
  0
LINE
  5
1C828
330
13E17
100
AcDbEntity
  8
图框
370
    -3
100
AcDbLine
 10
946.9285026103634
 20
514.7363439698449
 30
0.0
 11
1036.653967466372
 21
514.7363439698449
 31
0.0
1001
AcDbBlockRepETag
1070
     1
1071
      111
1005
1C828
  0
LINE
  5
1C829
330
13E17
100
AcDbEntity
  8
图框
370
    -3
100
AcDbLine
 10
946.9285026103634
 20
509.2054027581959
 30
0.0
 11
1036.653967466372
 21
509.2054027581959
 31
0.0
1001
AcDbBlockRepETag
1070
     1
1071
      112
1005
1C829
  0
LINE
  5
1C82A
330
13E17
100
AcDbEntity
  8
图框
370
    -3
100
AcDbLine
 10
946.9285026103634
 20
502.9127443836848
 30
0.0
 11
1036.653967466372
 21
502.9127443836848
 31
0.0
1001
AcDbBlockRepETag
1070
     1
1071
      113
1005
1C82A
  0
LINE
  5
1C82B
330
13E17
100
AcDbEntity
  8
图框
370
    -3
100
AcDbLine
 10
946.9285026103634
 20
496.620086009173
 30
0.0
 11
1036.653967466372
 21
496.620086009173
 31
0.0
1001
AcDbBlockRepETag
1070
     1
1071
      114
1005
1C82B
  0
LINE
  5
1C82C
330
13E17
100
AcDbEntity
  8
图框
370
    35
380
     1
100
AcDbLine
 10
946.9285026103634
 20
531.3291676047914
 30
0.0
 11
946.9285026103634
 21
484.0347692601515
 31
0.0
1001
AcDbBlockRepETag
1070
     1
1071
      115
1005
1C82C
  0
LINE
  5
1C82D
330
13E17
100
AcDbEntity
  8
图框
370
    -3
100
AcDbLine
 10
1021.301636813399
 20
531.3291676047914
 30
0.0
 11
1021.301636813399
 21
484.0347692601515
 31
0.0
1001
AcDbBlockRepETag
1070
     1
1071
      116
1005
1C82D
  0
LINE
  5
1C82E
330
13E17
100
AcDbEntity
  8
图框
370
    -3
100
AcDbLine
 10
1003.652872644553
 20
531.3291676047914
 30
0.0
 11
1003.652872644553
 21
484.0347692601515
 31
0.0
1001
AcDbBlockRepETag
1070
     1
1071
      117
1005
1C82E
  0
LINE
  5
1C82F
330
13E17
100
AcDbEntity
  8
图框
370
    -3
100
AcDbLine
 10
965.3649733158603
 20
531.3291676047914
 30
0.0
 11
965.3649733158603
 21
509.2054027581959
 31
0.0
1001
AcDbBlockRepETag
1070
     1
1071
      118
1005
1C82F
  0
LINE
  5
1C830
330
13E17
100
AcDbEntity
  8
图框
370
    -3
100
AcDbLine
 10
956.1467379631109
 20
531.3291676047914
 30
0.0
 11
956.1467379631109
 21
509.2054027581959
 31
0.0
1001
AcDbBlockRepETag
1070
     1
1071
      119
1005
1C830
  0
MTEXT
  5
1C831
102
{ACAD_XDICTIONARY
360
1C8C5
102
}
330
13E17
100
AcDbEntity
  8
图框
100
AcDbMText
 10
951.537620286737
 20
511.9708733640202
 30
0.0
 40
1.958998408821398
 41
9.218235352747692
 46
5.530941211648832
 71
     5
 72
     5
  1
标记\P{\Fromans|c134;Mark}
 73
     1
 44
1.0
1001
AcDbBlockRepETag
1070
     1
1071
      120
1005
1C831
1001
ACAD
1000
ACAD_MTEXT_DEFINED_HEIGHT_BEGIN
1070
    46
1040
5.530941211648832
1000
ACAD_MTEXT_DEFINED_HEIGHT_END
  0
MTEXT
  5
1C832
102
{ACAD_XDICTIONARY
360
1C8C7
102
}
330
13E17
100
AcDbEntity
  8
图框
100
AcDbMText
 10
953.4185582897936
 20
493.4737568219182
 30
0.0
 40
2.252848170144607
 41
12.98011135886041
 46
6.292658374510382
 71
     5
 72
     5
  1
审核\P{\Fromans|c134;Checked}
 73
     1
 44
1.0
1001
AcDbBlockRepETag
1070
     1
1071
      121
1005
1C832
1001
ACAD
1000
ACAD_MTEXT_DEFINED_HEIGHT_BEGIN
1070
    46
1040
6.292658374510382
1000
ACAD_MTEXT_DEFINED_HEIGHT_END
  0
MTEXT
  5
1C833
102
{ACAD_XDICTIONARY
360
1C8C9
102
}
330
13E17
100
AcDbEntity
  8
图框
100
AcDbMText
 10
953.4185582897936
 20
499.8775635376777
 30
0.0
 40
2.252848170144607
 41
12.98011135886041
 46
6.070361692014189
 71
     5
 72
     5
  1
绘图\P{\Fromans|c134;Drawn\Ftxt|c134; }
 73
     1
 44
1.0
1001
AcDbBlockRepETag
1070
     1
1071
      122
1005
1C833
1001
ACAD
1000
ACAD_MTEXT_DEFINED_HEIGHT_BEGIN
1070
    46
1040
6.070361692014189
1000
ACAD_MTEXT_DEFINED_HEIGHT_END
  0
ARC
  5
1C834
330
13E17
100
AcDbEntity
  8
图框
 62
     4
370
    35
100
AcDbCircle
 10
1086.900627017421
 20
490.0179944151195
 30
0.0
 40
4.063310408393665
100
AcDbArc
 50
18.95237904564806
 51
161.0476209543519
1001
AcDbBlockRepETag
1070
     1
1071
      123
1005
1C834
  0
ARC
  5
1C835
330
13E17
100
AcDbEntity
  8
图框
 62
     4
370
    35
100
AcDbCircle
 10
1086.900627017421
 20
490.0179944151195
 30
0.0
 40
4.063310408393665
100
AcDbArc
 50
198.952379045648
 51
341.0476209543519
1001
AcDbBlockRepETag
1070
     1
1071
      124
1005
1C835
  0
LINE
  5
1C836
330
13E17
100
AcDbEntity
  8
图框
 62
     4
370
    35
100
AcDbLine
 10
1083.057593369548
 20
488.6983035966752
 30
0.0
 11
1090.74366066529
 21
488.6983035966752
 31
0.0
1001
AcDbBlockRepETag
1070
     1
1071
      125
1005
1C836
  0
LINE
  5
1C837
330
13E17
100
AcDbEntity
  8
图框
 62
     4
370
    35
100
AcDbLine
 10
1083.057593369548
 20
491.3376852335652
 30
0.0
 11
1090.74366066529
 21
491.3376852335652
 31
0.0
1001
AcDbBlockRepETag
1070
     1
1071
      126
1005
1C837
  0
MTEXT
  5
1C838
330
13E17
100
AcDbEntity
  8
图框
 62
     1
370
    20
100
AcDbMText
 10
1083.034582879669
 20
491.0506288081688
 30
0.0
 40
2.005930044038334
 41
5.047240019334847
 46
0.0
 71
     1
 72
     5
  1
{\fArial|b0|i0|c0|p34;W}
  7
Chinese
 73
     1
 44
1.0
1001
AcDbBlockRepETag
1070
     1
1071
      127
1005
1C838
  0
LINE
  5
1C839
330
13E17
100
AcDbEntity
  8
图框
370
    -3
100
AcDbLine
 10
946.9285026103634
 20
490.327427634663
 30
0.0
 11
1036.653967466372
 21
490.327427634663
 31
0.0
1001
AcDbBlockRepETag
1070
     1
1071
      128
1005
1C839
  0
LINE
  5
1C83A
330
13E17
100
AcDbEntity
  8
图框
370
    -3
100
AcDbLine
 10
959.9086139692238
 20
509.2054027581959
 30
0.0
 11
959.9086139692238
 21
484.0347692601515
 31
0.0
1001
AcDbBlockRepETag
1070
     1
1071
      129
1005
1C83A
  0
MTEXT
  5
1C83B
330
13E17
100
AcDbEntity
  8
图框
100
AcDbMText
 10
967.6594956750129
 20
506.0590735709403
 30
0.0
 40
2.252848170144607
 41
15.50176341157869
 46
6.292658374511246
 71
     5
 72
     5
  1
姓名{\Fromans|c134;/Name\Ftxt|c134; }
 73
     1
 44
1.0
1001
AcDbBlockRepETag
1070
     1
1071
      130
1005
1C83B
1001
ACAD
1000
ACAD_MTEXT_DEFINED_HEIGHT_BEGIN
1070
    46
1040
6.292658374511246
1000
ACAD_MTEXT_DEFINED_HEIGHT_END
  0
MTEXT
  5
1C83C
330
13E17
100
AcDbEntity
  8
图框
100
AcDbMText
 10
983.0415693332477
 20
506.0590735709403
 30
0.0
 40
2.252848170144607
 41
15.26238390489042
 46
6.2926583745112
 71
     5
 72
     5
  1
日期{\Fromans|c134;/Date}
 73
     1
 44
1.0
1001
AcDbBlockRepETag
1070
     1
1071
      131
1005
1C83C
1001
ACAD
1000
ACAD_MTEXT_DEFINED_HEIGHT_BEGIN
1070
    46
1040
6.2926583745112
1000
ACAD_MTEXT_DEFINED_HEIGHT_END
  0
LINE
  5
1C83D
330
13E17
100
AcDbEntity
  8
图框
370
    -3
100
AcDbLine
 10
946.9285026103634
 20
509.2054027581959
 30
0.0
 11
959.9086139692238
 21
502.9127443836848
 31
0.0
1001
AcDbBlockRepETag
1070
     1
1071
      132
1005
1C83D
  0
MTEXT
  5
1C83E
330
13E17
100
AcDbEntity
  8
图框
100
AcDbMText
 10
1012.931405110086
 20
506.0185715840725
 30
0.0
 40
2.252848170144607
 41
16.93492221063566
 46
0.0
 71
     5
 72
     5
  1
姓名{\Fromans|c134;/Name}
 73
     1
 44
1.0
1001
AcDbBlockRepETag
1070
     1
1071
      133
1005
1C83E
  0
MTEXT
  5
1C83F
330
13E17
100
AcDbEntity
  8
图框
100
AcDbMText
 10
1028.977802139886
 20
506.0590735709403
 30
0.0
 40
2.252848170144607
 41
15.35233065297283
 46
6.292658374511256
 71
     5
 72
     5
  1
日期{\Fromans|c134;/Date}
 73
     1
 44
1.0
1001
AcDbBlockRepETag
1070
     1
1071
      134
1005
1C83F
1001
ACAD
1000
ACAD_MTEXT_DEFINED_HEIGHT_BEGIN
1070
    46
1040
6.292658374511256
1000
ACAD_MTEXT_DEFINED_HEIGHT_END
  0
LINE
  5
1C840
330
13E17
100
AcDbEntity
  8
图框
370
    -3
100
AcDbLine
 10
1003.652872644553
 20
502.9127443836848
 30
0.0
 11
990.6727612856927
 21
509.2054027581959
 31
0.0
1001
AcDbBlockRepETag
1070
     1
1071
      135
1005
1C840
  0
MTEXT
  5
1C841
102
{ACAD_XDICTIONARY
360
1C8CB
102
}
330
13E17
100
AcDbEntity
  8
图框
100
AcDbMText
 10
997.1628169651232
 20
487.1810984474071
 30
0.0
 40
2.252848170144607
 41
12.98011135886052
 46
6.292658374511517
 71
     5
 72
     5
  1
批准\P{\Fromans|c134;Approved}
 73
     1
 44
1.0
1001
AcDbBlockRepETag
1070
     1
1071
      136
1005
1C841
1001
ACAD
1000
ACAD_MTEXT_DEFINED_HEIGHT_BEGIN
1070
    46
1040
6.292658374511517
1000
ACAD_MTEXT_DEFINED_HEIGHT_END
  0
MTEXT
  5
1C842
102
{ACAD_XDICTIONARY
360
1C8CD
102
}
330
13E17
100
AcDbEntity
  8
图框
100
AcDbMText
 10
953.4185582897936
 20
487.1810984474071
 30
0.0
 40
2.252848170144607
 41
12.98011135886041
 46
6.292658374511495
 71
     5
 72
     5
  1
工艺\P{\Fromans|c134;Process}
 73
     1
 44
1.0
1001
AcDbBlockRepETag
1070
     1
1071
      137
1005
1C842
1001
ACAD
1000
ACAD_MTEXT_DEFINED_HEIGHT_BEGIN
1070
    46
1040
6.292658374511495
1000
ACAD_MTEXT_DEFINED_HEIGHT_END
  0
MTEXT
  5
1C843
102
{ACAD_XDICTIONARY
360
1C8CF
102
}
330
13E17
100
AcDbEntity
  8
图框
100
AcDbMText
 10
1028.977802139886
 20
511.9708733640202
 30
0.0
 40
1.958998408821398
 41
15.35233065297235
 46
5.530941211648913
 71
     5
 72
     5
  1
日期\P{\Fromans|c134;Date}
 73
     1
 44
1.0
1001
AcDbBlockRepETag
1070
     1
1071
      138
1005
1C843
1001
ACAD
1000
ACAD_MTEXT_DEFINED_HEIGHT_BEGIN
1070
    46
1040
5.530941211648913
1000
ACAD_MTEXT_DEFINED_HEIGHT_END
  0
MTEXT
  5
1C844
330
13E17
100
AcDbEntity
  8
图框
100
AcDbMText
 10
1086.643735910939
 20
509.1493769780809
 30
0.0
 40
2.154898249703542
 41
13.34474941400573
 46
8.87215554796615
 71
     5
 72
     5
  1
产品料号\P{\Fromans|c134;Part No.}
 73
     1
 44
1.0
1001
AcDbBlockRepETag
1070
     1
1071
      139
1005
1C844
1001
ACAD
1000
ACAD_MTEXT_DEFINED_HEIGHT_BEGIN
1070
    46
1040
8.87215554796615
1000
ACAD_MTEXT_DEFINED_HEIGHT_END
  0
MTEXT
  5
1C845
330
13E17
100
AcDbEntity
  8
图框
100
AcDbMText
 10
1086.643735910939
 20
500.2775205517163
 30
0.0
 40
1.958998408821398
 41
13.34474941400573
 46
8.871557304763321
 71
     5
 72
     5
  1
产品名称\P{\Fromans|c134;Part Name}
 73
     1
 44
1.0
1001
AcDbBlockRepETag
1070
     1
1071
      140
1005
1C845
1001
ACAD
1000
ACAD_MTEXT_DEFINED_HEIGHT_BEGIN
1070
    46
1040
8.871557304763321
1000
ACAD_MTEXT_DEFINED_HEIGHT_END
  0
LINE
  5
1C846
330
13E17
100
AcDbEntity
  8
图框
 62
     1
370
    18
100
AcDbLine
 10
833.4128518455365
 20
690.5347692601515
 30
0.0
 11
833.4128518455365
 21
480.5347692601515
 31
0.0
1001
AcDbBlockRepETag
1070
     1
1071
      141
1005
1C846
  0
LINE
  5
1C847
330
13E17
100
AcDbEntity
  8
图框
 62
     1
370
    18
100
AcDbLine
 10
833.4128518455365
 20
480.5347692601515
 30
0.0
 11
1130.411601781236
 21
480.5347692601515
 31
0.0
1001
AcDbBlockRepETag
1070
     1
1071
      142
1005
1C847
  0
LINE
  5
1C848
330
13E17
100
AcDbEntity
  8
图框
 62
     1
370
    18
100
AcDbLine
 10
833.4128518455365
 20
690.5347692601515
 30
0.0
 11
1130.411601781236
 21
690.5347692601515
 31
0.0
1001
AcDbBlockRepETag
1070
     1
1071
      143
1005
1C848
  0
LINE
  5
1C849
330
13E17
100
AcDbEntity
  8
图框
 62
     1
370
    18
100
AcDbLine
 10
1130.411601781236
 20
480.5347692601515
 30
0.0
 11
1130.411601781236
 21
690.5347692601515
 31
0.0
1001
AcDbBlockRepETag
1070
     1
1071
      144
1005
1C849
  0
LINE
  5
1C84A
330
13E17
100
AcDbEntity
  8
图框
370
    18
100
AcDbLine
 10
836.9128518455394
 20
686.7901958362482
 30
0.0
 11
861.5351874539182
 21
686.7901958362482
 31
0.0
1001
AcDbBlockRepETag
1070
     1
1071
      145
1005
1C84A
  0
LINE
  5
1C84B
330
13E17
100
AcDbEntity
  8
图框
370
    50
100
AcDbLine
 10
1126.928502610363
 20
484.3410054693078
 30
0.0
 11
1126.928502610363
 21
675.5347692601515
 31
0.0
1001
AcDbBlockRepETag
1070
     1
1071
      146
1005
1C84B
  0
MTEXT
  5
1C84C
330
13E17
100
AcDbEntity
  8
图框
 62
     3
100
AcDbMText
 10
1052.897990117958
 20
495.8417418993364
 30
0.0
 40
2.985513575034151
 41
10.82934843439114
 46
7.886094601211307
 71
     5
 72
     5
  1
V1.1
  7
Romans字体
 73
     1
 44
1.0
1001
AcDbBlockRepETag
1070
     1
1071
      147
1005
1C84C
1001
ACAD
1000
ACAD_MTEXT_DEFINED_HEIGHT_BEGIN
1070
    46
1040
7.886094601211307
1000
ACAD_MTEXT_DEFINED_HEIGHT_END
  0
LINE
  5
1C84D
330
13E17
100
AcDbEntity
  8
图框
 62
     6
100
AcDbLine
 10
1126.911601781236
 20
531.714049199969
 30
0.0
 11
1130.411601781236
 21
531.714049199969
 31
0.0
1001
AcDbBlockRepETag
1070
     1
1071
      148
1005
1C84D
  0
ENDBLK
  5
13EAE
330
13E17
100
AcDbEntity
  8
0
100
AcDbBlockEnd
  0
BLOCK
  5
1C428
330
1C427
100
AcDbEntity
  8
0
100
AcDbBlockBegin
  2
*X2
 70
     1
 10
0.0
 20
0.0
 30
0.0
  3
*X2
  1

  0
LINE
  5
1C429
330
1C427
100
AcDbEntity
  8
2
  6
Continuous
 62
     1
100
AcDbLine
 10
-0.36959265
 20
-0.36959265
 30
0.0
 11
0.36959265
 21
0.36959265
 31
0.0
  0
LINE
  5
1C42A
330
1C427
100
AcDbEntity
  8
2
  6
Continuous
 62
     1
100
AcDbLine
 10
-1.2864078
 20
0.12780574
 30
0.0
 11
0.5538971200000002
 21
1.9681107
 31
0.0
  0
LINE
  5
1C42B
330
1C427
100
AcDbEntity
  8
2
  6
Continuous
 62
     1
100
AcDbLine
 10
-1.352889999999999
 20
1.475537199999999
 30
0.0
 11
0.22763372
 21
3.056060799999998
 31
0.0
  0
LINE
  5
1C42C
330
1C427
100
AcDbEntity
  8
2
  6
Continuous
 62
     1
100
AcDbLine
 10
-2.516233699999999
 20
1.726407
 30
0.0
 11
-0.0853568770000002
 21
4.157283799999999
 31
0.0
  0
LINE
  5
1C42D
330
1C427
100
AcDbEntity
  8
2
  6
Continuous
 62
     1
100
AcDbLine
 10
-3.930447299999998
 20
1.726407
 30
0.0
 11
-0.0316098569999999
 21
5.625244399999998
 31
0.0
  0
LINE
  5
1C42E
330
1C427
100
AcDbEntity
  8
2
  6
Continuous
 62
     1
100
AcDbLine
 10
-5.3446609
 20
1.726407
 30
0.0
 11
-3.840660899999998
 21
3.230407
 31
0.0
  0
LINE
  5
1C42F
330
1C427
100
AcDbEntity
  8
2
  6
Continuous
 62
     1
100
AcDbLine
 10
-1.8194656
 20
5.251602199999998
 30
0.0
 11
0.034579044
 21
7.105646899999999
 31
0.0
  0
LINE
  5
1C430
330
1C427
100
AcDbEntity
  8
2
  6
Continuous
 62
     1
100
AcDbLine
 10
-6.758874399999998
 20
1.726407
 30
0.0
 11
-5.2548744
 21
3.230407
 31
0.0
  0
LINE
  5
1C431
330
1C427
100
AcDbEntity
  8
2
  6
Continuous
 62
     1
100
AcDbLine
 10
-1.8035816
 20
6.681699799999998
 30
0.0
 11
0.0049189618000001
 21
8.490200299999997
 31
0.0
  0
LINE
  5
1C432
330
1C427
100
AcDbEntity
  8
2
  6
Continuous
 62
     1
100
AcDbLine
 10
-8.173087999999998
 20
1.726407
 30
0.0
 11
-6.669088
 21
3.230407
 31
0.0
  0
LINE
  5
1C433
330
1C427
100
AcDbEntity
  8
2
  6
Continuous
 62
     1
100
AcDbLine
 10
-2.321219699999998
 20
7.578275299999997
 30
0.0
 11
0.1703165599999998
 21
10.069811
 31
0.0
  0
LINE
  5
1C434
330
1C427
100
AcDbEntity
  8
2
  6
Continuous
 62
     1
100
AcDbLine
 10
-9.5873015
 20
1.726407
 30
0.0
 11
-8.083301499999999
 21
3.230407
 31
0.0
  0
LINE
  5
1C435
330
1C427
100
AcDbEntity
  8
2
  6
Continuous
 62
     1
100
AcDbLine
 10
-2.838857799999998
 20
8.474850699999997
 30
0.0
 11
-0.0258854020000001
 21
11.287823
 31
0.0
  0
LINE
  5
1C436
330
1C427
100
AcDbEntity
  8
2
  6
Continuous
 62
     1
100
AcDbLine
 10
-11.001515
 20
1.726407
 30
0.0
 11
-9.497515099999999
 21
3.230407
 31
0.0
  0
LINE
  5
1C437
330
1C427
100
AcDbEntity
  8
2
  6
Continuous
 62
     1
100
AcDbLine
 10
-3.997515099999999
 20
8.730406999999997
 30
0.0
 11
-2.4935151
 21
10.234407
 31
0.0
  0
LINE
  5
1C438
330
1C427
100
AcDbEntity
  8
2
  6
Continuous
 62
     1
100
AcDbLine
 10
-1.2864078
 20
11.441514
 30
0.0
 11
-0.4107734199999999
 21
12.317149
 31
0.0
  0
LINE
  5
1C439
330
1C427
100
AcDbEntity
  8
2
  6
Continuous
 62
     1
100
AcDbLine
 10
-12.415729
 20
1.726407
 30
0.0
 11
-10.911729
 21
3.230407
 31
0.0
  0
LINE
  5
1C43A
330
1C427
100
AcDbEntity
  8
2
  6
Continuous
 62
     1
100
AcDbLine
 10
-5.4117287
 20
8.730406999999997
 30
0.0
 11
-3.907728699999998
 21
10.234407
 31
0.0
  0
LINE
  5
1C43B
330
1C427
100
AcDbEntity
  8
2
  6
Continuous
 62
     1
100
AcDbLine
 10
-13.829942
 20
1.726407
 30
0.0
 11
-12.325942
 21
3.230407
 31
0.0
  0
LINE
  5
1C43C
330
1C427
100
AcDbEntity
  8
2
  6
Continuous
 62
     1
100
AcDbLine
 10
-6.8259422
 20
8.730406999999997
 30
0.0
 11
-5.321942199999998
 21
10.234407
 31
0.0
  0
LINE
  5
1C43D
330
1C427
100
AcDbEntity
  8
2
  6
Continuous
 62
     1
100
AcDbLine
 10
-15.244156
 20
1.726407
 30
0.0
 11
-13.740156
 21
3.230407
 31
0.0
  0
LINE
  5
1C43E
330
1C427
100
AcDbEntity
  8
2
  6
Continuous
 62
     1
100
AcDbLine
 10
-8.2401558
 20
8.730406999999997
 30
0.0
 11
-6.736155799999998
 21
10.234407
 31
0.0
  0
LINE
  5
1C43F
330
1C427
100
AcDbEntity
  8
2
  6
Continuous
 62
     1
100
AcDbLine
 10
-16.658369
 20
1.726407
 30
0.0
 11
-15.154369
 21
3.230407
 31
0.0
  0
LINE
  5
1C440
330
1C427
100
AcDbEntity
  8
2
  6
Continuous
 62
     1
100
AcDbLine
 10
-9.6543694
 20
8.730406999999997
 30
0.0
 11
-8.1503694
 21
10.234407
 31
0.0
  0
LINE
  5
1C441
330
1C427
100
AcDbEntity
  8
2
  6
Continuous
 62
     1
100
AcDbLine
 10
-18.072583
 20
1.726407
 30
0.0
 11
-16.568583
 21
3.230407
 31
0.0
  0
LINE
  5
1C442
330
1C427
100
AcDbEntity
  8
2
  6
Continuous
 62
     1
100
AcDbLine
 10
-11.068583
 20
8.730406999999997
 30
0.0
 11
-9.564582899999999
 21
10.234407
 31
0.0
  0
LINE
  5
1C443
330
1C427
100
AcDbEntity
  8
2
  6
Continuous
 62
     1
100
AcDbLine
 10
-21.582796
 20
-0.36959305
 30
0.0
 11
-17.982796
 21
3.230407
 31
0.0
  0
LINE
  5
1C444
330
1C427
100
AcDbEntity
  8
2
  6
Continuous
 62
     1
100
AcDbLine
 10
-12.482796
 20
8.730406999999997
 30
0.0
 11
-10.978796
 21
10.234407
 31
0.0
  0
LINE
  5
1C445
330
1C427
100
AcDbEntity
  8
2
  6
Continuous
 62
     1
100
AcDbLine
 10
-22.486403
 20
0.14101378
 30
0.0
 11
-19.39701
 21
3.230407
 31
0.0
  0
LINE
  5
1C446
330
1C427
100
AcDbEntity
  8
2
  6
Continuous
 62
     1
100
AcDbLine
 10
-13.89701
 20
8.730406999999997
 30
0.0
 11
-12.39301
 21
10.234407
 31
0.0
  0
LINE
  5
1C447
330
1C427
100
AcDbEntity
  8
2
  6
Continuous
 62
     1
100
AcDbLine
 10
-22.486403
 20
1.5552273
 30
0.0
 11
-20.888911
 21
3.152719499999999
 31
0.0
  0
LINE
  5
1C448
330
1C427
100
AcDbEntity
  8
2
  6
Continuous
 62
     1
100
AcDbLine
 10
-15.311224
 20
8.730406999999997
 30
0.0
 11
-13.807224
 21
10.234407
 31
0.0
  0
LINE
  5
1C449
330
1C427
100
AcDbEntity
  8
2
  6
Continuous
 62
     1
100
AcDbLine
 10
-16.725437
 20
8.730406999999997
 30
0.0
 11
-15.221437
 21
10.234407
 31
0.0
  0
LINE
  5
1C44A
330
1C427
100
AcDbEntity
  8
2
  6
Continuous
 62
     1
100
AcDbLine
 10
-18.139651
 20
8.730406999999997
 30
0.0
 11
-16.635651
 21
10.234407
 31
0.0
  0
LINE
  5
1C44B
330
1C427
100
AcDbEntity
  8
2
  6
Continuous
 62
     1
100
AcDbLine
 10
-19.553864
 20
8.730406999999997
 30
0.0
 11
-18.049864
 21
10.234407
 31
0.0
  0
LINE
  5
1C44C
330
1C427
100
AcDbEntity
  8
2
  6
Continuous
 62
     1
100
AcDbLine
 10
-20.889849
 20
8.8086359
 30
0.0
 11
-19.425241
 21
10.273244
 31
0.0
  0
LINE
  5
1C44D
330
1C427
100
AcDbEntity
  8
2
  6
Continuous
 62
     1
100
AcDbLine
 10
-21.786424
 20
9.326273999999999
 30
0.0
 11
-20.132347
 21
10.980351
 31
0.0
  0
LINE
  5
1C44E
330
1C427
100
AcDbEntity
  8
2
  6
Continuous
 62
     1
100
AcDbLine
 10
-22.486403
 20
10.040509
 30
0.0
 11
-20.839454
 21
11.687458
 31
0.0
  0
LINE
  5
1C44F
330
1C427
100
AcDbEntity
  8
2
  6
Continuous
 62
     1
100
AcDbLine
 10
-22.486403
 20
11.454722
 30
0.0
 11
-21.610719
 21
12.330407
 31
0.0
  0
ENDBLK
  5
1C450
330
1C427
100
AcDbEntity
  8
0
100
AcDbBlockEnd
  0
BLOCK
  5
1C5E0
330
1C5DF
100
AcDbEntity
  8
0
100
AcDbBlockBegin
  2
*D3
 70
     1
 10
0.0
 20
0.0
 30
0.0
  3
*D3
  1

  0
LINE
  5
1C705
330
1C5DF
100
AcDbEntity
  8
DIM
 62
     6
370
    -2
100
AcDbLine
 10
570.2181883733478
 20
237.3431016951022
 30
0.0
 11
570.2181883733478
 21
229.379834696166
 31
0.0
  0
LINE
  5
1C706
330
1C5DF
100
AcDbEntity
  8
DIM
 62
     6
370
    -2
100
AcDbLine
 10
609.6451183733476
 20
237.3431016951022
 30
0.0
 11
609.6451183733476
 21
229.379834696166
 31
0.0
  0
LINE
  5
1C707
330
1C5DF
100
AcDbEntity
  8
DIM
 62
     1
370
    -2
100
AcDbLine
 10
571.718188373348
 20
229.6798346961661
 30
0.0
 11
608.1451183733475
 21
229.6798346961661
 31
0.0
  0
SOLID
  5
1C708
330
1C5DF
100
AcDbEntity
  8
DIM
 62
     1
100
AcDbTrace
 10
571.718188373348
 20
229.9298346961661
 30
0.0
 11
571.718188373348
 21
229.4298346961661
 31
0.0
 12
570.2181883733478
 22
229.6798346961661
 32
0.0
 13
570.2181883733478
 23
229.6798346961661
 33
0.0
  0
SOLID
  5
1C709
330
1C5DF
100
AcDbEntity
  8
DIM
 62
     1
100
AcDbTrace
 10
608.1451183733475
 20
229.9298346961661
 30
0.0
 11
608.1451183733475
 21
229.4298346961661
 31
0.0
 12
609.6451183733476
 22
229.6798346961661
 32
0.0
 13
609.6451183733476
 23
229.6798346961661
 33
0.0
  0
MTEXT
  5
1C70A
330
1C5DF
100
AcDbEntity
  8
DIM
 62
     4
100
AcDbMText
 10
589.9316533733477
 20
230.9798346961661
 30
0.0
 40
2.0
 41
0.0
 46
0.0
 71
     5
 72
     1
  1
\A1;39.45
  7
Romans字体
 73
     1
 44
1.0
  0
POINT
  5
1C70B
330
1C5DF
100
AcDbEntity
  8
Defpoints
 62
     0
100
AcDbPoint
 10
570.2181883733478
 20
237.5431016951022
 30
0.0
  0
POINT
  5
1C70C
330
1C5DF
100
AcDbEntity
  8
Defpoints
 62
     0
100
AcDbPoint
 10
609.6451183733476
 20
237.5431016951022
 30
0.0
  0
POINT
  5
1C70D
330
1C5DF
100
AcDbEntity
  8
Defpoints
 62
     0
100
AcDbPoint
 10
609.6451183733476
 20
229.6798346961661
 30
0.0
  0
ENDBLK
  5
1C5E1
330
1C5DF
100
AcDbEntity
  8
0
100
AcDbBlockEnd
  0
BLOCK
  5
1C5EC
330
1C5EB
100
AcDbEntity
  8
0
100
AcDbBlockBegin
  2
*D4
 70
     1
 10
0.0
 20
0.0
 30
0.0
  3
*D4
  1

  0
LINE
  5
1C717
330
1C5EB
100
AcDbEntity
  8
DIM
 62
     6
370
    -2
100
AcDbLine
 10
570.0181883733478
 20
251.4097768670201
 30
0.0
 11
562.0811799395255
 21
251.4097768670201
 31
0.0
  0
LINE
  5
1C718
330
1C5EB
100
AcDbEntity
  8
DIM
 62
     6
370
    -2
100
AcDbLine
 10
570.0181883733478
 20
238.7097738670202
 30
0.0
 11
562.0811799395255
 21
238.7097738670202
 31
0.0
  0
LINE
  5
1C719
330
1C5EB
100
AcDbEntity
  8
DIM
 62
     1
370
    -2
100
AcDbLine
 10
562.3811799395256
 20
249.9097768670201
 30
0.0
 11
562.3811799395256
 21
240.2097738670202
 31
0.0
  0
SOLID
  5
1C71A
330
1C5EB
100
AcDbEntity
  8
DIM
 62
     1
100
AcDbTrace
 10
562.1311799395256
 20
249.9097768670201
 30
0.0
 11
562.6311799395256
 21
249.9097768670201
 31
0.0
 12
562.3811799395256
 22
251.4097768670201
 32
0.0
 13
562.3811799395256
 23
251.4097768670201
 33
0.0
  0
SOLID
  5
1C71B
330
1C5EB
100
AcDbEntity
  8
DIM
 62
     1
100
AcDbTrace
 10
562.1311799395256
 20
240.2097738670202
 30
0.0
 11
562.6311799395256
 21
240.2097738670202
 31
0.0
 12
562.3811799395256
 22
238.7097738670202
 32
0.0
 13
562.3811799395256
 23
238.7097738670202
 33
0.0
  0
MTEXT
  5
1C71C
330
1C5EB
100
AcDbEntity
  8
DIM
 62
     4
100
AcDbMText
 10
561.0811799395255
 20
245.0597753670202
 30
0.0
 40
2.0
 41
0.0
 46
0.0
 71
     5
 72
     1
  1
\A1;%%C12.7
  7
Romans字体
 11
0.0000000000000001
 21
1.0
 31
0.0
 73
     1
 44
1.0
  0
POINT
  5
1C71D
330
1C5EB
100
AcDbEntity
  8
Defpoints
 62
     0
100
AcDbPoint
 10
570.2181883733478
 20
251.4097768670201
 30
0.0
  0
POINT
  5
1C71E
330
1C5EB
100
AcDbEntity
  8
Defpoints
 62
     0
100
AcDbPoint
 10
570.2181883733478
 20
238.7097738670202
 30
0.0
  0
POINT
  5
1C71F
330
1C5EB
100
AcDbEntity
  8
Defpoints
 62
     0
100
AcDbPoint
 10
562.3811799395256
 20
238.7097738670202
 30
0.0
  0
ENDBLK
  5
1C5ED
330
1C5EB
100
AcDbEntity
  8
0
100
AcDbBlockEnd
  0
BLOCK
  5
1C5F8
330
1C5F7
100
AcDbEntity
  8
0
100
AcDbBlockBegin
  2
*D5
 70
     1
 10
0.0
 20
0.0
 30
0.0
  3
*D5
  1

  0
LINE
  5
1C6AB
330
1C5F7
100
AcDbEntity
  8
DIM
 62
     6
370
    -2
100
AcDbLine
 10
571.7502393733468
 20
247.8097768670202
 30
0.0
 11
567.7087257424407
 21
247.8097768670202
 31
0.0
  0
LINE
  5
1C6AC
330
1C5F7
100
AcDbEntity
  8
DIM
 62
     6
370
    -2
100
AcDbLine
 10
571.7502393733468
 20
242.3097738670205
 30
0.0
 11
567.7087257424407
 21
242.3097738670205
 31
0.0
  0
LINE
  5
1C6AD
330
1C5F7
100
AcDbEntity
  8
DIM
 62
     1
370
    -2
100
AcDbLine
 10
568.0087257424406
 20
246.3097768670202
 30
0.0
 11
568.0087257424406
 21
243.8097738670205
 31
0.0
  0
SOLID
  5
1C6AE
330
1C5F7
100
AcDbEntity
  8
DIM
 62
     1
100
AcDbTrace
 10
567.7587257424407
 20
246.3097768670202
 30
0.0
 11
568.2587257424406
 21
246.3097768670202
 31
0.0
 12
568.0087257424406
 22
247.8097768670202
 32
0.0
 13
568.0087257424406
 23
247.8097768670202
 33
0.0
  0
SOLID
  5
1C6AF
330
1C5F7
100
AcDbEntity
  8
DIM
 62
     1
100
AcDbTrace
 10
567.7587257424407
 20
243.8097738670205
 30
0.0
 11
568.2587257424406
 21
243.8097738670205
 31
0.0
 12
568.0087257424406
 22
242.3097738670205
 32
0.0
 13
568.0087257424406
 23
242.3097738670205
 33
0.0
  0
MTEXT
  5
1C6B0
330
1C5F7
100
AcDbEntity
  8
DIM
 62
     4
100
AcDbMText
 10
566.7087257424407
 20
245.0597753670205
 30
0.0
 40
2.0
 41
0.0
 46
0.0
 71
     5
 72
     1
  1
\A1;%%C5.5
  7
Romans字体
 11
0.0000000000000001
 21
1.0
 31
0.0
 73
     1
 44
1.0
  0
POINT
  5
1C6B1
330
1C5F7
100
AcDbEntity
  8
Defpoints
 62
     0
100
AcDbPoint
 10
571.950239373347
 20
247.8097768670202
 30
0.0
  0
POINT
  5
1C6B2
330
1C5F7
100
AcDbEntity
  8
Defpoints
 62
     0
100
AcDbPoint
 10
571.950239373347
 20
242.3097738670205
 30
0.0
  0
POINT
  5
1C6B3
330
1C5F7
100
AcDbEntity
  8
Defpoints
 62
     0
100
AcDbPoint
 10
568.0087257424406
 20
242.3097738670205
 30
0.0
  0
ENDBLK
  5
1C5F9
330
1C5F7
100
AcDbEntity
  8
0
100
AcDbBlockEnd
  0
BLOCK
  5
1C604
330
1C603
100
AcDbEntity
  8
0
100
AcDbBlockBegin
  2
*D6
 70
     1
 10
0.0
 20
0.0
 30
0.0
  3
*D6
  1

  0
LINE
  5
1C6F3
330
1C603
100
AcDbEntity
  8
DIM
 62
     6
370
    -2
100
AcDbLine
 10
609.6451183733476
 20
240.877511418385
 30
0.0
 11
609.6451183733476
 21
233.7638970326304
 31
0.0
  0
LINE
  5
1C6F4
330
1C603
100
AcDbEntity
  8
DIM
 62
     6
370
    -2
100
AcDbLine
 10
595.6451183733475
 20
241.2593216248179
 30
0.0
 11
595.6451183733475
 21
233.7638970326304
 31
0.0
  0
LINE
  5
1C6F5
330
1C603
100
AcDbEntity
  8
DIM
 62
     1
370
    -2
100
AcDbLine
 10
608.1451183733475
 20
234.0638970326304
 30
0.0
 11
597.1451183733476
 21
234.0638970326304
 31
0.0
  0
SOLID
  5
1C6F6
330
1C603
100
AcDbEntity
  8
DIM
 62
     1
100
AcDbTrace
 10
608.1451183733475
 20
234.3138970326304
 30
0.0
 11
608.1451183733475
 21
233.8138970326304
 31
0.0
 12
609.6451183733476
 22
234.0638970326304
 32
0.0
 13
609.6451183733476
 23
234.0638970326304
 33
0.0
  0
SOLID
  5
1C6F7
330
1C603
100
AcDbEntity
  8
DIM
 62
     1
100
AcDbTrace
 10
597.1451183733476
 20
234.3138970326304
 30
0.0
 11
597.1451183733476
 21
233.8138970326304
 31
0.0
 12
595.6451183733475
 22
234.0638970326304
 32
0.0
 13
595.6451183733475
 23
234.0638970326304
 33
0.0
  0
MTEXT
  5
1C6F8
330
1C603
100
AcDbEntity
  8
DIM
 62
     4
100
AcDbMText
 10
602.6451183733476
 20
235.3638970326304
 30
0.0
 40
2.0
 41
0.0
 46
0.0
 71
     5
 72
     1
  1
\A1;14
  7
Romans字体
 73
     1
 44
1.0
  0
POINT
  5
1C6F9
330
1C603
100
AcDbEntity
  8
Defpoints
 62
     0
100
AcDbPoint
 10
609.6451183733476
 20
241.077511418385
 30
0.0
  0
POINT
  5
1C6FA
330
1C603
100
AcDbEntity
  8
Defpoints
 62
     0
100
AcDbPoint
 10
595.6451183733475
 20
241.4593216248179
 30
0.0
  0
POINT
  5
1C6FB
330
1C603
100
AcDbEntity
  8
Defpoints
 62
     0
100
AcDbPoint
 10
595.6451183733475
 20
234.0638970326304
 30
0.0
  0
ENDBLK
  5
1C605
330
1C603
100
AcDbEntity
  8
0
100
AcDbBlockEnd
  0
BLOCK
  5
1C610
330
1C60F
100
AcDbEntity
  8
0
100
AcDbBlockBegin
  2
*D7
 70
     1
 10
0.0
 20
0.0
 30
0.0
  3
*D7
  1

  0
LINE
  5
1C6FC
330
1C60F
100
AcDbEntity
  8
DIM
 62
     6
370
    -2
100
AcDbLine
 10
570.2181883733478
 20
238.7000023905703
 30
0.0
 11
570.2181883733478
 21
233.7638970326304
 31
0.0
  0
LINE
  5
1C6FD
330
1C60F
100
AcDbEntity
  8
DIM
 62
     6
370
    -2
100
AcDbLine
 10
589.7181883733479
 20
242.8515878581939
 30
0.0
 11
589.7181883733479
 21
233.7638970326304
 31
0.0
  0
LINE
  5
1C6FE
330
1C60F
100
AcDbEntity
  8
DIM
 62
     1
370
    -2
100
AcDbLine
 10
571.718188373348
 20
234.0638970326304
 30
0.0
 11
588.2181883733478
 21
234.0638970326304
 31
0.0
  0
SOLID
  5
1C6FF
330
1C60F
100
AcDbEntity
  8
DIM
 62
     1
100
AcDbTrace
 10
571.718188373348
 20
234.3138970326304
 30
0.0
 11
571.718188373348
 21
233.8138970326304
 31
0.0
 12
570.2181883733478
 22
234.0638970326304
 32
0.0
 13
570.2181883733478
 23
234.0638970326304
 33
0.0
  0
SOLID
  5
1C700
330
1C60F
100
AcDbEntity
  8
DIM
 62
     1
100
AcDbTrace
 10
588.2181883733478
 20
234.3138970326304
 30
0.0
 11
588.2181883733478
 21
233.8138970326304
 31
0.0
 12
589.7181883733479
 22
234.0638970326304
 32
0.0
 13
589.7181883733479
 23
234.0638970326304
 33
0.0
  0
MTEXT
  5
1C701
330
1C60F
100
AcDbEntity
  8
DIM
 62
     4
100
AcDbMText
 10
579.9681883733478
 20
235.3638970326304
 30
0.0
 40
2.0
 41
0.0
 46
0.0
 71
     5
 72
     1
  1
\A1;19.5
  7
Romans字体
 73
     1
 44
1.0
  0
POINT
  5
1C702
330
1C60F
100
AcDbEntity
  8
Defpoints
 62
     0
100
AcDbPoint
 10
570.2181883733478
 20
238.9000023905703
 30
0.0
  0
POINT
  5
1C703
330
1C60F
100
AcDbEntity
  8
Defpoints
 62
     0
100
AcDbPoint
 10
589.7181883733479
 20
243.0515878581939
 30
0.0
  0
POINT
  5
1C704
330
1C60F
100
AcDbEntity
  8
Defpoints
 62
     0
100
AcDbPoint
 10
589.7181883733479
 20
234.0638970326304
 30
0.0
  0
ENDBLK
  5
1C611
330
1C60F
100
AcDbEntity
  8
0
100
AcDbBlockEnd
  0
BLOCK
  5
1C61C
330
1C61B
100
AcDbEntity
  8
0
100
AcDbBlockBegin
  2
*D8
 70
     1
 10
0.0
 20
0.0
 30
0.0
  3
*D8
  1

  0
LINE
  5
1C70E
330
1C61B
100
AcDbEntity
  8
DIM
 62
     6
370
    -2
100
AcDbLine
 10
573.5999016270301
 20
249.3137768670206
 30
0.0
 11
565.0222102632958
 21
249.3137768670206
 31
0.0
  0
LINE
  5
1C70F
330
1C61B
100
AcDbEntity
  8
DIM
 62
     6
370
    -2
100
AcDbLine
 10
573.5999016270301
 20
240.8057738670202
 30
0.0
 11
565.0222102632958
 21
240.8057738670202
 31
0.0
  0
LINE
  5
1C710
330
1C61B
100
AcDbEntity
  8
DIM
 62
     1
370
    -2
100
AcDbLine
 10
565.3222102632959
 20
247.8137768670205
 30
0.0
 11
565.3222102632959
 21
242.3057738670202
 31
0.0
  0
SOLID
  5
1C711
330
1C61B
100
AcDbEntity
  8
DIM
 62
     1
100
AcDbTrace
 10
565.0722102632959
 20
247.8137768670205
 30
0.0
 11
565.5722102632958
 21
247.8137768670205
 31
0.0
 12
565.3222102632959
 22
249.3137768670206
 32
0.0
 13
565.3222102632959
 23
249.3137768670206
 33
0.0
  0
SOLID
  5
1C712
330
1C61B
100
AcDbEntity
  8
DIM
 62
     1
100
AcDbTrace
 10
565.0722102632959
 20
242.3057738670202
 30
0.0
 11
565.5722102632958
 21
242.3057738670202
 31
0.0
 12
565.3222102632959
 22
240.8057738670202
 32
0.0
 13
565.3222102632959
 23
240.8057738670202
 33
0.0
  0
MTEXT
  5
1C713
330
1C61B
100
AcDbEntity
  8
DIM
 62
     4
100
AcDbMText
 10
564.0222102632958
 20
245.0597753670205
 30
0.0
 40
2.0
 41
0.0
 46
0.0
 71
     5
 72
     1
  1
\A1;%%C8.5
  7
Romans字体
 11
0.0000000000000001
 21
1.0
 31
0.0
 73
     1
 44
1.0
  0
POINT
  5
1C714
330
1C61B
100
AcDbEntity
  8
Defpoints
 62
     0
100
AcDbPoint
 10
573.79990162703
 20
249.3137768670206
 30
0.0
  0
POINT
  5
1C715
330
1C61B
100
AcDbEntity
  8
Defpoints
 62
     0
100
AcDbPoint
 10
573.79990162703
 20
240.8057738670202
 30
0.0
  0
POINT
  5
1C716
330
1C61B
100
AcDbEntity
  8
Defpoints
 62
     0
100
AcDbPoint
 10
565.3222102632959
 20
240.8057738670202
 30
0.0
  0
ENDBLK
  5
1C61D
330
1C61B
100
AcDbEntity
  8
0
100
AcDbBlockEnd
  0
BLOCK
  5
1C628
330
1C627
100
AcDbEntity
  8
0
100
AcDbBlockBegin
  2
*D9
 70
     1
 10
0.0
 20
0.0
 30
0.0
  3
*D9
  1

  0
LINE
  5
1C720
330
1C627
100
AcDbEntity
  8
DIM
 62
     6
370
    -2
100
AcDbLine
 10
608.9364422104816
 20
250.5597768670202
 30
0.0
 11
613.6894366945251
 21
250.5597768670202
 31
0.0
  0
LINE
  5
1C721
330
1C627
100
AcDbEntity
  8
DIM
 62
     6
370
    -2
100
AcDbLine
 10
608.2652444469539
 20
239.5597768670202
 30
0.0
 11
613.6894366945251
 21
239.5597768670202
 31
0.0
  0
LINE
  5
1C722
330
1C627
100
AcDbEntity
  8
DIM
 62
     1
370
    -2
100
AcDbLine
 10
613.3894366945252
 20
249.0597768670202
 30
0.0
 11
613.3894366945252
 21
241.0597768670202
 31
0.0
  0
SOLID
  5
1C723
330
1C627
100
AcDbEntity
  8
DIM
 62
     1
100
AcDbTrace
 10
613.1394366945252
 20
249.0597768670202
 30
0.0
 11
613.6394366945252
 21
249.0597768670202
 31
0.0
 12
613.3894366945252
 22
250.5597768670202
 32
0.0
 13
613.3894366945252
 23
250.5597768670202
 33
0.0
  0
SOLID
  5
1C724
330
1C627
100
AcDbEntity
  8
DIM
 62
     1
100
AcDbTrace
 10
613.1394366945252
 20
241.0597768670202
 30
0.0
 11
613.6394366945252
 21
241.0597768670202
 31
0.0
 12
613.3894366945252
 22
239.5597768670202
 32
0.0
 13
613.3894366945252
 23
239.5597768670202
 33
0.0
  0
MTEXT
  5
1C725
330
1C627
100
AcDbEntity
  8
DIM
 62
     4
100
AcDbMText
 10
612.0894366945252
 20
245.0597768670203
 30
0.0
 40
2.0
 41
0.0
 46
0.0
 71
     5
 72
     1
  1
\A1;%%C11
  7
Romans字体
 11
0.0000000000000001
 21
1.0
 31
0.0
 73
     1
 44
1.0
  0
POINT
  5
1C726
330
1C627
100
AcDbEntity
  8
Defpoints
 62
     0
100
AcDbPoint
 10
608.7364422104816
 20
250.5597768670202
 30
0.0
  0
POINT
  5
1C727
330
1C627
100
AcDbEntity
  8
Defpoints
 62
     0
100
AcDbPoint
 10
608.0652444469539
 20
239.5597768670202
 30
0.0
  0
POINT
  5
1C728
330
1C627
100
AcDbEntity
  8
Defpoints
 62
     0
100
AcDbPoint
 10
613.3894366945252
 20
239.5597768670202
 30
0.0
  0
ENDBLK
  5
1C629
330
1C627
100
AcDbEntity
  8
0
100
AcDbBlockEnd
  0
BLOCK
  5
1C634
330
1C633
100
AcDbEntity
  8
0
100
AcDbBlockBegin
  2
*D10
 70
     1
 10
0.0
 20
0.0
 30
0.0
  3
*D10
  1

  0
LINE
  5
1C729
330
1C633
100
AcDbEntity
  8
DIM
 62
     6
370
    -2
100
AcDbLine
 10
593.5059762464415
 20
251.4097768670201
 30
0.0
 11
616.951416748216
 21
251.4097768670201
 31
0.0
  0
LINE
  5
1C72A
330
1C633
100
AcDbEntity
  8
DIM
 62
     6
370
    -2
100
AcDbLine
 10
593.5059762464415
 20
238.7097738670202
 30
0.0
 11
616.951416748216
 21
238.7097738670202
 31
0.0
  0
LINE
  5
1C72B
330
1C633
100
AcDbEntity
  8
DIM
 62
     1
370
    -2
100
AcDbLine
 10
616.6514167482159
 20
249.9097768670201
 30
0.0
 11
616.6514167482159
 21
240.2097738670202
 31
0.0
  0
SOLID
  5
1C72C
330
1C633
100
AcDbEntity
  8
DIM
 62
     1
100
AcDbTrace
 10
616.4014167482161
 20
249.9097768670201
 30
0.0
 11
616.9014167482161
 21
249.9097768670201
 31
0.0
 12
616.6514167482159
 22
251.4097768670201
 32
0.0
 13
616.6514167482159
 23
251.4097768670201
 33
0.0
  0
SOLID
  5
1C72D
330
1C633
100
AcDbEntity
  8
DIM
 62
     1
100
AcDbTrace
 10
616.4014167482161
 20
240.2097738670202
 30
0.0
 11
616.9014167482161
 21
240.2097738670202
 31
0.0
 12
616.6514167482159
 22
238.7097738670202
 32
0.0
 13
616.6514167482159
 23
238.7097738670202
 33
0.0
  0
MTEXT
  5
1C72E
330
1C633
100
AcDbEntity
  8
DIM
 62
     4
100
AcDbMText
 10
615.3514167482161
 20
245.0597753670202
 30
0.0
 40
2.0
 41
0.0
 46
0.0
 71
     5
 72
     1
  1
\A1;%%C12.7
  7
Romans字体
 11
0.0000000000000001
 21
1.0
 31
0.0
 73
     1
 44
1.0
  0
POINT
  5
1C72F
330
1C633
100
AcDbEntity
  8
Defpoints
 62
     0
100
AcDbPoint
 10
593.3059762464413
 20
251.4097768670201
 30
0.0
  0
POINT
  5
1C730
330
1C633
100
AcDbEntity
  8
Defpoints
 62
     0
100
AcDbPoint
 10
593.3059762464413
 20
238.7097738670202
 30
0.0
  0
POINT
  5
1C731
330
1C633
100
AcDbEntity
  8
Defpoints
 62
     0
100
AcDbPoint
 10
616.6514167482159
 20
238.7097738670202
 30
0.0
  0
ENDBLK
  5
1C635
330
1C633
100
AcDbEntity
  8
0
100
AcDbBlockEnd
  0
ENDSEC
  0
SECTION
  2
ENTITIES
  0
HATCH
  5
28AE
330
1F
100
AcDbEntity
  8
图层 1
 62
     7
100
AcDbHatch
 10
0.0
 20
0.0
 30
0.0
210
0.0
220
0.0
230
1.0
  2
SOLID
 70
     1
 71
     0
 91
        1
 92
        1
 93
        2
 72
     4
 94
        3
 73
     0
 74
     0
 95
       17
 96
       13
 40
0.0
 40
0.0
 40
0.0
 40
0.0
 40
0.3527780104152769
 40
0.3527780104152769
 40
0.3527780104152769
 40
0.7055560208305538
 40
0.7055560208305538
 40
0.7055560208305538
 40
1.058334031245828
 40
1.058334031245828
 40
1.058334031245828
 40
1.411112041661104
 40
1.411112041661104
 40
1.411112041661104
 40
1.411112041661104
 10
11.07013262565829
 20
29.50312817963231
 10
11.07013262565829
 20
29.50312817963231
 10
10.9431807732774
 20
29.50312817963231
 10
10.9431807732774
 20
29.50312817963231
 10
10.9431807732774
 20
29.50312817963231
 10
10.85843136843155
 20
29.22786486877117
 10
10.85843136843155
 20
29.22786486877117
 10
10.85843136843155
 20
29.22786486877117
 10
10.90080607085448
 20
29.2068497724476
 10
10.90080607085448
 20
29.2068497724476
 10
10.94455881238059
 20
29.31571486159919
 10
11.00346998404173
 20
29.40907701083995
 10
11.07013262565829
 20
29.50312817963231
 72
     1
 10
11.07013262565829
 20
29.50312817963231
 11
11.07013262565829
 21
29.50312817963231
 97
        0
 75
     0
 76
     1
 98
        0
450
        0
451
        0
460
0.0
461
0.0
452
        0
462
0.0
453
        0
470

  0
HATCH
  5
2C65
330
1F
100
AcDbEntity
  8
图层 1
 62
     7
100
AcDbHatch
 10
0.0
 20
0.0
 30
0.0
210
0.0
220
0.0
230
1.0
  2
SOLID
 70
     1
 71
     0
 91
        1
 92
        1
 93
        2
 72
     4
 94
        3
 73
     0
 74
     0
 95
       47
 96
       43
 40
0.0
 40
0.0
 40
0.0
 40
0.0
 40
0.3527780104152769
 40
0.3527780104152769
 40
0.3527780104152769
 40
0.7055560208305538
 40
0.7055560208305538
 40
0.7055560208305538
 40
1.058334031245828
 40
1.058334031245828
 40
1.058334031245828
 40
1.411112041661104
 40
1.411112041661104
 40
1.411112041661104
 40
1.763890052076384
 40
1.763890052076384
 40
1.763890052076384
 40
2.116668062491659
 40
2.116668062491659
 40
2.116668062491659
 40
2.469446072906936
 40
2.469446072906936
 40
2.469446072906936
 40
2.822224083322215
 40
2.822224083322215
 40
2.822224083322215
 40
3.175002093737492
 40
3.175002093737492
 40
3.175002093737492
 40
3.527780104152768
 40
3.527780104152768
 40
3.527780104152768
 40
3.880558114568044
 40
3.880558114568044
 40
3.880558114568044
 40
4.233336124983321
 40
4.233336124983321
 40
4.233336124983321
 40
4.586114135398599
 40
4.586114135398599
 40
4.586114135398599
 40
4.938892145813873
 40
4.938892145813873
 40
4.938892145813873
 40
4.938892145813873
 10
162.8986914070121
 20
257.4895347631509
 10
162.8986914070121
 20
257.4895347631509
 10
162.9200510131114
 20
257.4471600607279
 10
162.9200510131114
 20
257.4471600607279
 10
162.9200510131114
 20
257.4471600607279
 10
162.9200510131114
 20
257.404785358305
 10
162.9200510131114
 20
257.404785358305
 10
162.9200510131114
 20
257.404785358305
 10
162.8986914070121
 20
257.36258291077
 10
162.8986914070121
 20
257.36258291077
 10
162.8986914070121
 20
257.36258291077
 10
162.8986914070121
 20
257.320208208347
 10
162.8986914070121
 20
257.320208208347
 10
162.8986914070121
 20
257.320208208347
 10
162.8563167045891
 20
257.2990208571356
 10
162.8563167045891
 20
257.2990208571356
 10
162.8563167045891
 20
257.2990208571356
 10
162.8139420021662
 20
257.2563016449369
 10
162.8139420021662
 20
257.2563016449369
 10
162.8139420021662
 20
257.2563016449369
 10
162.7295371070961
 20
257.2563016449369
 10
162.7295371070961
 20
257.2563016449369
 10
162.7295371070961
 20
257.2563016449369
 10
162.6658027985738
 20
257.2778335059241
 10
162.6658027985738
 20
257.2778335059241
 10
162.6658027985738
 20
257.2778335059241
 10
162.6237726059267
 20
257.2990208571356
 10
162.6237726059267
 20
257.2990208571356
 10
162.6237726059267
 20
257.2990208571356
 10
162.5813979035038
 20
257.3413955595585
 10
162.5813979035038
 20
257.3413955595585
 10
162.5813979035038
 20
257.3413955595585
 10
162.5813979035038
 20
257.4895347631509
 10
162.5813979035038
 20
257.4895347631509
 10
162.5813979035038
 20
257.4895347631509
 10
162.6447877022503
 20
257.5525800521216
 10
162.6447877022503
 20
257.5525800521216
 10
162.6447877022503
 20
257.5525800521216
 10
162.7081775009967
 20
257.5525800521216
 10
162.7081775009967
 20
257.5525800521216
 10
162.8749202324821
 20
257.5424170137356
 10
162.7918933765152
 20
257.5939212252171
 10
162.8986914070121
 20
257.4895347631509
 72
     1
 10
162.8986914070121
 20
257.4895347631509
 11
162.8986914070121
 21
257.4895347631509
 97
        0
 75
     0
 76
     1
 98
        0
450
        0
451
        0
460
0.0
461
0.0
452
        0
462
0.0
453
        0
470

  0
HATCH
  5
2EE7
330
1F
100
AcDbEntity
  8
图层 1
 62
     7
100
AcDbHatch
 10
0.0
 20
0.0
 30
0.0
210
0.0
220
0.0
230
1.0
  2
SOLID
 70
     1
 71
     0
 91
        1
 92
        1
 93
        2
 72
     4
 94
        3
 73
     0
 74
     0
 95
       56
 96
       52
 40
0.0
 40
0.0
 40
0.0
 40
0.0
 40
0.3527780104152769
 40
0.3527780104152769
 40
0.3527780104152769
 40
0.7055560208305538
 40
0.7055560208305538
 40
0.7055560208305538
 40
1.058334031245828
 40
1.058334031245828
 40
1.058334031245828
 40
1.411112041661104
 40
1.411112041661104
 40
1.411112041661104
 40
1.763890052076384
 40
1.763890052076384
 40
1.763890052076384
 40
2.116668062491659
 40
2.116668062491659
 40
2.116668062491659
 40
2.469446072906936
 40
2.469446072906936
 40
2.469446072906936
 40
2.822224083322215
 40
2.822224083322215
 40
2.822224083322215
 40
3.175002093737492
 40
3.175002093737492
 40
3.175002093737492
 40
3.527780104152768
 40
3.527780104152768
 40
3.527780104152768
 40
3.880558114568044
 40
3.880558114568044
 40
3.880558114568044
 40
4.233336124983321
 40
4.233336124983321
 40
4.233336124983321
 40
4.586114135398599
 40
4.586114135398599
 40
4.586114135398599
 40
4.938892145813873
 40
4.938892145813873
 40
4.938892145813873
 40
5.291670156229153
 40
5.291670156229153
 40
5.291670156229153
 40
5.64444816664443
 40
5.64444816664443
 40
5.64444816664443
 40
5.997226177059705
 40
5.997226177059705
 40
5.997226177059705
 40
5.997226177059705
 10
185.4837187788815
 20
241.4451977396596
 10
185.4837187788815
 20
241.4451977396596
 10
185.4837187788815
 20
241.4028230372367
 10
185.4837187788815
 20
241.4028230372367
 10
185.4837187788815
 20
241.4028230372367
 10
185.5047338752051
 20
241.3604483348137
 10
185.5047338752051
 20
241.3604483348137
 10
185.4520238795082
 20
241.2782827532863
 10
185.4671823096433
 20
241.1897437409066
 10
185.335579575289
 20
241.2119646214456
 10
185.335579575289
 20
241.2119646214456
 10
185.2932048728662
 20
241.2119646214456
 10
185.2932048728662
 20
241.2119646214456
 10
185.2932048728662
 20
241.2119646214456
 10
185.2294705643439
 20
241.2334964824328
 10
185.2294705643439
 20
241.2334964824328
 10
185.2294705643439
 20
241.2334964824328
 10
185.1660807655974
 20
241.2543393238685
 10
185.1660807655974
 20
241.2543393238685
 10
185.1660807655974
 20
241.2543393238685
 10
185.1450656692739
 20
241.2758711848558
 10
185.1450656692739
 20
241.2758711848558
 10
185.1450656692739
 20
241.2758711848558
 10
185.1450656692739
 20
241.2967140262914
 10
185.1450656692739
 20
241.2967140262914
 10
185.1450656692739
 20
241.2967140262914
 10
185.1237060631745
 20
241.3604483348137
 10
185.1237060631745
 20
241.3604483348137
 10
185.1237060631745
 20
241.3604483348137
 10
185.1237060631745
 20
241.4028230372367
 10
185.1237060631745
 20
241.4028230372367
 10
185.1237060631745
 20
241.4028230372367
 10
185.1660807655974
 20
241.4875724420825
 10
185.1660807655974
 20
241.4875724420825
 10
185.1660807655974
 20
241.4875724420825
 10
185.2084554680203
 20
241.5085875384061
 10
185.2084554680203
 20
241.5085875384061
 10
185.2084554680203
 20
241.5085875384061
 10
185.2718452667668
 20
241.5297748896175
 10
185.2718452667668
 20
241.5297748896175
 10
185.2718452667668
 20
241.5297748896175
 10
185.3565946716127
 20
241.5297748896175
 10
185.3565946716127
 20
241.5297748896175
 10
185.3565946716127
 20
241.5297748896175
 10
185.4199844703592
 20
241.5085875384061
 10
185.4199844703592
 20
241.5085875384061
 10
185.4199844703592
 20
241.5085875384061
 10
185.4623591727821
 20
241.4875724420825
 10
185.4623591727821
 20
241.4875724420825
 10
185.4623591727821
 20
241.4875724420825
 10
185.4837187788815
 20
241.4451977396596
 10
185.4837187788815
 20
241.4451977396596
 72
     1
 10
185.4837187788815
 20
241.4451977396596
 11
185.4837187788815
 21
241.4451977396596
 97
        0
 75
     0
 76
     1
 98
        0
450
        0
451
        0
460
0.0
461
0.0
452
        0
462
0.0
453
        0
470

  0
HATCH
  5
2F93
330
1F
100
AcDbEntity
  8
图层 1
 62
     7
100
AcDbHatch
 10
0.0
 20
0.0
 30
0.0
210
0.0
220
0.0
230
1.0
  2
SOLID
 70
     1
 71
     0
 91
        1
 92
        1
 93
        2
 72
     4
 94
        3
 73
     0
 74
     0
 95
       38
 96
       34
 40
0.0
 40
0.0
 40
0.0
 40
0.0
 40
0.3527780104152769
 40
0.3527780104152769
 40
0.3527780104152769
 40
0.7055560208305538
 40
0.7055560208305538
 40
0.7055560208305538
 40
1.058334031245828
 40
1.058334031245828
 40
1.058334031245828
 40
1.411112041661104
 40
1.411112041661104
 40
1.411112041661104
 40
1.763890052076384
 40
1.763890052076384
 40
1.763890052076384
 40
2.116668062491659
 40
2.116668062491659
 40
2.116668062491659
 40
2.469446072906936
 40
2.469446072906936
 40
2.469446072906936
 40
2.822224083322215
 40
2.822224083322215
 40
2.822224083322215
 40
3.175002093737492
 40
3.175002093737492
 40
3.175002093737492
 40
3.527780104152768
 40
3.527780104152768
 40
3.527780104152768
 40
3.880558114568044
 40
3.880558114568044
 40
3.880558114568044
 40
3.880558114568044
 10
185.907121293335
 20
220.1937677098971
 10
185.9005756075949
 20
220.0449394867532
 10
185.9329595265197
 20
220.1136691870245
 10
185.864746590912
 20
219.9817219428946
 10
185.864746590912
 20
219.9817219428946
 10
185.822371888489
 20
219.9605345916831
 10
185.822371888489
 20
219.9605345916831
 10
185.822371888489
 20
219.9605345916831
 10
185.6528730787974
 20
219.9605345916831
 10
185.6528730787974
 20
219.9605345916831
 10
185.6528730787974
 20
219.9605345916831
 10
185.5894832800509
 20
220.002909294106
 10
185.5894832800509
 20
220.002909294106
 10
185.5894832800509
 20
220.002909294106
 10
185.5681236739515
 20
220.0240966453175
 10
185.5681236739515
 20
220.0240966453175
 10
185.5681236739515
 20
220.0240966453175
 10
185.5681236739515
 20
220.045283996529
 10
185.5681236739515
 20
220.045283996529
 10
185.5681236739515
 20
220.045283996529
 10
185.547108577628
 20
220.0876586989519
 10
185.547108577628
 20
220.0876586989519
 10
185.547108577628
 20
220.0876586989519
 10
185.547108577628
 20
220.1513930074742
 10
185.547108577628
 20
220.1513930074742
 10
185.547108577628
 20
220.1513930074742
 10
185.5894832800509
 20
220.23614241232
 10
185.5894832800509
 20
220.23614241232
 10
185.5894832800509
 20
220.23614241232
 10
185.6318579824738
 20
220.2573297635315
 10
185.6318579824738
 20
220.2573297635315
 10
185.7055830744942
 20
220.2566407439799
 10
185.8416644359337
 20
220.3310548555519
 10
185.907121293335
 20
220.1937677098971
 72
     1
 10
185.907121293335
 20
220.1937677098971
 11
185.907121293335
 21
220.1937677098971
 97
        0
 75
     0
 76
     1
 98
        0
450
        0
451
        0
460
0.0
461
0.0
452
        0
462
0.0
453
        0
470

  0
HATCH
  5
2FDE
330
1F
100
AcDbEntity
  8
图层 1
 62
     7
100
AcDbHatch
 10
0.0
 20
0.0
 30
0.0
210
0.0
220
0.0
230
1.0
  2
SOLID
 70
     1
 71
     0
 91
        1
 92
        1
 93
        2
 72
     4
 94
        3
 73
     0
 74
     0
 95
       50
 96
       46
 40
0.0
 40
0.0
 40
0.0
 40
0.0
 40
0.3527780104152769
 40
0.3527780104152769
 40
0.3527780104152769
 40
0.7055560208305538
 40
0.7055560208305538
 40
0.7055560208305538
 40
1.058334031245828
 40
1.058334031245828
 40
1.058334031245828
 40
1.411112041661104
 40
1.411112041661104
 40
1.411112041661104
 40
1.763890052076384
 40
1.763890052076384
 40
1.763890052076384
 40
2.116668062491659
 40
2.116668062491659
 40
2.116668062491659
 40
2.469446072906936
 40
2.469446072906936
 40
2.469446072906936
 40
2.822224083322215
 40
2.822224083322215
 40
2.822224083322215
 40
3.175002093737492
 40
3.175002093737492
 40
3.175002093737492
 40
3.527780104152768
 40
3.527780104152768
 40
3.527780104152768
 40
3.880558114568044
 40
3.880558114568044
 40
3.880558114568044
 40
4.233336124983321
 40
4.233336124983321
 40
4.233336124983321
 40
4.586114135398599
 40
4.586114135398599
 40
4.586114135398599
 40
4.938892145813873
 40
4.938892145813873
 40
4.938892145813873
 40
5.291670156229153
 40
5.291670156229153
 40
5.291670156229153
 40
5.291670156229153
 10
180.9117295442905
 20
208.9327766684477
 10
180.9117295442905
 20
208.9327766684477
 10
180.9117295442905
 20
208.7637946234197
 10
180.9117295442905
 20
208.7637946234197
 10
181.2273004989198
 20
208.6749111012643
 10
181.3833634273555
 20
208.6776671794706
 10
181.6948002646751
 20
208.5097186637701
 10
181.9542161258496
 20
208.4294478860095
 10
182.1388733656765
 20
208.2134402565853
 10
182.3297317814676
 20
208.02292635057
 10
182.3297317814676
 20
208.02292635057
 10
182.435496282637
 20
208.065301052993
 10
182.435496282637
 20
208.065301052993
 10
182.288390608372
 20
208.2733849575739
 10
182.3752070718726
 20
208.2134402565853
 10
182.1605774815516
 20
208.3824223016133
 10
182.1605774815516
 20
208.3824223016133
 10
182.1182027791287
 20
208.4247970040363
 10
182.1182027791287
 20
208.4247970040363
 10
182.1182027791287
 20
208.4247970040363
 10
182.0968431730294
 20
208.467516216235
 10
182.0968431730294
 20
208.467516216235
 10
182.0968431730294
 20
208.467516216235
 10
182.0544684706064
 20
208.4883590576707
 10
182.0544684706064
 20
208.4883590576707
 10
182.0544684706064
 20
208.4883590576707
 10
181.9910786718599
 20
208.5305615052057
 10
181.9910786718599
 20
208.5305615052057
 10
181.9910786718599
 20
208.5305615052057
 10
181.948703969437
 20
208.552093366193
 10
181.948703969437
 20
208.552093366193
 10
181.948703969437
 20
208.552093366193
 10
181.9063292670141
 20
208.5729362076286
 10
181.9063292670141
 20
208.5729362076286
 10
181.9063292670141
 20
208.5729362076286
 10
181.8639545645911
 20
208.6156554198274
 10
181.8639545645911
 20
208.6156554198274
 10
181.8639545645911
 20
208.6156554198274
 10
181.821924371944
 20
208.6368427710388
 10
181.821924371944
 20
208.6368427710388
 10
181.6637943848536
 20
208.6742220817127
 10
181.5452830219797
 20
208.8092699138248
 10
181.3771622513911
 20
208.8061693258427
 10
181.2803550043924
 20
208.8573290275484
 10
181.0126709085988
 20
208.8971199066528
 10
180.9117295442905
 20
208.9327766684477
 72
     1
 10
180.9117295442905
 20
208.9327766684477
 11
180.9117295442905
 21
208.9327766684477
 97
        0
 75
     0
 76
     1
 98
        0
450
        0
451
        0
460
0.0
461
0.0
452
        0
462
0.0
453
        0
470

  0
HATCH
  5
35C8
330
1F
100
AcDbEntity
  8
图层 1
 62
     7
100
AcDbHatch
 10
0.0
 20
0.0
 30
0.0
210
0.0
220
0.0
230
1.0
  2
SOLID
 70
     1
 71
     0
 91
        1
 92
        1
 93
        2
 72
     4
 94
        3
 73
     0
 74
     0
 95
       38
 96
       34
 40
0.0
 40
0.0
 40
0.0
 40
0.0
 40
0.3527780104152769
 40
0.3527780104152769
 40
0.3527780104152769
 40
0.7055560208305538
 40
0.7055560208305538
 40
0.7055560208305538
 40
1.058334031245828
 40
1.058334031245828
 40
1.058334031245828
 40
1.411112041661104
 40
1.411112041661104
 40
1.411112041661104
 40
1.763890052076384
 40
1.763890052076384
 40
1.763890052076384
 40
2.116668062491659
 40
2.116668062491659
 40
2.116668062491659
 40
2.469446072906936
 40
2.469446072906936
 40
2.469446072906936
 40
2.822224083322215
 40
2.822224083322215
 40
2.822224083322215
 40
3.175002093737492
 40
3.175002093737492
 40
3.175002093737492
 40
3.527780104152768
 40
3.527780104152768
 40
3.527780104152768
 40
3.880558114568044
 40
3.880558114568044
 40
3.880558114568044
 40
3.880558114568044
 10
189.145513185819
 20
166.8326485368285
 10
189.207869455238
 20
166.740492171803
 10
189.1317327947871
 20
166.6833035490209
 10
189.103138483396
 20
166.6209472796017
 10
189.103138483396
 20
166.6209472796017
 10
189.0607637809731
 20
166.5997599283903
 10
189.0607637809731
 20
166.5997599283903
 10
189.0607637809731
 20
166.5997599283903
 10
188.9973739822266
 20
166.5785725771788
 10
188.9973739822266
 20
166.5785725771788
 10
188.9973739822266
 20
166.5785725771788
 10
188.9549992798037
 20
166.5997599283903
 10
188.9549992798037
 20
166.5997599283903
 10
188.9549992798037
 20
166.5997599283903
 10
188.8916094810572
 20
166.5997599283903
 10
188.8916094810572
 20
166.5997599283903
 10
188.8916094810572
 20
166.5997599283903
 10
188.8492347786343
 20
166.6209472796017
 10
188.8492347786343
 20
166.6209472796017
 10
188.8492347786343
 20
166.6209472796017
 10
188.8278751725349
 20
166.6633219820247
 10
188.8278751725349
 20
166.6633219820247
 10
188.8278751725349
 20
166.6633219820247
 10
188.8068600762114
 20
166.6845093332361
 10
188.8068600762114
 20
166.6845093332361
 10
188.8068600762114
 20
166.6845093332361
 10
188.8068600762114
 20
166.8326485368285
 10
188.8068600762114
 20
166.8326485368285
 10
188.8068600762114
 20
166.8326485368285
 10
188.8702498749578
 20
166.896038335575
 10
188.8702498749578
 20
166.896038335575
 10
189.0228677056355
 20
166.8819134347673
 10
189.0686875058164
 20
166.9411691162043
 10
189.145513185819
 20
166.8326485368285
 72
     1
 10
189.145513185819
 20
166.8326485368285
 11
189.145513185819
 21
166.8326485368285
 97
        0
 75
     0
 76
     1
 98
        0
450
        0
451
        0
460
0.0
461
0.0
452
        0
462
0.0
453
        0
470

  0
HATCH
  5
35D8
330
1F
100
AcDbEntity
  8
图层 1
 62
     7
100
AcDbHatch
 10
0.0
 20
0.0
 30
0.0
210
0.0
220
0.0
230
1.0
  2
SOLID
 70
     1
 71
     0
 91
        1
 92
        1
 93
        2
 72
     4
 94
        3
 73
     0
 74
     0
 95
       68
 96
       64
 40
0.0
 40
0.0
 40
0.0
 40
0.0
 40
0.3527780104152769
 40
0.3527780104152769
 40
0.3527780104152769
 40
0.7055560208305538
 40
0.7055560208305538
 40
0.7055560208305538
 40
1.058334031245828
 40
1.058334031245828
 40
1.058334031245828
 40
1.411112041661104
 40
1.411112041661104
 40
1.411112041661104
 40
1.763890052076384
 40
1.763890052076384
 40
1.763890052076384
 40
2.116668062491659
 40
2.116668062491659
 40
2.116668062491659
 40
2.469446072906936
 40
2.469446072906936
 40
2.469446072906936
 40
2.822224083322215
 40
2.822224083322215
 40
2.822224083322215
 40
3.175002093737492
 40
3.175002093737492
 40
3.175002093737492
 40
3.527780104152768
 40
3.527780104152768
 40
3.527780104152768
 40
3.880558114568044
 40
3.880558114568044
 40
3.880558114568044
 40
4.233336124983321
 40
4.233336124983321
 40
4.233336124983321
 40
4.586114135398599
 40
4.586114135398599
 40
4.586114135398599
 40
4.938892145813873
 40
4.938892145813873
 40
4.938892145813873
 40
5.291670156229153
 40
5.291670156229153
 40
5.291670156229153
 40
5.64444816664443
 40
5.64444816664443
 40
5.64444816664443
 40
5.997226177059705
 40
5.997226177059705
 40
5.997226177059705
 40
6.350004187474984
 40
6.350004187474984
 40
6.350004187474984
 40
6.702782197890257
 40
6.702782197890257
 40
6.702782197890257
 40
7.055560208305537
 40
7.055560208305537
 40
7.055560208305537
 40
7.408338218720808
 40
7.408338218720808
 40
7.408338218720808
 40
7.408338218720808
 10
174.7732543591544
 20
135.4846705078077
 10
174.7732543591544
 20
135.4846705078077
 10
174.7732543591544
 20
135.3789060066383
 10
174.7732543591544
 20
135.3789060066383
 10
174.7732543591544
 20
135.3789060066383
 10
174.8156290615773
 20
135.3789060066383
 10
174.8156290615773
 20
135.3789060066383
 10
174.8156290615773
 20
135.3789060066383
 10
174.8580037640002
 20
135.3578909103147
 10
174.8580037640002
 20
135.3578909103147
 10
174.8580037640002
 20
135.3578909103147
 10
174.9213935627468
 20
135.3578909103147
 10
174.9213935627468
 20
135.3578909103147
 10
174.9213935627468
 20
135.3578909103147
 10
174.9637682651697
 20
135.3365313042154
 10
174.9637682651697
 20
135.3365313042154
 10
174.9637682651697
 20
135.3365313042154
 10
174.9847833614933
 20
135.3365313042154
 10
174.9847833614933
 20
135.3365313042154
 10
174.9847833614933
 20
135.3365313042154
 10
175.0271580639162
 20
135.3155162078918
 10
175.0271580639162
 20
135.3155162078918
 10
175.0271580639162
 20
135.3155162078918
 10
175.0485176700155
 20
135.2941566017924
 10
175.0485176700155
 20
135.2941566017924
 10
175.0485176700155
 20
135.2941566017924
 10
175.0695327663391
 20
135.2941566017924
 10
175.0695327663391
 20
135.2941566017924
 10
175.0695327663391
 20
135.2941566017924
 10
175.0908923724385
 20
135.2731415054689
 10
175.0908923724385
 20
135.2731415054689
 10
175.0908923724385
 20
135.2731415054689
 10
175.1332670748614
 20
135.2731415054689
 10
175.1332670748614
 20
135.2731415054689
 10
175.1332670748614
 20
135.2731415054689
 10
175.154282171185
 20
135.2517818993695
 10
175.154282171185
 20
135.2517818993695
 10
175.154282171185
 20
135.2517818993695
 10
175.154282171185
 20
135.3578909103147
 10
175.154282171185
 20
135.3578909103147
 10
175.154282171185
 20
135.3578909103147
 10
175.1332670748614
 20
135.3789060066383
 10
175.1332670748614
 20
135.3789060066383
 10
175.1332670748614
 20
135.3789060066383
 10
175.0908923724385
 20
135.3789060066383
 10
175.0908923724385
 20
135.3789060066383
 10
175.0908923724385
 20
135.3789060066383
 10
175.0908923724385
 20
135.3999211029619
 10
175.0908923724385
 20
135.3999211029619
 10
175.0908923724385
 20
135.3999211029619
 10
175.0695327663391
 20
135.3999211029619
 10
175.0695327663391
 20
135.3999211029619
 10
175.0695327663391
 20
135.3999211029619
 10
175.0271580639162
 20
135.4212807090612
 10
175.0271580639162
 20
135.4212807090612
 10
175.0271580639162
 20
135.4212807090612
 10
175.0061429675926
 20
135.4212807090612
 10
175.0061429675926
 20
135.4212807090612
 10
175.0061429675926
 20
135.4212807090612
 10
174.9637682651697
 20
135.4422958053848
 10
174.9637682651697
 20
135.4422958053848
 10
174.8996894468716
 20
135.4498750204523
 10
174.8394002361073
 20
135.4860485469109
 10
174.7732543591544
 20
135.4846705078077
 72
     1
 10
174.7732543591544
 20
135.4846705078077
 11
174.7732543591544
 21
135.4846705078077
 97
        0
 75
     0
 76
     1
 98
        0
450
        0
451
        0
460
0.0
461
0.0
452
        0
462
0.0
453
        0
470

  0
HATCH
  5
3807
330
1F
100
AcDbEntity
  8
图层 1
 62
     7
100
AcDbHatch
 10
0.0
 20
0.0
 30
0.0
210
0.0
220
0.0
230
1.0
  2
SOLID
 70
     1
 71
     0
 91
        1
 92
        1
 93
        2
 72
     4
 94
        3
 73
     0
 74
     0
 95
       29
 96
       25
 40
0.0
 40
0.0
 40
0.0
 40
0.0
 40
0.3527780104152769
 40
0.3527780104152769
 40
0.3527780104152769
 40
0.7055560208305538
 40
0.7055560208305538
 40
0.7055560208305538
 40
1.058334031245828
 40
1.058334031245828
 40
1.058334031245828
 40
1.411112041661104
 40
1.411112041661104
 40
1.411112041661104
 40
1.763890052076384
 40
1.763890052076384
 40
1.763890052076384
 40
2.116668062491659
 40
2.116668062491659
 40
2.116668062491659
 40
2.469446072906936
 40
2.469446072906936
 40
2.469446072906936
 40
2.822224083322215
 40
2.822224083322215
 40
2.822224083322215
 40
2.822224083322215
 10
175.4929352807925
 20
164.0174869039101
 10
175.4929352807925
 20
164.0174869039101
 10
175.5139503771161
 20
163.9751122014871
 10
175.5139503771161
 20
163.9751122014871
 10
175.5139503771161
 20
163.9751122014871
 10
175.5139503771161
 20
163.9327374990642
 10
175.5139503771161
 20
163.9327374990642
 10
175.5139503771161
 20
163.9327374990642
 10
175.4929352807925
 20
163.8903627966413
 10
175.4929352807925
 20
163.8903627966413
 10
175.4929352807925
 20
163.8903627966413
 10
175.471920184469
 20
163.8691754454298
 10
175.471920184469
 20
163.8691754454298
 10
175.471920184469
 20
163.8691754454298
 10
175.4505605783696
 20
163.8269729978948
 10
175.4505605783696
 20
163.8269729978948
 10
175.3571984291289
 20
163.7715069239916
 10
175.272449024283
 20
163.8195660377152
 10
175.1966568736079
 20
163.8691754454298
 10
175.208370205985
 20
163.9930267098286
 10
175.1563492298397
 20
164.0216210212197
 10
175.2600466723544
 20
164.0596893514451
 10
175.3330827448232
 20
164.1094710140476
 10
175.4357466580104
 20
164.0753645462439
 10
175.4929352807925
 20
164.0174869039101
 72
     1
 10
175.4929352807925
 20
164.0174869039101
 11
175.4929352807925
 21
164.0174869039101
 97
        0
 75
     0
 76
     1
 98
        0
450
        0
451
        0
460
0.0
461
0.0
452
        0
462
0.0
453
        0
470

  0
HATCH
  5
3895
330
1F
100
AcDbEntity
  8
图层 1
 62
     7
100
AcDbHatch
 10
0.0
 20
0.0
 30
0.0
210
0.0
220
0.0
230
1.0
  2
SOLID
 70
     1
 71
     0
 91
        1
 92
        1
 93
        2
 72
     4
 94
        3
 73
     0
 74
     0
 95
       11
 96
        7
 40
0.0
 40
0.0
 40
0.0
 40
0.0
 40
0.3527780104152769
 40
0.3527780104152769
 40
0.3527780104152769
 40
0.7055560208305538
 40
0.7055560208305538
 40
0.7055560208305538
 40
0.7055560208305538
 10
174.9213935627468
 20
174.5369206529582
 10
174.9213935627468
 20
174.5369206529582
 10
174.9213935627468
 20
174.3043765542958
 10
174.9213935627468
 20
174.3043765542958
 10
174.9213935627468
 20
174.3043765542958
 10
174.9213935627468
 20
174.5369206529582
 10
174.9213935627468
 20
174.5369206529582
 72
     1
 10
174.9213935627468
 20
174.5369206529582
 11
174.9213935627468
 21
174.5369206529582
 97
        0
 75
     0
 76
     1
 98
        0
450
        0
451
        0
460
0.0
461
0.0
452
        0
462
0.0
453
        0
470

  0
HATCH
  5
3943
330
1F
100
AcDbEntity
  8
图层 1
 62
     7
100
AcDbHatch
 10
0.0
 20
0.0
 30
0.0
210
0.0
220
0.0
230
1.0
  2
SOLID
 70
     1
 71
     0
 91
        1
 92
        1
 93
        2
 72
     4
 94
        3
 73
     0
 74
     0
 95
      131
 96
      127
 40
0.0
 40
0.0
 40
0.0
 40
0.0
 40
0.3527780104152769
 40
0.3527780104152769
 40
0.3527780104152769
 40
0.7055560208305538
 40
0.7055560208305538
 40
0.7055560208305538
 40
1.058334031245828
 40
1.058334031245828
 40
1.058334031245828
 40
1.411112041661104
 40
1.411112041661104
 40
1.411112041661104
 40
1.763890052076384
 40
1.763890052076384
 40
1.763890052076384
 40
2.116668062491659
 40
2.116668062491659
 40
2.116668062491659
 40
2.469446072906936
 40
2.469446072906936
 40
2.469446072906936
 40
2.822224083322215
 40
2.822224083322215
 40
2.822224083322215
 40
3.175002093737492
 40
3.175002093737492
 40
3.175002093737492
 40
3.527780104152768
 40
3.527780104152768
 40
3.527780104152768
 40
3.880558114568044
 40
3.880558114568044
 40
3.880558114568044
 40
4.233336124983321
 40
4.233336124983321
 40
4.233336124983321
 40
4.586114135398599
 40
4.586114135398599
 40
4.586114135398599
 40
4.938892145813873
 40
4.938892145813873
 40
4.938892145813873
 40
5.291670156229153
 40
5.291670156229153
 40
5.291670156229153
 40
5.64444816664443
 40
5.64444816664443
 40
5.64444816664443
 40
5.997226177059705
 40
5.997226177059705
 40
5.997226177059705
 40
6.350004187474984
 40
6.350004187474984
 40
6.350004187474984
 40
6.702782197890257
 40
6.702782197890257
 40
6.702782197890257
 40
7.055560208305537
 40
7.055560208305537
 40
7.055560208305537
 40
7.408338218720808
 40
7.408338218720808
 40
7.408338218720808
 40
7.76111622913609
 40
7.76111622913609
 40
7.76111622913609
 40
8.113894239551369
 40
8.113894239551369
 40
8.113894239551369
 40
8.466672249966642
 40
8.466672249966642
 40
8.466672249966642
 40
8.819450260381922
 40
8.819450260381922
 40
8.819450260381922
 40
9.172228270797198
 40
9.172228270797198
 40
9.172228270797198
 40
9.525006281212476
 40
9.525006281212476
 40
9.525006281212476
 40
9.877784291627751
 40
9.877784291627751
 40
9.877784291627751
 40
10.23056230204303
 40
10.23056230204303
 40
10.23056230204303
 40
10.58334031245831
 40
10.58334031245831
 40
10.58334031245831
 40
10.93611832287358
 40
10.93611832287358
 40
10.93611832287358
 40
11.28889633328886
 40
11.28889633328886
 40
11.28889633328886
 40
11.64167434370414
 40
11.64167434370414
 40
11.64167434370414
 40
11.99445235411941
 40
11.99445235411941
 40
11.99445235411941
 40
12.34723036453469
 40
12.34723036453469
 40
12.34723036453469
 40
12.70000837494997
 40
12.70000837494997
 40
12.70000837494997
 40
13.05278638536524
 40
13.05278638536524
 40
13.05278638536524
 40
13.40556439578052
 40
13.40556439578052
 40
13.40556439578052
 40
13.7583424061958
 40
13.7583424061958
 40
13.7583424061958
 40
14.11112041661107
 40
14.11112041661107
 40
14.11112041661107
 40
14.46389842702635
 40
14.46389842702635
 40
14.46389842702635
 40
14.81667643744163
 40
14.81667643744163
 40
14.81667643744163
 40
14.81667643744163
 10
173.3972823146245
 20
126.8274843518258
 10
173.3972823146245
 20
126.8274843518258
 10
173.3972823146245
 20
126.7217198506564
 10
173.3972823146245
 20
126.7217198506564
 10
173.3972823146245
 20
126.7217198506564
 10
173.4186419207238
 20
126.7217198506564
 10
173.4186419207238
 20
126.7217198506564
 10
173.4186419207238
 20
126.7217198506564
 10
173.4820317194703
 20
126.7007047543328
 10
173.4820317194703
 20
126.7007047543328
 10
173.4820317194703
 20
126.7007047543328
 10
173.5244064218933
 20
126.6793451482334
 10
173.5244064218933
 20
126.6793451482334
 10
173.5244064218933
 20
126.6793451482334
 10
173.5877962206398
 20
126.6793451482334
 10
173.5877962206398
 20
126.6793451482334
 10
173.5877962206398
 20
126.6793451482334
 10
173.6301709230627
 20
126.6583300519099
 10
173.6301709230627
 20
126.6583300519099
 10
173.7955356154449
 20
126.5911506456296
 10
173.759706598762
 20
126.6380039751379
 10
173.9478089363468
 20
126.5525655507404
 10
173.9478089363468
 20
126.5525655507404
 10
173.9688240326703
 20
126.4464565397952
 10
173.9688240326703
 20
126.4464565397952
 10
173.9688240326703
 20
126.4464565397952
 10
174.0325583411926
 20
126.5101908483175
 10
174.0325583411926
 20
126.5101908483175
 10
174.0325583411926
 20
126.5101908483175
 10
174.0749330436156
 20
126.5101908483175
 10
174.0749330436156
 20
126.5101908483175
 10
174.0749330436156
 20
126.5101908483175
 10
174.1593379386856
 20
126.4678161458946
 10
174.1593379386856
 20
126.4678161458946
 10
174.1593379386856
 20
126.4678161458946
 10
174.180697544785
 20
126.4464565397952
 10
174.180697544785
 20
126.4464565397952
 10
174.2464989119621
 20
126.3982251711837
 10
174.3298702777047
 20
126.3716979184474
 10
174.3922265471239
 20
126.3196769423022
 10
174.608234176548
 20
126.2059887162895
 10
174.7749769080334
 20
126.0278771622029
 10
174.9637682651697
 20
125.8749148217494
 10
174.9637682651697
 20
125.8749148217494
 10
175.0061429675926
 20
125.9172895241723
 10
175.0061429675926
 20
125.9172895241723
 10
174.961356696739
 20
125.9631093243532
 10
174.782211613325
 20
126.1246844092016
 10
174.7308796567315
 20
126.1501781326105
 10
174.7308796567315
 20
126.1501781326105
 10
174.6885049543085
 20
126.1925528350335
 10
174.6885049543085
 20
126.1925528350335
 10
174.6885049543085
 20
126.1925528350335
 10
174.667489857985
 20
126.2349275374564
 10
174.667489857985
 20
126.2349275374564
 10
174.667489857985
 20
126.2349275374564
 10
174.625115155562
 20
126.2559426337799
 10
174.625115155562
 20
126.2559426337799
 10
174.625115155562
 20
126.2559426337799
 10
174.5827404531391
 20
126.2983173362029
 10
174.5827404531391
 20
126.2983173362029
 10
174.5827404531391
 20
126.2983173362029
 10
174.5403657507162
 20
126.3196769423022
 10
174.5403657507162
 20
126.3196769423022
 10
174.5403657507162
 20
126.3196769423022
 10
174.4979910482932
 20
126.3620516447252
 10
174.4979910482932
 20
126.3620516447252
 10
174.4735308542117
 20
126.3875453681341
 10
174.3247026310678
 20
126.4695386947736
 10
174.2864620459544
 20
126.4888312422181
 10
174.2864620459544
 20
126.4888312422181
 10
174.2654469496308
 20
126.5101908483175
 10
174.2654469496308
 20
126.5101908483175
 10
174.2654469496308
 20
126.5101908483175
 10
174.2230722472079
 20
126.5312059446411
 10
174.2230722472079
 20
126.5312059446411
 10
174.2230722472079
 20
126.5312059446411
 10
174.2017126411085
 20
126.5525655507404
 10
174.2017126411085
 20
126.5525655507404
 10
174.2017126411085
 20
126.5525655507404
 10
174.1383228423621
 20
126.573580647064
 10
174.1383228423621
 20
126.573580647064
 10
174.1383228423621
 20
126.573580647064
 10
174.1169632362627
 20
126.5945957433876
 10
174.1169632362627
 20
126.5945957433876
 10
174.1169632362627
 20
126.5945957433876
 10
174.0959481399391
 20
126.7007047543328
 10
174.0959481399391
 20
126.7007047543328
 10
174.0959481399391
 20
126.7007047543328
 10
174.0325583411926
 20
126.6369704458105
 10
174.0325583411926
 20
126.6369704458105
 10
174.0325583411926
 20
126.6369704458105
 10
173.9901836387697
 20
126.6369704458105
 10
173.9901836387697
 20
126.6369704458105
 10
173.9901836387697
 20
126.6369704458105
 10
173.9054342339239
 20
126.6793451482334
 10
173.9054342339239
 20
126.6793451482334
 10
173.9054342339239
 20
126.6793451482334
 10
173.8420444351773
 20
126.7007047543328
 10
173.8420444351773
 20
126.7007047543328
 10
173.8420444351773
 20
126.7007047543328
 10
173.7996697327544
 20
126.7217198506564
 10
173.7996697327544
 20
126.7217198506564
 10
173.7996697327544
 20
126.7217198506564
 10
173.7572950303315
 20
126.7217198506564
 10
173.7572950303315
 20
126.7217198506564
 10
173.7572950303315
 20
126.7217198506564
 10
173.6725456254856
 20
126.7640945530793
 10
173.6725456254856
 20
126.7640945530793
 10
173.6725456254856
 20
126.7640945530793
 10
173.6515305291621
 20
126.7640945530793
 10
173.6515305291621
 20
126.7640945530793
 10
173.6515305291621
 20
126.7640945530793
 10
173.5667811243162
 20
126.7851096494029
 10
173.5667811243162
 20
126.7851096494029
 10
173.5667811243162
 20
126.7851096494029
 10
173.5033913255697
 20
126.8064692555022
 10
173.5033913255697
 20
126.8064692555022
 10
173.5033913255697
 20
126.8064692555022
 10
173.4396570170474
 20
126.8064692555022
 10
173.4396570170474
 20
126.8064692555022
 10
173.4396570170474
 20
126.8064692555022
 10
173.4186419207238
 20
126.8274843518258
 10
173.4186419207238
 20
126.8274843518258
 10
173.4186419207238
 20
126.8274843518258
 10
173.3972823146245
 20
126.8274843518258
 10
173.3972823146245
 20
126.8274843518258
 72
     1
 10
173.3972823146245
 20
126.8274843518258
 11
173.3972823146245
 21
126.8274843518258
 97
        0
 75
     0
 76
     1
 98
        0
450
        0
451
        0
460
0.0
461
0.0
452
        0
462
0.0
453
        0
470

  0
HATCH
  5
4842
330
1F
100
AcDbEntity
  8
图层 1
 62
     7
100
AcDbHatch
 10
0.0
 20
0.0
 30
0.0
210
0.0
220
0.0
230
1.0
  2
SOLID
 70
     1
 71
     0
 91
        1
 92
        1
 93
        2
 72
     4
 94
        3
 73
     0
 74
     0
 95
       47
 96
       43
 40
0.0
 40
0.0
 40
0.0
 40
0.0
 40
0.3527780104152769
 40
0.3527780104152769
 40
0.3527780104152769
 40
0.7055560208305538
 40
0.7055560208305538
 40
0.7055560208305538
 40
1.058334031245828
 40
1.058334031245828
 40
1.058334031245828
 40
1.411112041661104
 40
1.411112041661104
 40
1.411112041661104
 40
1.763890052076384
 40
1.763890052076384
 40
1.763890052076384
 40
2.116668062491659
 40
2.116668062491659
 40
2.116668062491659
 40
2.469446072906936
 40
2.469446072906936
 40
2.469446072906936
 40
2.822224083322215
 40
2.822224083322215
 40
2.822224083322215
 40
3.175002093737492
 40
3.175002093737492
 40
3.175002093737492
 40
3.527780104152768
 40
3.527780104152768
 40
3.527780104152768
 40
3.880558114568044
 40
3.880558114568044
 40
3.880558114568044
 40
4.233336124983321
 40
4.233336124983321
 40
4.233336124983321
 40
4.586114135398599
 40
4.586114135398599
 40
4.586114135398599
 40
4.938892145813873
 40
4.938892145813873
 40
4.938892145813873
 40
4.938892145813873
 10
180.1920486226523
 20
255.6479577566324
 10
180.1920486226523
 20
255.6479577566324
 10
180.2130637189759
 20
255.6055830542095
 10
180.2130637189759
 20
255.6055830542095
 10
180.2130637189759
 20
255.6055830542095
 10
180.2130637189759
 20
255.5210059042515
 10
180.2130637189759
 20
255.5210059042515
 10
180.2130637189759
 20
255.5210059042515
 10
180.1920486226523
 20
255.4786312018286
 10
180.1920486226523
 20
255.4786312018286
 10
180.1920486226523
 20
255.4786312018286
 10
180.1496739202294
 20
255.4359119896299
 10
180.1496739202294
 20
255.4359119896299
 10
180.1496739202294
 20
255.4359119896299
 10
180.1283143141301
 20
255.4147246384184
 10
180.1283143141301
 20
255.4147246384184
 10
180.1283143141301
 20
255.4147246384184
 10
180.0225498129606
 20
255.4147246384184
 10
180.0225498129606
 20
255.4147246384184
 10
180.0225498129606
 20
255.4147246384184
 10
179.9591600142141
 20
255.4359119896299
 10
179.9591600142141
 20
255.4359119896299
 10
179.9591600142141
 20
255.4359119896299
 10
179.9167853117912
 20
255.4570993408414
 10
179.9167853117912
 20
255.4570993408414
 10
179.9167853117912
 20
255.4570993408414
 10
179.8957702154676
 20
255.4786312018286
 10
179.8957702154676
 20
255.4786312018286
 10
179.8957702154676
 20
255.4786312018286
 10
179.8744106093683
 20
255.4994740432643
 10
179.8744106093683
 20
255.4994740432643
 10
179.8744106093683
 20
255.4994740432643
 10
179.8744106093683
 20
255.6479577566324
 10
179.8744106093683
 20
255.6479577566324
 10
179.9608825630931
 20
255.7323626517025
 10
180.045631967939
 20
255.7085914771726
 10
180.1496739202294
 20
255.7115198102668
 10
180.1496739202294
 20
255.7115198102668
 10
180.170689016553
 20
255.6688005980681
 10
180.170689016553
 20
255.6688005980681
 10
180.170689016553
 20
255.6688005980681
 10
180.1920486226523
 20
255.6479577566324
 10
180.1920486226523
 20
255.6479577566324
 72
     1
 10
180.1920486226523
 20
255.6479577566324
 11
180.1920486226523
 21
255.6479577566324
 97
        0
 75
     0
 76
     1
 98
        0
450
        0
451
        0
460
0.0
461
0.0
452
        0
462
0.0
453
        0
470

  0
LINE
  5
15523
330
1F
100
AcDbEntity
  8
图框
 62
     1
370
    18
100
AcDbLine
 10
531.0145826987259
 20
289.1768299845588
 30
0.0
 11
679.5139576665757
 21
289.1768299845588
 31
0.0
1001
AcDbBlockRepETag
1070
     1
1071
      143
1005
15523
  0
MTEXT
  5
15556
102
{ACAD_XDICTIONARY
360
1C8B7
102
}
330
1F
100
AcDbEntity
  8
打标文字
 62
     3
100
AcDbMText
 10
632.9349364160941
 20
266.3296215361975
 30
0.0
 40
1.5
 41
46.88571713065463
 46
47.39332115782246
 71
     1
 72
     5
  3
\A1;{\f仿宋_GB2312|b0|i0|c134|p49;技术参数}:\P- {\f仿宋_GB2312|b0|i0|c134|p49;材料}: {\f仿宋_GB2312|b0|i0|c134|p49;铜合金}\P- {\f仿宋_GB2312|b0|i0|c134|p49;表面处理}: {\f仿宋_GB2312|b0|i0|c134|p49;镀银}\P- {\f仿宋_GB2312|b0|i0|c134|p49;额定电流}: 100A\P- {\f仿宋_GB2312|b0|i0|c134|p4
  3
9;接触电阻}: ≤0.3mΩ\P- {\f仿宋_GB2312|b0|i0|c134|p49;线径范围}: 16mm{\H0.7x;\S2^ ;}\P- {\f仿宋_GB2312|b0|i0|c134|p49;最大电缆直径}: 14mm\P- {\f仿宋_GB2312|b0|i0|c134|p49;剥线长度}: 19mm\P- {\f仿宋_GB2312|b0|i0|c134|p49;可插拔次数}: {\f仿宋_GB2312|b0|i0|c134|p49;≥}500\P- {\f仿宋_GB2312|
  3
b0|i0|c134|p49;电缆绞线标准}: IEC 60228-5\P\PTechnical specification:\P- Material: copper alloy\P- Surface: hard-silver plated\P- Rated current: 100A\P- Contact resistance: ≤0.3mΩ\P- Wire gauge: 16mm{\H0.7x;\S2^ ;}\P- Max. insulation diameter: 14mm\P- Strip
  1
ping length: 19mm\P- Mating cycles: {\f仿宋_GB2312|b0|i0|c134|p49;≥}500\P- For stranded fine wire acc. to: IEC 60228-5
  7
Romans字体
 73
     1
 44
1.0
1001
ACAD
1000
ACAD_MTEXT_DEFINED_HEIGHT_BEGIN
1070
    46
1040
47.39332115782246
1000
ACAD_MTEXT_DEFINED_HEIGHT_END
  0
LINE
  5
1555E
330
1F
100
AcDbEntity
  8
图框
 62
     1
100
AcDbLine
 10
677.7724080811392
 20
281.6769901273708
 30
0.0
 11
677.7724080811392
 21
262.1472338978545
 31
0.0
  0
MTEXT
  5
15566
330
1F
100
AcDbEntity
  8
图框
 62
     3
100
AcDbMText
 10
669.36931007112
 20
202.8738589380055
 30
0.0
 40
1.492756789270166
 41
16.80619601594785
 46
4.343372757943781
 71
     5
 72
     5
  1
CKSF-16G
  7
Romans字体
 73
     1
 44
1.0
1001
ACAD
1000
ACAD_MTEXT_DEFINED_HEIGHT_BEGIN
1070
    46
1040
4.343372757943781
1000
ACAD_MTEXT_DEFINED_HEIGHT_END
  0
MTEXT
  5
15567
330
1F
100
AcDbEntity
  8
图框
 62
     3
100
AcDbMText
 10
669.36931007112
 20
198.484133669437
 30
0.0
 40
1.492756789270166
 41
16.80619601594785
 46
4.436077779192773
 71
     5
 72
     5
  1
1010261201503
  7
Romans字体
 73
     1
 44
1.0
1001
ACAD
1000
ACAD_MTEXT_DEFINED_HEIGHT_BEGIN
1070
    46
1040
4.436077779192773
1000
ACAD_MTEXT_DEFINED_HEIGHT_END
  0
MTEXT
  5
15568
330
1F
100
AcDbEntity
  8
图框
 62
     3
100
AcDbMText
 10
635.3424775658663
 20
191.8303161222501
 30
0.0
 40
1.492756789270166
 41
5.414674223554219
 46
3.943047305235955
 71
     5
 72
     5
  1
2:1 
  7
Romans字体
 73
     1
 44
1.0
1001
ACAD
1000
ACAD_MTEXT_DEFINED_HEIGHT_BEGIN
1070
    46
1040
3.943047305235955
1000
ACAD_MTEXT_DEFINED_HEIGHT_END
  0
MTEXT
  5
15569
330
1F
100
AcDbEntity
  8
图框
 62
     3
100
AcDbMText
 10
646.1718260129758
 20
191.8303161222504
 30
0.0
 40
1.492756789270166
 41
5.414674223555066
 46
3.943047305235906
 71
     5
 72
     5
  1
15.4g
  7
Romans字体
 73
     1
 44
1.0
1001
ACAD
1000
ACAD_MTEXT_DEFINED_HEIGHT_BEGIN
1070
    46
1040
3.943047305235906
1000
ACAD_MTEXT_DEFINED_HEIGHT_END
  0
INSERT
  5
1556A
330
1F
100
AcDbEntity
  8
DIM
100
AcDbBlockReference
  2
A4图框-NEW
 10
114.3081561121811
 20
-56.09055511857542
 30
0.0
 41
0.5000000005871926
 42
0.5000000005871926
 43
0.5000000005871991
  0
LINE
  5
1C54F
330
1F
100
AcDbEntity
  8
0
100
AcDbLine
 10
570.2181883733478
 20
238.7097738670202
 30
0.0
 11
570.2181883733478
 21
251.4097768670201
 31
0.0
  0
LINE
  5
1C550
330
1F
100
AcDbEntity
  8
0
100
AcDbLine
 10
571.950239373347
 20
247.8097768670202
 30
0.0
 11
571.950239373347
 21
242.3097738670205
 31
0.0
  0
LINE
  5
1C551
330
1F
100
AcDbEntity
  8
0
100
AcDbLine
 10
589.7181883733479
 20
247.8097768670202
 30
0.0
 11
571.950239373347
 21
247.8097768670202
 31
0.0
  0
LINE
  5
1C552
330
1F
100
AcDbEntity
  8
0
100
AcDbLine
 10
589.7181883733479
 20
245.0597768670202
 30
0.0
 11
589.7181883733479
 21
247.8097768670202
 31
0.0
  0
LINE
  5
1C553
102
{ACAD_REACTORS
330
1C5CD
102
}
330
1F
100
AcDbEntity
  8
0
100
AcDbLine
 10
589.7181883733479
 20
242.3097738670205
 30
0.0
 11
589.7181883733479
 21
245.0597768670202
 31
0.0
  0
LINE
  5
1C554
330
1F
100
AcDbEntity
  8
0
100
AcDbLine
 10
571.950239373347
 20
242.3097738670205
 30
0.0
 11
589.7181883733479
 21
242.3097738670205
 31
0.0
  0
LINE
  5
1C555
330
1F
100
AcDbEntity
  8
0
100
AcDbLine
 10
591.3058983733477
 20
245.0597768670202
 30
0.0
 11
589.7181883733479
 21
242.3097738670205
 31
0.0
  0
LINE
  5
1C556
330
1F
100
AcDbEntity
  8
0
100
AcDbLine
 10
591.3058983733477
 20
245.0597768670202
 30
0.0
 11
589.7181883733479
 21
247.8097768670202
 31
0.0
  0
LINE
  5
1C557
102
{ACAD_REACTORS
330
1C5D0
102
}
330
1F
100
AcDbEntity
  8
0
100
AcDbLine
 10
590.9181883733467
 20
249.3137768670206
 30
0.0
 11
573.3181893733467
 21
249.3137768670206
 31
0.0
  0
LINE
  5
1C558
330
1F
100
AcDbEntity
  8
0
100
AcDbLine
 10
573.3181893733467
 20
240.8057738670202
 30
0.0
 11
590.9181883733467
 21
240.8057738670202
 31
0.0
  0
LINE
  5
1C559
330
1F
100
AcDbEntity
  8
0
100
AcDbLine
 10
593.8681883733476
 20
238.7097738670202
 30
0.0
 11
593.8681883733465
 21
242.2474821774874
 31
0.0
  0
LINE
  5
1C55A
330
1F
100
AcDbEntity
  8
0
100
AcDbLine
 10
593.8681883733476
 20
247.7877187194056
 30
0.0
 11
593.8681883733476
 21
251.4097768670201
 31
0.0
  0
LINE
  5
1C55B
102
{ACAD_REACTORS
330
1C5D6
102
}
330
1F
100
AcDbEntity
  8
0
100
AcDbLine
 10
593.8681883733476
 20
251.4097768670201
 30
0.0
 11
591.4181883733467
 21
251.4097768670201
 31
0.0
  0
LINE
  5
1C55C
102
{ACAD_REACTORS
330
1C5D6
102
}
330
1F
100
AcDbEntity
  8
0
100
AcDbLine
 10
593.8681883733476
 20
238.7097738670202
 30
0.0
 11
591.4181883733467
 21
238.7097738670202
 31
0.0
  0
LINE
  5
1C55D
330
1F
100
AcDbEntity
  8
0
100
AcDbLine
 10
571.2181883733478
 20
251.4097768670201
 30
0.0
 11
570.2181883733478
 21
251.4097768670201
 31
0.0
  0
LINE
  5
1C55E
330
1F
100
AcDbEntity
  8
0
100
AcDbLine
 10
570.2181883733478
 20
238.7097738670202
 30
0.0
 11
571.2181883733478
 21
238.7097738670202
 31
0.0
  0
LINE
  5
1C55F
330
1F
100
AcDbEntity
  8
0
100
AcDbLine
 10
571.2181883733478
 20
238.7057738670203
 30
0.0
 11
573.3181883733482
 21
240.8057738670202
 31
0.0
  0
LINE
  5
1C560
330
1F
100
AcDbEntity
  8
0
100
AcDbLine
 10
573.3181883733482
 20
249.3137768670206
 30
0.0
 11
571.2181883733478
 21
251.4137768670205
 31
0.0
  0
LWPOLYLINE
  5
1C561
330
1F
100
AcDbEntity
  8
0
100
AcDbPolyline
 90
       59
 70
     0
 43
0.0
 10
591.4181883733467
 20
249.8137768670205
 10
591.4180483733486
 20
249.8019268670202
 42
-0.0061477937
 10
591.4176183733484
 20
249.7899868670204
 42
-0.0059701382
 10
591.4168983733484
 20
249.7779368670201
 42
-0.0059272152
 10
591.415878373347
 20
249.7658068670205
 42
-0.0060586692
 10
591.4145483733477
 20
249.7535968670201
 42
-0.0061224666
 10
591.4129083733475
 20
249.7413168670203
 42
-0.0061695953
 10
591.4109383733481
 20
249.7289768670205
 42
-0.0062032771
 10
591.4086483733477
 20
249.7165968670203
 42
-0.0062685733
 10
591.4060283733483
 20
249.7041868670205
 42
-0.0063074664
 10
591.4030683733467
 20
249.6917468670201
 42
-0.0063636642
 10
591.3997583733486
 20
249.6793068670206
 42
-0.00639826
 10
591.3961183733477
 20
249.6668668670201
 42
-0.006451938
 10
591.392118373347
 20
249.6544468670201
 42
-0.0064843826
 10
591.3877783733473
 20
249.6420668670205
 42
-0.0065333263
 10
591.3830783733478
 20
249.6297268670203
 42
-0.0065627552
 10
591.3780283733482
 20
249.6174468670203
 42
-0.0066070526
 10
591.3726283733482
 20
249.6052468670202
 42
-0.0066333958
 10
591.3668783733478
 20
249.5931368670201
 42
-0.0066725669
 10
591.3607683733475
 20
249.5811368670204
 42
-0.0066955701
 10
591.3543183733468
 20
249.5692568670204
 42
-0.0067293193
 10
591.3475183733477
 20
249.5575068670202
 42
-0.006748802
 10
591.340378373348
 20
249.5459068670204
 42
-0.0067768308
 10
591.3329083733474
 20
249.5344768670204
 42
-0.0067926247
 10
591.3250983733482
 20
249.5232168670202
 42
-0.006814692
 10
591.3169683733482
 20
249.5121568670203
 42
-0.0068266568
 10
591.3085283733468
 20
249.5013068670203
 42
-0.0068425532
 10
591.299768373348
 20
249.4906768670205
 42
-0.006850598
 10
591.2907183733474
 20
249.4802668670202
 42
-0.0068602238
 10
591.281368373347
 20
249.4701168670201
 42
-0.0068642171
 10
591.2717383733485
 20
249.4602168670201
 42
-0.0068673088
 10
591.2618483733472
 20
249.4505968670203
 42
-0.0068672071
 10
591.2516883733474
 20
249.4412468670204
 42
-0.006863884
 10
591.2412883733481
 20
249.4321968670203
 42
-0.0068597942
 10
591.2306583733476
 20
249.4234368670202
 42
-0.006850195
 10
591.2197983733472
 20
249.4149968670201
 42
-0.0068421789
 10
591.2087383733484
 20
249.4068568670202
 42
-0.006826318
 10
591.197488373347
 20
249.3990568670203
 42
-0.0068142586
 10
591.1860583733482
 20
249.3915768670206
 42
-0.0067919716
 10
591.1744583733486
 20
249.3844468670206
 42
-0.0067764683
 10
591.1627083733471
 20
249.3776468670205
 42
-0.0067492159
 10
591.150828373347
 20
249.3711968670202
 42
-0.0067286588
 10
591.1388183733484
 20
249.3650868670204
 42
-0.0066921247
 10
591.126708373347
 20
249.3593368670201
 42
-0.006672963
 10
591.1145083733478
 20
249.3539268670204
 42
-0.0066435781
 10
591.1022383733484
 20
249.3488868670203
 42
-0.0066036301
 10
591.0898983733472
 20
249.3441768670202
 42
-0.0065255672
 10
591.0775183733472
 20
249.3398368670202
 42
-0.0065435954
 10
591.0650983733481
 20
249.3358368670203
 42
-0.006608205
 10
591.0526283733485
 20
249.3321968670204
 42
-0.0064140723
 10
591.0402183733472
 20
249.3288868670204
 42
-0.0059891062
 10
591.027878373348
 20
249.3259368670203
 42
-0.0064946474
 10
591.0153683733474
 20
249.3233068670204
 42
-0.0075595409
 10
591.0026083733478
 20
249.3210068670203
 42
-0.0058498083
 10
590.9906483733481
 20
249.3190468670202
 42
-0.002308634
 10
590.9798483733482
 20
249.3174468670206
 42
-0.007894866
 10
590.9661583733481
 20
249.3160768670202
 42
-0.013359762
 10
590.9453183733472
 20
249.3148468670204
 42
-0.0066969962
 10
590.9181883733467
 20
249.3137668670204
 42
-0.0036319673
  0
LWPOLYLINE
  5
1C562
330
1F
100
AcDbEntity
  8
0
100
AcDbPolyline
 90
       59
 70
     0
 43
0.0
 10
590.9181883733467
 20
240.8057708670205
 10
590.9300383733476
 20
240.8056308670204
 42
-0.006147776
 10
590.9419783733478
 20
240.8052048670203
 42
-0.0059701189
 10
590.9540183733476
 20
240.8044818670203
 42
-0.0059271937
 10
590.9661583733481
 20
240.8034648670202
 42
-0.006058645
 10
590.9783683733472
 20
240.8021338670203
 42
-0.00612244
 10
590.9906483733481
 20
240.8004928670204
 42
-0.0061695663
 10
591.0029883733474
 20
240.7985258670203
 42
-0.0062032458
 10
591.0153683733474
 20
240.7962378670202
 42
-0.0062685397
 10
591.0277783733469
 20
240.7936108670203
 42
-0.0063074304
 10
591.0402183733472
 20
240.7906528670203
 42
-0.006363626
 10
591.0526583733477
 20
240.7873478670201
 42
-0.0063982197
 10
591.0650983733481
 20
240.7837038670202
 42
-0.0064518956
 10
591.0775083733474
 20
240.7797058670205
 42
-0.006484338
 10
591.0898983733472
 20
240.7753638670203
 42
-0.00653328
 10
591.1022383733484
 20
240.7706638670204
 42
-0.006562707
 10
591.1145083733478
 20
240.7656178670206
 42
-0.0066070027
 10
591.126708373347
 20
240.7602118670204
 42
-0.0066333443
 10
591.1388183733484
 20
240.7544608670202
 42
-0.006672514
 10
591.150828373347
 20
240.7483528670202
 42
-0.0066955162
 10
591.1627083733471
 20
240.7419038670202
 42
-0.0067292642
 10
591.1744583733486
 20
240.7351028670202
 42
-0.006748746
 10
591.1860583733482
 20
240.72796686702
 42
-0.0067767744
 10
591.197488373347
 20
240.7204888670205
 42
-0.0067925674
 10
591.2087383733484
 20
240.7126868670204
 42
-0.0068146331
 10
591.2197983733472
 20
240.7045538670202
 42
-0.0068265993
 10
591.2306583733476
 20
240.6961108670205
 42
-0.0068425008
 10
591.2412883733481
 20
240.6873518670202
 42
-0.0068505397
 10
591.2516883733474
 20
240.6782998670203
 42
-0.0068601458
 10
591.2618483733472
 20
240.6689508670204
 42
-0.0068641659
 10
591.2717383733485
 20
240.6593278670204
 42
-0.006867342
 10
591.281368373347
 20
240.6494288670203
 42
-0.0068673451
 10
591.2907183733474
 20
240.6392768670205
 42
-0.006864176
 10
591.299768373348
 20
240.6288748670206
 42
-0.0068601541
 10
591.3085283733468
 20
240.6182438670205
 42
-0.0068505359
 10
591.3169683733482
 20
240.6073868670203
 42
-0.0068425228
 10
591.3250983733482
 20
240.5963278670203
 42
-0.0068266848
 10
591.3329083733474
 20
240.5850718670201
 42
-0.0068146414
 10
591.340378373348
 20
240.5736408670202
 42
-0.0067923627
 10
591.3475183733477
 20
240.5620418670203
 42
-0.0067768687
 10
591.3543183733468
 20
240.5502948670203
 42
-0.0067496247
 10
591.3607683733475
 20
240.5384108670202
 42
-0.0067290751
 10
591.3668783733478
 20
240.5264078670204
 42
-0.0066925454
 10
591.3726283733482
 20
240.5142978670203
 42
-0.0066733886
 10
591.3780283733482
 20
240.5020978670202
 42
-0.0066440063
 10
591.3830783733478
 20
240.4898198670205
 42
-0.006604059
 10
591.3877783733473
 20
240.4774838670203
 42
-0.006525993
 10
591.392118373347
 20
240.4651038670202
 42
-0.0065440233
 10
591.3961183733477
 20
240.4526808670205
 42
-0.0066086368
 10
591.3997583733486
 20
240.4402188670203
 42
-0.00641449
 10
591.4030683733467
 20
240.4278008670201
 42
-0.005989494
 10
591.4060183733469
 20
240.4154608670203
 42
-0.0064950642
 10
591.4086483733477
 20
240.4029518670206
 42
-0.00756002
 10
591.4109483733478
 20
240.3901958670205
 42
-0.005850173
 10
591.4129083733475
 20
240.3782348670204
 42
-0.0023087764
 10
591.4145083733471
 20
240.3674348670204
 42
-0.0078953477
 10
591.415878373347
 20
240.3537428670204
 42
-0.013360544
 10
591.4171083733467
 20
240.3329088670204
 42
-0.0066973708
 10
591.4181883733467
 20
240.30577486702
 42
-0.0036321654
  0
LWPOLYLINE
  5
1C563
330
1F
100
AcDbEntity
  8
0
100
AcDbPolyline
 90
       21
 70
     0
 43
0.0
 10
592.2877883733469
 20
251.4097768670201
 10
592.5684909211937
 20
250.7158357980117
 10
592.7661064833841
 20
250.0191591550403
 10
592.8667269378926
 20
249.3198167841863
 10
592.8564441626926
 20
248.6178785315294
 10
592.7090124360762
 20
247.5648050412371
 10
592.6939757376345
 20
247.0508871675344
 10
592.7176241169904
 20
246.5353270477669
 10
592.747497608963
 20
246.0185017623969
 10
592.7511362483725
 20
245.5007883918858
 10
592.6370919160667
 20
244.4212023406305
 10
592.5893116660642
 20
243.8846789730789
 10
592.6037071860987
 20
243.352523951937
 10
592.7475587737732
 20
242.6873752262902
 10
592.9700087371344
 20
242.0288618191368
 10
593.1830644183206
 20
241.3740096115559
 10
593.2987331594646
 20
240.7198444846274
 10
593.2763041127231
 20
240.2177627112371
 10
593.1637954828943
 20
239.7149700877382
 10
592.9798696541707
 20
239.2120973196363
 10
592.7431890107468
 20
238.7097751124386
  0
HATCH
  5
1C564
330
1F
100
AcDbEntity
  8
hat
100
AcDbHatch
 10
0.0
 20
0.0
 30
0.0
210
0.0
220
0.0
230
1.0
  2
ANSI31
 70
     0
 71
     0
 91
        2
 92
        5
 93
       13
 72
     4
 94
        3
 73
     0
 74
     0
 95
       10
 96
        6
 40
0.0
 40
0.0
 40
0.0
 40
0.0
 40
2.470469800527919
 40
4.55122762795067
 40
6.062856506409992
 40
6.062856506409992
 40
6.062856506409992
 40
6.062856506409992
 10
595.444061003474
 20
250.5597768670202
 10
595.0259652245391
 20
249.849935236479
 10
594.2557274908846
 20
248.5422281599965
 10
593.315804174939
 20
246.755132067942
 10
593.0112263203697
 20
245.5628024989858
 10
592.9848915589315
 20
245.0597768670197
 72
     1
 10
592.9848915589315
 20
245.0597768670202
 11
593.2202463767222
 21
245.0597768670202
 72
     1
 10
593.2202463767222
 20
245.0597768670202
 11
595.6451183733475
 21
249.2597783670196
 72
     1
 10
595.6451183733475
 20
249.2597783670196
 11
598.9451183733478
 21
249.2597783670201
 72
     1
 10
598.9451183733469
 20
249.2597783670201
 11
598.9451183733478
 21
249.5097783670201
 72
     1
 10
598.9451183733486
 20
249.5097783670201
 11
608.1451183733483
 21
249.5097783670201
 72
     1
 10
608.1451183733475
 20
249.5097783670201
 11
608.1451183733475
 21
249.2597783670196
 72
     1
 10
608.1451183733475
 20
249.2597783670196
 11
608.2238118490472
 21
249.2597783670201
 72
     2
 10
608.2238118489908
 20
250.7597783670196
 40
1.499999999999999
 50
270.0000000021887
 51
314.9999146649793
 73
     1
 72
     1
 10
609.284470441046
 20
249.6991166155182
 11
609.6451183733476
 21
250.0597634735211
 72
     1
 10
609.6451183733476
 20
250.0597634735211
 11
609.6451183733476
 21
250.0597768670202
 72
     2
 10
609.1451183733474
 20
250.0597768670202
 40
0.5000000000000908
 50
0.0
 51
90.0
 73
     1
 72
     1
 10
609.1451183733474
 20
250.5597768670202
 11
595.444061003474
 21
250.5597768670198
 97
        0
 92
        5
 93
       13
 72
     1
 10
595.6451183733475
 20
240.8597783670209
 11
593.2202481087747
 21
245.0597768670202
 72
     1
 10
593.2202481087738
 20
245.0597768670202
 11
592.9848915589315
 21
245.0597768670197
 72
     4
 94
        3
 73
     0
 74
     0
 95
       11
 96
        7
 40
6.062856506409992
 40
6.062856506409992
 40
6.062856506409992
 40
6.062856506409992
 40
6.404296741440784
 40
8.126934042944974
 40
9.942706805894264
 40
12.1376363514441
 40
12.1376363514441
 40
12.1376363514441
 40
12.1376363514441
 10
592.9848915589315
 20
245.0597768670197
 10
592.9789431761869
 20
244.9461555989608
 10
592.974390186217
 20
244.2588875426865
 10
593.3679453193414
 20
242.9801070086825
 10
594.4324612396827
 20
241.3927721022121
 10
595.0549939665985
 20
240.2081065606273
 10
595.395686286865
 20
239.5597768670207
 72
     1
 10
595.395686286865
 20
239.5597768670202
 11
609.1451183733474
 21
239.5597768670202
 72
     2
 10
609.1451183733474
 20
240.0597768670198
 40
0.5
 50
270.0
 51
360.001878587586
 73
     1
 72
     1
 10
609.6451183730784
 20
240.0597932607891
 11
609.284470441046
 21
240.4204401185218
 72
     2
 10
608.2238118489908
 20
239.3597783670204
 40
1.500000000000159
 50
45.00008533500841
 51
89.54886145321969
 73
     1
 72
     2
 10
608.2238118490063
 20
239.35977836702
 40
1.500000000000159
 50
89.54886145382777
 51
89.9999999984193
 73
     1
 72
     1
 10
608.2238118490472
 20
240.8597783670204
 11
608.1451183733475
 21
240.8597783670204
 72
     1
 10
608.1451183733475
 20
240.8597783670204
 11
608.1451183733475
 21
240.6097783670204
 72
     1
 10
608.1451183733475
 20
240.6097783670204
 11
598.9451183733478
 21
240.6097783670204
 72
     1
 10
598.9451183733478
 20
240.6097783670204
 11
598.9451183733478
 21
240.8597783670204
 72
     1
 10
598.9451183733478
 20
240.8597783670204
 11
595.6451183733475
 21
240.8597783670209
 97
        0
 75
     0
 76
     1
 52
0.0
 41
8.0
 77
     0
 78
     1
 53
45.0
 43
-2968.406226574028
 44
2955.894130924857
 45
-0.7071067811865475
 46
0.7071067811865476
 79
     0
 47
0.033754871125612
 98
        2
 10
597.8085095925576
 20
250.2645569390595
 10
598.1801058933875
 20
240.4081338286048
1001
ACAD
1010
0.0
1020
0.0
1030
0.0
  0
LINE
  5
1C565
330
1F
100
AcDbEntity
  8
hat
  6
CENTERX2
 62
     1
100
AcDbLine
 10
610.5714801328264
 20
245.0597768670202
 30
0.0
 11
569.2290913642379
 21
245.0597768670202
 31
0.0
  0
LINE
  5
1C566
330
1F
100
AcDbEntity
  8
0
100
AcDbLine
 10
591.4181883733467
 20
251.4097768670201
 30
0.0
 11
591.4181883733467
 21
249.8137768670205
 31
0.0
  0
LINE
  5
1C567
330
1F
100
AcDbEntity
  8
0
100
AcDbLine
 10
591.4181883733467
 20
240.30577486702
 30
0.0
 11
591.4181883733467
 21
238.7097748670205
 31
0.0
  0
LINE
  5
1C568
102
{ACAD_REACTORS
330
1C5C4
102
}
330
1F
100
AcDbEntity
  8
0
100
AcDbLine
 10
570.2181883733478
 20
251.4097768670201
 30
0.0
 11
570.2181883733478
 21
248.8097768670202
 31
0.0
  0
LINE
  5
1C569
102
{ACAD_REACTORS
330
1C5C4
330
1C5CD
102
}
330
1F
100
AcDbEntity
  8
0
100
AcDbLine
 10
570.2181883733478
 20
241.3097738670205
 30
0.0
 11
570.2181883733478
 21
238.7097738670202
 31
0.0
  0
LINE
  5
1C56A
330
1F
100
AcDbEntity
  8
0
100
AcDbLine
 10
591.4181883733467
 20
251.4097768670201
 30
0.0
 11
592.2877883733469
 21
251.4097768670201
 31
0.0
  0
LINE
  5
1C56B
330
1F
100
AcDbEntity
  8
0
100
AcDbLine
 10
591.4181883733467
 20
238.7097748670205
 30
0.0
 11
592.7431883733476
 21
238.7097748670205
 31
0.0
  0
INSERT
  5
1C56C
330
1F
100
AcDbEntity
  8
hat
100
AcDbBlockReference
  2
*X2
 10
592.7045883733477
 20
239.0793668670205
 30
0.0
  0
LINE
  5
1C56D
330
1F
100
AcDbEntity
  8
0
100
AcDbLine
 10
594.7181883733478
 20
239.5597738670205
 30
0.0
 11
593.8681883733476
 21
238.7097738670202
 31
0.0
  0
LINE
  5
1C56E
330
1F
100
AcDbEntity
  8
0
100
AcDbLine
 10
594.7181883733478
 20
250.5597768670202
 30
0.0
 11
593.8681883733476
 21
251.4097768670201
 31
0.0
  0
LINE
  5
1C56F
330
1F
100
AcDbEntity
  8
0
100
AcDbLine
 10
594.7181883733478
 20
239.5597738670205
 30
0.0
 11
594.7181883733478
 21
240.823475055565
 31
0.0
  0
LINE
  5
1C570
330
1F
100
AcDbEntity
  8
0
100
AcDbLine
 10
594.7181883733478
 20
249.3190642232464
 30
0.0
 11
594.7181883733478
 21
250.5597768670202
 31
0.0
  0
LINE
  5
1C571
102
{ACAD_REACTORS
330
1C5C7
102
}
330
1F
100
AcDbEntity
  8
0
100
AcDbLine
 10
571.950239373347
 20
247.8097768670202
 30
0.0
 11
570.2181883733478
 21
248.8097768670202
 31
0.0
  0
LINE
  5
1C572
102
{ACAD_REACTORS
330
1C5C7
102
}
330
1F
100
AcDbEntity
  8
0
100
AcDbLine
 10
570.2181883733478
 20
241.3097738670205
 30
0.0
 11
571.950239373347
 21
242.3097738670205
 31
0.0
  0
LINE
  5
1C573
330
1F
100
AcDbEntity
  8
hat
  6
CENTERX2
 62
     1
100
AcDbLine
 10
588.718188373348
 20
243.8239888034988
 30
0.0
 11
588.718188373348
 21
246.0992757103697
 31
0.0
  0
CIRCLE
  5
1C574
330
1F
100
AcDbEntity
  8
0
100
AcDbCircle
 10
588.718188373348
 20
245.0597718670199
 30
0.0
 40
0.7
  0
LINE
  5
1C575
102
{ACAD_REACTORS
330
1C5D3
102
}
330
1F
100
AcDbEntity
  8
0
100
AcDbLine
 10
594.7181883733478
 20
239.5597768670202
 30
0.0
 11
609.1451183733474
 21
239.5597768670202
 31
0.0
  0
LINE
  5
1C576
330
1F
100
AcDbEntity
  8
0
100
AcDbLine
 10
598.9451183733478
 20
240.6097783670204
 30
0.0
 11
608.1451183733475
 21
240.6097783670204
 31
0.0
  0
LINE
  5
1C577
330
1F
100
AcDbEntity
  8
0
100
AcDbLine
 10
595.6451183733475
 20
240.8597783670204
 30
0.0
 11
598.9451183733478
 21
240.8597783670204
 31
0.0
  0
LINE
  5
1C578
330
1F
100
AcDbEntity
  8
0
100
AcDbLine
 10
608.1451183733475
 20
240.8597783670204
 30
0.0
 11
608.2238118490472
 21
240.8597783670204
 31
0.0
  0
LINE
  5
1C579
330
1F
100
AcDbEntity
  8
0
100
AcDbLine
 10
593.2202472427476
 20
245.0597783670203
 30
0.0
 11
595.6451183733475
 21
249.2597783670201
 31
0.0
  0
LINE
  5
1C57A
330
1F
100
AcDbEntity
  8
0
100
AcDbLine
 10
593.2202472427476
 20
245.0597783670203
 30
0.0
 11
595.6451183733475
 21
240.8597783670204
 31
0.0
  0
LINE
  5
1C57B
330
1F
100
AcDbEntity
  8
0
100
AcDbLine
 10
595.6451183733475
 20
249.2597783670201
 30
0.0
 11
598.9451183733478
 21
249.2597783670201
 31
0.0
  0
LINE
  5
1C57C
330
1F
100
AcDbEntity
  8
0
100
AcDbLine
 10
608.1451183733475
 20
249.2597783670201
 30
0.0
 11
608.2238118490472
 21
249.2597783670201
 31
0.0
  0
LINE
  5
1C57D
330
1F
100
AcDbEntity
  8
0
100
AcDbLine
 10
598.9451183733478
 20
249.5097783670201
 30
0.0
 11
608.1451183733475
 21
249.5097783670201
 31
0.0
  0
LINE
  5
1C57E
102
{ACAD_REACTORS
330
1C5CA
102
}
330
1F
100
AcDbEntity
  8
0
100
AcDbLine
 10
595.6451183733475
 20
249.2597783670201
 30
0.0
 11
595.6451183733475
 21
240.8597783670204
 31
0.0
  0
LINE
  5
1C57F
102
{ACAD_REACTORS
330
1C5D3
102
}
330
1F
100
AcDbEntity
  8
0
100
AcDbLine
 10
609.1451183733474
 20
250.5597768670202
 30
0.0
 11
594.7181883733478
 21
250.5597768670202
 31
0.0
  0
LINE
  5
1C580
330
1F
100
AcDbEntity
  8
0
100
AcDbLine
 10
593.8681883733476
 20
238.7097768670203
 30
0.0
 11
594.7181883733478
 21
239.5597768670202
 31
0.0
  0
LINE
  5
1C581
330
1F
100
AcDbEntity
  8
0
100
AcDbLine
 10
598.9451183733478
 20
240.6097783670204
 30
0.0
 11
598.9451183733478
 21
249.5097783670201
 31
0.0
  0
LINE
  5
1C582
330
1F
100
AcDbEntity
  8
0
100
AcDbLine
 10
609.6451183732475
 20
250.0597634734202
 30
0.0
 11
609.2844704410476
 21
249.6991166155201
 31
0.0
  0
LINE
  5
1C583
330
1F
100
AcDbEntity
  8
0
100
AcDbLine
 10
609.6451183731475
 20
240.0597932607204
 30
0.0
 11
609.2844704410476
 21
240.4204401185204
 31
0.0
  0
LINE
  5
1C584
330
1F
100
AcDbEntity
  8
0
100
AcDbLine
 10
608.1451183733475
 20
240.6097783670204
 30
0.0
 11
608.1451183733475
 21
249.5097783670201
 31
0.0
  0
LINE
  5
1C585
330
1F
100
AcDbEntity
  8
0
100
AcDbLine
 10
609.2844704410476
 20
249.6991166155201
 30
0.0
 11
609.2844704410476
 21
240.4204401185204
 31
0.0
  0
LINE
  5
1C586
102
{ACAD_REACTORS
330
1C5CA
102
}
330
1F
100
AcDbEntity
  8
0
100
AcDbLine
 10
609.6451183733476
 20
250.0597768670202
 30
0.0
 11
609.6451183733476
 21
240.0597768670202
 31
0.0
  0
ARC
  5
1C587
330
1F
100
AcDbEntity
  8
0
100
AcDbCircle
 10
608.2238118490472
 20
239.3597783670204
 30
0.0
 40
1.5
100
AcDbArc
 50
45.00008533259527
 51
90.0
  0
ARC
  5
1C588
330
1F
100
AcDbEntity
  8
0
100
AcDbCircle
 10
609.1451183733474
 20
240.0597768670202
 30
0.0
 40
0.5
100
AcDbArc
 50
270.0
 51
0.0
  0
ARC
  5
1C589
330
1F
100
AcDbEntity
  8
0
100
AcDbCircle
 10
608.2238118490472
 20
250.7597783670201
 30
0.0
 40
1.5
100
AcDbArc
 50
270.0
 51
314.9999146674968
  0
ARC
  5
1C58A
330
1F
100
AcDbEntity
  8
0
100
AcDbCircle
 10
609.1451183733474
 20
250.0597768670202
 30
0.0
 40
0.5
100
AcDbArc
 50
0.0000488241903011
 51
90.0
  0
SPLINE
  5
1C58B
330
1F
100
AcDbEntity
  8
0
100
AcDbSpline
210
0.0
220
0.0
230
1.0
 70
     8
 71
     3
 72
    13
 73
     9
 74
     7
 42
0.0000000001
 43
0.0000000001
 44
0.0000000001
 40
0.0
 40
0.0
 40
0.0
 40
0.0
 40
2.470469800527895
 40
4.551227627950671
 40
6.404296741440843
 40
8.126934042945098
 40
9.942706805893902
 40
12.13763635144399
 40
12.13763635144399
 40
12.13763635144399
 40
12.13763635144399
 10
595.444061003474
 20
250.5597768670202
 30
0.0
 10
595.0259652245387
 20
249.8499352364791
 30
0.0
 10
594.2557274908844
 20
248.542228159996
 30
0.0
 10
593.2628707701052
 20
246.6544886651095
 30
0.0
 10
592.8210571298925
 20
244.7571133594586
 30
0.0
 10
593.3679453193418
 20
242.9801070086837
 30
0.0
 10
594.432461239683
 20
241.3927721022105
 30
0.0
 10
595.0549939665989
 20
240.2081065606272
 30
0.0
 10
595.395686286865
 20
239.5597768670207
 30
0.0
 11
595.444061003474
 21
250.5597768670202
 31
0.0
 11
594.2088261032099
 21
248.4202872604808
 31
0.0
 11
593.3122323081392
 21
246.5426097847087
 31
0.0
 11
592.9832906502338
 21
244.7189698736885
 31
0.0
 11
593.4291419916677
 21
243.0550300148368
 31
0.0
 11
594.3370283731415
 21
241.4825246746229
 31
0.0
 11
595.395686286865
 21
239.5597768670207
 31
0.0
  0
LINE
  5
1C58C
330
1F
100
AcDbEntity
  8
0
100
AcDbLine
 10
549.7181640727156
 20
212.7362695803484
 30
0.0
 11
549.7181621066153
 21
213.0089031617484
 31
0.0
  0
LINE
  5
1C58D
330
1F
100
AcDbEntity
  8
0
100
AcDbLine
 10
545.464236250415
 20
205.3680837736482
 30
0.0
 11
545.2281303307151
 21
205.2317640598484
 31
0.0
  0
LINE
  5
1C58E
330
1F
100
AcDbEntity
  8
0
100
AcDbLine
 10
558.0663134465153
 20
195.6721970687484
 30
0.0
 11
556.3338946199151
 21
196.6723869173481
 31
0.0
  0
LINE
  5
1C58F
330
1F
100
AcDbEntity
  8
0
100
AcDbLine
 10
542.0531066108156
 20
204.9172171956483
 30
0.0
 11
541.3431684468156
 21
205.3270909131482
 31
0.0
  0
LINE
  5
1C590
330
1F
100
AcDbEntity
  8
0
100
AcDbLine
 10
569.2937720089154
 20
190.1716573952484
 30
0.0
 11
559.0923495019157
 21
196.0613181838483
 31
0.0
  0
LINE
  5
1C591
330
1F
100
AcDbEntity
  8
0
100
AcDbLine
 10
555.0387511178156
 20
199.8403600913483
 30
0.0
 11
544.5831908133145
 21
205.8767440865485
 31
0.0
  0
LINE
  5
1C592
330
1F
100
AcDbEntity
  8
0
100
AcDbLine
 10
569.2922951164153
 20
191.673611045748
 30
0.0
 11
569.2923269326144
 21
191.6735926776481
 31
0.0
  0
LINE
  5
1C593
330
1F
100
AcDbEntity
  8
0
100
AcDbLine
 10
569.293777565315
 20
190.1716541873481
 30
0.0
 11
569.2932194172149
 21
190.1719765552483
 31
0.0
  0
LINE
  5
1C594
330
1F
100
AcDbEntity
  8
0
100
AcDbLine
 10
559.2918076643151
 20
207.2090489180481
 30
0.0
 11
548.8371186355148
 21
213.2449298932483
 31
0.0
  0
LINE
  5
1C595
330
1F
100
AcDbEntity
  8
0
100
AcDbLine
 10
574.7936786902151
 20
199.6979907138483
 30
0.0
 11
564.5922561832154
 21
205.5876515024482
 31
0.0
  0
LINE
  5
1C596
330
1F
100
AcDbEntity
  8
0
100
AcDbLine
 10
564.4162057059144
 20
206.6707819002485
 30
0.0
 11
562.683786879215
 21
207.6709717487482
 31
0.0
  0
LINE
  5
1C597
330
1F
100
AcDbEntity
  8
0
100
AcDbLine
 10
548.4029988702145
 20
215.9158020270482
 30
0.0
 11
547.6930607061144
 21
216.3256757446482
 31
0.0
  0
LINE
  5
1C598
330
1F
100
AcDbEntity
  8
0
100
AcDbLine
 10
568.8617704969153
 20
192.6894361450484
 30
0.0
 11
568.8617704967152
 21
192.6894823767482
 31
0.0
  0
SPLINE
  5
1C599
330
1F
100
AcDbEntity
  8
0
100
AcDbSpline
210
0.0
220
0.0
230
1.0
 70
     8
 71
     3
 72
     8
 73
     4
 74
     2
 42
0.0000000001
 43
0.0000000001
 44
0.0000000001
 12
0.8807298687538194
 22
0.4736189378444239
 32
0.0
 13
0.9049878491063804
 23
0.4254374136930215
 33
0.0
 40
0.0
 40
0.0
 40
0.0
 40
0.0
 40
0.1807763451215685
 40
0.1807763451215685
 40
0.1807763451215685
 40
0.1807763451215685
 10
572.2412419461147
 20
198.7211649263485
 30
0.0
 10
572.2943136550189
 20
198.7497046265364
 30
0.0
 10
572.3481261574685
 20
198.7769191300066
 30
0.0
 10
572.4026596227155
 20
198.8025554702484
 30
0.0
 11
572.2412419461147
 21
198.7211649263485
 31
0.0
 11
572.4026596227155
 21
198.8025554702484
 31
0.0
  0
SPLINE
  5
1C59A
330
1F
100
AcDbEntity
  8
0
100
AcDbSpline
210
0.0
220
0.0
230
1.0
 70
     8
 71
     3
 72
    12
 73
     8
 74
     6
 42
0.0000000001
 43
0.0000000001
 44
0.0000000001
 12
0.9049878491860424
 22
0.4254374135235652
 32
0.0
 13
0.9324451896393652
 23
-0.3613114561128782
 33
0.0
 40
0.0
 40
0.0
 40
0.0
 40
0.0
 40
0.1435043604859807
 40
0.5005990248937984
 40
0.7810446352326616
 40
0.9878809130725587
 40
1.069502396447479
 40
1.069502396447479
 40
1.069502396447479
 40
1.069502396447479
 10
572.4026596227155
 20
198.8025554702484
 30
0.0
 10
572.4459495235638
 20
198.8229061782332
 30
0.0
 10
572.5985464236568
 20
198.8904407955978
 30
0.0
 10
572.846066831676
 20
198.9748793689966
 30
0.0
 10
573.1251043374253
 20
199.0204944754448
 30
0.0
 10
573.3168699648151
 20
199.0121239736643
 30
0.0
 10
573.4096925817007
 20
198.9852862892512
 30
0.0
 10
573.4350617682154
 20
198.9754560302484
 30
0.0
 11
572.4026596227155
 21
198.8025554702484
 31
0.0
 11
572.5339349679147
 21
198.8605234374485
 31
0.0
 11
572.8730690798141
 21
198.9723476454481
 31
0.0
 11
573.150497185315
 21
199.013376740448
 31
0.0
 11
573.3568096109151
 21
198.9986652186484
 31
0.0
 11
573.4350617682154
 21
198.9754560302484
 31
0.0
  0
SPLINE
  5
1C59B
330
1F
100
AcDbEntity
  8
0
100
AcDbSpline
210
0.0
220
0.0
230
1.0
 70
     8
 71
     3
 72
     8
 73
     4
 74
     2
 42
0.0000000001
 43
0.0000000001
 44
0.0000000001
 12
0.9324451896056206
 22
-0.3613114561999638
 32
0.0
 13
0.8660303019834023
 23
-0.4999915159745584
 33
0.0
 40
0.0
 40
0.0
 40
0.0
 40
0.0
 40
0.0632994845425536
 40
0.0632994845425536
 40
0.0632994845425536
 40
0.0632994845425536
 10
573.4350617682154
 20
198.9754560302484
 30
0.0
 10
573.4547362015042
 20
198.9678324206028
 30
0.0
 10
573.4739507643435
 20
198.9588153150271
 30
0.0
 10
573.4922238549147
 20
198.9482655799482
 30
0.0
 11
573.4350617682154
 21
198.9754560302484
 31
0.0
 11
573.4922238549147
 21
198.9482655799482
 31
0.0
  0
SPLINE
  5
1C59C
330
1F
100
AcDbEntity
  8
0
100
AcDbSpline
210
0.0
220
0.0
230
1.0
 70
     8
 71
     3
 72
     8
 73
     4
 74
     2
 42
0.0000000001
 43
0.0000000001
 44
0.0000000001
 12
-0.8660303014008448
 22
0.4999915169836004
 32
0.0
 13
-0.7784826621794855
 23
0.627666109237978
 33
0.0
 40
0.0
 40
0.0
 40
0.0
 40
0.0
 40
0.0637727431215866
 40
0.0637727431215866
 40
0.0637727431215866
 40
0.0637727431215866
 10
569.2922951164153
 20
191.673611045748
 30
0.0
 10
569.2738854070996
 20
191.6842396559398
 30
0.0
 10
569.2563450600951
 20
191.6964740137645
 30
0.0
 10
569.2397964018153
 20
191.7098166769481
 30
0.0
 11
569.2922951164153
 21
191.673611045748
 31
0.0
 11
569.2397964018153
 21
191.7098166769481
 31
0.0
  0
SPLINE
  5
1C59D
330
1F
100
AcDbEntity
  8
0
100
AcDbSpline
210
0.0
220
0.0
230
1.0
 70
     8
 71
     3
 72
    12
 73
     8
 74
     6
 42
0.0000000001
 43
0.0000000001
 44
0.0000000001
 12
-0.7784826620475092
 22
0.627666109401666
 32
0.0
 13
-0.0840756629916776
 23
0.9964593734279938
 33
0.0
 40
0.0
 40
0.0
 40
0.0
 40
0.0
 40
0.0814669366227303
 40
0.2889638236599574
 40
0.5699048117224482
 40
0.9265148056614933
 40
1.069019604405768
 40
1.069019604405768
 40
1.069019604405768
 40
1.069019604405768
 10
569.2397964018153
 20
191.7098166769481
 30
0.0
 10
569.2186562025849
 20
191.726861355333
 30
0.0
 10
569.1489311140753
 20
191.7939948684636
 30
0.0
 10
569.0457448495538
 20
191.9562595163179
 30
0.0
 10
568.9458615506433
 20
192.2210053510771
 30
0.0
 10
568.8954122544632
 20
192.4772766989577
 30
0.0
 10
568.8776763947928
 20
192.6427068634923
 30
0.0
 10
568.8736826663148
 20
192.6900402776481
 30
0.0
 11
569.2397964018153
 21
191.7098166769481
 31
0.0
 11
569.1807247788152
 21
191.7659184159482
 31
0.0
 11
569.0645835824149
 21
191.937866607648
 31
0.0
 11
568.9614317484151
 21
192.1991854510482
 31
0.0
 11
568.8889897052155
 21
192.548359960648
 31
0.0
 11
568.8736826663148
 21
192.6900402776481
 31
0.0
  0
SPLINE
  5
1C59E
330
1F
100
AcDbEntity
  8
0
100
AcDbSpline
210
0.0
220
0.0
230
1.0
 70
     8
 71
     3
 72
     8
 73
     4
 74
     2
 42
0.0000000001
 43
0.0000000001
 44
0.0000000001
 12
-0.0840756630599208
 22
0.9964593734222358
 32
0.0
 13
-0.0441763683968086
 23
0.9990237477033614
 33
0.0
 40
0.0
 40
0.0
 40
0.0
 40
0.0
 40
0.1316095019952243
 40
0.1316095019952243
 40
0.1316095019952243
 40
0.1316095019952243
 10
568.8736826663148
 20
192.6900402776481
 30
0.0
 10
568.869994280933
 20
192.7337547849463
 30
0.0
 10
568.8672213363629
 20
192.7775544765762
 30
0.0
 10
568.8652833264146
 20
192.8213814825484
 30
0.0
 11
568.8736826663148
 21
192.6900402776481
 31
0.0
 11
568.8652833264146
 21
192.8213814825484
 31
0.0
  0
SPLINE
  5
1C59F
330
1F
100
AcDbEntity
  8
0
100
AcDbSpline
210
0.0
220
0.0
230
1.0
 70
     8
 71
     3
 72
    12
 73
     8
 74
     6
 42
0.0000000001
 43
0.0000000001
 44
0.0000000001
 12
0.8657258785286277
 22
-0.5005184344715345
 32
0.0
 13
-0.0000000000317731
 23
-1.0
 33
0.0
 40
0.0
 40
0.0
 40
0.0
 40
0.0
 40
0.374204241595847
 40
0.9813689401622323
 40
1.638031377788772
 40
2.357931955481903
 40
3.148001316801023
 40
3.148001316801023
 40
3.148001316801023
 40
3.148001316801023
 10
574.7941915102152
 20
199.6976027623481
 30
0.0
 10
574.9021776088168
 20
199.635170721956
 30
0.0
 10
575.1718072109545
 20
199.4468703349969
 30
0.0
 10
575.543190029828
 20
199.0375639580758
 30
0.0
 10
575.8532632677748
 20
198.446479449359
 30
0.0
 10
576.0413377525183
 20
197.7441485017337
 30
0.0
 10
576.0792445356236
 20
197.2394012775213
 30
0.0
 10
576.0792445356152
 20
196.9760448237483
 30
0.0
 11
574.7941915102152
 21
199.6976027623481
 31
0.0
 11
575.1009493643156
 21
199.4832935619482
 31
0.0
 11
575.5114276146156
 21
199.0359049420484
 31
0.0
 11
575.8216068241149
 21
198.4571179216479
 31
0.0
 11
576.0140696519153
 21
197.7634213729482
 31
0.0
 11
576.0792445356152
 21
196.9760448237483
 31
0.0
  0
SPLINE
  5
1C5A0
330
1F
100
AcDbEntity
  8
0
100
AcDbSpline
210
0.0
220
0.0
230
1.0
 70
     8
 71
     3
 72
    21
 73
    17
 74
    15
 42
0.0000000001
 43
0.0000000001
 44
0.0000000001
 12
-0.0000000000272297
 22
-1.0
 32
0.0
 13
-0.8657258785333905
 23
0.5005184344632966
 33
0.0
 40
0.0
 40
0.0
 40
0.0
 40
0.0
 40
0.8444863524611275
 40
1.737434255362366
 40
2.667624274481064
 40
3.617959064547711
 40
4.571978065248004
 40
5.514779167699048
 40
6.429973431938325
 40
7.305881250721355
 40
8.127710346203983
 40
8.886615560511167
 40
9.580200567652472
 40
10.21034597605369
 40
10.80582097552029
 40
11.01794054590898
 40
11.01794054590898
 40
11.01794054590898
 40
11.01794054590898
 10
576.0792445356152
 20
196.9760448237483
 30
0.0
 10
576.0792445356075
 20
196.6945493729279
 30
0.0
 10
576.0326114073285
 20
196.1148678247161
 30
0.0
 10
575.84464499834
 20
195.2436363435247
 30
0.0
 10
575.5450137003107
 20
194.3669585683063
 30
0.0
 10
575.144222937557
 20
193.5094154135476
 30
0.0
 10
574.6545891140156
 20
192.6944374999223
 30
0.0
 10
574.089642052797
 20
191.944257794495
 30
0.0
 10
573.4635509903824
 20
191.2793461451278
 30
0.0
 10
572.7926073780191
 20
190.7202260094853
 30
0.0
 10
572.0947442745523
 20
190.2860009517699
 30
0.0
 10
571.3909630253633
 20
189.9936473149832
 30
0.0
 10
570.7052077855593
 20
189.8555973595501
 30
0.0
 10
570.0596475151907
 20
189.8751415571536
 30
0.0
 10
569.5941037471791
 20
190.0131995138976
 30
0.0
 10
569.3544716560572
 20
190.1366554283181
 30
0.0
 10
569.2932591889143
 20
190.1720453467481
 30
0.0
 11
576.0792445356152
 21
196.9760448237483
 31
0.0
 11
576.0160068424152
 21
196.1339295147485
 31
0.0
 11
575.8308366429153
 21
195.260391905648
 31
0.0
 11
575.5318404641143
 21
194.3795657271483
 31
0.0
 11
575.1302423725152
 21
193.5182555704481
 31
0.0
 11
574.6387776066145
 21
192.7005669759481
 31
0.0
 11
574.0706500425146
 21
191.9481674878483
 31
0.0
 11
573.4415686529152
 21
191.2834591709482
 31
0.0
 11
572.7663869593149
 21
190.7254769242484
 31
0.0
 11
572.0660273289154
 21
190.2954775634483
 31
0.0
 11
571.3628886146149
 21
190.0099375964481
 31
0.0
 11
570.6817401771146
 21
189.8791822209481
 31
0.0
 11
570.0520566941155
 21
189.903305797948
 31
0.0
 11
569.4818619804151
 21
190.0749696073484
 31
0.0
 11
569.2932591889143
 21
190.1720453467481
 31
0.0
  0
SPLINE
  5
1C5A1
330
1F
100
AcDbEntity
  8
0
100
AcDbSpline
210
0.0
220
0.0
230
1.0
 70
     8
 71
     3
 72
     8
 73
     4
 74
     2
 42
0.0000000001
 43
0.0000000001
 44
0.0000000001
 12
0.8474504774707442
 22
-0.5308744561896038
 32
0.0
 13
0.8234815539796835
 23
-0.5673430445993022
 33
0.0
 40
0.0
 40
0.0
 40
0.0
 40
0.0
 40
0.060282027944235
 40
0.060282027944235
 40
0.060282027944235
 40
0.060282027944235
 10
573.4809726673152
 20
198.9536057022482
 30
0.0
 10
573.4980013451032
 20
198.9429383059805
 30
0.0
 10
573.514802890399
 20
198.9318991976712
 30
0.0
 10
573.5313499364152
 20
198.9204990012484
 30
0.0
 11
573.4809726673152
 21
198.9536057022482
 31
0.0
 11
573.5313499364152
 21
198.9204990012484
 31
0.0
  0
SPLINE
  5
1C5A2
330
1F
100
AcDbEntity
  8
0
100
AcDbSpline
210
0.0
220
0.0
230
1.0
 70
     8
 71
     3
 72
    11
 73
     7
 74
     5
 42
0.0000000001
 43
0.0000000001
 44
0.0000000001
 12
0.823481554165537
 22
-0.5673430443295412
 32
0.0
 13
0.0
 23
-1.0
 33
0.0
 40
0.0
 40
0.0
 40
0.0
 40
0.0
 40
0.4559416816693198
 40
0.9465380585167263
 40
1.489738862572716
 40
2.092801969277187
 40
2.092801969277187
 40
2.092801969277187
 40
2.092801969277187
 10
573.5313499364152
 20
198.9204990012484
 30
0.0
 10
573.6565031246252
 20
198.8342738873434
 30
0.0
 10
573.8877271608625
 20
198.6108272911446
 30
0.0
 10
574.1319822763423
 20
198.1720478442838
 30
0.0
 10
574.2776519333111
 20
197.6419365313732
 30
0.0
 10
574.3064506801142
 20
197.2587106785163
 30
0.0
 10
574.3064506801142
 20
197.0576896429482
 30
0.0
 11
573.5313499364152
 21
198.9204990012484
 31
0.0
 11
573.8616201201145
 21
198.6061672929485
 31
0.0
 11
574.105904268115
 21
198.1807145223482
 31
0.0
 11
574.2558835765152
 21
197.6586289732484
 31
0.0
 11
574.3064506801142
 21
197.0576896429482
 31
0.0
  0
SPLINE
  5
1C5A3
330
1F
100
AcDbEntity
  8
0
100
AcDbSpline
210
0.0
220
0.0
230
1.0
 70
     8
 71
     3
 72
    20
 73
    16
 74
    14
 42
0.0000000001
 43
0.0000000001
 44
0.0000000001
 12
0.0
 22
-1.0
 32
0.0
 13
-0.8881203407091701
 23
0.4596109881395652
 33
0.0
 40
0.0
 40
0.0
 40
0.0
 40
0.0
 40
0.6612651175630596
 40
1.37252329259554
 40
2.121033787582975
 40
2.89114194574938
 40
3.665644624623477
 40
4.427034603900432
 40
5.158722690618764
 40
5.846328688099649
 40
6.479154229336637
 40
7.051984933680905
 40
7.567321281374908
 40
8.037669359288605
 40
8.311781460912968
 40
8.311781460912968
 40
8.311781460912968
 40
8.311781460912968
 10
574.3064506801142
 20
197.0576896429482
 30
0.0
 10
574.3064506801142
 20
196.8372679370938
 30
0.0
 10
574.2685668638962
 20
196.3793584000926
 30
0.0
 10
574.116396327718
 20
195.6871945514596
 30
0.0
 10
573.8717097730966
 20
194.9836013100505
 30
0.0
 10
573.5426400868878
 20
194.2920809685457
 30
0.0
 10
573.1401276573211
 20
193.6355356852961
 30
0.0
 10
572.6775629971028
 20
193.035831085659
 30
0.0
 10
572.1702715146157
 20
192.5128578416961
 30
0.0
 10
571.6348511749486
 20
192.0838747876267
 30
0.0
 10
571.0884168395088
 20
191.7629983247122
 30
0.0
 10
570.5476187048234
 20
191.5611978503139
 30
0.0
 10
570.028564088153
 20
191.4868820142637
 30
0.0
 10
569.6055531896878
 20
191.5402476687279
 30
0.0
 10
569.373685181611
 20
191.6333178944855
 30
0.0
 10
569.2925370039152
 20
191.6753128724484
 30
0.0
 11
574.3064506801142
 21
197.0576896429482
 31
0.0
 11
574.2558835765152
 21
196.3983607995481
 31
0.0
 11
574.105904268115
 21
195.7030950959482
 31
0.0
 11
573.8616201201145
 21
194.9955689719485
 31
0.0
 11
573.5313499364152
 21
194.2998763810481
 31
0.0
 11
573.126340671815
 21
193.6397083000482
 31
0.0
 11
572.6603844312153
 21
193.0375459611481
 31
0.0
 11
572.1493487954155
 21
192.5138952806481
 31
0.0
 11
571.610636470115
 21
192.0865885543483
 31
0.0
 11
571.0625926574152
 21
191.7701772002482
 31
0.0
 11
570.523880332115
 21
191.5754362276483
 31
0.0
 11
570.012844696315
 21
191.5089973068482
 31
0.0
 11
569.5468884557153
 21
191.5731229354481
 31
0.0
 11
569.2925370039152
 21
191.6753128724484
 31
0.0
  0
SPLINE
  5
1C5A4
330
1F
100
AcDbEntity
  8
0
100
AcDbSpline
210
0.0
220
0.0
230
1.0
 70
     8
 71
     3
 72
     8
 73
     4
 74
     2
 42
0.0000000001
 43
0.0000000001
 44
0.0000000001
 12
-0.8881203407718047
 22
0.4596109880185347
 32
0.0
 13
-0.8794671730673616
 23
0.4759595481728499
 33
0.0
 40
0.0
 40
0.0
 40
0.0
 40
0.0
 40
0.0262430522631998
 40
0.0262430522631998
 40
0.0262430522631998
 40
0.0262430522631998
 10
569.2925370039152
 20
191.6753128724484
 30
0.0
 10
569.2847680077423
 20
191.6793334041748
 30
0.0
 10
569.2770357846102
 20
191.6834258110824
 30
0.0
 10
569.2693424836147
 20
191.6875893548484
 30
0.0
 11
569.2925370039152
 21
191.6753128724484
 31
0.0
 11
569.2693424836147
 21
191.6875893548484
 31
0.0
  0
SPLINE
  5
1C5A5
330
1F
100
AcDbEntity
  8
0
100
AcDbSpline
210
0.0
220
0.0
230
1.0
 70
     8
 71
     3
 72
    20
 73
    16
 74
    14
 42
0.0000000001
 43
0.0000000001
 44
0.0000000001
 12
-0.8664604690564733
 22
0.4992456865736915
 32
0.0
 13
0.0
 23
-1.0
 33
0.0
 40
0.0
 40
0.0
 40
0.0
 40
0.0
 40
0.5104492139658329
 40
1.221570712807934
 40
2.000710190809285
 40
2.866775660451234
 40
3.823547609613894
 40
4.863142391513271
 40
5.969385094128647
 40
7.120534229524271
 40
8.29150851782256
 40
9.455838709353539
 40
10.58751529107169
 40
11.6628699127187
 40
12.66263979283644
 40
12.66263979283644
 40
12.66263979283644
 40
12.66263979283644
 10
547.6933028744148
 20
216.3253705943483
 30
0.0
 10
547.5458748526274
 20
216.4103171171108
 30
0.0
 10
547.1673028373657
 20
216.5719198628018
 30
0.0
 10
546.4958468678698
 20
216.6565275096436
 30
0.0
 10
545.7109748092853
 20
216.544216299482
 30
0.0
 10
544.8933741132597
 20
216.2390984682339
 30
0.0
 10
544.0672067146242
 20
215.7539683855805
 30
0.0
 10
543.2577054071619
 20
215.1053854770248
 30
0.0
 10
542.4907280408205
 20
214.3147001473804
 30
0.0
 10
541.791374601589
 20
213.4080037909614
 30
0.0
 10
541.1828140672249
 20
212.4153698829172
 30
0.0
 10
540.6852920615822
 20
211.3698569771248
 30
0.0
 10
540.3153492896406
 20
210.3060910071341
 30
0.0
 10
540.0852819322552
 20
209.2596051879399
 30
0.0
 10
540.0280052101147
 20
208.5672895785542
 30
0.0
 10
540.0280052101147
 20
208.2340329518483
 30
0.0
 11
547.6933028744148
 21
216.3253705943483
 31
0.0
 11
547.2240100017147
 21
216.5261754739485
 31
0.0
 11
546.5195285426148
 21
216.6231273171483
 31
0.0
 11
545.7468913314147
 21
216.5226779963481
 31
0.0
 11
544.9324096015149
 21
216.2282481925485
 31
0.0
 11
544.1038195514153
 21
215.7498643596481
 31
0.0
 11
543.2893378215153
 21
215.1038172853481
 31
0.0
 11
542.5167006102152
 21
214.3121073278484
 31
0.0
 11
541.8122191512152
 21
213.4016952201481
 31
0.0
 11
541.1998837154148
 21
212.4035839548481
 31
0.0
 11
540.7005466519144
 21
211.3517630138484
 31
0.0
 11
540.3312122854146
 21
210.2820508977483
 31
0.0
 11
540.1044578547148
 21
209.2308753698484
 31
0.0
 11
540.0280052101147
 21
208.2340329518483
 31
0.0
  0
SPLINE
  5
1C5A6
330
1F
100
AcDbEntity
  8
0
100
AcDbSpline
210
0.0
220
0.0
230
1.0
 70
     8
 71
     3
 72
    12
 73
     8
 74
     6
 42
0.0000000001
 43
0.0000000001
 44
0.0000000001
 12
-0.0000071436666991
 22
0.999999999974484
 32
0.0
 13
-0.8665455177233475
 23
0.4990980522037482
 33
0.0
 40
0.0
 40
0.0
 40
0.0
 40
0.0
 40
0.9117309614798038
 40
1.732998843712566
 40
2.474733842086804
 40
3.164074241792653
 40
3.333568043616586
 40
3.333568043616586
 40
3.333568043616586
 40
3.333568043616586
 10
549.7181621066153
 20
213.0089031617484
 30
0.0
 10
549.7181599355813
 20
213.3128134822339
 30
0.0
 10
549.6746095996731
 20
213.8922063433196
 30
0.0
 10
549.4544056612351
 20
214.6936430698961
 30
0.0
 10
549.0850172072649
 20
215.3571220646937
 30
0.0
 10
548.6942752218082
 20
215.7347426721073
 30
0.0
 10
548.4518852660321
 20
215.8874796429647
 30
0.0
 10
548.4029272346147
 20
215.9156776517483
 30
0.0
 11
549.7181621066153
 21
213.0089031617484
 31
0.0
 11
549.6417094622151
 21
213.9174230235484
 31
0.0
 11
549.4149550316157
 21
214.7067666512484
 31
0.0
 11
549.0456206650157
 21
215.3500107211483
 31
0.0
 11
548.5462836015154
 21
215.8252503277485
 31
0.0
 11
548.4029272346147
 21
215.9156776517483
 31
0.0
  0
SPLINE
  5
1C5A7
330
1F
100
AcDbEntity
  8
0
100
AcDbSpline
210
0.0
220
0.0
230
1.0
 70
     8
 71
     3
 72
    16
 73
    12
 74
    10
 42
0.0000000001
 43
0.0000000001
 44
0.0000000001
 12
-0.0000000165550115
 22
1.0
 32
0.0
 13
0.8660239817201873
 23
0.5000024630794461
 33
0.0
 40
0.0
 40
0.0
 40
0.0
 40
0.0
 40
0.7870966846095831
 40
1.633783506418966
 40
2.524870723597846
 40
3.441691800486684
 40
4.363743370805292
 40
5.27018245676563
 40
6.141268763924979
 40
6.959881675625804
 40
7.345527299894085
 40
7.345527299894085
 40
7.345527299894085
 40
7.345527299894085
 10
568.8617704967152
 20
192.6894822184484
 30
0.0
 10
568.8617704923717
 20
192.9518477799849
 30
0.0
 10
568.906857531026
 20
193.496920470389
 30
0.0
 10
569.0879825232834
 20
194.3208739137485
 30
0.0
 10
569.3792552208268
 20
195.1584847019286
 30
0.0
 10
569.7709993999287
 20
195.9817475425263
 30
0.0
 10
570.2501763526262
 20
196.7633729040638
 30
0.0
 10
570.8008768474924
 20
197.4773478927936
 30
0.0
 10
571.4047341645597
 20
198.0999122773632
 30
0.0
 10
571.9464278897738
 20
198.533896519814
 30
0.0
 10
572.2858806339282
 20
198.7489370266113
 30
0.0
 10
572.3972067536156
 20
198.813211613948
 30
0.0
 11
568.8617704967152
 21
192.6894822184484
 31
0.0
 11
568.9219505340147
 21
193.474274900648
 31
0.0
 11
569.1004683174156
 21
194.3019281947484
 31
0.0
 11
569.3912652787145
 21
195.1442307270484
 31
0.0
 11
569.7844399767151
 21
195.9724665291481
 31
0.0
 11
570.2665951920148
 21
196.758408923148
 31
0.0
 11
570.8213099884155
 21
197.475293370748
 31
0.0
 11
571.4296999278153
 21
198.0987138036483
 31
0.0
 11
572.0710479335154
 21
198.6074375349484
 31
0.0
 11
572.3972067536156
 21
198.813211613948
 31
0.0
  0
SPLINE
  5
1C5A8
330
1F
100
AcDbEntity
  8
0
100
AcDbSpline
210
0.0
220
0.0
230
1.0
 70
     8
 71
     3
 72
    20
 73
    16
 74
    14
 42
0.0000000001
 43
0.0000000001
 44
0.0000000001
 12
-0.8664604690564733
 22
0.4992456865736915
 32
0.0
 13
0.0
 23
-1.0
 33
0.0
 40
0.0
 40
0.0
 40
0.0
 40
0.0
 40
0.510449214018212
 40
1.221570712775751
 40
2.000710190888471
 40
2.866775660496447
 40
3.823547609659922
 40
4.863142391621347
 40
5.969385094166969
 40
7.120534229544674
 40
8.291508517790099
 40
9.455838709364037
 40
10.58751529108221
 40
11.6628699127292
 40
12.66263979294678
 40
12.66263979294678
 40
12.66263979294678
 40
12.66263979294678
 10
562.6840290476152
 20
207.6706665985483
 30
0.0
 10
562.5366010258126
 20
207.7556131213195
 30
0.0
 10
562.1580290104735
 20
207.9172158667736
 30
0.0
 10
561.4865730410166
 20
208.001823513953
 30
0.0
 10
560.7017009824409
 20
207.8895123035077
 30
0.0
 10
559.8841002863389
 20
207.5843944724811
 30
0.0
 10
559.0579328877014
 20
207.0992643897666
 30
0.0
 10
558.248431580283
 20
206.4506814811607
 30
0.0
 10
557.4814542140716
 20
205.6599961514181
 30
0.0
 10
556.7821007746156
 20
204.7532997952266
 30
0.0
 10
556.1735402404799
 20
203.7606658870489
 30
0.0
 10
555.6760182346485
 20
202.7151529813585
 30
0.0
 10
555.3060754627515
 20
201.6513870113291
 30
0.0
 10
555.0760081053433
 20
200.6049011921088
 30
0.0
 10
555.0187313832153
 20
199.9125855826873
 30
0.0
 10
555.0187313832153
 20
199.5793289559481
 30
0.0
 11
562.6840290476152
 21
207.6706665985483
 31
0.0
 11
562.2147361748154
 21
207.8714714780484
 31
0.0
 11
561.5102547158145
 21
207.9684233213483
 31
0.0
 11
560.7376175045151
 21
207.8679740004485
 31
0.0
 11
559.9231357746154
 21
207.5735441967485
 31
0.0
 11
559.0945457245148
 21
207.095160363848
 31
0.0
 11
558.280063994615
 21
206.4491132894481
 31
0.0
 11
557.5074267834148
 21
205.6574033319483
 31
0.0
 11
556.8029453243148
 21
204.7469912243481
 31
0.0
 11
556.1906098886153
 21
203.7488799590482
 31
0.0
 11
555.691272825015
 21
202.6970590180484
 31
0.0
 11
555.3219384585149
 21
201.6273469019483
 31
0.0
 11
555.0951840278154
 21
200.5761713740484
 31
0.0
 11
555.0187313832153
 21
199.5793289559481
 31
0.0
  0
SPLINE
  5
1C5A9
330
1F
100
AcDbEntity
  8
0
100
AcDbSpline
210
0.0
220
0.0
230
1.0
 70
     8
 71
     3
 72
    11
 73
     7
 74
     5
 42
0.0000000001
 43
0.0000000001
 44
0.0000000001
 12
-0.9664364853726709
 22
-0.2569056631149249
 32
0.0
 13
-0.8665455177377204
 23
0.4990980521787936
 33
0.0
 40
0.0
 40
0.0
 40
0.0
 40
0.0
 40
0.061942706464385
 40
0.8410821844658919
 40
1.55220368330788
 40
2.062293281724632
 40
2.062293281724632
 40
2.062293281724632
 40
2.062293281724632
 10
560.0724719860151
 20
195.4906285136484
 30
0.0
 10
560.0525174221718
 20
195.4853240362886
 30
0.0
 10
559.7810485514139
 20
195.4154622046875
 30
0.0
 10
559.263326489953
 20
195.3412911032763
 30
0.0
 10
558.5922296620707
 20
195.4259485771875
 30
0.0
 10
558.2137237003993
 20
195.5874598690463
 30
0.0
 10
558.0663850820151
 20
195.6723214440484
 30
0.0
 11
560.0724719860151
 21
195.4906285136484
 31
0.0
 11
560.0124828212152
 21
195.4751948170481
 31
0.0
 11
559.2398456100149
 21
195.3747454962484
 31
0.0
 11
558.5353641509151
 21
195.4716973394482
 31
0.0
 11
558.0663850820151
 21
195.6723214440484
 31
0.0
  0
SPLINE
  5
1C5AA
330
1F
100
AcDbEntity
  8
0
100
AcDbSpline
210
0.0
220
0.0
230
1.0
 70
     8
 71
     3
 72
    12
 73
     8
 74
     6
 42
0.0000000001
 43
0.0000000001
 44
0.0000000001
 12
-0.8664604690545566
 22
0.4992456865770177
 32
0.0
 13
0.0
 23
1.0
 33
0.0
 40
0.0
 40
0.0
 40
0.0
 40
0.0
 40
0.1691319438660355
 40
0.8584723436442127
 40
1.600207341968765
 40
2.42147522422915
 40
3.333249206977412
 40
3.333249206977412
 40
3.333249206977412
 40
3.333249206977412
 10
556.333652451615
 20
196.6726920676481
 30
0.0
 10
556.2848037371435
 20
196.7008381987939
 30
0.0
 10
556.0425303992671
 20
196.8535312861659
 30
0.0
 10
555.6518760835919
 20
197.2310670302606
 30
0.0
 10
555.2824878898117
 20
197.8945458338013
 30
0.0
 10
555.0622800454481
 20
198.6959965213718
 30
0.0
 10
555.0187313832153
 20
199.2754042950321
 30
0.0
 10
555.0187313832153
 20
199.5793289559481
 30
0.0
 11
556.333652451615
 21
196.6726920676481
 31
0.0
 11
556.1906098886153
 21
196.762938616648
 31
0.0
 11
555.691272825015
 21
197.2381782232481
 31
0.0
 11
555.3219384585149
 21
197.8814222931481
 31
0.0
 11
555.0951840278154
 21
198.6707659208481
 31
0.0
 11
555.0187313832153
 21
199.5793289559481
 31
0.0
  0
SPLINE
  5
1C5AB
330
1F
100
AcDbEntity
  8
0
100
AcDbSpline
210
0.0
220
0.0
230
1.0
 70
     8
 71
     3
 72
    12
 73
     8
 74
     6
 42
0.0000000001
 43
0.0000000001
 44
0.0000000001
 12
-0.8660226831930231
 22
-0.5000047121729521
 32
0.0
 13
-0.8665455177294431
 23
0.4990980521931652
 33
0.0
 40
0.0
 40
0.0
 40
0.0
 40
0.0
 40
0.4678114872701481
 40
1.333876956818118
 40
2.113016434932599
 40
2.824137933787447
 40
3.334227532112789
 40
3.334227532112789
 40
3.334227532112789
 40
3.334227532112789
 10
545.2281580549147
 20
205.2317160407482
 30
0.0
 10
545.0931129351033
 20
205.1537467247336
 30
0.0
 10
544.6993149617707
 20
204.9465405385408
 30
0.0
 10
544.0351434760758
 20
204.698651837501
 30
0.0
 10
543.2503322689562
 20
204.5863711153041
 30
0.0
 10
542.5789819792485
 20
204.6709571990345
 30
0.0
 10
542.2005168647711
 20
204.8324799959588
 30
0.0
 10
542.0531782464146
 20
204.9173415709482
 30
0.0
 11
545.2281580549147
 21
205.2317160407482
 31
0.0
 11
544.8137577154153
 21
205.0146447477481
 31
0.0
 11
543.9992759856154
 21
204.7202149439485
 31
0.0
 11
543.2266387743143
 21
204.6197656230482
 31
0.0
 11
542.5221573152152
 21
204.7167174663481
 31
0.0
 11
542.0531782464146
 21
204.9173415709482
 31
0.0
  0
SPLINE
  5
1C5AC
330
1F
100
AcDbEntity
  8
0
100
AcDbSpline
210
0.0
220
0.0
230
1.0
 70
     8
 71
     3
 72
    11
 73
     7
 74
     5
 42
0.0000000001
 43
0.0000000001
 44
0.0000000001
 12
-0.2645199168623091
 22
0.9643802225176319
 32
0.0
 13
-0.86654551772891
 23
0.4990980521940907
 33
0.0
 40
0.0
 40
0.0
 40
0.0
 40
0.0
 40
0.445724516185004
 40
1.187459514422708
 40
1.876799914197368
 40
2.046293716020547
 40
2.046293716020547
 40
2.046293716020547
 40
2.046293716020547
 10
565.5723306498145
 20
205.0399815348482
 30
0.0
 10
565.5330296458262
 20
205.1832641708815
 30
0.0
 10
565.4060690426208
 20
205.5590737313863
 30
0.0
 10
565.098209602553
 20
206.1121561655692
 30
0.0
 10
564.7074829587674
 20
206.4897191608876
 30
0.0
 10
564.465092101733
 20
206.6424595161651
 30
0.0
 10
564.4161340703155
 20
206.6706575249481
 30
0.0
 11
565.5723306498145
 21
205.0399815348482
 31
0.0
 11
565.4281618672152
 21
205.4617465244481
 31
0.0
 11
565.0588275007154
 21
206.1049905942481
 31
0.0
 11
564.5594904372152
 21
206.5802302009482
 31
0.0
 11
564.4161340703155
 21
206.6706575249481
 31
0.0
  0
SPLINE
  5
1C5AD
330
1F
100
AcDbEntity
  8
0
100
AcDbSpline
210
0.0
220
0.0
230
1.0
 70
     8
 71
     3
 72
    12
 73
     8
 74
     6
 42
0.0000000001
 43
0.0000000001
 44
0.0000000001
 12
-0.8664604690545566
 22
0.4992456865770177
 32
0.0
 13
0.0
 23
1.0
 33
0.0
 40
0.0
 40
0.0
 40
0.0
 40
0.0
 40
0.1691319438667895
 40
0.8584723436415323
 40
1.600207341879187
 40
2.421475224139635
 40
3.333249206987645
 40
3.333249206987645
 40
3.333249206987645
 40
3.333249206987645
 10
541.3429262784153
 20
205.3273960634482
 30
0.0
 10
541.2940775639436
 20
205.3555421945941
 30
0.0
 10
541.0518042260576
 20
205.5082352819546
 30
0.0
 10
540.6611499105698
 20
205.8857710261961
 30
0.0
 10
540.2917617166698
 20
206.5492498296034
 30
0.0
 10
540.0715538723479
 20
207.3507005172128
 30
0.0
 10
540.0280052101147
 20
207.9301082908989
 30
0.0
 10
540.0280052101147
 20
208.2340329518483
 30
0.0
 11
541.3429262784153
 21
205.3273960634482
 31
0.0
 11
541.1998837154148
 21
205.4176426124481
 31
0.0
 11
540.7005466519144
 21
205.8928822191482
 31
0.0
 11
540.3312122854146
 21
206.5361262889481
 31
0.0
 11
540.1044578547148
 21
207.3254699166481
 31
0.0
 11
540.0280052101147
 21
208.2340329518483
 31
0.0
  0
SPLINE
  5
1C5AE
330
1F
100
AcDbEntity
  8
0
100
AcDbSpline
210
0.0
220
0.0
230
1.0
 70
     8
 71
     3
 72
    20
 73
    16
 74
    14
 42
0.0000000001
 43
0.0000000001
 44
0.0000000001
 12
0.8665066893425613
 22
-0.4991654608690327
 32
0.0
 13
-0.0000000000597067
 23
1.0
 33
0.0
 40
0.0
 40
0.0
 40
0.0
 40
0.0
 40
0.3126714872075106
 40
0.7840232483640123
 40
1.299227671907644
 40
1.872535734021637
 40
2.505888327258566
 40
3.195358397964012
 40
3.929380643127565
 40
4.694486364184882
 40
5.473234062322475
 40
6.248254014319077
 40
7.002385466702318
 40
7.71509044877725
 40
8.37499680890229
 40
8.37499680890229
 40
8.37499680890229
 40
8.37499680890229
 10
569.2923903758153
 20
191.6737028092483
 30
0.0
 10
569.3827010208926
 20
191.6216778735774
 30
0.0
 10
569.6243114165777
 20
191.5158901283561
 30
0.0
 10
570.0597402603928
 20
191.4543050753398
 30
0.0
 10
570.5802208817409
 20
191.5229510850965
 30
0.0
 10
571.1229500452001
 20
191.7206210736298
 30
0.0
 10
571.6720935261616
 20
192.0388741880175
 30
0.0
 10
572.2105897668812
 20
192.4665984036181
 30
0.0
 10
572.7214064703552
 20
192.9898642515679
 30
0.0
 10
573.1875253728602
 20
193.5911934280115
 30
0.0
 10
573.5934419750992
 20
194.2507121083154
 30
0.0
 10
573.9254350068954
 20
194.9463244008896
 30
0.0
 10
574.1717719195219
 20
195.6536062840349
 30
0.0
 10
574.3242857142673
 20
196.3476578098397
 30
0.0
 10
574.3620956020278
 20
196.80559497234
 30
0.0
 10
574.3620956020146
 20
197.0255637590483
 30
0.0
 11
569.2923903758153
 21
191.6737028092483
 31
0.0
 11
569.5787752155151
 21
191.5482150309484
 31
0.0
 11
570.0447113621154
 21
191.4769690483484
 31
0.0
 11
570.5563289774151
 21
191.5376568869481
 31
0.0
 11
571.0970548025149
 21
191.7281764821481
 31
0.0
 11
571.6474093217143
 21
192.0416177215482
 31
0.0
 11
572.1894390147149
 21
192.4677313100481
 31
0.0
 11
572.7038115393147
 21
192.9913815390481
 31
0.0
 11
573.1735180177143
 21
193.5953373226483
 31
0.0
 11
573.5819175657147
 21
194.2584042774482
 31
0.0
 11
573.9150963071146
 21
194.958152698148
 31
0.0
 11
574.1615254412152
 21
195.6708847160483
 31
0.0
 11
574.3117278053156
 21
196.3675823845481
 31
0.0
 11
574.3620956020146
 21
197.0255637590483
 31
0.0
  0
SPLINE
  5
1C5AF
330
1F
100
AcDbEntity
  8
0
100
AcDbSpline
210
0.0
220
0.0
230
1.0
 70
     8
 71
     3
 72
     8
 73
     4
 74
     2
 42
0.0000000001
 43
0.0000000001
 44
0.0000000001
 12
0.0342712053101264
 22
-0.9994125697061205
 32
0.0
 13
0.0713378063715591
 23
-0.997452213081957
 33
0.0
 40
0.0
 40
0.0
 40
0.0
 40
0.0
 40
0.1478103195586885
 40
0.1478103195586885
 40
0.1478103195586885
 40
0.1478103195586885
 10
568.8642421201143
 20
192.8379306848481
 30
0.0
 10
568.8659306660505
 20
192.7886895210816
 30
0.0
 10
568.8685030363957
 20
192.7394696097348
 30
0.0
 10
568.8720178577145
 20
192.6903250329481
 30
0.0
 11
568.8642421201143
 21
192.8379306848481
 31
0.0
 11
568.8720178577145
 21
192.6903250329481
 31
0.0
  0
SPLINE
  5
1C5B0
330
1F
100
AcDbEntity
  8
0
100
AcDbSpline
210
0.0
220
0.0
230
1.0
 70
     8
 71
     3
 72
    10
 73
     6
 74
     4
 42
0.0000000001
 43
0.0000000001
 44
0.0000000001
 12
0.0713378065210658
 22
-0.9974522130712644
 32
0.0
 13
0.4263920724603327
 23
-0.9045384461386827
 33
0.0
 40
0.0
 40
0.0
 40
0.0
 40
0.0
 40
0.3311213118780417
 40
0.9305585137976143
 40
1.07928502447005
 40
1.07928502447005
 40
1.07928502447005
 40
1.07928502447005
 10
568.8720178577145
 20
192.6903250329481
 30
0.0
 10
568.8798916804085
 20
192.5802324711722
 30
0.0
 10
568.9152537699319
 20
192.2718733017666
 30
0.0
 10
569.0063247092743
 20
191.9203215282085
 30
0.0
 10
569.1051974272103
 20
191.6912132913025
 30
0.0
 10
569.1263360289155
 20
191.6463703423481
 30
0.0
 11
568.8720178577145
 21
192.6903250329481
 31
0.0
 11
568.910522138715
 21
192.3614500665483
 31
0.0
 11
569.0673002816144
 21
191.7828780546481
 31
0.0
 11
569.1263360289155
 21
191.6463703423481
 31
0.0
  0
SPLINE
  5
1C5B1
330
1F
100
AcDbEntity
  8
0
100
AcDbSpline
210
0.0
220
0.0
230
1.0
 70
     8
 71
     3
 72
    22
 73
    18
 74
    16
 42
0.0000000001
 43
0.0000000001
 44
0.0000000001
 12
0.4263920724879234
 22
-0.9045384461256766
 32
0.0
 13
-0.0000000165514269
 23
1.0
 33
0.0
 40
0.0
 40
0.0
 40
0.0
 40
0.0
 40
0.4018660176415448
 40
0.9105258355143085
 40
1.408120022379869
 40
1.928777277596371
 40
2.497874338493943
 40
3.131152923895851
 40
3.830756956179546
 40
4.592348594193661
 40
5.403152743981624
 40
6.248291813587928
 40
7.108499822483714
 40
7.964590159773428
 40
8.797606673722901
 40
9.584863929732831
 40
10.31379938954872
 40
10.31379938954872
 40
10.31379938954872
 40
10.31379938954872
 10
569.1263360289155
 20
191.6463703423481
 30
0.0
 10
569.1834535236237
 20
191.5252025879653
 30
0.0
 10
569.3379163748455
 20
191.2615147145045
 30
0.0
 10
569.6741966710526
 20
190.9229336735212
 30
0.0
 10
570.1386042775826
 20
190.6930409150235
 30
0.0
 10
570.6702828119796
 20
190.617905230263
 30
0.0
 10
571.2453026591738
 20
190.6936994810198
 30
0.0
 10
571.8447741700361
 20
190.9120566398938
 30
0.0
 10
572.4513695983183
 20
191.2635973127832
 30
0.0
 10
573.046192053597
 20
191.7360643718031
 30
0.0
 10
573.6104430182944
 20
192.3140659499447
 30
0.0
 10
574.1253199656695
 20
192.9782967622328
 30
0.0
 10
574.5736956231276
 20
193.7068046106546
 30
0.0
 10
574.9404201261864
 20
194.4751795576014
 30
0.0
 10
575.2125155578457
 20
195.2564488345919
 30
0.0
 10
575.3809975837143
 20
196.0230980640699
 30
0.0
 10
575.4227553729363
 20
196.5289384793431
 30
0.0
 10
575.4227553689147
 20
196.7719169659484
 30
0.0
 11
569.1263360289155
 21
191.6463703423481
 31
0.0
 11
569.3320687900154
 21
191.3011597875481
 31
0.0
 11
569.6936382523149
 21
190.9433856489484
 31
0.0
 11
570.1390788709155
 21
190.7216140770482
 31
0.0
 11
570.6537539919151
 21
190.6429153017483
 31
0.0
 11
571.2188890583144
 21
190.7099512730481
 31
0.0
 11
571.8161771812153
 21
190.920399995948
 31
0.0
 11
572.424101168615
 21
191.2666285729482
 31
0.0
 11
573.0228294606146
 21
191.7373155766484
 31
0.0
 11
573.5910074762156
 21
192.3157419867483
 31
0.0
 11
574.1098471349156
 21
192.9828742491484
 31
0.0
 11
574.5609665826155
 21
193.7153010799482
 31
0.0
 11
574.9289977675148
 21
194.4882459114481
 31
0.0
 11
575.201201315415
 21
195.2755334961483
 31
0.0
 11
575.3671219504155
 21
196.0451076186481
 31
0.0
 11
575.4227553689147
 21
196.7719169659484
 31
0.0
  0
SPLINE
  5
1C5B2
330
1F
100
AcDbEntity
  8
0
100
AcDbSpline
210
0.0
220
0.0
230
1.0
 70
     8
 71
     3
 72
    16
 73
    12
 74
    10
 42
0.0000000001
 43
0.0000000001
 44
0.0000000001
 12
-0.8659136249934562
 22
0.5001935565865398
 32
0.0
 13
0.0
 23
1.0
 33
0.0
 40
0.0
 40
0.0
 40
0.0
 40
0.0
 40
0.0722094635652266
 40
0.3757095885396744
 40
0.6858526247137894
 40
1.007386593445952
 40
1.344272359494087
 40
1.699523407030817
 40
2.075162971641473
 40
2.472353113494432
 40
2.891608727907782
 40
2.891608727907782
 40
2.891608727907782
 40
2.891608727907782
 10
569.2932225045147
 20
190.1719818997483
 30
0.0
 10
569.2723801183966
 20
190.1840214692149
 30
0.0
 10
569.1651745983866
 20
190.2487919113332
 30
0.0
 10
568.9817411143336
 20
190.3871873085976
 30
0.0
 10
568.7654674966546
 20
190.6133934913958
 30
0.0
 10
568.5795547154977
 20
190.878761043339
 30
0.0
 10
568.4255770297836
 20
191.1806361693849
 30
0.0
 10
568.3046807281239
 20
191.5162963109119
 30
0.0
 10
568.2177941909509
 20
191.8828874846934
 30
0.0
 10
568.1656298967573
 20
192.2774023687645
 30
0.0
 10
568.1546542449154
 20
192.549729336777
 30
0.0
 10
568.1546542449154
 20
192.6894812082481
 30
0.0
 11
569.2932225045147
 21
190.1719818997483
 31
0.0
 11
569.2314196701151
 21
190.209326461448
 31
0.0
 11
568.9889499162151
 21
190.3918661675483
 31
0.0
 11
568.774088943415
 21
190.6155254290482
 31
0.0
 11
568.5887894094153
 21
190.8782956247481
 31
0.0
 11
568.4347089950147
 21
191.1778807466483
 31
0.0
 11
568.313240003015
 21
191.5117199156482
 31
0.0
 11
568.2255272324153
 21
191.876975377448
 31
0.0
 11
568.1724532826152
 21
192.2706035835484
 31
0.0
 11
568.1546542449154
 21
192.6894812082481
 31
0.0
  0
SPLINE
  5
1C5B3
330
1F
100
AcDbEntity
  8
0
100
AcDbSpline
210
0.0
220
0.0
230
1.0
 70
     8
 71
     3
 72
     8
 73
     4
 74
     2
 42
0.0000000001
 43
0.0000000001
 44
0.0000000001
 12
0.0
 22
1.0
 32
0.0
 13
-0.0091760722523866
 23
0.9999578989627607
 33
0.0
 40
0.0
 40
0.0
 40
0.0
 40
0.0
 40
0.036286503836119
 40
0.036286503836119
 40
0.036286503836119
 40
0.036286503836119
 10
574.3620956020146
 20
197.0255637590483
 30
0.0
 10
574.3620956020146
 20
197.037659260327
 30
0.0
 10
574.3620406275082
 20
197.0497548913025
 30
0.0
 10
574.3619296383145
 20
197.0618498833481
 30
0.0
 11
574.3620956020146
 21
197.0255637590483
 31
0.0
 11
574.3619296383145
 21
197.0618498833481
 31
0.0
  0
SPLINE
  5
1C5B4
330
1F
100
AcDbEntity
  8
0
100
AcDbSpline
210
0.0
220
0.0
230
1.0
 70
     8
 71
     3
 72
    12
 73
     8
 74
     6
 42
0.0000000001
 43
0.0000000001
 44
0.0000000001
 12
-0.0091760734362871
 22
0.9999578989518967
 32
0.0
 13
-0.8664937127841405
 23
0.4991879863393704
 33
0.0
 40
0.0
 40
0.0
 40
0.0
 40
0.0
 40
0.5290948991439214
 40
1.071768900112918
 40
1.569399210392356
 40
2.029889965421125
 40
2.168873916601746
 40
2.168873916601746
 40
2.168873916601746
 40
2.168873916601746
 10
574.3619296383145
 20
197.0618498833481
 30
0.0
 10
574.3603113004314
 20
197.2382074245794
 30
0.0
 10
574.3329198428618
 20
197.5959289019905
 30
0.0
 10
574.2008270385842
 20
198.1060304938359
 30
0.0
 10
573.9631263843899
 20
198.5526309606418
 30
0.0
 10
573.7005929519044
 20
198.816769103391
 30
0.0
 10
573.5323033325401
 20
198.9250291065404
 30
0.0
 10
573.4921604259148
 20
198.9481554794482
 30
0.0
 11
574.3619296383145
 21
197.0618498833481
 31
0.0
 11
574.3179580749142
 21
197.5891144411483
 31
0.0
 11
574.1760265083152
 21
198.112899226848
 31
0.0
 11
573.9363312347157
 21
198.5489979559481
 31
0.0
 11
573.6090017994152
 21
198.8728917290481
 31
0.0
 11
573.4921604259148
 21
198.9481554794482
 31
0.0
  0
SPLINE
  5
1C5B5
330
1F
100
AcDbEntity
  8
0
100
AcDbSpline
210
0.0
220
0.0
230
1.0
 70
     8
 71
     3
 72
    20
 73
    16
 74
    14
 42
0.0000000001
 43
0.0000000001
 44
0.0000000001
 12
-0.8665455177280797
 22
0.4990980521955322
 32
0.0
 13
0.0
 23
-1.0
 33
0.0
 40
0.0
 40
0.0
 40
0.0
 40
0.0
 40
0.5100895983245394
 40
1.221211097180276
 40
2.00035057529384
 40
2.866416044901797
 40
3.823187994064456
 40
4.862782775947589
 40
5.969025478563761
 40
7.120174613940817
 40
8.291148902186717
 40
9.455479093717647
 40
10.5871556754686
 40
11.66251029719232
 40
12.66228017731005
 40
12.66228017731005
 40
12.66228017731005
 40
12.66228017731005
 10
548.4029272346147
 20
215.9156776517483
 30
0.0
 10
548.2555886162587
 20
216.000539226738
 30
0.0
 10
547.8771212942801
 20
216.1620609024952
 30
0.0
 10
547.2057847023989
 20
216.2466539432105
 30
0.0
 10
546.4209130760982
 20
216.1343425347391
 30
0.0
 10
545.6033122452205
 20
215.8292247654447
 30
0.0
 10
544.7771448883867
 20
215.344094663621
 30
0.0
 10
543.9676435683785
 20
214.6955117607197
 30
0.0
 10
543.2006662057926
 20
213.9048264293808
 30
0.0
 10
542.5013127653027
 20
212.9981300736204
 30
0.0
 10
541.8927522314033
 20
212.0054961653532
 30
0.0
 10
541.3952302256991
 20
210.9599832596138
 30
0.0
 10
541.0252874535649
 20
209.8962172896376
 30
0.0
 10
540.795220096407
 20
208.8497314703543
 30
0.0
 10
540.7379433742148
 20
208.1574158609541
 30
0.0
 10
540.7379433742148
 20
207.8241592342482
 30
0.0
 11
548.4029272346147
 21
215.9156776517483
 31
0.0
 11
547.933948165815
 21
216.1163017563485
 31
0.0
 11
547.229466706715
 21
216.2132535996483
 31
0.0
 11
546.4568294954148
 21
216.1128042787481
 31
0.0
 11
545.6423477655149
 21
215.8183744750485
 31
0.0
 11
544.8137577154153
 21
215.3399906421481
 31
0.0
 11
543.9992759856154
 21
214.6939435677481
 31
0.0
 11
543.2266387743143
 21
213.9022336102483
 31
0.0
 11
542.5221573152152
 21
212.9918215026481
 31
0.0
 11
541.9098218795149
 21
211.9937102373482
 31
0.0
 11
541.4104848160146
 21
210.9418892963485
 31
0.0
 11
541.0411504494145
 21
209.8721771802483
 31
0.0
 11
540.814396018815
 21
208.8210016522483
 31
0.0
 11
540.7379433742148
 21
207.8241592342482
 31
0.0
  0
SPLINE
  5
1C5B6
330
1F
100
AcDbEntity
  8
0
100
AcDbSpline
210
0.0
220
0.0
230
1.0
 70
     8
 71
     3
 72
    16
 73
    12
 74
    10
 42
0.0000000001
 43
0.0000000001
 44
0.0000000001
 12
0.8660239817176249
 22
0.500002463083884
 32
0.0
 13
-0.0000000168803894
 23
-1.0
 33
0.0
 40
0.0
 40
0.0
 40
0.0
 40
0.0
 40
0.3683573296495133
 40
1.05032202510073
 40
1.663830627169872
 40
2.223776209996118
 40
2.757635923912988
 40
3.300444393916737
 40
3.884504943208631
 40
4.531155472416819
 40
5.248982136938749
 40
5.248982136938749
 40
5.248982136938749
 40
5.248982136938749
 10
572.3972067536156
 20
198.813211613948
 30
0.0
 10
572.5035421807215
 20
198.8746048046545
 30
0.0
 10
572.8136298549652
 20
199.0377615389326
 30
0.0
 10
573.3365939712667
 20
199.2329555109682
 30
0.0
 10
573.9546412505112
 20
199.3213380644305
 30
0.0
 10
574.5274169166663
 20
199.249185625145
 30
0.0
 10
575.0296166181722
 20
199.0122399229288
 30
0.0
 10
575.4341044134115
 20
198.6209893089231
 30
0.0
 10
575.7252116217395
 20
198.0983713542521
 30
0.0
 10
575.8984797443413
 20
197.4673905722062
 30
0.0
 10
575.9327983389545
 20
197.011193229389
 30
0.0
 10
575.9327983349154
 20
196.7719176745484
 30
0.0
 11
572.3972067536156
 21
198.813211613948
 31
0.0
 11
572.7235083883146
 21
198.9841337175484
 31
0.0
 11
573.3648564698155
 21
199.2159709108481
 31
0.0
 11
573.9732465752146
 21
199.2950549450482
 31
0.0
 11
574.5279613399149
 21
199.2186966740481
 31
0.0
 11
575.0101164318143
 21
198.9894966271484
 31
0.0
 11
575.403291332315
 21
198.6152580231481
 31
0.0
 11
575.6940889934153
 21
198.1087371000484
 31
0.0
 11
575.8726074884148
 21
197.4872163410481
 31
0.0
 11
575.9327983349154
 21
196.7719176745484
 31
0.0
  0
SPLINE
  5
1C5B7
330
1F
100
AcDbEntity
  8
0
100
AcDbSpline
210
0.0
220
0.0
230
1.0
 70
     8
 71
     3
 72
    32
 73
    28
 74
    26
 42
0.0000000001
 43
0.0000000001
 44
0.0000000001
 12
0.0
 22
1.0
 32
0.0
 13
0.8660893067921225
 23
-0.4998893004059408
 33
0.0
 40
0.0
 40
0.0
 40
0.0
 40
0.0
 40
0.4396720231182246
 40
0.8976493800979634
 40
1.372424838149561
 40
1.861970033637504
 40
2.363895120295184
 40
2.875576707190729
 40
3.394144188553432
 40
3.916494040313271
 40
4.439470618398511
 40
4.959916491236149
 40
5.474740199350999
 40
5.980970262862379
 40
6.475837963551849
 40
6.956785223872334
 40
7.421492558796285
 40
7.868001284251623
 40
8.29479224500354
 40
8.700915113366598
 40
9.086078959248569
 40
9.450750182380803
 40
9.796268288230336
 40
10.12495590568912
 40
10.44017286380062
 40
10.74629653715623
 40
10.97575531396015
 40
10.97575531396015
 40
10.97575531396015
 40
10.97575531396015
 10
568.1546542449154
 20
192.6894812082481
 30
0.0
 10
568.1546542449154
 20
192.8360385492875
 30
0.0
 10
568.1673106281859
 20
193.1353602908123
 30
0.0
 10
568.221019886234
 20
193.5900444123132
 30
0.0
 10
568.3092156441487
 20
194.0562356426605
 30
0.0
 10
568.4310239440447
 20
194.5298916404794
 30
0.0
 10
568.5853120023751
 20
195.0069088147092
 30
0.0
 10
568.7706835582914
 20
195.4831054096043
 30
0.0
 10
568.9854690310221
 20
195.9542594102726
 30
0.0
 10
569.2277227563725
 20
196.4161455903468
 30
0.0
 10
569.4952397149629
 20
196.8646013293446
 30
0.0
 10
569.785594647042
 20
197.2956021037819
 30
0.0
 10
570.0961679810668
 20
197.7052967031768
 30
0.0
 10
570.4241803827405
 20
198.0900476107768
 30
0.0
 10
570.7667167598109
 20
198.4464503890887
 30
0.0
 10
571.1207400344244
 20
198.7713437300917
 30
0.0
 10
571.4831059044191
 20
199.0618282683579
 30
0.0
 10
571.8505898113228
 20
199.3152962536048
 30
0.0
 10
572.2199376331697
 20
199.5294691974428
 30
0.0
 10
572.5879031102851
 20
199.7024115517469
 30
0.0
 10
572.9512788973505
 20
199.8325311881758
 30
0.0
 10
573.3069066322729
 20
199.9185679486945
 30
0.0
 10
573.6516755099842
 20
199.9595863707707
 30
0.0
 10
573.9825143442966
 20
199.9549777095094
 30
0.0
 10
574.296362002024
 20
199.9044954617287
 30
0.0
 10
574.5670747325182
 20
199.815876368193
 30
0.0
 10
574.7274260806348
 20
199.7362231746176
 30
0.0
 10
574.7936700116147
 20
199.6979885121481
 30
0.0
 11
568.1546542449154
 21
192.6894812082481
 31
0.0
 11
568.172443916215
 21
193.1287931879481
 31
0.0
 11
568.2255062291147
 21
193.5836861978481
 31
0.0
 11
568.3132239096154
 21
194.0502881096484
 31
0.0
 11
568.4347254064156
 21
194.5245157814482
 31
0.0
 11
568.5888696438156
 21
195.0021854860482
 31
0.0
 11
568.7742604853152
 21
195.4791008687483
 31
0.0
 11
568.9892251772148
 21
195.9510144349481
 31
0.0
 11
569.2317886153156
 21
196.4136291192484
 31
0.0
 11
569.499730117915
 21
196.8627525459481
 31
0.0
 11
569.7906035140146
 21
197.2943270748481
 31
0.0
 11
570.1017679908151
 21
197.7044735350481
 31
0.0
 11
570.4304137244148
 21
198.089520102348
 31
0.0
 11
570.7736072683152
 21
198.4460481273485
 31
0.0
 11
571.128285106915
 21
198.7708771562483
 31
0.0
 11
571.491246156715
 21
199.0610705115481
 31
0.0
 11
571.8592089672142
 21
199.3140001697483
 31
0.0
 11
572.2288354554144
 21
199.527370231848
 31
0.0
 11
572.5967907246155
 21
199.6992559615481
 31
0.0
 11
572.959762347015
 21
199.8281077737481
 31
0.0
 11
573.3144728063148
 21
199.9127575879482
 31
0.0
 11
573.6577052165152
 21
199.9524347105483
 31
0.0
 11
573.986344205115
 21
199.9467809469482
 31
0.0
 11
574.2974198876151
 21
199.8958530524481
 31
0.0
 11
574.5881807165147
 21
199.8000937512481
 31
0.0
 11
574.7936700116147
 21
199.6979885121481
 31
0.0
  0
SPLINE
  5
1C5B8
330
1F
100
AcDbEntity
  8
0
100
AcDbSpline
210
0.0
220
0.0
230
1.0
 70
     8
 71
     3
 72
    24
 73
    20
 74
    18
 42
0.0000000001
 43
0.0000000001
 44
0.0000000001
 12
0.0000000165557084
 22
-1.0
 32
0.0
 13
-0.0000096986478163
 23
0.9999999999529681
 33
0.0
 40
0.0
 40
0.0
 40
0.0
 40
0.0
 40
0.7870914282949622
 40
1.633778249984792
 40
2.524865467258579
 40
3.44168654409991
 40
4.363738114366777
 40
5.27017720032665
 40
6.141263507485978
 40
6.959876419186555
 40
7.713271839223926
 40
8.395236534674182
 40
9.00874513684333
 40
9.56869071966868
 40
10.10255043354373
 40
10.64535890361947
 40
11.22941945294802
 40
11.87606998218382
 40
12.59384363765799
 40
12.59384363765799
 40
12.59384363765799
 40
12.59384363765799
 10
575.9327983359148
 20
196.7719178321484
 30
0.0
 10
575.9327983402585
 20
196.5095540227167
 30
0.0
 10
575.8876949653536
 20
195.9644843402386
 30
0.0
 10
575.7065774414917
 20
195.1405321497692
 30
0.0
 10
575.4153023061316
 20
194.3029212504329
 30
0.0
 10
575.0235602945801
 20
193.4796593925848
 30
0.0
 10
574.5443771865724
 20
192.6980301952744
 30
0.0
 10
573.9936984986574
 20
191.9840691572725
 30
0.0
 10
573.3897648239535
 20
191.3614558301096
 30
0.0
 10
572.7523425426324
 20
190.8507360343646
 30
0.0
 10
572.1017847771893
 20
190.4687297335833
 30
0.0
 10
571.4580023635185
 20
190.2284702889991
 30
0.0
 10
570.8399082554659
 20
190.1400635139549
 30
0.0
 10
570.2671435170359
 20
190.212221614189
 30
0.0
 10
569.7649411702943
 20
190.4491659153792
 30
0.0
 10
569.3604538256177
 20
190.8404168891482
 30
0.0
 10
569.0693476051158
 20
191.3630348261518
 30
0.0
 10
568.8960790295296
 20
191.993998064464
 30
0.0
 10
568.8617728173932
 20
192.4501782599016
 30
0.0
 10
568.8617704969153
 20
192.6894361450484
 30
0.0
 11
575.9327983359148
 21
196.7719178321484
 31
0.0
 11
575.8726077685147
 21
195.9871312292483
 31
0.0
 11
575.6940899852147
 21
195.1594779352484
 31
0.0
 11
575.4032930239151
 21
194.3171754028483
 31
0.0
 11
575.0101183258152
 21
193.4889396008483
 31
0.0
 11
574.5279631106146
 21
192.7029972068483
 31
0.0
 11
573.9732483142147
 21
191.9861127592483
 31
0.0
 11
573.3648583748149
 21
191.362692326348
 31
0.0
 11
572.7235103691151
 21
190.853968595048
 31
0.0
 11
572.0710499144147
 21
190.477272412448
 31
0.0
 11
571.4297018329149
 21
190.2454352191483
 31
0.0
 11
570.821311727415
 21
190.1663511849482
 31
0.0
 11
570.2665969627156
 21
190.2427094559483
 31
0.0
 11
569.7844418708151
 21
190.4719095027484
 31
0.0
 11
569.3912669702146
 21
190.8461481067481
 31
0.0
 11
569.1004693092151
 21
191.352669029948
 31
0.0
 11
568.9219508141156
 21
191.9741897889483
 31
0.0
 11
568.8617704969153
 21
192.6894361450484
 31
0.0
  0
SPLINE
  5
1C5B9
330
1F
100
AcDbEntity
  8
0
100
AcDbSpline
210
0.0
220
0.0
230
1.0
 70
     8
 71
     3
 72
    19
 73
    15
 74
    13
 42
0.0000000001
 43
0.0000000001
 44
0.0000000001
 12
-0.8652276844184408
 22
0.5013791520555112
 32
0.0
 13
0.0
 23
-1.0
 33
0.0
 40
0.0
 40
0.0
 40
0.0
 40
0.0
 40
0.1286326509669806
 40
0.6545009990250993
 40
1.23012908625175
 40
1.878229930829454
 40
2.604359230559635
 40
3.400910535929513
 40
4.251312965549081
 40
5.133355668358389
 40
6.021871890158184
 40
6.891117363324164
 40
7.71709326711035
 40
8.480041312782573
 40
8.480041312782573
 40
8.480041312782573
 40
8.480041312782573
 10
548.8370319005149
 20
213.2447802151481
 30
0.0
 10
548.7999330569359
 20
213.2662781249709
 30
0.0
 10
548.6062395684249
 20
213.3671907064092
 30
0.0
 10
548.1991317522636
 20
213.4689158806771
 30
0.0
 10
547.610106839599
 20
213.4214299102286
 30
0.0
 10
546.9909506001063
 20
213.2064944675171
 30
0.0
 10
546.3645018042589
 20
212.8368567620958
 30
0.0
 10
545.7544182945556
 20
212.3288149845864
 30
0.0
 10
545.1854082437448
 20
211.7035884635221
 30
0.0
 10
544.681208543708
 20
210.9874690112441
 30
0.0
 10
544.263154697753
 20
210.2108105082194
 30
0.0
 10
543.9489742218261
 20
209.4064323775818
 30
0.0
 10
543.7519778819876
 20
208.6086485994981
 30
0.0
 10
543.7021350009151
 20
208.0784823745725
 30
0.0
 10
543.7021350009151
 20
207.8241663593484
 30
0.0
 11
548.8370319005149
 21
213.2447802151481
 31
0.0
 11
548.722912785915
 21
213.3041366518481
 31
0.0
 11
548.2141645862152
 21
213.4372260533481
 31
0.0
 11
547.6396839384148
 21
213.4008986517482
 31
0.0
 11
547.0245784036157
 21
213.1967421289481
 31
0.0
 11
546.3957310452148
 21
212.8336791044484
 31
0.0
 11
545.7806255104148
 21
212.3275771748484
 31
0.0
 11
545.2061448626151
 21
211.7005554227484
 31
0.0
 11
544.6973966629153
 21
210.9800177076485
 31
0.0
 11
544.2766156487156
 21
210.1974549852483
 31
0.0
 11
543.9621919695151
 21
209.3870690015482
 31
0.0
 11
543.7678674489148
 21
208.5842775128484
 31
0.0
 11
543.7021350009151
 21
207.8241663593484
 31
0.0
  0
SPLINE
  5
1C5BA
330
1F
100
AcDbEntity
  8
0
100
AcDbSpline
210
0.0
220
0.0
230
1.0
 70
     8
 71
     3
 72
    16
 73
    12
 74
    10
 42
0.0000000001
 43
0.0000000001
 44
0.0000000001
 12
-0.000000016542533
 22
1.0
 32
0.0
 13
-0.8996075184352102
 23
-0.4366993391051134
 33
0.0
 40
0.0
 40
0.0
 40
0.0
 40
0.0
 40
0.6244069423297731
 40
1.223847420580077
 40
1.77353127563924
 40
2.282191462501924
 40
2.779785216285326
 40
3.300442271292234
 40
3.86953923884839
 40
4.502817771436543
 40
4.576177373665085
 40
4.576177373665085
 40
4.576177373665085
 40
4.576177373665085
 10
575.4227553689147
 20
196.7719169659484
 30
0.0
 10
575.4227553654716
 20
196.9800526133917
 30
0.0
 10
575.3938749770145
 20
197.3889937356607
 30
0.0
 10
575.2446684935018
 20
197.9653610596824
 30
0.0
 10
574.9818723759008
 20
198.4588421959488
 30
0.0
 10
574.6103332160841
 20
198.8329266714727
 30
0.0
 10
574.1459212913609
 20
199.0628325716457
 30
0.0
 10
573.6142182506934
 20
199.1379520553092
 30
0.0
 10
573.0393168088438
 20
199.062215162561
 30
0.0
 10
572.6368779714471
 20
198.9155883252862
 30
0.0
 10
572.4240470764534
 20
198.8147411782518
 30
0.0
 10
572.4020487932152
 20
198.8040624816484
 30
0.0
 11
575.4227553689147
 21
196.7719169659484
 31
0.0
 11
575.3740021280151
 21
197.3944176897483
 31
0.0
 11
575.2172199837145
 21
197.9729920118483
 31
0.0
 11
574.9524537883148
 21
198.4547089435481
 31
0.0
 11
574.5908839956151
 21
198.8124832728484
 31
0.0
 11
574.1454437528151
 21
199.0342546278483
 31
0.0
 11
573.6307688179144
 21
199.1129532956482
 31
0.0
 11
573.0656338524146
 21
199.0459172661484
 31
0.0
 11
572.468345799815
 21
198.8354685026483
 31
0.0
 11
572.4020487932152
 21
198.8040624816484
 31
0.0
  0
SPLINE
  5
1C5BB
330
1F
100
AcDbEntity
  8
0
100
AcDbSpline
210
0.0
220
0.0
230
1.0
 70
     8
 71
     3
 72
     8
 73
     4
 74
     2
 42
0.0000000001
 43
0.0000000001
 44
0.0000000001
 12
-0.8996075183737321
 22
-0.4366993392317597
 32
0.0
 13
-0.8818892751238889
 23
-0.471456579571716
 33
0.0
 40
0.0
 40
0.0
 40
0.0
 40
0.0
 40
0.1559879060870675
 40
0.1559879060870675
 40
0.1559879060870675
 40
0.1559879060870675
 10
572.4020487932152
 20
198.8040624816484
 30
0.0
 10
572.3552728288515
 20
198.7813558764763
 30
0.0
 10
572.3089445212577
 20
198.7577057755012
 30
0.0
 10
572.2630898341154
 20
198.7331919339484
 30
0.0
 11
572.4020487932152
 21
198.8040624816484
 31
0.0
 11
572.2630898341154
 21
198.7331919339484
 31
0.0
  0
SPLINE
  5
1C5BC
330
1F
100
AcDbEntity
  8
0
100
AcDbSpline
210
0.0
220
0.0
230
1.0
 70
     8
 71
     3
 72
    11
 73
     7
 74
     5
 42
0.0000000001
 43
0.0000000001
 44
0.0000000001
 12
-0.8660332733018503
 22
0.499986369348288
 32
0.0
 13
0.0
 23
1.0
 33
0.0
 40
0.0
 40
0.0
 40
0.0
 40
0.0
 40
0.6284879398133061
 40
1.301399129797462
 40
2.049544855703836
 40
2.885850972044204
 40
2.885850972044204
 40
2.885850972044204
 40
2.885850972044204
 10
559.0923495020148
 20
196.0613181840484
 30
0.0
 10
558.9109190127657
 20
196.1660633184505
 30
0.0
 10
558.5713601122095
 20
196.451394524866
 30
0.0
 10
558.2101895773085
 20
197.0423009010252
 30
0.0
 10
557.9953301049066
 20
197.7703983042295
 30
0.0
 10
557.953231737915
 20
198.3003732914013
 30
0.0
 10
557.953231737915
 20
198.5791419968481
 30
0.0
 11
559.0923495020148
 21
196.0613181840484
 31
0.0
 11
558.608658398915
 21
196.462616087448
 31
0.0
 11
558.2492696485148
 21
197.031517832648
 31
0.0
 11
558.0279591486156
 21
197.7461811728484
 31
0.0
 11
557.953231737915
 21
198.5791419968481
 31
0.0
  0
SPLINE
  5
1C5BD
330
1F
100
AcDbEntity
  8
0
100
AcDbSpline
210
0.0
220
0.0
230
1.0
 70
     8
 71
     3
 72
    20
 73
    16
 74
    14
 42
0.0000000001
 43
0.0000000001
 44
0.0000000001
 12
-0.8665455177280797
 22
0.4990980521955322
 32
0.0
 13
0.0
 23
-1.0
 33
0.0
 40
0.0
 40
0.0
 40
0.0
 40
0.0
 40
0.5100895984174391
 40
1.221211097159599
 40
2.000350575261167
 40
2.86641604490329
 40
3.823187994065707
 40
4.862782775964996
 40
5.969025478511001
 40
7.120174613967307
 40
8.291148902213267
 40
9.455479093787639
 40
10.58715567550539
 40
11.66251029715289
 40
12.66228017726256
 40
12.66228017726256
 40
12.66228017726256
 40
12.66228017726256
 10
564.4161340703155
 20
206.6706575249481
 30
0.0
 10
564.2687954519326
 20
206.7555190999532
 30
0.0
 10
563.8903281299383
 20
206.9170407756831
 30
0.0
 10
563.2189915380704
 20
207.0016338162424
 30
0.0
 10
562.4341199117696
 20
206.8893224080109
 30
0.0
 10
561.6165190809375
 20
206.5842046385069
 30
0.0
 10
560.7903517241099
 20
206.0990745366943
 30
0.0
 10
559.9808504039524
 20
205.4504916339922
 30
0.0
 10
559.213873041476
 20
204.6598063025241
 30
0.0
 10
558.5145196010154
 20
203.753109946742
 30
0.0
 10
557.9059590671374
 20
202.7604760384242
 30
0.0
 10
557.408437061229
 20
201.7149631327653
 30
0.0
 10
557.0384942893684
 20
200.6511971627263
 30
0.0
 10
556.8084269319024
 20
199.604711343548
 30
0.0
 10
556.7511502099147
 20
198.9123957341516
 30
0.0
 10
556.7511502099147
 20
198.5791391074484
 30
0.0
 11
564.4161340703155
 21
206.6706575249481
 31
0.0
 11
563.9471550014146
 21
206.8712816295482
 31
0.0
 11
563.2426735424156
 21
206.9682334727485
 31
0.0
 11
562.4700363311145
 21
206.8677841519483
 31
0.0
 11
561.6555546012147
 21
206.5733543481482
 31
0.0
 11
560.8269645511151
 21
206.0949705152483
 31
0.0
 11
560.0124828212152
 21
205.4489234409483
 31
0.0
 11
559.2398456100149
 21
204.6572134834481
 31
0.0
 11
558.5353641509151
 21
203.7468013757483
 31
0.0
 11
557.9230287152146
 21
202.7486901104484
 31
0.0
 11
557.4236916516142
 21
201.6968691694482
 31
0.0
 11
557.0543572851144
 21
200.6271570533485
 31
0.0
 11
556.8276028544146
 21
199.5759815254481
 31
0.0
 11
556.7511502099147
 21
198.5791391074484
 31
0.0
  0
SPLINE
  5
1C5BE
330
1F
100
AcDbEntity
  8
0
100
AcDbSpline
210
0.0
220
0.0
230
1.0
 70
     8
 71
     3
 72
    12
 73
     8
 74
     6
 42
0.0000000001
 43
0.0000000001
 44
0.0000000001
 12
-0.86654551772376
 22
0.4990980522030323
 32
0.0
 13
0.0
 23
1.0
 33
0.0
 40
0.0
 40
0.0
 40
0.0
 40
0.0
 40
0.169493801739159
 40
0.8588342015864689
 40
1.600569199824074
 40
2.421837082084549
 40
3.333611064924076
 40
3.333611064924076
 40
3.333611064924076
 40
3.333611064924076
 10
558.0663850820151
 20
195.6723214440484
 30
0.0
 10
558.0174270506221
 20
195.7005194528179
 30
0.0
 10
557.7750370949045
 20
195.8532564239213
 30
0.0
 10
557.3842951095923
 20
196.2308770295124
 30
0.0
 10
557.0149066546657
 20
196.8943560323495
 30
0.0
 10
556.7946988925744
 20
197.6958066570943
 30
0.0
 10
556.7511502099147
 20
198.2752144465019
 30
0.0
 10
556.7511502099147
 20
198.5791391074484
 30
0.0
 11
558.0663850820151
 21
195.6723214440484
 31
0.0
 11
557.9230287152146
 21
195.7627487680482
 31
0.0
 11
557.4236916516142
 21
196.2379883747484
 31
0.0
 11
557.0543572851144
 21
196.8812324445483
 31
0.0
 11
556.8276028544146
 21
197.6705760722483
 31
0.0
 11
556.7511502099147
 21
198.5791391074484
 31
0.0
  0
SPLINE
  5
1C5BF
330
1F
100
AcDbEntity
  8
0
100
AcDbSpline
210
0.0
220
0.0
230
1.0
 70
     8
 71
     3
 72
    11
 73
     7
 74
     5
 42
0.0000000001
 43
0.0000000001
 44
0.0000000001
 12
-0.8652276844233547
 22
0.501379152047031
 32
0.0
 13
0.0
 23
1.0
 33
0.0
 40
0.0
 40
0.0
 40
0.0
 40
0.0
 40
0.3877738149304142
 40
0.9345462355578506
 40
1.544723054952549
 40
2.232083592048442
 40
2.232083592048442
 40
2.232083592048442
 40
2.232083592048442
 10
544.5832775482155
 20
205.8768937646481
 30
0.0
 10
544.471440001558
 20
205.9417010001534
 30
0.0
 10
544.2218875987383
 20
206.1353444525222
 30
0.0
 10
543.9272030503973
 20
206.5689738033885
 30
0.0
 10
543.7387639105241
 20
207.1607496869949
 30
0.0
 10
543.7021350009151
 20
207.5950461803165
 30
0.0
 10
543.7021350009151
 20
207.8241663593484
 30
0.0
 11
544.5832775482155
 21
205.8768937646481
 31
0.0
 11
544.2766156487156
 21
206.1142268869484
 31
0.0
 11
543.9621919695151
 21
206.5615498462483
 31
0.0
 11
543.7678674489148
 21
207.1399560457483
 31
0.0
 11
543.7021350009151
 21
207.8241663593484
 31
0.0
  0
SPLINE
  5
1C5C0
330
1F
100
AcDbEntity
  8
0
100
AcDbSpline
210
0.0
220
0.0
230
1.0
 70
     8
 71
     3
 72
    12
 73
     8
 74
     6
 42
0.0000000001
 43
0.0000000001
 44
0.0000000001
 12
-0.86654551772376
 22
0.4990980522030323
 32
0.0
 13
0.0
 23
1.0
 33
0.0
 40
0.0
 40
0.0
 40
0.0
 40
0.0
 40
0.1694938018231936
 40
0.8588342015289214
 40
1.600569199903265
 40
2.421837082135973
 40
3.333611064884272
 40
3.333611064884272
 40
3.333611064884272
 40
3.333611064884272
 10
542.0531782464146
 20
204.9173415709482
 30
0.0
 10
542.0042202149972
 20
204.9455395797316
 30
0.0
 10
541.761830259209
 20
205.0982765506884
 30
0.0
 10
541.3710882739796
 20
205.4758971564303
 30
0.0
 10
541.0016998189255
 20
206.1393761591709
 30
0.0
 10
540.7814920570719
 20
206.9408267839945
 30
0.0
 10
540.7379433742148
 20
207.5202345733321
 30
0.0
 10
540.7379433742148
 20
207.8241592342482
 30
0.0
 11
542.0531782464146
 21
204.9173415709482
 31
0.0
 11
541.9098218795149
 21
205.0077688949481
 31
0.0
 11
541.4104848160146
 21
205.4830085015482
 31
0.0
 11
541.0411504494145
 21
206.1262525714482
 31
0.0
 11
540.814396018815
 21
206.9155961991481
 31
0.0
 11
540.7379433742148
 21
207.8241592342482
 31
0.0
  0
SPLINE
  5
1C5C1
330
1F
100
AcDbEntity
  8
0
100
AcDbSpline
210
0.0
220
0.0
230
1.0
 70
     8
 71
     3
 72
    19
 73
    15
 74
    13
 42
0.0000000001
 43
0.0000000001
 44
0.0000000001
 12
-0.8660332732982563
 22
0.4999863693545132
 32
0.0
 13
0.0
 23
-1.0
 33
0.0
 40
0.0
 40
0.0
 40
0.0
 40
0.0
 40
0.6284047034320813
 40
1.301307700991582
 40
2.049442399038115
 40
2.885736878441621
 40
3.808006781150046
 40
4.803128716636831
 40
5.850592426745376
 40
6.925321685130338
 40
8.000052744625996
 40
9.047521717692044
 40
10.04265194395917
 40
10.96493239892634
 40
10.96493239892634
 40
10.96493239892634
 40
10.96493239892634
 10
564.5922561831154
 20
205.5876515022482
 30
0.0
 10
564.410849722359
 20
205.6923827642996
 30
0.0
 10
563.9939931025578
 20
205.8437728311615
 30
0.0
 10
563.3017375406383
 20
205.8611366919444
 30
0.0
 10
562.5636087930722
 20
205.6830732498094
 30
0.0
 10
561.8048704356668
 20
205.3219640742188
 30
0.0
 10
561.0503683353479
 20
204.7930175679279
 30
0.0
 10
560.3265826015359
 20
204.1159270015742
 30
0.0
 10
559.6598375714027
 20
203.3157563029881
 30
0.0
 10
559.0748878275649
 20
202.4222927067048
 30
0.0
 10
558.5936100541975
 20
201.4689996600204
 30
0.0
 10
558.2340123786739
 20
200.4914140225458
 30
0.0
 10
558.0095392541018
 20
199.5263027632611
 30
0.0
 10
557.953231737915
 20
198.8865688151705
 30
0.0
 10
557.953231737915
 20
198.5791419968481
 30
0.0
 11
564.5922561831154
 21
205.5876515022482
 31
0.0
 11
564.0029549824154
 21
205.8058637066482
 31
0.0
 11
563.3305859216148
 21
205.8326646432482
 31
0.0
 11
562.6010229767148
 21
205.6670040388484
 31
0.0
 11
561.8423028425146
 21
205.3152481373485
 31
0.0
 11
561.0835827084152
 21
204.7909147209483
 31
0.0
 11
560.3540197635153
 21
204.1141536287481
 31
0.0
 11
559.6816507027148
 21
203.310972410048
 31
0.0
 11
559.0923142919151
 21
202.4122368684483
 31
0.0
 11
558.608658398915
 21
201.4524849070484
 31
0.0
 11
558.2492696485148
 21
200.4685992553481
 31
0.0
 11
558.0279591486156
 21
199.4983900872483
 31
0.0
 11
557.953231737915
 21
198.5791419968481
 31
0.0
  0
DIMENSION
  5
1C5C2
102
{ACAD_XDICTIONARY
360
1C5C3
102
}
102
{ACAD_REACTORS
330
1C5C4
102
}
330
1F
100
AcDbEntity
  8
DIM
100
AcDbDimension
  2
*D4
 10
562.3811799395256
 20
238.7097738670202
 30
0.0
 11
561.0811799395255
 21
245.0597753670202
 31
0.0
 70
    32
  1
%%C<>
 71
     5
 42
12.70000299999992
 73
     0
 74
     0
 75
     0
  3
01
100
AcDbAlignedDimension
 13
570.2181883733478
 23
251.4097768670201
 33
0.0
 14
570.2181883733478
 24
238.7097738670202
 34
0.0
 50
90.0
100
AcDbRotatedDimension
  0
DIMENSION
  5
1C5C5
102
{ACAD_XDICTIONARY
360
1C5C6
102
}
102
{ACAD_REACTORS
330
1C5C7
102
}
330
1F
100
AcDbEntity
  8
DIM
100
AcDbDimension
  2
*D5
 10
568.0087257424406
 20
242.3097738670205
 30
0.0
 11
566.7087257424407
 21
245.0597753670205
 31
0.0
 70
    32
  1
%%C<>
 71
     5
 42
5.500002999999652
 73
     0
 74
     0
 75
     0
  3
01
100
AcDbAlignedDimension
 13
571.950239373347
 23
247.8097768670202
 33
0.0
 14
571.950239373347
 24
242.3097738670205
 34
0.0
 50
90.0
100
AcDbRotatedDimension
  0
DIMENSION
  5
1C5C8
102
{ACAD_XDICTIONARY
360
1C5C9
102
}
102
{ACAD_REACTORS
330
1C5CA
102
}
330
1F
100
AcDbEntity
  8
DIM
100
AcDbDimension
  2
*D6
 10
595.6451183733475
 20
234.0638970326304
 30
0.0
 11
602.6451183733476
 21
235.3638970326304
 31
0.0
 70
    32
 71
     5
 42
14.0
 73
     0
 74
     0
 75
     0
  3
01
100
AcDbAlignedDimension
 13
609.6451183733476
 23
241.077511418385
 33
0.0
 14
595.6451183733475
 24
241.4593216248179
 34
0.0
100
AcDbRotatedDimension
  0
DIMENSION
  5
1C5CB
102
{ACAD_XDICTIONARY
360
1C5CC
102
}
102
{ACAD_REACTORS
330
1C5CD
102
}
330
1F
100
AcDbEntity
  8
DIM
100
AcDbDimension
  2
*D7
 10
589.7181883733479
 20
234.0638970326304
 30
0.0
 11
579.9681883733478
 21
235.3638970326304
 31
0.0
 70
    32
 71
     5
 42
19.5
 73
     0
 74
     0
 75
     0
  3
01
100
AcDbAlignedDimension
 13
570.2181883733478
 23
238.9000023905703
 33
0.0
 14
589.7181883733479
 24
243.0515878581939
 34
0.0
100
AcDbRotatedDimension
  0
DIMENSION
  5
1C5CE
102
{ACAD_XDICTIONARY
360
1C5CF
102
}
102
{ACAD_REACTORS
330
1C5D0
102
}
330
1F
100
AcDbEntity
  8
DIM
100
AcDbDimension
  2
*D8
 10
565.3222102632959
 20
240.8057738670202
 30
0.0
 11
564.0222102632958
 21
245.0597753670205
 31
0.0
 70
    32
  1
%%C8.5
 71
     5
 42
8.508003000000369
 73
     0
 74
     0
 75
     0
  3
01
100
AcDbAlignedDimension
 13
573.79990162703
 23
249.3137768670206
 33
0.0
 14
573.79990162703
 24
240.8057738670202
 34
0.0
 50
90.0
100
AcDbRotatedDimension
  0
DIMENSION
  5
1C5D1
102
{ACAD_XDICTIONARY
360
1C5D2
102
}
102
{ACAD_REACTORS
330
1C5D3
102
}
330
1F
100
AcDbEntity
  8
DIM
100
AcDbDimension
  2
*D9
 10
613.3894366945252
 20
239.5597768670202
 30
0.0
 11
612.0894366945252
 21
245.0597768670203
 31
0.0
 70
    32
  1
%%C<>
 71
     5
 42
11.0
 73
     0
 74
     0
 75
     0
  3
01
100
AcDbAlignedDimension
 13
608.7364422104816
 23
250.5597768670202
 33
0.0
 14
608.0652444469539
 24
239.5597768670202
 34
0.0
 50
90.0
100
AcDbRotatedDimension
  0
DIMENSION
  5
1C5D4
102
{ACAD_XDICTIONARY
360
1C5D5
102
}
102
{ACAD_REACTORS
330
1C5D6
102
}
330
1F
100
AcDbEntity
  8
DIM
100
AcDbDimension
  2
*D10
 10
616.6514167482159
 20
238.7097738670202
 30
0.0
 11
615.3514167482161
 21
245.0597753670202
 31
0.0
 70
    32
  1
%%C<>
 71
     5
 42
12.70000299999992
 73
     0
 74
     0
 75
     0
  3
01
100
AcDbAlignedDimension
 13
593.3059762464413
 23
251.4097768670201
 33
0.0
 14
593.3059762464413
 24
238.7097738670202
 34
0.0
 50
90.0
100
AcDbRotatedDimension
  0
DIMENSION
  5
1C5D7
330
1F
100
AcDbEntity
  8
DIM
100
AcDbDimension
  2
*D3
 10
609.6451183733476
 20
229.6798346961661
 30
0.0
 11
589.9316533733477
 21
230.9798346961661
 31
0.0
 70
    32
  1
39.45
 71
     5
 42
39.42692999999964
 73
     0
 74
     0
 75
     0
  3
01
100
AcDbAlignedDimension
 13
570.2181883733478
 23
237.5431016951022
 33
0.0
 14
609.6451183733476
 24
237.5431016951022
 34
0.0
100
AcDbRotatedDimension
  0
ARC
  5
1C5D8
330
1F
100
AcDbEntity
  8
hat
370
    13
100
AcDbCircle
 10
603.568098111114
 20
255.0953361258864
 30
0.0
 40
6.482794178784552
100
AcDbArc
 50
242.4960153626379
 51
296.634094924865
  0
REGION
  5
1C5D9
330
1F
100
AcDbEntity
  8
hat
370
    13
100
AcDbModelerGeometry
 70
     1
  1
mnmoo mh m mi          
  1
ni ^ *+0;:,4 ^ *+0\^ [ nh ^ LR nmqoqnqgmo QK o  
  1
mjqlffffffffffffff fqfffffffffffffffj:rooh n:rono 
  1
>,27:>;:- {rn rn _nn mnmqoqnqgmo |
  1
=0;& {rn rn {rn {m {rn {rn |
  1
3*2/ {rn rn {rn {rn {l {n |
  1
,7:33 {rn rn {rn {rn {rn {k {rn {m |
  1
9><: {rn rn {rn {rn {j {l {rn {i 90-(>-; ;0*=3: 0*+ |
  1
300/ {rn rn {rn {rn {h {k |
  1
/3>1:r,*-9><: {rn rn {rn iolqjnohmhgjmilkkl mkgqjoofkglkkjfolk o o o n n o o 90-(>-;@) V V V V |
  1
<0:;8: {rn rn {rn {g {f {rn {no 90-(>-; {j {rn |
  1
<0:;8: {rn rn {rn {nn {h {rn {nm -:):-,:; {j {rn |
  1
<0:;8: {rn rn {rn {h {nn {rn {nl 90-(>-; {j {rn |
  1
:;8: {rn rn {rn {nk rnqfnnlnokkigmofnfm {nj rnqmoljhgkjlflnoglm {h {ni 90-(>-; _h *1410(1 |
  1
<0:;8: {rn rn {rn {f {g {rn {nh -:):-,:; {j {rn |
  1
:;8: {rn rn {rn {ng o {nj nqjoiflmjgkhlomflj {g {nf 90-(>-; _h *1410(1 |
  1
:;8: {rn rn {rn {mo rkqjkhkhljoggikiknm:ronl {nk nqjgjhnlllhnlfiml {f {mn 90-(>-; _h *1410(1 |
  1
):-+:' {rn rn {rn {no m {mm |
  1
):-+:' {rn rn {rn {no m {ml |
  1
:336/,:r<*-): {rn rn {rn iolqknhikgnijhgnof mjiqonkgmnliijjkjk o o o n gqjnlgohhgliojklik o o n V V |
  1
:;8: {rn rn {rn {mo rmqohimghfhijnkminh {ng rnqoijlokihhohjjgfg {nn {mk 90-(>-; _h *1410(1 |
  1
):-+:' {rn rn {rn {nm m {mj |
  1
,+->687+r<*-): {rn rn {rn ioiqkhkmhiffofiokj mkfqjhjjilkihhn o o rn o V V |
  1
):-+:' {rn rn {rn {nh m {mi |
  1
,+->687+r<*-): {rn rn {rn iooqjhkmhiffofinhm mkfqjhjjilkihhogil o o rn o V V |
  1
/061+ {rn rn {rn iooqjhkmhiffofimil mkhqfgfgjonlojifon o |
  1
/061+ {rn rn {rn ioiqkhkmhiffofinli mkgqoigiloggmfhfh o |
  1
:336/,:r<*-): {rn rn {rn iolqjmkmhiffofinjk mjkqfojhmolmlhjjj o o o n iqofmokffnollfnnlh o o n V V |
  1
/061+ {rn rn {rn ioiqkhkmhiffofiokj mkfqjhjjilkihhn o |
  1
/061+ {rn rn {rn iooqjhkmhiffofinhm mkfqjhjjilkihhofof o |
  0
REGION
  5
1C5DA
330
1F
100
AcDbEntity
  8
hat
370
    13
100
AcDbModelerGeometry
 70
     1
  1
mnmoo mh m mi          
  1
ni ^ *+0;:,4 ^ *+0\^ [ nh ^ LR nmqoqnqgmo QK o  
  1
mjqlffffffffffffff fqfffffffffffffffj:rooh n:rono 
  1
>,27:>;:- {rn rn _nn mnmqoqnqgmo |
  1
=0;& {rn rn {rn {m {rn {rn |
  1
3*2/ {rn rn {rn {rn {l {n |
  1
,7:33 {rn rn {rn {rn {rn {k {rn {m |
  1
9><: {rn rn {rn {rn {j {l {rn {i 90-(>-; ;0*=3: 0*+ |
  1
300/ {rn rn {rn {rn {h {k |
  1
/3>1:r,*-9><: {rn rn {rn iolqjngifikjhgiol mkiqjinomiljhfff o o o n n o o 90-(>-;@) V V V V |
  1
<0:;8: {rn rn {rn {g {f {rn {no 90-(>-; {j {rn |
  1
<0:;8: {rn rn {rn {nn {h {rn {nm -:):-,:; {j {rn |
  1
<0:;8: {rn rn {rn {h {nn {rn {nl 90-(>-; {j {rn |
  1
:;8: {rn rn {rn {nk rnqgnkfjhjillgjhlnn {nj rnqlnhliojgikhjkiih {h {ni 90-(>-; _h *1410(1 |
  1
<0:;8: {rn rn {rn {f {g {rn {nh -:):-,:; {j {rn |
  1
:;8: {rn rn {rn {ng o {nj oqhojmnnolhmihghmi {g {nf 90-(>-; _h *1410(1 |
  1
:;8: {rn rn {rn {mo rnqlikmkmojmikhjlik:ronm {nk oqhlmjhnonflgkjmmjn {f {mn 90-(>-; _h *1410(1 |
  1
):-+:' {rn rn {rn {no m {mm |
  1
):-+:' {rn rn {rn {no m {ml |
  1
:336/,:r<*-): {rn rn {rn iolqkhoklmooooonjj mjgqonjhggjhjfgglg o o o n nnqfgolmfnikkgfll o o n V V |
  1
:;8: {rn rn {rn {mo rnqgllflhnmlggilgmm {ng rnqlohijjjmfholfoh {nn {mk 90-(>-; _h *1410(1 |
  1
):-+:' {rn rn {rn {nm m {mj |
  1
,+->687+r<*-): {rn rn {rn ioiqkhkmhiffofiokj mkhqnmllingmfikhnn o o rn o V V |
  1
):-+:' {rn rn {rn {nh m {mi |
  1
,+->687+r<*-): {rn rn {rn iooqjhkmhiffofinhm mkhqnmllingmfikhnn o rnqgimmijflmiihimhk:ronm rn o V V |
  1
/061+ {rn rn {rn iooqjhkmhiffofimil mkiqlfohfognomimjf o |
  1
/061+ {rn rn {rn ioiqkhkmhiffofimmh mkiqkngnjohfmlhfmk o |
  1
:336/,:r<*-): {rn rn {rn iolqjmkmhiffofioil mjgqohknlmigiihfgl o o o n nnqlknnjghhjnjlkki o o n V V |
  1
/061+ {rn rn {rn ioiqkhkmhiffofiokj mkhqnmllingmfikhnn o |
  1
/061+ {rn rn {rn iooqjhkmhiffofjjlj mkhqnmllingmfikgkh o |
  0
REGION
  5
1C5DB
330
1F
100
AcDbEntity
  8
hat
370
    13
100
AcDbModelerGeometry
 70
     1
  1
mnmoo kh m mi          
  1
ni ^ *+0;:,4 ^ *+0\^ [ nh ^ LR nmqoqnqgmo QK o  
  1
mjqlffffffffffffff fqfffffffffffffffj:rooh n:rono 
  1
>,27:>;:- {rn rn _nn mnmqoqnqgmo |
  1
=0;& {rn rn {rn {m {rn {rn |
  1
3*2/ {rn rn {rn {rn {l {n |
  1
,7:33 {rn rn {rn {rn {rn {k {rn {m |
  1
9><: {rn rn {rn {rn {j {l {rn {i 90-(>-; ;0*=3: 0*+ |
  1
300/ {rn rn {rn {rn {h {k |
  1
/3>1:r,*-9><: {rn rn {rn iolqjkgfmohhlhknjk mkjqofmgiiifmlijmg o o o n n o o 90-(>-;@) V V V V |
  1
<0:;8: {rn rn {rn {g {f {rn {no -:):-,:; {j {rn |
  1
<0:;8: {rn rn {rn {nn {h {rn {nm 90-(>-; {j {rn |
  1
<0:;8: {rn rn {rn {h {nl {rn {nk 90-(>-; {j {rn |
  1
:;8: {rn rn {rn {nj nqoijlokihhohjkoof {ni mqohimghfhijnkminh {h {nh 90-(>-; _h *1410(1 |
  1
<0:;8: {rn rn {rn {ng {g {rn {nf -:):-,:; {j {rn |
  1
:;8: {rn rn {rn {nj o {mo nqjkffffffffffmhmk {g {mn 90-(>-; _h *1410(1 |
  1
<0:;8: {rn rn {rn {f {mm {rn {ml 90-(>-; {j {rn |
  1
:;8: {rn rn {rn {mk o {ni nqkfffffffffffofoj {f {mj 90-(>-; _h *1410(1 |
  1
):-+:' {rn rn {rn {no m {mi |
  1
):-+:' {rn rn {rn {no m {mh |
  1
:336/,:r<*-): {rn rn {rn iolqjmkmhiffofinjk mljqmgoonloiofhjoj o o o n iqofmokffnollfnnlh o o n V V |
  1
<0:;8: {rn rn {rn {mg {nn {rn {mf -:):-,:; {j {rn |
  1
:;8: {rn rn {rn {lo o {mo gqfijlfljjoigfgfin {nn {ln 90-(>-; _h *1410(1 |
  1
):-+:' {rn rn {rn {nf m {lm |
  1
,+->687+r<*-): {rn rn {rn ioiqkhkmhiffofimmh mkoqinoniffnhonghk o n o o V V |
  1
<0:;8: {rn rn {rn {nl {mg {rn {ll -:):-,:; {j {rn |
  1
:;8: {rn rn {rn {lk o {mk gqfijlfljjoiggjlng {nl {lj 90-(>-; _h *1410(1 |
  1
):-+:' {rn rn {rn {nk m {li |
  1
,+->687+r<*-): {rn rn {rn jffqohkmhiffofimil mkoqinoniffnhomon o n o o V V |
  1
/061+ {rn rn {rn ioiqkhkmhiffofimmh mkoqinoniffnhomnkh o |
  1
/061+ {rn rn {rn iooqjhkmhiffofinhm mkoqinoniffnhomnkh o |
  1
<0:;8: {rn rn {rn {mm {ng {rn {lh -:):-,:; {j {rn |
  1
:;8: {rn rn {rn {lg o {lo nqjjooooooooonofnk {ng {lf 90-(>-; _h *1410(1 |
  1
):-+:' {rn rn {rn {mf m {ko |
  1
,+->687+r<*-): {rn rn {rn iogqomkmhiffofinjk mkfqjhjjilkihhn o o rn o V V |
  1
/061+ {rn rn {rn iogqomkmhiffofinjk mkoqinoniffnhomon o |
  1
:;8: {rn rn {rn {lk o {kn nqj {mm {km 90-(>-; _h *1410(1 |
  1
):-+:' {rn rn {rn {ml m {kl |
  1
,+->687+r<*-): {rn rn {rn jffqohkmhiffofimil mkfqjhjjilkihhogil o o rn o V V |
  1
/061+ {rn rn {rn jffqohkmhiffofimil mkoqinoniffnhomon o |
  1
:;8: {rn rn {rn {kn rmqohimghfhijnkmolj {lg rnqoijlokihhohjkoof {mg {kk 90-(>-; _h *1410(1 |
  1
):-+:' {rn rn {rn {lh m {kj |
  1
,+->687+r<*-): {rn rn {rn ioiqkhkmhiffofimmh mkfqjhjjilkihhn o n o o V V |
  1
/061+ {rn rn {rn iogqomkmhiffofilli mkfqjhjjilkihhn o |
  1
):-+:' {rn rn {rn {ll m {ki |
  1
,+->687+r<*-): {rn rn {rn jffqohkmhiffofimil mkfqjhjjilkihhogil o n fqofkfkhonhhmijmkg:ronl o V V |
  1
/061+ {rn rn {rn jffqohkmhiffofimil mkfqjhjjilkihhogil o |
  1
:336/,:r<*-): {rn rn {rn iolqjmkmhiffofinjk mjkqfojhmolmlhjjj o o o n iqofmokffnollfnnlh o o n V V |
  1
/061+ {rn rn {rn ioiqkhkmhiffofimmh mkfqjhjjilkihhofof o |
  1
/061+ {rn rn {rn iooqjhkmhiffofimil mkfqjhjjilkihhn o |
  0
REGION
  5
1C5DC
330
1F
100
AcDbEntity
  8
hat
370
    13
100
AcDbModelerGeometry
 70
     1
  1
mnmoo mh m mi          
  1
ni ^ *+0;:,4 ^ *+0\^ [ nh ^ LR nmqoqnqgmo QK o  
  1
mjqlffffffffffffff fqfffffffffffffffj:rooh n:rono 
  1
>,27:>;:- {rn rn _nn mnmqoqnqgmo |
  1
=0;& {rn rn {rn {m {rn {rn |
  1
3*2/ {rn rn {rn {rn {l {n |
  1
,7:33 {rn rn {rn {rn {rn {k {rn {m |
  1
9><: {rn rn {rn {rn {j {l {rn {i 90-(>-; ;0*=3: 0*+ |
  1
300/ {rn rn {rn {rn {h {k |
  1
/3>1:r,*-9><: {rn rn {rn iolqkfffmgoooonnii mknqgnofkhkjihofhl o o o n n o o 90-(>-;@) V V V V |
  1
<0:;8: {rn rn {rn {g {f {rn {no -:):-,:; {j {rn |
  1
<0:;8: {rn rn {rn {nn {h {rn {nm -:):-,:; {j {rn |
  1
<0:;8: {rn rn {rn {h {nn {rn {nl 90-(>-; {j {rn |
  1
:;8: {rn rn {rn {nk nqnojfklihhoihmlfl {nj mqojoglnkninlknmf {h {ni 90-(>-; _h *1410(1 |
  1
<0:;8: {rn rn {rn {f {g {rn {nh 90-(>-; {j {rn |
  1
:;8: {rn rn {rn {ng rfqofkfkhonhhmfmgmk:ronl {nk nqmlngnjhnnliofmlm {g {nf 90-(>-; _h *1410(1 |
  1
:;8: {rn rn {rn {mo o {nj nqljjlgjjmofhjighj {f {mn 90-(>-; _h *1410(1 |
  1
):-+:' {rn rn {rn {no m {mm |
  1
):-+:' {rn rn {rn {no m {ml |
  1
:336/,:r<*-): {rn rn {rn iolqjigofgnnnnnkng mljqofolfhmjggklif o o o n iqkgmhfknhghgkjjli o o n V V |
  1
:;8: {rn rn {rn {ng nqmoljhgkjlflnoglm {mo nqfnnlnokkigmnnfmn {nn {mk 90-(>-; _h *1410(1 |
  1
):-+:' {rn rn {rn {nh m {mj |
  1
,+->687+r<*-): {rn rn {rn ioiqkhkmhiffofimmh mkmqnnhnomjonhkfkf o o rn o V V |
  1
):-+:' {rn rn {rn {nl m {mi |
  1
,+->687+r<*-): {rn rn {rn iooqjhkmhiffofiogn mkmqnfjgglmjknjfmh o nqooijlklmiinkimjj:ronm rn o V V |
  1
/061+ {rn rn {rn ioiqkhkmhiffofimmh mkoqggjmgihfolggji o |
  1
/061+ {rn rn {rn iooqjhkmhiffofiogn mkoqgkokfhhllngljg o |
  1
:336/,:r<*-): {rn rn {rn iolqknhikgnijhgnof mlkqnhofnmongnhjjg o o o n gqjnlgohhgliojklik o o n V V |
  1
/061+ {rn rn {rn ioiqkhkmhiffofinli mkmqnnhnomjonhjok o |
  1
/061+ {rn rn {rn iooqjhkmhiffofiogn mkmqnfjgglmjknjfmh o |
  0
REGION
  5
1C5DD
330
1F
100
AcDbEntity
  8
hat
370
    13
100
AcDbModelerGeometry
 70
     1
  1
mnmoo mh m mi          
  1
ni ^ *+0;:,4 ^ *+0\^ [ nh ^ LR nmqoqnqgmo QK o  
  1
mjqlffffffffffffff fqfffffffffffffffj:rooh n:rono 
  1
>,27:>;:- {rn rn _nn mnmqoqnqgmo |
  1
=0;& {rn rn {rn {m {rn {rn |
  1
3*2/ {rn rn {rn {rn {l {n |
  1
,7:33 {rn rn {rn {rn {rn {k {rn {m |
  1
9><: {rn rn {rn {rn {j {l {rn {i 90-(>-; ;0*=3: 0*+ |
  1
300/ {rn rn {rn {rn {h {k |
  1
/3>1:r,*-9><: {rn rn {rn iolqjngifikjhgiol mklqimkhohomihlnn o o o n n o o 90-(>-;@) V V V V |
  1
<0:;8: {rn rn {rn {g {f {rn {no 90-(>-; {j {rn |
  1
<0:;8: {rn rn {rn {nn {h {rn {nm 90-(>-; {j {rn |
  1
<0:;8: {rn rn {rn {h {nn {rn {nl -:):-,:; {j {rn |
  1
:;8: {rn rn {rn {nk nqlnhliojgikhjkiih {nj nqgnkfjhjillgjhlnn {h {ni 90-(>-; _h *1410(1 |
  1
<0:;8: {rn rn {rn {f {g {rn {nh -:):-,:; {j {rn |
  1
:;8: {rn rn {rn {nj rnqlikmkmojmijflfmk:ronm {ng oqhlmjhnonflgkjmmjn {g {nf 90-(>-; _h *1410(1 |
  1
:;8: {rn rn {rn {nk rnqlikmkmojmijflfmk:ronm {mo oqhojmnnolhmijnkknn {f {mn 90-(>-; _h *1410(1 |
  1
):-+:' {rn rn {rn {no m {mm |
  1
):-+:' {rn rn {rn {no m {ml |
  1
:336/,:r<*-): {rn rn {rn iolqkhoklmooooonjj mlmqniffkkgoghknhj o o o n nnqfgolmfnikkgfll o o n V V |
  1
:;8: {rn rn {rn {mo nqlohijjjmfhokmkhg {ng nqgllflhnmlggjfnhh {nn {mk 90-(>-; _h *1410(1 |
  1
):-+:' {rn rn {rn {nm m {mj |
  1
,+->687+r<*-): {rn rn {rn iooqjhkmhiffofiogn mklqhfkfkmjhkkiinj o o rn o V V |
  1
):-+:' {rn rn {rn {nh m {mi |
  1
,+->687+r<*-): {rn rn {rn ioiqkhkmhiffofiokj mklqhihjgmjfmlkfj o o rn o V V |
  1
/061+ {rn rn {rn ioiqkhkmhiffofimmh mklqhihjgmjfmljogi o |
  1
/061+ {rn rn {rn iooqjhkmhiffofimil mklqhfkfkmjhkkihjn o |
  1
:336/,:r<*-): {rn rn {rn iolqjmkmhiffofioil mlmqnnniooifgojol o o o n nnqlknnjghhjnjlkki o o n V V |
  1
/061+ {rn rn {rn iooqjhkmhiffofiogn mklqoimlhnjjjognil o |
  1
/061+ {rn rn {rn ioiqkhkmhiffofjign mklqoimlhnjjjogklj o |
  0
REGION
  5
1C5DE
330
1F
100
AcDbEntity
  8
hat
370
    13
100
AcDbModelerGeometry
 70
     1
  1
mnmoo mh m mi          
  1
ni ^ *+0;:,4 ^ *+0\^ [ nh ^ LR nmqoqnqgmo QK o  
  1
mjqlffffffffffffff fqfffffffffffffffj:rooh n:rono 
  1
>,27:>;:- {rn rn _nn mnmqoqnqgmo |
  1
=0;& {rn rn {rn {m {rn {rn |
  1
3*2/ {rn rn {rn {rn {l {n |
  1
,7:33 {rn rn {rn {rn {rn {k {rn {m |
  1
9><: {rn rn {rn {rn {j {l {rn {i 90-(>-; ;0*=3: 0*+ |
  1
300/ {rn rn {rn {rn {h {k |
  1
/3>1:r,*-9><: {rn rn {rn iolqjljhfoljhogjlg mkjqofmgiiifmlikgm o o o n n o o 90-(>-;@) V V V V |
  1
<0:;8: {rn rn {rn {g {f {rn {no -:):-,:; {j {rn |
  1
<0:;8: {rn rn {rn {nn {h {rn {nm -:):-,:; {j {rn |
  1
<0:;8: {rn rn {rn {h {nn {rn {nl 90-(>-; {j {rn |
  1
:;8: {rn rn {rn {nk nqlkfgoognliofgjk {nj nqhgmjnniggoljnjhm {h {ni 90-(>-; _h *1410(1 |
  1
<0:;8: {rn rn {rn {f {g {rn {nh -:):-,:; {j {rn |
  1
:;8: {rn rn {rn {ng o {nk nqjjjfomlnlhifgmoj {g {nf 90-(>-; _h *1410(1 |
  1
:;8: {rn rn {rn {mo o {nj nqjonnkfomklkmllfj {f {mn 90-(>-; _h *1410(1 |
  1
):-+:' {rn rn {rn {no m {mm |
  1
):-+:' {rn rn {rn {no m {ml |
  1
:336/,:r<*-): {rn rn {rn iolqkinfffjnlknkoh mloqfohokfhhgjijhg o o o n nlqhkmohifgnnfgili o o n V V |
  1
:;8: {rn rn {rn {mo rnqhgmjnniggoljogjj {ng rnqlkfgoognliofgjk {nn {mk 90-(>-; _h *1410(1 |
  1
):-+:' {rn rn {rn {nh m {mj |
  1
,+->687+r<*-): {rn rn {rn ioiqkhkmhiffofiokj mkjqghognhgkfmkffi o o rn o V V |
  1
):-+:' {rn rn {rn {nl m {mi |
  1
,+->687+r<*-): {rn rn {rn iooqjhkmhiffofiogn mkjqgklkknmokjljff o fqoghfgjkhllifmgjh:ronl rn o V V |
  1
/061+ {rn rn {rn ioiqkhkmhiffofimmh mkkqlnkfnjjljkgonk o |
  1
/061+ {rn rn {rn iooqjhkmhiffofjff mkkqlkmmfmngonflij o |
  1
:336/,:r<*-): {rn rn {rn iolqkinfffjnlknkoh mjfqmhgiglioiniklj o o o n nlqhkmohifgnnfgili o o n V V |
  1
/061+ {rn rn {rn ioiqkhkmhiffofimmh mkjqghognhgkfmkffi o |
  1
/061+ {rn rn {rn iooqjhkmhiffofiogn mkjqgklkknmokjljff o |
  0
ENDSEC
  0
SECTION
  2
OBJECTS
  0
DICTIONARY
  5
C
330
0
100
AcDbDictionary
281
     1
  3
ACAD_COLOR
350
4FFE
  3
ACAD_GROUP
350
D
  3
ACAD_LAYOUT
350
1A
  3
ACAD_MATERIAL
350
4FE5
  3
ACAD_MLEADERSTYLE
350
5022
  3
ACAD_MLINESTYLE
350
17
  3
ACAD_PLOTSETTINGS
350
19
  3
ACAD_PLOTSTYLENAME
350
E
  3
ACAD_RENDER_PLOT_SETTINGS
350
6537
  3
ACAD_SCALELIST
350
5000
  3
ACAD_TABLESTYLE
350
4FE3
  3
ACAD_VISUALSTYLE
350
2A
  3
ACDB_RECOMPOSE_DATA
350
50EC
  3
AcDbVariableDictionary
350
5108
  3
ASE_INDEX_DICTIONARY
350
14143
  0
DICTIONARY
  5
50EE
330
8
100
AcDbDictionary
280
     1
281
     1
  0
DICTIONARY
  5
50B8
330
2
100
AcDbDictionary
280
     1
281
     1
  3
ACAD_LAYERFILTERS
360
146E2
  3
ACAD_LAYERSTATES
360
50B9
  3
ACLYDICTIONARY
360
146E1
  0
DICTIONARY
  5
50D0
330
10
100
AcDbDictionary
280
     1
281
     1
  3
ADSK_XREC_LAYER_RECONCILED
360
50D1
  0
DICTIONARY
  5
50D2
330
3B
100
AcDbDictionary
280
     1
281
     1
  3
ADSK_XREC_LAYER_RECONCILED
360
50D3
  0
DICTIONARY
  5
50AF
330
50AE
100
AcDbDictionary
280
     1
281
     1
  3
ADSK_XREC_LAYER_RECONCILED
360
50D4
  0
DICTIONARY
  5
67C0
330
1F
100
AcDbDictionary
280
     1
281
     1
  3
ACAD_SORTENTS
360
67C1
  0
DICTIONARY
  5
1C84E
330
13E17
100
AcDbDictionary
280
     1
281
     1
  0
DICTIONARY
  5
1C8B9
330
1C7B9
100
AcDbDictionary
280
     1
281
     1
  3
ACAD_MTEXT_2008_RT
360
1C8BA
  0
DICTIONARY
  5
1C8BB
330
1C7FD
100
AcDbDictionary
280
     1
281
     1
  3
ACAD_MTEXT_2008_RT
360
1C8BC
  0
DICTIONARY
  5
1C8BD
330
1C7FE
100
AcDbDictionary
280
     1
281
     1
  3
ACAD_MTEXT_2008_RT
360
1C8BE
  0
DICTIONARY
  5
1C8BF
330
1C823
100
AcDbDictionary
280
     1
281
     1
  3
ACAD_MTEXT_2008_RT
360
1C8C0
  0
DICTIONARY
  5
1C8C1
330
1C826
100
AcDbDictionary
280
     1
281
     1
  3
ACAD_MTEXT_2008_RT
360
1C8C2
  0
DICTIONARY
  5
1C8C3
330
1C827
100
AcDbDictionary
280
     1
281
     1
  3
ACAD_MTEXT_2008_RT
360
1C8C4
  0
DICTIONARY
  5
1C8C5
330
1C831
100
AcDbDictionary
280
     1
281
     1
  3
ACAD_MTEXT_2008_RT
360
1C8C6
  0
DICTIONARY
  5
1C8C7
330
1C832
100
AcDbDictionary
280
     1
281
     1
  3
ACAD_MTEXT_2008_RT
360
1C8C8
  0
DICTIONARY
  5
1C8C9
330
1C833
100
AcDbDictionary
280
     1
281
     1
  3
ACAD_MTEXT_2008_RT
360
1C8CA
  0
DICTIONARY
  5
1C8CB
330
1C841
100
AcDbDictionary
280
     1
281
     1
  3
ACAD_MTEXT_2008_RT
360
1C8CC
  0
DICTIONARY
  5
1C8CD
330
1C842
100
AcDbDictionary
280
     1
281
     1
  3
ACAD_MTEXT_2008_RT
360
1C8CE
  0
DICTIONARY
  5
1C8CF
330
1C843
100
AcDbDictionary
280
     1
281
     1
  3
ACAD_MTEXT_2008_RT
360
1C8D0
  0
DICTIONARY
  5
1C8B7
330
15556
100
AcDbDictionary
280
     1
281
     1
  3
ACAD_MTEXT_2008_RT
360
1C8B8
  0
DICTIONARY
  5
1C5C3
330
1C5C2
100
AcDbDictionary
280
     1
281
     1
  3
ACAD_DIMASSOC
360
1C5C4
  0
DICTIONARY
  5
1C5C6
330
1C5C5
100
AcDbDictionary
280
     1
281
     1
  3
ACAD_DIMASSOC
360
1C5C7
  0
DICTIONARY
  5
1C5C9
330
1C5C8
100
AcDbDictionary
280
     1
281
     1
  3
ACAD_DIMASSOC
360
1C5CA
  0
DICTIONARY
  5
1C5CC
330
1C5CB
100
AcDbDictionary
280
     1
281
     1
  3
ACAD_DIMASSOC
360
1C5CD
  0
DICTIONARY
  5
1C5CF
330
1C5CE
100
AcDbDictionary
280
     1
281
     1
  3
ACAD_DIMASSOC
360
1C5D0
  0
DICTIONARY
  5
1C5D2
330
1C5D1
100
AcDbDictionary
280
     1
281
     1
  3
ACAD_DIMASSOC
360
1C5D3
  0
DICTIONARY
  5
1C5D5
330
1C5D4
100
AcDbDictionary
280
     1
281
     1
  3
ACAD_DIMASSOC
360
1C5D6
  0
DICTIONARY
  5
4FFE
102
{ACAD_REACTORS
330
C
102
}
330
C
100
AcDbDictionary
281
     1
  0
DICTIONARY
  5
D
102
{ACAD_REACTORS
330
C
102
}
330
C
100
AcDbDictionary
281
     1
  0
DICTIONARY
  5
1A
102
{ACAD_REACTORS
330
C
102
}
330
C
100
AcDbDictionary
281
     1
  3
Layout1
350
1E
  3
Layout2
350
26
  3
Model
350
22
  0
DICTIONARY
  5
4FE5
102
{ACAD_REACTORS
330
C
102
}
330
C
100
AcDbDictionary
281
     1
  3
ByBlock
350
4FEE
  3
ByLayer
350
4FE6
  3
Global
350
4FF6
  0
DICTIONARY
  5
5022
102
{ACAD_REACTORS
330
C
102
}
330
C
100
AcDbDictionary
281
     1
  3
Standard
350
5023
  0
DICTIONARY
  5
17
102
{ACAD_REACTORS
330
C
102
}
330
C
100
AcDbDictionary
281
     1
  3
Standard
350
18
  0
DICTIONARY
  5
19
102
{ACAD_REACTORS
330
C
102
}
330
C
100
AcDbDictionary
281
     1
  0
ACDBDICTIONARYWDFLT
  5
E
102
{ACAD_REACTORS
330
C
102
}
330
C
100
AcDbDictionary
281
     1
  3
Normal
350
F
100
AcDbDictionaryWithDefault
340
F
  0
DICTIONARY
  5
6537
102
{ACAD_REACTORS
330
C
102
}
330
C
100
AcDbDictionary
281
     1
  3
{1DC63513-1B1A-422F-9880-65CFD2B8D533}
350
6538
  0
DICTIONARY
  5
5000
102
{ACAD_REACTORS
330
C
102
}
330
C
100
AcDbDictionary
281
     1
  3
A0
350
5001
  3
A1
350
5002
  3
A2
350
5003
  3
A3
350
5004
  3
A4
350
5005
  3
A5
350
5006
  3
A6
350
5007
  3
A7
350
5008
  3
A8
350
5009
  3
A9
350
500A
  3
B0
350
500B
  3
B1
350
500C
  3
B2
350
500D
  3
B3
350
500E
  3
B4
350
500F
  3
B5
350
5010
  3
B6
350
5011
  3
B7
350
5012
  3
B8
350
5013
  3
B9
350
5014
  3
C0
350
5015
  3
C1
350
5016
  3
C2
350
5017
  3
C3
350
5018
  3
C4
350
5019
  3
C5
350
501A
  3
C6
350
501B
  3
C7
350
501C
  3
C8
350
501D
  3
C9
350
501E
  3
D0
350
501F
  3
D1
350
5020
  3
D2
350
5021
  0
DICTIONARY
  5
4FE3
102
{ACAD_REACTORS
330
C
102
}
330
C
100
AcDbDictionary
281
     1
  3
Standard
350
4FFF
  0
DICTIONARY
  5
2A
102
{ACAD_REACTORS
330
C
102
}
330
C
100
AcDbDictionary
281
     1
  3
2dWireframe
350
2F
  3
3D Hidden
350
31
  3
3dWireframe
350
30
  3
Basic
350
32
  3
Brighten
350
36
  3
ColorChange
350
3A
  3
Conceptual
350
34
  3
Dim
350
35
  3
Facepattern
350
39
  3
Flat
350
2B
  3
FlatWithEdges
350
2C
  3
Gouraud
350
2D
  3
GouraudWithEdges
350
2E
  3
Linepattern
350
38
  3
Realistic
350
33
  3
Thicken
350
37
  0
XRECORD
  5
50EC
102
{ACAD_REACTORS
330
C
102
}
330
C
100
AcDbXrecord
280
     1
 90
        1
330
4FFF
330
15556
330
1C7B9
330
1C7FD
330
1C7FE
330
1C823
330
1C826
330
1C827
330
1C831
330
1C832
330
1C833
330
1C841
330
1C842
330
1C843
  0
DICTIONARY
  5
5108
102
{ACAD_REACTORS
330
C
102
}
330
C
100
AcDbDictionary
281
     1
  3
CANNOSCALE
350
510B
  3
CMLEADERSTYLE
350
510A
  3
CTABLESTYLE
350
5109
  3
DIMASSOC
350
510E
  3
INDEXCTL
350
510D
  3
LIGHTINGUNITS
350
1C8A8
  3
MSLTSCALE
350
1C8A7
  3
SORTENTS
350
510C
  0
DICTIONARY
  5
14143
102
{ACAD_REACTORS
330
C
102
}
330
C
100
AcDbDictionary
281
     1
  3
ASEBlockHierarchyIndexRecord
350
14144
1001
DCO15
1040
1903428632.093
  0
DICTIONARY
  5
146E2
102
{ACAD_REACTORS
330
50B8
102
}
330
50B8
100
AcDbDictionary
281
     1
  0
DICTIONARY
  5
50B9
102
{ACAD_REACTORS
330
50B8
102
}
330
50B8
100
AcDbDictionary
281
     1
  0
DICTIONARY
  5
146E1
102
{ACAD_REACTORS
330
50B8
102
}
330
50B8
100
AcDbDictionary
281
     1
1001
ACAD
1000
<All
  0
XRECORD
  5
50D1
102
{ACAD_REACTORS
330
50D0
102
}
330
50D0
100
AcDbXrecord
280
     1
290
     1
  0
XRECORD
  5
50D3
102
{ACAD_REACTORS
330
50D2
102
}
330
50D2
100
AcDbXrecord
280
     1
290
     1
  0
XRECORD
  5
50D4
102
{ACAD_REACTORS
330
50AF
102
}
330
50AF
100
AcDbXrecord
280
     1
290
     1
  0
SORTENTSTABLE
  5
67C1
102
{ACAD_REACTORS
330
67C0
102
}
330
67C0
100
AcDbSortentsTable
330
1F
331
2FDE
  5
35C8
331
15523
  5
15523
331
3895
  5
3943
331
1556A
  5
1556A
331
15569
  5
15569
331
15568
  5
15568
331
2C65
  5
2EE7
331
3807
  5
3895
331
4842
  5
4E94
331
15567
  5
15567
331
35D8
  5
3807
331
15566
  5
15566
331
15556
  5
15556
331
2F93
  5
2FDE
331
28AE
  5
2A38
331
3943
  5
4842
331
2EE7
  5
2F93
331
35C8
  5
35D8
331
1555E
  5
1555E
  0
XRECORD
  5
1C8BA
102
{ACAD_REACTORS
330
1C8B9
102
}
330
1C8B9
100
AcDbXrecord
280
     1
 40
1527.0
  1
\pxqc;BQ LUO
  0
XRECORD
  5
1C8BC
102
{ACAD_REACTORS
330
1C8BB
102
}
330
1C8BB
100
AcDbXrecord
280
     1
 40
1262561.0
  1
\pxqc;档案员{\H0.7x;\P\Fromans|c134;Filing Clerk\fFangSong_GB2312|b0|i0|c134|p49; }
  0
XRECORD
  5
1C8BE
102
{ACAD_REACTORS
330
1C8BD
102
}
330
1C8BD
100
AcDbXrecord
280
     1
 40
650528.0
  1
\pxqc;日期{\Fromans|c134;/Date}
  0
XRECORD
  5
1C8C0
102
{ACAD_REACTORS
330
1C8BF
102
}
330
1C8BF
100
AcDbXrecord
280
     1
 40
1836818.0
  1
\pxsm0.7;{\fFangSong_GB2312|b0|i0|c134|p49;标准化}\PStand.
  0
XRECORD
  5
1C8C2
102
{ACAD_REACTORS
330
1C8C1
102
}
330
1C8C1
100
AcDbXrecord
280
     1
 40
118135.0
  1
\pxsm0.7;签名\P{\Fromans|c134;Signature} 
  0
XRECORD
  5
1C8C4
102
{ACAD_REACTORS
330
1C8C3
102
}
330
1C8C3
100
AcDbXrecord
280
     1
 40
108939.0
  1
\pxsm0.7,qc;处数\P{\Fromans|c134;Number }
  0
XRECORD
  5
1C8C6
102
{ACAD_REACTORS
330
1C8C5
102
}
330
1C8C5
100
AcDbXrecord
280
     1
 40
125762.0
  1
\pxsm0.7;标记\P{\Fromans|c134;Mark}
  0
XRECORD
  5
1C8C8
102
{ACAD_REACTORS
330
1C8C7
102
}
330
1C8C7
100
AcDbXrecord
280
     1
 40
111973.0
  1
\pxsm0.7;审核\P{\Fromans|c134;Checked}
  0
XRECORD
  5
1C8CA
102
{ACAD_REACTORS
330
1C8C9
102
}
330
1C8C9
100
AcDbXrecord
280
     1
 40
137968.0
  1
\pxsm0.7;绘图\P{\Fromans|c134;Drawn\Ftxt|c134; }
  0
XRECORD
  5
1C8CC
102
{ACAD_REACTORS
330
1C8CB
102
}
330
1C8CB
100
AcDbXrecord
280
     1
 40
106320.0
  1
\pxsm0.7;批准\P{\Fromans|c134;Approved}
  0
XRECORD
  5
1C8CE
102
{ACAD_REACTORS
330
1C8CD
102
}
330
1C8CD
100
AcDbXrecord
280
     1
 40
127283.0
  1
\pxsm0.7;工艺\P{\Fromans|c134;Process}
  0
XRECORD
  5
1C8D0
102
{ACAD_REACTORS
330
1C8CF
102
}
330
1C8CF
100
AcDbXrecord
280
     1
 40
106220.0
  1
\pxsm0.7;日期\P{\Fromans|c134;Date}
  0
XRECORD
  5
1C8B8
102
{ACAD_REACTORS
330
1C8B7
102
}
330
1C8B7
100
AcDbXrecord
280
     1
 40
615119705.0
  1
\A1;\pxql;{\f仿宋_GB2312|b0|i0|c134|p49;技术参数}:\P\pq*;- {\f仿宋_GB2312|b0|i0|c134|p49;材料}: {\f仿宋_GB2312|b0|i0|c134|p49;铜合金}\P- {\f仿宋_GB2312|b0|i0|c134|p49;表面处理}: {\f仿宋_GB2312|b0|i0|c134|p49;镀银}\P\pql;- {\f仿宋_GB2312|b0|i0|c134|p49;额定电流}: 100A\P- {\f仿宋_GB23
  1
12|b0|i0|c134|p49;接触电阻}: ≤0.3mΩ\P- {\f仿宋_GB2312|b0|i0|c134|p49;线径范围}: 16mm{\H0.7x;\S2^ ;}\P- {\f仿宋_GB2312|b0|i0|c134|p49;最大电缆直径}: 14mm\P- {\f仿宋_GB2312|b0|i0|c134|p49;剥线长度}: 19mm\P- {\f仿宋_GB2312|b0|i0|c134|p49;可插拔次数}: {\f仿宋_GB2312|b0|i0|c134|p49;≥}500\
  1
P- {\f仿宋_GB2312|b0|i0|c134|p49;电缆绞线标准}: IEC 60228-5\P\pq*;\P\pql;Technical specification:\P- Material: copper alloy\P- Surface: hard-silver plated\P- Rated current: 100A\P- Contact resistance: ≤0.3mΩ\P- Wire gauge: 16mm{\H0.7x;\S2^ ;}\P- Max. insulati
  1
on diameter: 14mm\P- Stripping length: 19mm\P- Mating cycles: {\f仿宋_GB2312|b0|i0|c134|p49;≥}500\P- For stranded fine wire acc. to: IEC 60228-5
  0
DIMASSOC
  5
1C5C4
102
{ACAD_REACTORS
330
1C5C3
102
}
330
1C5C3
100
AcDbDimAssoc
330
1C5C2
 90
        3
 70
     0
 71
     0
  1
AcDbOsnapPointRef
 72
    13
331
1C568
 73
     2
 91
        0
 40
0.0
 10
0.0
 20
0.0
 30
2.000000000000000E+50
 75
     0
  1
AcDbOsnapPointRef
 72
     1
331
1C569
 73
     2
 91
        0
 40
1.0
 10
0.0
 20
0.0
 30
2.000000000000000E+50
 75
     0
  0
DIMASSOC
  5
1C5C7
102
{ACAD_REACTORS
330
1C5C6
102
}
330
1C5C6
100
AcDbDimAssoc
330
1C5C5
 90
        3
 70
     0
 71
     0
  1
AcDbOsnapPointRef
 72
    13
331
1C571
 73
     2
 91
        0
 40
0.0
 10
0.0
 20
0.0
 30
2.000000000000000E+50
 75
     0
  1
AcDbOsnapPointRef
 72
     1
331
1C572
 73
     2
 91
        0
 40
1.0
 10
0.0
 20
0.0
 30
2.000000000000000E+50
 75
     0
  0
DIMASSOC
  5
1C5CA
102
{ACAD_REACTORS
330
1C5C9
102
}
330
1C5C9
100
AcDbDimAssoc
330
1C5C8
 90
        3
 70
     0
 71
     0
  1
AcDbOsnapPointRef
 72
    10
331
1C586
 73
     2
 91
        0
 40
0.8982265448635189
 10
0.0
 20
0.0
 30
0.0
 75
     0
  1
AcDbOsnapPointRef
 72
    10
331
1C57E
 73
     2
 91
        0
 40
0.9286258026431577
 10
0.0
 20
0.0
 30
0.0
 75
     0
  0
DIMASSOC
  5
1C5CD
102
{ACAD_REACTORS
330
1C5CC
102
}
330
1C5CC
100
AcDbDimAssoc
330
1C5CB
 90
        3
 70
     0
 71
     0
  1
AcDbOsnapPointRef
 72
    10
331
1C569
 73
     2
 91
        0
 40
0.9268351832499702
 10
0.0
 20
0.0
 30
0.0
 75
     0
  1
AcDbOsnapPointRef
 72
    10
331
1C553
 73
     2
 91
        0
 40
0.2697502479718839
 10
0.0
 20
0.0
 30
0.0
 75
     0
  0
DIMASSOC
  5
1C5D0
102
{ACAD_REACTORS
330
1C5CF
102
}
330
1C5CF
100
AcDbDimAssoc
330
1C5CE
 90
        1
 70
     0
 71
     0
  1
AcDbOsnapPointRef
 72
    10
331
1C557
 73
     2
 91
        0
 40
0.9726299840310602
 10
0.0
 20
0.0
 30
0.0
 75
     0
  0
DIMASSOC
  5
1C5D3
102
{ACAD_REACTORS
330
1C5D2
102
}
330
1C5D2
100
AcDbDimAssoc
330
1C5D1
 90
        3
 70
     0
 71
     0
  1
AcDbOsnapPointRef
 72
    10
331
1C57F
 73
     2
 91
        0
 40
0.0283273130781094
 10
0.0
 20
0.0
 30
0.0
 75
     0
  1
AcDbOsnapPointRef
 72
    10
331
1C575
 73
     2
 91
        0
 40
0.9251487373686757
 10
0.0
 20
0.0
 30
0.0
 75
     0
  0
DIMASSOC
  5
1C5D6
102
{ACAD_REACTORS
330
1C5D5
102
}
330
1C5D5
100
AcDbDimAssoc
330
1C5D4
 90
        3
 70
     0
 71
     0
  1
AcDbOsnapPointRef
 72
    10
331
1C55B
 73
     2
 91
        0
 40
0.2294743375126505
 10
0.0
 20
0.0
 30
0.0
 75
     0
  1
AcDbOsnapPointRef
 72
     8
331
1C55C
 73
     2
 91
        0
 40
0.2294743375126505
 10
0.0
 20
0.0
 30
0.0
 75
     1
  1
AcDbOsnapPointRef
 72
    10
331
1C55B
 73
     2
 91
        0
 40
0.2294743375126505
 10
0.0
 20
0.0
 30
0.0
 75
     0
  0
LAYOUT
  5
1E
102
{ACAD_REACTORS
330
1A
102
}
330
1A
100
AcDbPlotSettings
  1

  2
none_device
  4

  6

 40
0.0
 41
0.0
 42
0.0
 43
0.0
 44
0.0
 45
0.0
 46
0.0
 47
0.0
 48
0.0
 49
0.0
140
0.0
141
0.0
142
1.0
143
1.0
 70
   688
 72
     0
 73
     0
 74
     5
  7

 75
    16
147
1.0
 76
     0
 77
     2
 78
   300
148
0.0
149
0.0
100
AcDbLayout
  1
Layout1
 70
     1
 71
     1
 10
0.0
 20
0.0
 11
12.0
 21
9.0
 12
0.0
 22
0.0
 32
0.0
 14
1.000000000000000E+20
 24
1.000000000000000E+20
 34
1.000000000000000E+20
 15
-1.000000000000000E+20
 25
-1.000000000000000E+20
 35
-1.000000000000000E+20
146
0.0
 13
0.0
 23
0.0
 33
0.0
 16
1.0
 26
0.0
 36
0.0
 17
0.0
 27
1.0
 37
0.0
 76
     0
330
1B
  0
LAYOUT
  5
26
102
{ACAD_REACTORS
330
1A
102
}
330
1A
100
AcDbPlotSettings
  1

  2
none_device
  4

  6

 40
0.0
 41
0.0
 42
0.0
 43
0.0
 44
0.0
 45
0.0
 46
0.0
 47
0.0
 48
0.0
 49
0.0
140
0.0
141
0.0
142
1.0
143
1.0
 70
   688
 72
     0
 73
     0
 74
     5
  7

 75
    16
147
1.0
 76
     0
 77
     2
 78
   300
148
0.0
149
0.0
100
AcDbLayout
  1
Layout2
 70
     1
 71
     2
 10
0.0
 20
0.0
 11
0.0
 21
0.0
 12
0.0
 22
0.0
 32
0.0
 14
0.0
 24
0.0
 34
0.0
 15
0.0
 25
0.0
 35
0.0
146
0.0
 13
0.0
 23
0.0
 33
0.0
 16
1.0
 26
0.0
 36
0.0
 17
0.0
 27
1.0
 37
0.0
 76
     0
330
23
  0
LAYOUT
  5
22
102
{ACAD_REACTORS
330
1A
102
}
330
1A
100
AcDbPlotSettings
  1

  2
Adobe PDF Converter.pc3
  4
A4
  6

 40
3.174999952316281
 41
3.174999952316281
 42
3.17498779296875
 43
3.175003051757812
 44
297.0318298339844
 45
209.9733276367186
 46
0.0000000000000076
 47
1.630241740247063
 48
246.9897427644609
 49
39.36804549891383
140
544.952097801264
141
244.7492402188181
142
1.0
143
1.025046328645055
 70
  3764
 72
     1
 73
     0
 74
     4
  7
monochrome.ctb
 75
     0
147
0.9755656618192436
 76
     1
 77
     2
 78
   300
148
-246.9897427644609
149
-39.36804549891383
100
AcDbLayout
  1
Model
 70
     1
 71
     0
 10
0.0
 20
0.0
 11
12.0
 21
9.0
 12
0.0
 22
0.0
 32
0.0
 14
1.000000000000000E+20
 24
1.000000000000000E+20
 34
1.000000000000000E+20
 15
-1.000000000000000E+20
 25
-1.000000000000000E+20
 35
-1.000000000000000E+20
146
0.0
 13
0.0
 23
0.0
 33
0.0
 16
1.0
 26
0.0
 36
0.0
 17
0.0
 27
1.0
 37
0.0
 76
     0
330
1F
331
29
1001
ACAD_PSEXT
1000
Adobe PDF Converter.pc3
1000
Adobe PDF Converter
1000
桌面\*.pdf
1000

1070
     0
  0
MATERIAL
  5
4FEE
102
{ACAD_XDICTIONARY
360
4FEF
102
}
102
{ACAD_REACTORS
330
4FE5
102
}
330
4FE5
100
AcDbMaterial
  1
ByBlock
 72
     0
 43
0.0208333333333333
 43
0.0
 43
0.0
 43
0.0
 43
0.0
 43
0.0208333333333333
 43
0.0
 43
0.0
 43
0.0
 43
0.0
 43
1.0
 43
0.0
 43
0.0
 43
0.0
 43
0.0
 43
1.0
 77
     0
 47
0.0208333333333333
 47
0.0
 47
0.0
 47
0.0
 47
0.0
 47
0.0208333333333333
 47
0.0
 47
0.0
 47
0.0
 47
0.0
 47
1.0
 47
0.0
 47
0.0
 47
0.0
 47
0.0
 47
1.0
171
     0
 49
0.0208333333333333
 49
0.0
 49
0.0
 49
0.0
 49
0.0
 49
0.0208333333333333
 49
0.0
 49
0.0
 49
0.0
 49
0.0
 49
1.0
 49
0.0
 49
0.0
 49
0.0
 49
0.0
 49
1.0
175
     0
142
0.0208333333333333
142
0.0
142
0.0
142
0.0
142
0.0
142
0.0208333333333333
142
0.0
142
0.0
142
0.0
142
0.0
142
1.0
142
0.0
142
0.0
142
0.0
142
0.0
142
1.0
179
     0
144
0.0208333333333333
144
0.0
144
0.0
144
0.0
144
0.0
144
0.0208333333333333
144
0.0
144
0.0
144
0.0
144
0.0
144
1.0
144
0.0
144
0.0
144
0.0
144
0.0
144
1.0
147
0.0208333333333333
147
0.0
147
0.0
147
0.0
147
0.0
147
0.0208333333333333
147
0.0
147
0.0
147
0.0
147
0.0
147
1.0
147
0.0
147
0.0
147
0.0
147
0.0
147
1.0
  0
MATERIAL
  5
4FE6
102
{ACAD_XDICTIONARY
360
4FE7
102
}
102
{ACAD_REACTORS
330
4FE5
102
}
330
4FE5
100
AcDbMaterial
  1
ByLayer
 72
     0
 43
0.0208333333333333
 43
0.0
 43
0.0
 43
0.0
 43
0.0
 43
0.0208333333333333
 43
0.0
 43
0.0
 43
0.0
 43
0.0
 43
1.0
 43
0.0
 43
0.0
 43
0.0
 43
0.0
 43
1.0
 77
     0
 47
0.0208333333333333
 47
0.0
 47
0.0
 47
0.0
 47
0.0
 47
0.0208333333333333
 47
0.0
 47
0.0
 47
0.0
 47
0.0
 47
1.0
 47
0.0
 47
0.0
 47
0.0
 47
0.0
 47
1.0
171
     0
 49
0.0208333333333333
 49
0.0
 49
0.0
 49
0.0
 49
0.0
 49
0.0208333333333333
 49
0.0
 49
0.0
 49
0.0
 49
0.0
 49
1.0
 49
0.0
 49
0.0
 49
0.0
 49
0.0
 49
1.0
175
     0
142
0.0208333333333333
142
0.0
142
0.0
142
0.0
142
0.0
142
0.0208333333333333
142
0.0
142
0.0
142
0.0
142
0.0
142
1.0
142
0.0
142
0.0
142
0.0
142
0.0
142
1.0
179
     0
144
0.0208333333333333
144
0.0
144
0.0
144
0.0
144
0.0
144
0.0208333333333333
144
0.0
144
0.0
144
0.0
144
0.0
144
1.0
144
0.0
144
0.0
144
0.0
144
0.0
144
1.0
147
0.0208333333333333
147
0.0
147
0.0
147
0.0
147
0.0
147
0.0208333333333333
147
0.0
147
0.0
147
0.0
147
0.0
147
1.0
147
0.0
147
0.0
147
0.0
147
0.0
147
1.0
  0
MATERIAL
  5
4FF6
102
{ACAD_XDICTIONARY
360
4FF7
102
}
102
{ACAD_REACTORS
330
4FE5
102
}
330
4FE5
100
AcDbMaterial
  1
Global
 72
     0
 43
0.0208333333333333
 43
0.0
 43
0.0
 43
0.0
 43
0.0
 43
0.0208333333333333
 43
0.0
 43
0.0
 43
0.0
 43
0.0
 43
1.0
 43
0.0
 43
0.0
 43
0.0
 43
0.0
 43
1.0
 77
     0
 47
0.0208333333333333
 47
0.0
 47
0.0
 47
0.0
 47
0.0
 47
0.0208333333333333
 47
0.0
 47
0.0
 47
0.0
 47
0.0
 47
1.0
 47
0.0
 47
0.0
 47
0.0
 47
0.0
 47
1.0
171
     0
 49
0.0208333333333333
 49
0.0
 49
0.0
 49
0.0
 49
0.0
 49
0.0208333333333333
 49
0.0
 49
0.0
 49
0.0
 49
0.0
 49
1.0
 49
0.0
 49
0.0
 49
0.0
 49
0.0
 49
1.0
175
     0
142
0.0208333333333333
142
0.0
142
0.0
142
0.0
142
0.0
142
0.0208333333333333
142
0.0
142
0.0
142
0.0
142
0.0
142
1.0
142
0.0
142
0.0
142
0.0
142
0.0
142
1.0
179
     0
144
0.0208333333333333
144
0.0
144
0.0
144
0.0
144
0.0
144
0.0208333333333333
144
0.0
144
0.0
144
0.0
144
0.0
144
1.0
144
0.0
144
0.0
144
0.0
144
0.0
144
1.0
147
0.0208333333333333
147
0.0
147
0.0
147
0.0
147
0.0
147
0.0208333333333333
147
0.0
147
0.0
147
0.0
147
0.0
147
1.0
147
0.0
147
0.0
147
0.0
147
0.0
147
1.0
  0
MLEADERSTYLE
  5
5023
102
{ACAD_REACTORS
330
5022
102
}
330
5022
100
AcDbMLeaderStyle
170
     2
171
     1
172
     0
 90
        2
 40
0.0
 41
0.0
173
     1
 91
-1056964608
340
14
 92
       -2
290
     1
 42
0.09
291
     1
 43
0.36
  3
Standard
 44
0.18
300

342
11
174
     1
178
     6
175
     1
176
     0
 93
-1056964608
 45
0.18
292
     0
297
     0
 46
0.18
 94
-1056964608
 47
1.0
 49
1.0
140
1.0
293
     1
141
0.0
294
     1
177
     0
142
1.0
295
     0
296
     0
143
0.125
1001
ACAD_MLEADERVER
1070
     2
  0
MLINESTYLE
  5
18
102
{ACAD_REACTORS
330
17
102
}
330
17
100
AcDbMlineStyle
  2
STANDARD
 70
     0
  3

 62
   256
 51
90.0
 52
90.0
 71
     2
 49
0.5
 62
   256
  6
BYLAYER
 49
-0.5
 62
   256
  6
BYLAYER
  0
ACDBPLACEHOLDER
  5
F
102
{ACAD_REACTORS
330
E
102
}
330
E
  0
MENTALRAYRENDERSETTINGS
  5
6538
102
{ACAD_REACTORS
330
6537
102
}
330
6537
100
AcDbRenderSettings
 90
        2
  1
中
290
     1
290
     1
290
     1
290
     1
  1

  1
渲染质量好于“低级”。包括纹理过滤并且强制双面处于激活状态。处理中等级反锯齿和 5 反射/折射的光线跟踪深度。
 90
        0
100
AcDbMentalRayRenderSettings
 90
        2
 90
        0
 90
        1
 70
     2
 40
3.0
 40
3.0
 40
0.0500000007450581
 40
0.0500000007450581
 40
0.0500000007450581
 40
0.0500000007450581
 70
     0
290
     0
290
     1
 90
        5
 90
        5
 90
        5
290
     0
 90
      500
290
     0
 40
1.0
 90
    10000
 90
        5
 90
        5
 90
        5
290
     0
 90
      200
290
     0
290
     0
290
     0
 40
0.1
 40
1.0
 40
1500.0
 70
     0
 70
     0
 40
10.0
 70
     0
 70
     0
290
     0
  1

 90
       32
 70
     0
 90
     1048
290
     0
 40
1.0
  0
SCALE
  5
5001
102
{ACAD_REACTORS
330
5000
102
}
330
5000
100
AcDbScale
 70
     0
300
1:1
140
1.0
141
1.0
290
     1
  0
SCALE
  5
5002
102
{ACAD_REACTORS
330
5000
102
}
330
5000
100
AcDbScale
 70
     0
300
1:2
140
1.0
141
2.0
290
     0
  0
SCALE
  5
5003
102
{ACAD_REACTORS
330
5000
102
}
330
5000
100
AcDbScale
 70
     0
300
1:4
140
1.0
141
4.0
290
     0
  0
SCALE
  5
5004
102
{ACAD_REACTORS
330
5000
102
}
330
5000
100
AcDbScale
 70
     0
300
1:5
140
1.0
141
5.0
290
     0
  0
SCALE
  5
5005
102
{ACAD_REACTORS
330
5000
102
}
330
5000
100
AcDbScale
 70
     0
300
1:8
140
1.0
141
8.0
290
     0
  0
SCALE
  5
5006
102
{ACAD_REACTORS
330
5000
102
}
330
5000
100
AcDbScale
 70
     0
300
1:10
140
1.0
141
10.0
290
     0
  0
SCALE
  5
5007
102
{ACAD_REACTORS
330
5000
102
}
330
5000
100
AcDbScale
 70
     0
300
1:16
140
1.0
141
16.0
290
     0
  0
SCALE
  5
5008
102
{ACAD_REACTORS
330
5000
102
}
330
5000
100
AcDbScale
 70
     0
300
1:20
140
1.0
141
20.0
290
     0
  0
SCALE
  5
5009
102
{ACAD_REACTORS
330
5000
102
}
330
5000
100
AcDbScale
 70
     0
300
1:30
140
1.0
141
30.0
290
     0
  0
SCALE
  5
500A
102
{ACAD_REACTORS
330
5000
102
}
330
5000
100
AcDbScale
 70
     0
300
1:40
140
1.0
141
40.0
290
     0
  0
SCALE
  5
500B
102
{ACAD_REACTORS
330
5000
102
}
330
5000
100
AcDbScale
 70
     0
300
1:50
140
1.0
141
50.0
290
     0
  0
SCALE
  5
500C
102
{ACAD_REACTORS
330
5000
102
}
330
5000
100
AcDbScale
 70
     0
300
1:100
140
1.0
141
100.0
290
     0
  0
SCALE
  5
500D
102
{ACAD_REACTORS
330
5000
102
}
330
5000
100
AcDbScale
 70
     0
300
2:1
140
2.0
141
1.0
290
     0
  0
SCALE
  5
500E
102
{ACAD_REACTORS
330
5000
102
}
330
5000
100
AcDbScale
 70
     0
300
4:1
140
4.0
141
1.0
290
     0
  0
SCALE
  5
500F
102
{ACAD_REACTORS
330
5000
102
}
330
5000
100
AcDbScale
 70
     0
300
8:1
140
8.0
141
1.0
290
     0
  0
SCALE
  5
5010
102
{ACAD_REACTORS
330
5000
102
}
330
5000
100
AcDbScale
 70
     0
300
10:1
140
10.0
141
1.0
290
     0
  0
SCALE
  5
5011
102
{ACAD_REACTORS
330
5000
102
}
330
5000
100
AcDbScale
 70
     0
300
100:1
140
100.0
141
1.0
290
     0
  0
SCALE
  5
5012
102
{ACAD_REACTORS
330
5000
102
}
330
5000
100
AcDbScale
 70
     0
300
1/128" = 1'-0"
140
0.0078125
141
12.0
290
     0
  0
SCALE
  5
5013
102
{ACAD_REACTORS
330
5000
102
}
330
5000
100
AcDbScale
 70
     0
300
1/64" = 1'-0"
140
0.015625
141
12.0
290
     0
  0
SCALE
  5
5014
102
{ACAD_REACTORS
330
5000
102
}
330
5000
100
AcDbScale
 70
     0
300
1/32" = 1'-0"
140
0.03125
141
12.0
290
     0
  0
SCALE
  5
5015
102
{ACAD_REACTORS
330
5000
102
}
330
5000
100
AcDbScale
 70
     0
300
1/16" = 1'-0"
140
0.0625
141
12.0
290
     0
  0
SCALE
  5
5016
102
{ACAD_REACTORS
330
5000
102
}
330
5000
100
AcDbScale
 70
     0
300
3/32" = 1'-0"
140
0.09375
141
12.0
290
     0
  0
SCALE
  5
5017
102
{ACAD_REACTORS
330
5000
102
}
330
5000
100
AcDbScale
 70
     0
300
1/8" = 1'-0"
140
0.125
141
12.0
290
     0
  0
SCALE
  5
5018
102
{ACAD_REACTORS
330
5000
102
}
330
5000
100
AcDbScale
 70
     0
300
3/16" = 1'-0"
140
0.1875
141
12.0
290
     0
  0
SCALE
  5
5019
102
{ACAD_REACTORS
330
5000
102
}
330
5000
100
AcDbScale
 70
     0
300
1/4" = 1'-0"
140
0.25
141
12.0
290
     0
  0
SCALE
  5
501A
102
{ACAD_REACTORS
330
5000
102
}
330
5000
100
AcDbScale
 70
     0
300
3/8" = 1'-0"
140
0.375
141
12.0
290
     0
  0
SCALE
  5
501B
102
{ACAD_REACTORS
330
5000
102
}
330
5000
100
AcDbScale
 70
     0
300
1/2" = 1'-0"
140
0.5
141
12.0
290
     0
  0
SCALE
  5
501C
102
{ACAD_REACTORS
330
5000
102
}
330
5000
100
AcDbScale
 70
     0
300
3/4" = 1'-0"
140
0.75
141
12.0
290
     0
  0
SCALE
  5
501D
102
{ACAD_REACTORS
330
5000
102
}
330
5000
100
AcDbScale
 70
     0
300
1" = 1'-0"
140
1.0
141
12.0
290
     0
  0
SCALE
  5
501E
102
{ACAD_REACTORS
330
5000
102
}
330
5000
100
AcDbScale
 70
     0
300
1-1/2" = 1'-0"
140
1.5
141
12.0
290
     0
  0
SCALE
  5
501F
102
{ACAD_REACTORS
330
5000
102
}
330
5000
100
AcDbScale
 70
     0
300
3" = 1'-0"
140
3.0
141
12.0
290
     0
  0
SCALE
  5
5020
102
{ACAD_REACTORS
330
5000
102
}
330
5000
100
AcDbScale
 70
     0
300
6" = 1'-0"
140
6.0
141
12.0
290
     0
  0
SCALE
  5
5021
102
{ACAD_REACTORS
330
5000
102
}
330
5000
100
AcDbScale
 70
     0
300
1'-0" = 1'-0"
140
12.0
141
12.0
290
     0
  0
TABLESTYLE
  5
4FFF
102
{ACAD_XDICTIONARY
360
50D6
102
}
102
{ACAD_REACTORS
330
4FE3
102
}
330
4FE3
100
AcDbTableStyle
  3
Standard
 70
     0
 71
     0
 40
0.06
 41
0.06
280
     0
281
     0
  7
Standard
140
0.18
170
     2
 62
     0
 63
     7
283
     0
 90
      512
 91
        0
  1

274
    -2
284
     1
 64
     0
275
    -2
285
     1
 65
     0
276
    -2
286
     1
 66
     0
277
    -2
287
     1
 67
     0
278
    -2
288
     1
 68
     0
279
    -2
289
     1
 69
     0
  7
Standard
140
0.25
170
     5
 62
     0
 63
     7
283
     0
 90
      512
 91
        0
  1

274
    -2
284
     1
 64
     0
275
    -2
285
     1
 65
     0
276
    -2
286
     1
 66
     0
277
    -2
287
     1
 67
     0
278
    -2
288
     1
 68
     0
279
    -2
289
     1
 69
     0
  7
Standard
140
0.18
170
     5
 62
     0
 63
     7
283
     0
 90
      512
 91
        0
  1

274
    -2
284
     1
 64
     0
275
    -2
285
     1
 65
     0
276
    -2
286
     1
 66
     0
277
    -2
287
     1
 67
     0
278
    -2
288
     1
 68
     0
279
    -2
289
     1
 69
     0
  0
VISUALSTYLE
  5
2F
102
{ACAD_REACTORS
330
2A
102
}
330
2A
100
AcDbVisualStyle
  2
2dWireframe
 70
     4
 71
     0
 72
     2
 73
     0
 90
        0
 40
-0.6
 41
-30.0
 62
     5
 63
     7
 74
     1
 91
        4
 64
     7
 65
   257
 75
     1
175
     1
 42
1.0
 92
        0
 66
   257
 43
1.0
 76
     1
 77
     6
 78
     2
 67
     7
 79
     5
170
     0
171
     0
290
     0
174
     0
 93
        1
 44
0.0
173
     0
291
     0
 45
0.0
1001
ACAD
1000
AcDbSavedByObjectVersion
1070
     0
1000
AcDbSavedByObjectVersion
1070
     0
1000
AcDbSavedByObjectVersion
1070
     0
1000
AcDbSavedByObjectVersion
1070
     0
1000
AcDbSavedByObjectVersion
1070
     0
1000
AcDbSavedByObjectVersion
1070
     0
1000
AcDbSavedByObjectVersion
1070
     0
1000
AcDbSavedByObjectVersion
1070
     0
1000
AcDbSavedByObjectVersion
1070
     0
1000
AcDbSavedByObjectVersion
1070
     0
1000
AcDbSavedByObjectVersion
1070
     0
1000
AcDbSavedByObjectVersion
1070
     0
1000
AcDbSavedByObjectVersion
1070
     0
1000
AcDbSavedByObjectVersion
1070
     0
1000
AcDbSavedByObjectVersion
1070
     0
1000
AcDbSavedByObjectVersion
1070
     0
1000
AcDbSavedByObjectVersion
1070
     0
1000
AcDbSavedByObjectVersion
1070
     0
1000
AcDbSavedByObjectVersion
1070
     0
1000
AcDbSavedByObjectVersion
1070
     0
1000
AcDbSavedByObjectVersion
1070
     0
1000
AcDbSavedByObjectVersion
1070
     0
1000
AcDbSavedByObjectVersion
1070
     0
1000
AcDbSavedByObjectVersion
1070
     0
1000
AcDbSavedByObjectVersion
1070
     0
1000
AcDbSavedByObjectVersion
1070
     0
1000
AcDbSavedByObjectVersion
1070
     0
1000
AcDbSavedByObjectVersion
1070
     0
1000
AcDbSavedByObjectVersion
1070
     0
1000
AcDbSavedByObjectVersion
1070
     0
1000
AcDbSavedByObjectVersion
1070
     0
1000
AcDbSavedByObjectVersion
1070
     0
1000
AcDbSavedByObjectVersion
1070
     0
1000
AcDbSavedByObjectVersion
1070
     0
1000
AcDbSavedByObjectVersion
1070
     0
1000
AcDbSavedByObjectVersion
1070
     0
1000
AcDbSavedByObjectVersion
1070
     0
1000
AcDbSavedByObjectVersion
1070
     0
1000
AcDbSavedByObjectVersion
1070
     0
1000
AcDbSavedByObjectVersion
1070
     0
1000
AcDbSavedByObjectVersion
1070
     0
1000
AcDbSavedByObjectVersion
1070
     0
1000
AcDbSavedByObjectVersion
1070
     0
1000
AcDbSavedByObjectVersion
1070
     0
1000
AcDbSavedByObjectVersion
1070
     0
1000
AcDbSavedByObjectVersion
1070
     0
1000
AcDbSavedByObjectVersion
1070
     0
1000
AcDbSavedByObjectVersion
1070
     0
1000
AcDbSavedByObjectVersion
1070
     0
1000
AcDbSavedByObjectVersion
1070
     0
1000
AcDbSavedByObjectVersion
1070
     0
1000
AcDbSavedByObjectVersion
1070
     0
1000
AcDbSavedByObjectVersion
1070
     0
1000
AcDbSavedByObjectVersion
1070
     0
1000
AcDbSavedByObjectVersion
1070
     0
1000
AcDbSavedByObjectVersion
1070
     0
1000
AcDbSavedByObjectVersion
1070
     0
1000
AcDbSavedByObjectVersion
1070
     0
1000
AcDbSavedByObjectVersion
1070
     0
1000
AcDbSavedByObjectVersion
1070
     0
1000
AcDbSavedByObjectVersion
1070
     0
1000
AcDbSavedByObjectVersion
1070
     0
  0
VISUALSTYLE
  5
31
102
{ACAD_REACTORS
330
2A
102
}
330
2A
100
AcDbVisualStyle
  2
3D Hidden
 70
     6
 71
     1
 72
     2
 73
     2
 90
        0
 40
-0.6
 41
-30.0
 62
     5
 63
     7
 74
     2
 91
        2
 64
     7
 65
   257
 75
     2
175
     1
 42
40.0
 92
        0
 66
   257
 43
1.0
 76
     1
 77
     6
 78
     2
 67
     7
 79
     3
170
     0
171
     0
290
     0
174
     0
 93
        1
 44
0.0
173
     0
291
     0
 45
0.0
1001
ACAD
1000
AcDbSavedByObjectVersion
1070
     0
1000
AcDbSavedByObjectVersion
1070
     0
1000
AcDbSavedByObjectVersion
1070
     0
1000
AcDbSavedByObjectVersion
1070
     0
1000
AcDbSavedByObjectVersion
1070
     0
1000
AcDbSavedByObjectVersion
1070
     0
1000
AcDbSavedByObjectVersion
1070
     0
1000
AcDbSavedByObjectVersion
1070
     0
1000
AcDbSavedByObjectVersion
1070
     0
1000
AcDbSavedByObjectVersion
1070
     0
1000
AcDbSavedByObjectVersion
1070
     0
1000
AcDbSavedByObjectVersion
1070
     0
1000
AcDbSavedByObjectVersion
1070
     0
1000
AcDbSavedByObjectVersion
1070
     0
1000
AcDbSavedByObjectVersion
1070
     0
1000
AcDbSavedByObjectVersion
1070
     0
1000
AcDbSavedByObjectVersion
1070
     0
1000
AcDbSavedByObjectVersion
1070
     0
1000
AcDbSavedByObjectVersion
1070
     0
1000
AcDbSavedByObjectVersion
1070
     0
1000
AcDbSavedByObjectVersion
1070
     0
1000
AcDbSavedByObjectVersion
1070
     0
1000
AcDbSavedByObjectVersion
1070
     0
1000
AcDbSavedByObjectVersion
1070
     0
1000
AcDbSavedByObjectVersion
1070
     0
1000
AcDbSavedByObjectVersion
1070
     0
1000
AcDbSavedByObjectVersion
1070
     0
1000
AcDbSavedByObjectVersion
1070
     0
1000
AcDbSavedByObjectVersion
1070
     0
1000
AcDbSavedByObjectVersion
1070
     0
1000
AcDbSavedByObjectVersion
1070
     0
1000
AcDbSavedByObjectVersion
1070
     0
1000
AcDbSavedByObjectVersion
1070
     0
1000
AcDbSavedByObjectVersion
1070
     0
1000
AcDbSavedByObjectVersion
1070
     0
1000
AcDbSavedByObjectVersion
1070
     0
1000
AcDbSavedByObjectVersion
1070
     0
1000
AcDbSavedByObjectVersion
1070
     0
1000
AcDbSavedByObjectVersion
1070
     0
1000
AcDbSavedByObjectVersion
1070
     0
1000
AcDbSavedByObjectVersion
1070
     0
1000
AcDbSavedByObjectVersion
1070
     0
1000
AcDbSavedByObjectVersion
1070
     0
1000
AcDbSavedByObjectVersion
1070
     0
1000
AcDbSavedByObjectVersion
1070
     0
1000
AcDbSavedByObjectVersion
1070
     0
1000
AcDbSavedByObjectVersion
1070
     0
1000
AcDbSavedByObjectVersion
1070
     0
1000
AcDbSavedByObjectVersion
1070
     0
1000
AcDbSavedByObjectVersion
1070
     0
1000
AcDbSavedByObjectVersion
1070
     0
1000
AcDbSavedByObjectVersion
1070
     0
1000
AcDbSavedByObjectVersion
1070
     0
1000
AcDbSavedByObjectVersion
1070
     0
1000
AcDbSavedByObjectVersion
1070
     0
1000
AcDbSavedByObjectVersion
1070
     0
1000
AcDbSavedByObjectVersion
1070
     0
1000
AcDbSavedByObjectVersion
1070
     0
1000
AcDbSavedByObjectVersion
1070
     0
1000
AcDbSavedByObjectVersion
1070
     0
1000
AcDbSavedByObjectVersion
1070
     0
1000
AcDbSavedByObjectVersion
1070
     0
  0
VISUALSTYLE
  5
30
102
{ACAD_REACTORS
330
2A
102
}
330
2A
100
AcDbVisualStyle
  2
3dWireframe
 70
     5
 71
     0
 72
     2
 73
     0
 90
        0
 40
-0.6
 41
-30.0
 62
     5
 63
     7
 74
     1
 91
        4
 64
     7
 65
   257
 75
     1
175
     1
 42
1.0
 92
        0
 66
   257
 43
1.0
 76
     1
 77
     6
 78
     2
 67
     7
 79
     5
170
     0
171
     0
290
     0
174
     0
 93
        1
 44
0.0
173
     0
291
     0
 45
0.0
1001
ACAD
1000
AcDbSavedByObjectVersion
1070
     0
1000
AcDbSavedByObjectVersion
1070
     0
1000
AcDbSavedByObjectVersion
1070
     0
1000
AcDbSavedByObjectVersion
1070
     0
1000
AcDbSavedByObjectVersion
1070
     0
1000
AcDbSavedByObjectVersion
1070
     0
1000
AcDbSavedByObjectVersion
1070
     0
1000
AcDbSavedByObjectVersion
1070
     0
1000
AcDbSavedByObjectVersion
1070
     0
1000
AcDbSavedByObjectVersion
1070
     0
1000
AcDbSavedByObjectVersion
1070
     0
1000
AcDbSavedByObjectVersion
1070
     0
1000
AcDbSavedByObjectVersion
1070
     0
1000
AcDbSavedByObjectVersion
1070
     0
1000
AcDbSavedByObjectVersion
1070
     0
1000
AcDbSavedByObjectVersion
1070
     0
1000
AcDbSavedByObjectVersion
1070
     0
1000
AcDbSavedByObjectVersion
1070
     0
1000
AcDbSavedByObjectVersion
1070
     0
1000
AcDbSavedByObjectVersion
1070
     0
1000
AcDbSavedByObjectVersion
1070
     0
1000
AcDbSavedByObjectVersion
1070
     0
1000
AcDbSavedByObjectVersion
1070
     0
1000
AcDbSavedByObjectVersion
1070
     0
1000
AcDbSavedByObjectVersion
1070
     0
1000
AcDbSavedByObjectVersion
1070
     0
1000
AcDbSavedByObjectVersion
1070
     0
1000
AcDbSavedByObjectVersion
1070
     0
1000
AcDbSavedByObjectVersion
1070
     0
1000
AcDbSavedByObjectVersion
1070
     0
1000
AcDbSavedByObjectVersion
1070
     0
1000
AcDbSavedByObjectVersion
1070
     0
1000
AcDbSavedByObjectVersion
1070
     0
1000
AcDbSavedByObjectVersion
1070
     0
1000
AcDbSavedByObjectVersion
1070
     0
1000
AcDbSavedByObjectVersion
1070
     0
1000
AcDbSavedByObjectVersion
1070
     0
1000
AcDbSavedByObjectVersion
1070
     0
1000
AcDbSavedByObjectVersion
1070
     0
1000
AcDbSavedByObjectVersion
1070
     0
1000
AcDbSavedByObjectVersion
1070
     0
1000
AcDbSavedByObjectVersion
1070
     0
1000
AcDbSavedByObjectVersion
1070
     0
1000
AcDbSavedByObjectVersion
1070
     0
1000
AcDbSavedByObjectVersion
1070
     0
1000
AcDbSavedByObjectVersion
1070
     0
1000
AcDbSavedByObjectVersion
1070
     0
1000
AcDbSavedByObjectVersion
1070
     0
1000
AcDbSavedByObjectVersion
1070
     0
1000
AcDbSavedByObjectVersion
1070
     0
1000
AcDbSavedByObjectVersion
1070
     0
1000
AcDbSavedByObjectVersion
1070
     0
1000
AcDbSavedByObjectVersion
1070
     0
1000
AcDbSavedByObjectVersion
1070
     0
1000
AcDbSavedByObjectVersion
1070
     0
1000
AcDbSavedByObjectVersion
1070
     0
1000
AcDbSavedByObjectVersion
1070
     0
1000
AcDbSavedByObjectVersion
1070
     0
1000
AcDbSavedByObjectVersion
1070
     0
1000
AcDbSavedByObjectVersion
1070
     0
1000
AcDbSavedByObjectVersion
1070
     0
1000
AcDbSavedByObjectVersion
1070
     0
  0
VISUALSTYLE
  5
32
102
{ACAD_REACTORS
330
2A
102
}
330
2A
100
AcDbVisualStyle
  2
Basic
 70
     7
 71
     1
 72
     0
 73
     1
 90
        0
 40
-0.6
 41
-30.0
 62
     5
 63
     7
 74
     0
 91
        4
 64
     7
 65
   257
 75
     1
175
     1
 42
1.0
 92
        8
 66
     7
 43
1.0
 76
     1
 77
     6
 78
     2
 67
     7
 79
     5
170
     0
171
     0
290
     0
174
     0
 93
        1
 44
0.0
173
     0
291
     1
 45
0.0
1001
ACAD
1000
AcDbSavedByObjectVersion
1070
     0
1000
AcDbSavedByObjectVersion
1070
     0
1000
AcDbSavedByObjectVersion
1070
     0
1000
AcDbSavedByObjectVersion
1070
     0
1000
AcDbSavedByObjectVersion
1070
     0
1000
AcDbSavedByObjectVersion
1070
     0
1000
AcDbSavedByObjectVersion
1070
     0
1000
AcDbSavedByObjectVersion
1070
     0
1000
AcDbSavedByObjectVersion
1070
     0
1000
AcDbSavedByObjectVersion
1070
     0
1000
AcDbSavedByObjectVersion
1070
     0
1000
AcDbSavedByObjectVersion
1070
     0
1000
AcDbSavedByObjectVersion
1070
     0
1000
AcDbSavedByObjectVersion
1070
     0
1000
AcDbSavedByObjectVersion
1070
     0
1000
AcDbSavedByObjectVersion
1070
     0
1000
AcDbSavedByObjectVersion
1070
     0
1000
AcDbSavedByObjectVersion
1070
     0
1000
AcDbSavedByObjectVersion
1070
     0
1000
AcDbSavedByObjectVersion
1070
     0
1000
AcDbSavedByObjectVersion
1070
     0
1000
AcDbSavedByObjectVersion
1070
     0
1000
AcDbSavedByObjectVersion
1070
     0
1000
AcDbSavedByObjectVersion
1070
     0
1000
AcDbSavedByObjectVersion
1070
     0
1000
AcDbSavedByObjectVersion
1070
     0
1000
AcDbSavedByObjectVersion
1070
     0
1000
AcDbSavedByObjectVersion
1070
     0
1000
AcDbSavedByObjectVersion
1070
     0
1000
AcDbSavedByObjectVersion
1070
     0
1000
AcDbSavedByObjectVersion
1070
     0
1000
AcDbSavedByObjectVersion
1070
     0
1000
AcDbSavedByObjectVersion
1070
     0
1000
AcDbSavedByObjectVersion
1070
     0
1000
AcDbSavedByObjectVersion
1070
     0
1000
AcDbSavedByObjectVersion
1070
     0
1000
AcDbSavedByObjectVersion
1070
     0
1000
AcDbSavedByObjectVersion
1070
     0
1000
AcDbSavedByObjectVersion
1070
     0
1000
AcDbSavedByObjectVersion
1070
     0
1000
AcDbSavedByObjectVersion
1070
     0
1000
AcDbSavedByObjectVersion
1070
     0
1000
AcDbSavedByObjectVersion
1070
     0
1000
AcDbSavedByObjectVersion
1070
     0
1000
AcDbSavedByObjectVersion
1070
     0
1000
AcDbSavedByObjectVersion
1070
     0
1000
AcDbSavedByObjectVersion
1070
     0
1000
AcDbSavedByObjectVersion
1070
     0
1000
AcDbSavedByObjectVersion
1070
     0
1000
AcDbSavedByObjectVersion
1070
     0
1000
AcDbSavedByObjectVersion
1070
     0
1000
AcDbSavedByObjectVersion
1070
     0
1000
AcDbSavedByObjectVersion
1070
     0
1000
AcDbSavedByObjectVersion
1070
     0
1000
AcDbSavedByObjectVersion
1070
     0
1000
AcDbSavedByObjectVersion
1070
     0
1000
AcDbSavedByObjectVersion
1070
     0
1000
AcDbSavedByObjectVersion
1070
     0
1000
AcDbSavedByObjectVersion
1070
     0
1000
AcDbSavedByObjectVersion
1070
     0
1000
AcDbSavedByObjectVersion
1070
     0
1000
AcDbSavedByObjectVersion
1070
     0
  0
VISUALSTYLE
  5
36
102
{ACAD_REACTORS
330
2A
102
}
330
2A
100
AcDbVisualStyle
  2
Brighten
 70
    12
 71
     2
 72
     2
 73
     0
 90
        0
 40
-0.6
 41
-30.0
 62
     5
 63
     7
 74
     1
 91
        4
 64
     7
 65
   257
 75
     1
175
     1
 42
1.0
 92
        8
 66
     7
 43
1.0
 76
     1
 77
     6
 78
     2
 67
     7
 79
     5
170
     0
171
     0
290
     0
174
     0
 93
        1
 44
50.0
173
     0
291
     1
 45
0.0
1001
ACAD
1000
AcDbSavedByObjectVersion
1070
     0
1000
AcDbSavedByObjectVersion
1070
     0
1000
AcDbSavedByObjectVersion
1070
     0
1000
AcDbSavedByObjectVersion
1070
     0
1000
AcDbSavedByObjectVersion
1070
     0
1000
AcDbSavedByObjectVersion
1070
     0
1000
AcDbSavedByObjectVersion
1070
     0
1000
AcDbSavedByObjectVersion
1070
     0
1000
AcDbSavedByObjectVersion
1070
     0
1000
AcDbSavedByObjectVersion
1070
     0
1000
AcDbSavedByObjectVersion
1070
     0
1000
AcDbSavedByObjectVersion
1070
     0
1000
AcDbSavedByObjectVersion
1070
     0
1000
AcDbSavedByObjectVersion
1070
     0
1000
AcDbSavedByObjectVersion
1070
     0
1000
AcDbSavedByObjectVersion
1070
     0
1000
AcDbSavedByObjectVersion
1070
     0
1000
AcDbSavedByObjectVersion
1070
     0
1000
AcDbSavedByObjectVersion
1070
     0
1000
AcDbSavedByObjectVersion
1070
     0
1000
AcDbSavedByObjectVersion
1070
     0
1000
AcDbSavedByObjectVersion
1070
     0
1000
AcDbSavedByObjectVersion
1070
     0
1000
AcDbSavedByObjectVersion
1070
     0
1000
AcDbSavedByObjectVersion
1070
     0
1000
AcDbSavedByObjectVersion
1070
     0
1000
AcDbSavedByObjectVersion
1070
     0
1000
AcDbSavedByObjectVersion
1070
     0
1000
AcDbSavedByObjectVersion
1070
     0
1000
AcDbSavedByObjectVersion
1070
     0
1000
AcDbSavedByObjectVersion
1070
     0
1000
AcDbSavedByObjectVersion
1070
     0
1000
AcDbSavedByObjectVersion
1070
     0
1000
AcDbSavedByObjectVersion
1070
     0
1000
AcDbSavedByObjectVersion
1070
     0
1000
AcDbSavedByObjectVersion
1070
     0
1000
AcDbSavedByObjectVersion
1070
     0
1000
AcDbSavedByObjectVersion
1070
     0
1000
AcDbSavedByObjectVersion
1070
     0
1000
AcDbSavedByObjectVersion
1070
     0
1000
AcDbSavedByObjectVersion
1070
     0
1000
AcDbSavedByObjectVersion
1070
     0
1000
AcDbSavedByObjectVersion
1070
     0
1000
AcDbSavedByObjectVersion
1070
     0
1000
AcDbSavedByObjectVersion
1070
     0
1000
AcDbSavedByObjectVersion
1070
     0
1000
AcDbSavedByObjectVersion
1070
     0
1000
AcDbSavedByObjectVersion
1070
     0
1000
AcDbSavedByObjectVersion
1070
     0
1000
AcDbSavedByObjectVersion
1070
     0
1000
AcDbSavedByObjectVersion
1070
     0
1000
AcDbSavedByObjectVersion
1070
     0
1000
AcDbSavedByObjectVersion
1070
     0
1000
AcDbSavedByObjectVersion
1070
     0
1000
AcDbSavedByObjectVersion
1070
     0
1000
AcDbSavedByObjectVersion
1070
     0
1000
AcDbSavedByObjectVersion
1070
     0
1000
AcDbSavedByObjectVersion
1070
     0
1000
AcDbSavedByObjectVersion
1070
     0
1000
AcDbSavedByObjectVersion
1070
     0
1000
AcDbSavedByObjectVersion
1070
     0
1000
AcDbSavedByObjectVersion
1070
     0
  0
VISUALSTYLE
  5
3A
102
{ACAD_REACTORS
330
2A
102
}
330
2A
100
AcDbVisualStyle
  2
ColorChange
 70
    16
 71
     2
 72
     2
 73
     3
 90
        0
 40
-0.6
 41
-30.0
 62
     5
 63
     8
 74
     1
 91
        4
 64
     7
 65
   257
 75
     1
175
     1
 42
1.0
 92
        8
 66
     8
 43
1.0
 76
     1
 77
     6
 78
     2
 67
     7
 79
     5
170
     0
171
     0
290
     0
174
     0
 93
        1
 44
0.0
173
     0
291
     1
 45
0.0
1001
ACAD
1000
AcDbSavedByObjectVersion
1070
     0
1000
AcDbSavedByObjectVersion
1070
     0
1000
AcDbSavedByObjectVersion
1070
     0
1000
AcDbSavedByObjectVersion
1070
     0
1000
AcDbSavedByObjectVersion
1070
     0
1000
AcDbSavedByObjectVersion
1070
     0
1000
AcDbSavedByObjectVersion
1070
     0
1000
AcDbSavedByObjectVersion
1070
     0
1000
AcDbSavedByObjectVersion
1070
     0
1000
AcDbSavedByObjectVersion
1070
     0
1000
AcDbSavedByObjectVersion
1070
     0
1000
AcDbSavedByObjectVersion
1070
     0
1000
AcDbSavedByObjectVersion
1070
     0
1000
AcDbSavedByObjectVersion
1070
     0
1000
AcDbSavedByObjectVersion
1070
     0
1000
AcDbSavedByObjectVersion
1070
     0
1000
AcDbSavedByObjectVersion
1070
     0
1000
AcDbSavedByObjectVersion
1070
     0
1000
AcDbSavedByObjectVersion
1070
     0
1000
AcDbSavedByObjectVersion
1070
     0
1000
AcDbSavedByObjectVersion
1070
     0
1000
AcDbSavedByObjectVersion
1070
     0
1000
AcDbSavedByObjectVersion
1070
     0
1000
AcDbSavedByObjectVersion
1070
     0
1000
AcDbSavedByObjectVersion
1070
     0
1000
AcDbSavedByObjectVersion
1070
     0
1000
AcDbSavedByObjectVersion
1070
     0
1000
AcDbSavedByObjectVersion
1070
     0
1000
AcDbSavedByObjectVersion
1070
     0
1000
AcDbSavedByObjectVersion
1070
     0
1000
AcDbSavedByObjectVersion
1070
     0
1000
AcDbSavedByObjectVersion
1070
     0
1000
AcDbSavedByObjectVersion
1070
     0
1000
AcDbSavedByObjectVersion
1070
     0
1000
AcDbSavedByObjectVersion
1070
     0
1000
AcDbSavedByObjectVersion
1070
     0
1000
AcDbSavedByObjectVersion
1070
     0
1000
AcDbSavedByObjectVersion
1070
     0
1000
AcDbSavedByObjectVersion
1070
     0
1000
AcDbSavedByObjectVersion
1070
     0
1000
AcDbSavedByObjectVersion
1070
     0
1000
AcDbSavedByObjectVersion
1070
     0
1000
AcDbSavedByObjectVersion
1070
     0
1000
AcDbSavedByObjectVersion
1070
     0
1000
AcDbSavedByObjectVersion
1070
     0
1000
AcDbSavedByObjectVersion
1070
     0
1000
AcDbSavedByObjectVersion
1070
     0
1000
AcDbSavedByObjectVersion
1070
     0
1000
AcDbSavedByObjectVersion
1070
     0
1000
AcDbSavedByObjectVersion
1070
     0
1000
AcDbSavedByObjectVersion
1070
     0
1000
AcDbSavedByObjectVersion
1070
     0
1000
AcDbSavedByObjectVersion
1070
     0
1000
AcDbSavedByObjectVersion
1070
     0
1000
AcDbSavedByObjectVersion
1070
     0
1000
AcDbSavedByObjectVersion
1070
     0
1000
AcDbSavedByObjectVersion
1070
     0
1000
AcDbSavedByObjectVersion
1070
     0
1000
AcDbSavedByObjectVersion
1070
     0
1000
AcDbSavedByObjectVersion
1070
     0
1000
AcDbSavedByObjectVersion
1070
     0
1000
AcDbSavedByObjectVersion
1070
     0
  0
VISUALSTYLE
  5
34
102
{ACAD_REACTORS
330
2A
102
}
330
2A
100
AcDbVisualStyle
  2
Conceptual
 70
     9
 71
     3
 72
     2
 73
     0
 90
        0
 40
-0.6
 41
-30.0
 62
     5
 63
     7
 74
     2
 91
        2
 64
     7
 65
   257
 75
     1
175
     1
 42
40.0
 92
        8
 66
     7
 43
1.0
 76
     1
 77
     6
 78
     2
 67
     7
 79
     3
170
     0
171
     0
290
     0
174
     0
 93
        1
 44
0.0
173
     0
291
     0
 45
0.0
1001
ACAD
1000
AcDbSavedByObjectVersion
1070
     0
1000
AcDbSavedByObjectVersion
1070
     0
1000
AcDbSavedByObjectVersion
1070
     0
1000
AcDbSavedByObjectVersion
1070
     0
1000
AcDbSavedByObjectVersion
1070
     0
1000
AcDbSavedByObjectVersion
1070
     0
1000
AcDbSavedByObjectVersion
1070
     0
1000
AcDbSavedByObjectVersion
1070
     0
1000
AcDbSavedByObjectVersion
1070
     0
1000
AcDbSavedByObjectVersion
1070
     0
1000
AcDbSavedByObjectVersion
1070
     0
1000
AcDbSavedByObjectVersion
1070
     0
1000
AcDbSavedByObjectVersion
1070
     0
1000
AcDbSavedByObjectVersion
1070
     0
1000
AcDbSavedByObjectVersion
1070
     0
1000
AcDbSavedByObjectVersion
1070
     0
1000
AcDbSavedByObjectVersion
1070
     0
1000
AcDbSavedByObjectVersion
1070
     0
1000
AcDbSavedByObjectVersion
1070
     0
1000
AcDbSavedByObjectVersion
1070
     0
1000
AcDbSavedByObjectVersion
1070
     0
1000
AcDbSavedByObjectVersion
1070
     0
1000
AcDbSavedByObjectVersion
1070
     0
1000
AcDbSavedByObjectVersion
1070
     0
1000
AcDbSavedByObjectVersion
1070
     0
1000
AcDbSavedByObjectVersion
1070
     0
1000
AcDbSavedByObjectVersion
1070
     0
1000
AcDbSavedByObjectVersion
1070
     0
1000
AcDbSavedByObjectVersion
1070
     0
1000
AcDbSavedByObjectVersion
1070
     0
1000
AcDbSavedByObjectVersion
1070
     0
1000
AcDbSavedByObjectVersion
1070
     0
1000
AcDbSavedByObjectVersion
1070
     0
1000
AcDbSavedByObjectVersion
1070
     0
1000
AcDbSavedByObjectVersion
1070
     0
1000
AcDbSavedByObjectVersion
1070
     0
1000
AcDbSavedByObjectVersion
1070
     0
1000
AcDbSavedByObjectVersion
1070
     0
1000
AcDbSavedByObjectVersion
1070
     0
1000
AcDbSavedByObjectVersion
1070
     0
1000
AcDbSavedByObjectVersion
1070
     0
1000
AcDbSavedByObjectVersion
1070
     0
1000
AcDbSavedByObjectVersion
1070
     0
1000
AcDbSavedByObjectVersion
1070
     0
1000
AcDbSavedByObjectVersion
1070
     0
1000
AcDbSavedByObjectVersion
1070
     0
1000
AcDbSavedByObjectVersion
1070
     0
1000
AcDbSavedByObjectVersion
1070
     0
1000
AcDbSavedByObjectVersion
1070
     0
1000
AcDbSavedByObjectVersion
1070
     0
1000
AcDbSavedByObjectVersion
1070
     0
1000
AcDbSavedByObjectVersion
1070
     0
1000
AcDbSavedByObjectVersion
1070
     0
1000
AcDbSavedByObjectVersion
1070
     0
1000
AcDbSavedByObjectVersion
1070
     0
1000
AcDbSavedByObjectVersion
1070
     0
1000
AcDbSavedByObjectVersion
1070
     0
1000
AcDbSavedByObjectVersion
1070
     0
1000
AcDbSavedByObjectVersion
1070
     0
1000
AcDbSavedByObjectVersion
1070
     0
1000
AcDbSavedByObjectVersion
1070
     0
1000
AcDbSavedByObjectVersion
1070
     0
  0
VISUALSTYLE
  5
35
102
{ACAD_REACTORS
330
2A
102
}
330
2A
100
AcDbVisualStyle
  2
Dim
 70
    11
 71
     2
 72
     2
 73
     0
 90
        0
 40
-0.6
 41
-30.0
 62
     5
 63
     7
 74
     1
 91
        4
 64
     7
 65
   257
 75
     1
175
     1
 42
1.0
 92
        8
 66
     7
 43
1.0
 76
     1
 77
     6
 78
     2
 67
     7
 79
     5
170
     0
171
     0
290
     0
174
     0
 93
        1
 44
-50.0
173
     0
291
     1
 45
0.0
1001
ACAD
1000
AcDbSavedByObjectVersion
1070
     0
1000
AcDbSavedByObjectVersion
1070
     0
1000
AcDbSavedByObjectVersion
1070
     0
1000
AcDbSavedByObjectVersion
1070
     0
1000
AcDbSavedByObjectVersion
1070
     0
1000
AcDbSavedByObjectVersion
1070
     0
1000
AcDbSavedByObjectVersion
1070
     0
1000
AcDbSavedByObjectVersion
1070
     0
1000
AcDbSavedByObjectVersion
1070
     0
1000
AcDbSavedByObjectVersion
1070
     0
1000
AcDbSavedByObjectVersion
1070
     0
1000
AcDbSavedByObjectVersion
1070
     0
1000
AcDbSavedByObjectVersion
1070
     0
1000
AcDbSavedByObjectVersion
1070
     0
1000
AcDbSavedByObjectVersion
1070
     0
1000
AcDbSavedByObjectVersion
1070
     0
1000
AcDbSavedByObjectVersion
1070
     0
1000
AcDbSavedByObjectVersion
1070
     0
1000
AcDbSavedByObjectVersion
1070
     0
1000
AcDbSavedByObjectVersion
1070
     0
1000
AcDbSavedByObjectVersion
1070
     0
1000
AcDbSavedByObjectVersion
1070
     0
1000
AcDbSavedByObjectVersion
1070
     0
1000
AcDbSavedByObjectVersion
1070
     0
1000
AcDbSavedByObjectVersion
1070
     0
1000
AcDbSavedByObjectVersion
1070
     0
1000
AcDbSavedByObjectVersion
1070
     0
1000
AcDbSavedByObjectVersion
1070
     0
1000
AcDbSavedByObjectVersion
1070
     0
1000
AcDbSavedByObjectVersion
1070
     0
1000
AcDbSavedByObjectVersion
1070
     0
1000
AcDbSavedByObjectVersion
1070
     0
1000
AcDbSavedByObjectVersion
1070
     0
1000
AcDbSavedByObjectVersion
1070
     0
1000
AcDbSavedByObjectVersion
1070
     0
1000
AcDbSavedByObjectVersion
1070
     0
1000
AcDbSavedByObjectVersion
1070
     0
1000
AcDbSavedByObjectVersion
1070
     0
1000
AcDbSavedByObjectVersion
1070
     0
1000
AcDbSavedByObjectVersion
1070
     0
1000
AcDbSavedByObjectVersion
1070
     0
1000
AcDbSavedByObjectVersion
1070
     0
1000
AcDbSavedByObjectVersion
1070
     0
1000
AcDbSavedByObjectVersion
1070
     0
1000
AcDbSavedByObjectVersion
1070
     0
1000
AcDbSavedByObjectVersion
1070
     0
1000
AcDbSavedByObjectVersion
1070
     0
1000
AcDbSavedByObjectVersion
1070
     0
1000
AcDbSavedByObjectVersion
1070
     0
1000
AcDbSavedByObjectVersion
1070
     0
1000
AcDbSavedByObjectVersion
1070
     0
1000
AcDbSavedByObjectVersion
1070
     0
1000
AcDbSavedByObjectVersion
1070
     0
1000
AcDbSavedByObjectVersion
1070
     0
1000
AcDbSavedByObjectVersion
1070
     0
1000
AcDbSavedByObjectVersion
1070
     0
1000
AcDbSavedByObjectVersion
1070
     0
1000
AcDbSavedByObjectVersion
1070
     0
1000
AcDbSavedByObjectVersion
1070
     0
1000
AcDbSavedByObjectVersion
1070
     0
1000
AcDbSavedByObjectVersion
1070
     0
1000
AcDbSavedByObjectVersion
1070
     0
  0
VISUALSTYLE
  5
39
102
{ACAD_REACTORS
330
2A
102
}
330
2A
100
AcDbVisualStyle
  2
Facepattern
 70
    15
 71
     2
 72
     2
 73
     0
 90
        0
 40
-0.6
 41
-30.0
 62
     5
 63
     7
 74
     1
 91
        4
 64
     7
 65
   257
 75
     1
175
     1
 42
1.0
 92
        8
 66
     7
 43
1.0
 76
     1
 77
     6
 78
     2
 67
     7
 79
     5
170
     0
171
     0
290
     0
174
     0
 93
        1
 44
0.0
173
     0
291
     1
 45
0.0
1001
ACAD
1000
AcDbSavedByObjectVersion
1070
     0
1000
AcDbSavedByObjectVersion
1070
     0
1000
AcDbSavedByObjectVersion
1070
     0
1000
AcDbSavedByObjectVersion
1070
     0
1000
AcDbSavedByObjectVersion
1070
     0
1000
AcDbSavedByObjectVersion
1070
     0
1000
AcDbSavedByObjectVersion
1070
     0
1000
AcDbSavedByObjectVersion
1070
     0
1000
AcDbSavedByObjectVersion
1070
     0
1000
AcDbSavedByObjectVersion
1070
     0
1000
AcDbSavedByObjectVersion
1070
     0
1000
AcDbSavedByObjectVersion
1070
     0
1000
AcDbSavedByObjectVersion
1070
     0
1000
AcDbSavedByObjectVersion
1070
     0
1000
AcDbSavedByObjectVersion
1070
     0
1000
AcDbSavedByObjectVersion
1070
     0
1000
AcDbSavedByObjectVersion
1070
     0
1000
AcDbSavedByObjectVersion
1070
     0
1000
AcDbSavedByObjectVersion
1070
     0
1000
AcDbSavedByObjectVersion
1070
     0
1000
AcDbSavedByObjectVersion
1070
     0
1000
AcDbSavedByObjectVersion
1070
     0
1000
AcDbSavedByObjectVersion
1070
     0
1000
AcDbSavedByObjectVersion
1070
     0
1000
AcDbSavedByObjectVersion
1070
     0
1000
AcDbSavedByObjectVersion
1070
     0
1000
AcDbSavedByObjectVersion
1070
     0
1000
AcDbSavedByObjectVersion
1070
     0
1000
AcDbSavedByObjectVersion
1070
     0
1000
AcDbSavedByObjectVersion
1070
     0
1000
AcDbSavedByObjectVersion
1070
     0
1000
AcDbSavedByObjectVersion
1070
     0
1000
AcDbSavedByObjectVersion
1070
     0
1000
AcDbSavedByObjectVersion
1070
     0
1000
AcDbSavedByObjectVersion
1070
     0
1000
AcDbSavedByObjectVersion
1070
     0
1000
AcDbSavedByObjectVersion
1070
     0
1000
AcDbSavedByObjectVersion
1070
     0
1000
AcDbSavedByObjectVersion
1070
     0
1000
AcDbSavedByObjectVersion
1070
     0
1000
AcDbSavedByObjectVersion
1070
     0
1000
AcDbSavedByObjectVersion
1070
     0
1000
AcDbSavedByObjectVersion
1070
     0
1000
AcDbSavedByObjectVersion
1070
     0
1000
AcDbSavedByObjectVersion
1070
     0
1000
AcDbSavedByObjectVersion
1070
     0
1000
AcDbSavedByObjectVersion
1070
     0
1000
AcDbSavedByObjectVersion
1070
     0
1000
AcDbSavedByObjectVersion
1070
     0
1000
AcDbSavedByObjectVersion
1070
     0
1000
AcDbSavedByObjectVersion
1070
     0
1000
AcDbSavedByObjectVersion
1070
     0
1000
AcDbSavedByObjectVersion
1070
     0
1000
AcDbSavedByObjectVersion
1070
     0
1000
AcDbSavedByObjectVersion
1070
     0
1000
AcDbSavedByObjectVersion
1070
     0
1000
AcDbSavedByObjectVersion
1070
     0
1000
AcDbSavedByObjectVersion
1070
     0
1000
AcDbSavedByObjectVersion
1070
     0
1000
AcDbSavedByObjectVersion
1070
     0
1000
AcDbSavedByObjectVersion
1070
     0
1000
AcDbSavedByObjectVersion
1070
     0
  0
VISUALSTYLE
  5
2B
102
{ACAD_REACTORS
330
2A
102
}
330
2A
100
AcDbVisualStyle
  2
Flat
 70
     0
 71
     2
 72
     1
 73
     1
 90
        2
 40
-0.6
 41
30.0
 62
     5
 63
     7
 74
     0
 91
        4
 64
     7
 65
   257
 75
     1
175
     1
 42
1.0
 92
        8
 66
     7
 43
1.0
 76
     1
 77
     6
 78
     2
 67
     7
 79
     5
170
     0
171
     0
290
     0
174
     0
 93
       13
 44
0.0
173
     0
291
     1
 45
0.0
1001
ACAD
1000
AcDbSavedByObjectVersion
1070
     0
1000
AcDbSavedByObjectVersion
1070
     0
1000
AcDbSavedByObjectVersion
1070
     0
1000
AcDbSavedByObjectVersion
1070
     0
1000
AcDbSavedByObjectVersion
1070
     0
1000
AcDbSavedByObjectVersion
1070
     0
1000
AcDbSavedByObjectVersion
1070
     0
1000
AcDbSavedByObjectVersion
1070
     0
1000
AcDbSavedByObjectVersion
1070
     0
1000
AcDbSavedByObjectVersion
1070
     0
1000
AcDbSavedByObjectVersion
1070
     0
1000
AcDbSavedByObjectVersion
1070
     0
1000
AcDbSavedByObjectVersion
1070
     0
1000
AcDbSavedByObjectVersion
1070
     0
1000
AcDbSavedByObjectVersion
1070
     0
1000
AcDbSavedByObjectVersion
1070
     0
1000
AcDbSavedByObjectVersion
1070
     0
1000
AcDbSavedByObjectVersion
1070
     0
1000
AcDbSavedByObjectVersion
1070
     0
1000
AcDbSavedByObjectVersion
1070
     0
1000
AcDbSavedByObjectVersion
1070
     0
1000
AcDbSavedByObjectVersion
1070
     0
1000
AcDbSavedByObjectVersion
1070
     0
1000
AcDbSavedByObjectVersion
1070
     0
1000
AcDbSavedByObjectVersion
1070
     0
1000
AcDbSavedByObjectVersion
1070
     0
1000
AcDbSavedByObjectVersion
1070
     0
1000
AcDbSavedByObjectVersion
1070
     0
1000
AcDbSavedByObjectVersion
1070
     0
1000
AcDbSavedByObjectVersion
1070
     0
1000
AcDbSavedByObjectVersion
1070
     0
1000
AcDbSavedByObjectVersion
1070
     0
1000
AcDbSavedByObjectVersion
1070
     0
1000
AcDbSavedByObjectVersion
1070
     0
1000
AcDbSavedByObjectVersion
1070
     0
1000
AcDbSavedByObjectVersion
1070
     0
1000
AcDbSavedByObjectVersion
1070
     0
1000
AcDbSavedByObjectVersion
1070
     0
1000
AcDbSavedByObjectVersion
1070
     0
1000
AcDbSavedByObjectVersion
1070
     0
1000
AcDbSavedByObjectVersion
1070
     0
1000
AcDbSavedByObjectVersion
1070
     0
1000
AcDbSavedByObjectVersion
1070
     0
1000
AcDbSavedByObjectVersion
1070
     0
1000
AcDbSavedByObjectVersion
1070
     0
1000
AcDbSavedByObjectVersion
1070
     0
1000
AcDbSavedByObjectVersion
1070
     0
1000
AcDbSavedByObjectVersion
1070
     0
1000
AcDbSavedByObjectVersion
1070
     0
1000
AcDbSavedByObjectVersion
1070
     0
1000
AcDbSavedByObjectVersion
1070
     0
1000
AcDbSavedByObjectVersion
1070
     0
1000
AcDbSavedByObjectVersion
1070
     0
1000
AcDbSavedByObjectVersion
1070
     0
1000
AcDbSavedByObjectVersion
1070
     0
1000
AcDbSavedByObjectVersion
1070
     0
1000
AcDbSavedByObjectVersion
1070
     0
1000
AcDbSavedByObjectVersion
1070
     0
1000
AcDbSavedByObjectVersion
1070
     0
1000
AcDbSavedByObjectVersion
1070
     0
1000
AcDbSavedByObjectVersion
1070
     0
1000
AcDbSavedByObjectVersion
1070
     0
  0
VISUALSTYLE
  5
2C
102
{ACAD_REACTORS
330
2A
102
}
330
2A
100
AcDbVisualStyle
  2
FlatWithEdges
 70
     1
 71
     2
 72
     1
 73
     1
 90
        2
 40
-0.6
 41
30.0
 62
     5
 63
     7
 74
     1
 91
        4
 64
     7
 65
   257
 75
     1
175
     1
 42
1.0
 92
        0
 66
   257
 43
1.0
 76
     1
 77
     6
 78
     2
 67
     7
 79
     5
170
     0
171
     0
290
     0
174
     0
 93
       13
 44
0.0
173
     0
291
     1
 45
0.0
1001
ACAD
1000
AcDbSavedByObjectVersion
1070
     0
1000
AcDbSavedByObjectVersion
1070
     0
1000
AcDbSavedByObjectVersion
1070
     0
1000
AcDbSavedByObjectVersion
1070
     0
1000
AcDbSavedByObjectVersion
1070
     0
1000
AcDbSavedByObjectVersion
1070
     0
1000
AcDbSavedByObjectVersion
1070
     0
1000
AcDbSavedByObjectVersion
1070
     0
1000
AcDbSavedByObjectVersion
1070
     0
1000
AcDbSavedByObjectVersion
1070
     0
1000
AcDbSavedByObjectVersion
1070
     0
1000
AcDbSavedByObjectVersion
1070
     0
1000
AcDbSavedByObjectVersion
1070
     0
1000
AcDbSavedByObjectVersion
1070
     0
1000
AcDbSavedByObjectVersion
1070
     0
1000
AcDbSavedByObjectVersion
1070
     0
1000
AcDbSavedByObjectVersion
1070
     0
1000
AcDbSavedByObjectVersion
1070
     0
1000
AcDbSavedByObjectVersion
1070
     0
1000
AcDbSavedByObjectVersion
1070
     0
1000
AcDbSavedByObjectVersion
1070
     0
1000
AcDbSavedByObjectVersion
1070
     0
1000
AcDbSavedByObjectVersion
1070
     0
1000
AcDbSavedByObjectVersion
1070
     0
1000
AcDbSavedByObjectVersion
1070
     0
1000
AcDbSavedByObjectVersion
1070
     0
1000
AcDbSavedByObjectVersion
1070
     0
1000
AcDbSavedByObjectVersion
1070
     0
1000
AcDbSavedByObjectVersion
1070
     0
1000
AcDbSavedByObjectVersion
1070
     0
1000
AcDbSavedByObjectVersion
1070
     0
1000
AcDbSavedByObjectVersion
1070
     0
1000
AcDbSavedByObjectVersion
1070
     0
1000
AcDbSavedByObjectVersion
1070
     0
1000
AcDbSavedByObjectVersion
1070
     0
1000
AcDbSavedByObjectVersion
1070
     0
1000
AcDbSavedByObjectVersion
1070
     0
1000
AcDbSavedByObjectVersion
1070
     0
1000
AcDbSavedByObjectVersion
1070
     0
1000
AcDbSavedByObjectVersion
1070
     0
1000
AcDbSavedByObjectVersion
1070
     0
1000
AcDbSavedByObjectVersion
1070
     0
1000
AcDbSavedByObjectVersion
1070
     0
1000
AcDbSavedByObjectVersion
1070
     0
1000
AcDbSavedByObjectVersion
1070
     0
1000
AcDbSavedByObjectVersion
1070
     0
1000
AcDbSavedByObjectVersion
1070
     0
1000
AcDbSavedByObjectVersion
1070
     0
1000
AcDbSavedByObjectVersion
1070
     0
1000
AcDbSavedByObjectVersion
1070
     0
1000
AcDbSavedByObjectVersion
1070
     0
1000
AcDbSavedByObjectVersion
1070
     0
1000
AcDbSavedByObjectVersion
1070
     0
1000
AcDbSavedByObjectVersion
1070
     0
1000
AcDbSavedByObjectVersion
1070
     0
1000
AcDbSavedByObjectVersion
1070
     0
1000
AcDbSavedByObjectVersion
1070
     0
1000
AcDbSavedByObjectVersion
1070
     0
1000
AcDbSavedByObjectVersion
1070
     0
1000
AcDbSavedByObjectVersion
1070
     0
1000
AcDbSavedByObjectVersion
1070
     0
1000
AcDbSavedByObjectVersion
1070
     0
  0
VISUALSTYLE
  5
2D
102
{ACAD_REACTORS
330
2A
102
}
330
2A
100
AcDbVisualStyle
  2
Gouraud
 70
     2
 71
     2
 72
     2
 73
     1
 90
        2
 40
-0.6
 41
30.0
 62
     5
 63
     7
 74
     0
 91
        4
 64
     7
 65
   257
 75
     1
175
     1
 42
1.0
 92
        0
 66
     7
 43
1.0
 76
     1
 77
     6
 78
     2
 67
     7
 79
     5
170
     0
171
     0
290
     0
174
     0
 93
       13
 44
0.0
173
     0
291
     1
 45
0.0
1001
ACAD
1000
AcDbSavedByObjectVersion
1070
     0
1000
AcDbSavedByObjectVersion
1070
     0
1000
AcDbSavedByObjectVersion
1070
     0
1000
AcDbSavedByObjectVersion
1070
     0
1000
AcDbSavedByObjectVersion
1070
     0
1000
AcDbSavedByObjectVersion
1070
     0
1000
AcDbSavedByObjectVersion
1070
     0
1000
AcDbSavedByObjectVersion
1070
     0
1000
AcDbSavedByObjectVersion
1070
     0
1000
AcDbSavedByObjectVersion
1070
     0
1000
AcDbSavedByObjectVersion
1070
     0
1000
AcDbSavedByObjectVersion
1070
     0
1000
AcDbSavedByObjectVersion
1070
     0
1000
AcDbSavedByObjectVersion
1070
     0
1000
AcDbSavedByObjectVersion
1070
     0
1000
AcDbSavedByObjectVersion
1070
     0
1000
AcDbSavedByObjectVersion
1070
     0
1000
AcDbSavedByObjectVersion
1070
     0
1000
AcDbSavedByObjectVersion
1070
     0
1000
AcDbSavedByObjectVersion
1070
     0
1000
AcDbSavedByObjectVersion
1070
     0
1000
AcDbSavedByObjectVersion
1070
     0
1000
AcDbSavedByObjectVersion
1070
     0
1000
AcDbSavedByObjectVersion
1070
     0
1000
AcDbSavedByObjectVersion
1070
     0
1000
AcDbSavedByObjectVersion
1070
     0
1000
AcDbSavedByObjectVersion
1070
     0
1000
AcDbSavedByObjectVersion
1070
     0
1000
AcDbSavedByObjectVersion
1070
     0
1000
AcDbSavedByObjectVersion
1070
     0
1000
AcDbSavedByObjectVersion
1070
     0
1000
AcDbSavedByObjectVersion
1070
     0
1000
AcDbSavedByObjectVersion
1070
     0
1000
AcDbSavedByObjectVersion
1070
     0
1000
AcDbSavedByObjectVersion
1070
     0
1000
AcDbSavedByObjectVersion
1070
     0
1000
AcDbSavedByObjectVersion
1070
     0
1000
AcDbSavedByObjectVersion
1070
     0
1000
AcDbSavedByObjectVersion
1070
     0
1000
AcDbSavedByObjectVersion
1070
     0
1000
AcDbSavedByObjectVersion
1070
     0
1000
AcDbSavedByObjectVersion
1070
     0
1000
AcDbSavedByObjectVersion
1070
     0
1000
AcDbSavedByObjectVersion
1070
     0
1000
AcDbSavedByObjectVersion
1070
     0
1000
AcDbSavedByObjectVersion
1070
     0
1000
AcDbSavedByObjectVersion
1070
     0
1000
AcDbSavedByObjectVersion
1070
     0
1000
AcDbSavedByObjectVersion
1070
     0
1000
AcDbSavedByObjectVersion
1070
     0
1000
AcDbSavedByObjectVersion
1070
     0
1000
AcDbSavedByObjectVersion
1070
     0
1000
AcDbSavedByObjectVersion
1070
     0
1000
AcDbSavedByObjectVersion
1070
     0
1000
AcDbSavedByObjectVersion
1070
     0
1000
AcDbSavedByObjectVersion
1070
     0
1000
AcDbSavedByObjectVersion
1070
     0
1000
AcDbSavedByObjectVersion
1070
     0
1000
AcDbSavedByObjectVersion
1070
     0
1000
AcDbSavedByObjectVersion
1070
     0
1000
AcDbSavedByObjectVersion
1070
     0
1000
AcDbSavedByObjectVersion
1070
     0
  0
VISUALSTYLE
  5
2E
102
{ACAD_REACTORS
330
2A
102
}
330
2A
100
AcDbVisualStyle
  2
GouraudWithEdges
 70
     3
 71
     2
 72
     2
 73
     1
 90
        2
 40
-0.6
 41
30.0
 62
     5
 63
     7
 74
     1
 91
        4
 64
     7
 65
   257
 75
     1
175
     1
 42
1.0
 92
        0
 66
   257
 43
1.0
 76
     1
 77
     6
 78
     2
 67
     7
 79
     5
170
     0
171
     0
290
     0
174
     0
 93
       13
 44
0.0
173
     0
291
     1
 45
0.0
1001
ACAD
1000
AcDbSavedByObjectVersion
1070
     0
1000
AcDbSavedByObjectVersion
1070
     0
1000
AcDbSavedByObjectVersion
1070
     0
1000
AcDbSavedByObjectVersion
1070
     0
1000
AcDbSavedByObjectVersion
1070
     0
1000
AcDbSavedByObjectVersion
1070
     0
1000
AcDbSavedByObjectVersion
1070
     0
1000
AcDbSavedByObjectVersion
1070
     0
1000
AcDbSavedByObjectVersion
1070
     0
1000
AcDbSavedByObjectVersion
1070
     0
1000
AcDbSavedByObjectVersion
1070
     0
1000
AcDbSavedByObjectVersion
1070
     0
1000
AcDbSavedByObjectVersion
1070
     0
1000
AcDbSavedByObjectVersion
1070
     0
1000
AcDbSavedByObjectVersion
1070
     0
1000
AcDbSavedByObjectVersion
1070
     0
1000
AcDbSavedByObjectVersion
1070
     0
1000
AcDbSavedByObjectVersion
1070
     0
1000
AcDbSavedByObjectVersion
1070
     0
1000
AcDbSavedByObjectVersion
1070
     0
1000
AcDbSavedByObjectVersion
1070
     0
1000
AcDbSavedByObjectVersion
1070
     0
1000
AcDbSavedByObjectVersion
1070
     0
1000
AcDbSavedByObjectVersion
1070
     0
1000
AcDbSavedByObjectVersion
1070
     0
1000
AcDbSavedByObjectVersion
1070
     0
1000
AcDbSavedByObjectVersion
1070
     0
1000
AcDbSavedByObjectVersion
1070
     0
1000
AcDbSavedByObjectVersion
1070
     0
1000
AcDbSavedByObjectVersion
1070
     0
1000
AcDbSavedByObjectVersion
1070
     0
1000
AcDbSavedByObjectVersion
1070
     0
1000
AcDbSavedByObjectVersion
1070
     0
1000
AcDbSavedByObjectVersion
1070
     0
1000
AcDbSavedByObjectVersion
1070
     0
1000
AcDbSavedByObjectVersion
1070
     0
1000
AcDbSavedByObjectVersion
1070
     0
1000
AcDbSavedByObjectVersion
1070
     0
1000
AcDbSavedByObjectVersion
1070
     0
1000
AcDbSavedByObjectVersion
1070
     0
1000
AcDbSavedByObjectVersion
1070
     0
1000
AcDbSavedByObjectVersion
1070
     0
1000
AcDbSavedByObjectVersion
1070
     0
1000
AcDbSavedByObjectVersion
1070
     0
1000
AcDbSavedByObjectVersion
1070
     0
1000
AcDbSavedByObjectVersion
1070
     0
1000
AcDbSavedByObjectVersion
1070
     0
1000
AcDbSavedByObjectVersion
1070
     0
1000
AcDbSavedByObjectVersion
1070
     0
1000
AcDbSavedByObjectVersion
1070
     0
1000
AcDbSavedByObjectVersion
1070
     0
1000
AcDbSavedByObjectVersion
1070
     0
1000
AcDbSavedByObjectVersion
1070
     0
1000
AcDbSavedByObjectVersion
1070
     0
1000
AcDbSavedByObjectVersion
1070
     0
1000
AcDbSavedByObjectVersion
1070
     0
1000
AcDbSavedByObjectVersion
1070
     0
1000
AcDbSavedByObjectVersion
1070
     0
1000
AcDbSavedByObjectVersion
1070
     0
1000
AcDbSavedByObjectVersion
1070
     0
1000
AcDbSavedByObjectVersion
1070
     0
1000
AcDbSavedByObjectVersion
1070
     0
  0
VISUALSTYLE
  5
38
102
{ACAD_REACTORS
330
2A
102
}
330
2A
100
AcDbVisualStyle
  2
Linepattern
 70
    14
 71
     2
 72
     2
 73
     0
 90
        0
 40
-0.6
 41
-30.0
 62
     5
 63
     7
 74
     1
 91
        4
 64
     7
 65
   257
 75
     7
175
     7
 42
1.0
 92
        8
 66
     7
 43
1.0
 76
     1
 77
     6
 78
     2
 67
     7
 79
     5
170
     0
171
     0
290
     0
174
     0
 93
        1
 44
0.0
173
     0
291
     1
 45
0.0
1001
ACAD
1000
AcDbSavedByObjectVersion
1070
     0
1000
AcDbSavedByObjectVersion
1070
     0
1000
AcDbSavedByObjectVersion
1070
     0
1000
AcDbSavedByObjectVersion
1070
     0
1000
AcDbSavedByObjectVersion
1070
     0
1000
AcDbSavedByObjectVersion
1070
     0
1000
AcDbSavedByObjectVersion
1070
     0
1000
AcDbSavedByObjectVersion
1070
     0
1000
AcDbSavedByObjectVersion
1070
     0
1000
AcDbSavedByObjectVersion
1070
     0
1000
AcDbSavedByObjectVersion
1070
     0
1000
AcDbSavedByObjectVersion
1070
     0
1000
AcDbSavedByObjectVersion
1070
     0
1000
AcDbSavedByObjectVersion
1070
     0
1000
AcDbSavedByObjectVersion
1070
     0
1000
AcDbSavedByObjectVersion
1070
     0
1000
AcDbSavedByObjectVersion
1070
     0
1000
AcDbSavedByObjectVersion
1070
     0
1000
AcDbSavedByObjectVersion
1070
     0
1000
AcDbSavedByObjectVersion
1070
     0
1000
AcDbSavedByObjectVersion
1070
     0
1000
AcDbSavedByObjectVersion
1070
     0
1000
AcDbSavedByObjectVersion
1070
     0
1000
AcDbSavedByObjectVersion
1070
     0
1000
AcDbSavedByObjectVersion
1070
     0
1000
AcDbSavedByObjectVersion
1070
     0
1000
AcDbSavedByObjectVersion
1070
     0
1000
AcDbSavedByObjectVersion
1070
     0
1000
AcDbSavedByObjectVersion
1070
     0
1000
AcDbSavedByObjectVersion
1070
     0
1000
AcDbSavedByObjectVersion
1070
     0
1000
AcDbSavedByObjectVersion
1070
     0
1000
AcDbSavedByObjectVersion
1070
     0
1000
AcDbSavedByObjectVersion
1070
     0
1000
AcDbSavedByObjectVersion
1070
     0
1000
AcDbSavedByObjectVersion
1070
     0
1000
AcDbSavedByObjectVersion
1070
     0
1000
AcDbSavedByObjectVersion
1070
     0
1000
AcDbSavedByObjectVersion
1070
     0
1000
AcDbSavedByObjectVersion
1070
     0
1000
AcDbSavedByObjectVersion
1070
     0
1000
AcDbSavedByObjectVersion
1070
     0
1000
AcDbSavedByObjectVersion
1070
     0
1000
AcDbSavedByObjectVersion
1070
     0
1000
AcDbSavedByObjectVersion
1070
     0
1000
AcDbSavedByObjectVersion
1070
     0
1000
AcDbSavedByObjectVersion
1070
     0
1000
AcDbSavedByObjectVersion
1070
     0
1000
AcDbSavedByObjectVersion
1070
     0
1000
AcDbSavedByObjectVersion
1070
     0
1000
AcDbSavedByObjectVersion
1070
     0
1000
AcDbSavedByObjectVersion
1070
     0
1000
AcDbSavedByObjectVersion
1070
     0
1000
AcDbSavedByObjectVersion
1070
     0
1000
AcDbSavedByObjectVersion
1070
     0
1000
AcDbSavedByObjectVersion
1070
     0
1000
AcDbSavedByObjectVersion
1070
     0
1000
AcDbSavedByObjectVersion
1070
     0
1000
AcDbSavedByObjectVersion
1070
     0
1000
AcDbSavedByObjectVersion
1070
     0
1000
AcDbSavedByObjectVersion
1070
     0
1000
AcDbSavedByObjectVersion
1070
     0
  0
VISUALSTYLE
  5
33
102
{ACAD_REACTORS
330
2A
102
}
330
2A
100
AcDbVisualStyle
  2
Realistic
 70
     8
 71
     2
 72
     2
 73
     0
 90
        0
 40
-0.6
 41
-30.0
 62
     5
 63
     7
 74
     1
 91
        0
 64
     7
 65
   257
 75
     1
175
     1
 42
1.0
 92
        8
 66
     8
 43
1.0
 76
     1
 77
     6
 78
     2
 67
     7
 79
     5
170
     0
171
     0
290
     0
174
     0
 93
       13
 44
0.0
173
     0
291
     0
 45
0.0
1001
ACAD
1000
AcDbSavedByObjectVersion
1070
     0
1000
AcDbSavedByObjectVersion
1070
     0
1000
AcDbSavedByObjectVersion
1070
     0
1000
AcDbSavedByObjectVersion
1070
     0
1000
AcDbSavedByObjectVersion
1070
     0
1000
AcDbSavedByObjectVersion
1070
     0
1000
AcDbSavedByObjectVersion
1070
     0
1000
AcDbSavedByObjectVersion
1070
     0
1000
AcDbSavedByObjectVersion
1070
     0
1000
AcDbSavedByObjectVersion
1070
     0
1000
AcDbSavedByObjectVersion
1070
     0
1000
AcDbSavedByObjectVersion
1070
     0
1000
AcDbSavedByObjectVersion
1070
     0
1000
AcDbSavedByObjectVersion
1070
     0
1000
AcDbSavedByObjectVersion
1070
     0
1000
AcDbSavedByObjectVersion
1070
     0
1000
AcDbSavedByObjectVersion
1070
     0
1000
AcDbSavedByObjectVersion
1070
     0
1000
AcDbSavedByObjectVersion
1070
     0
1000
AcDbSavedByObjectVersion
1070
     0
1000
AcDbSavedByObjectVersion
1070
     0
1000
AcDbSavedByObjectVersion
1070
     0
1000
AcDbSavedByObjectVersion
1070
     0
1000
AcDbSavedByObjectVersion
1070
     0
1000
AcDbSavedByObjectVersion
1070
     0
1000
AcDbSavedByObjectVersion
1070
     0
1000
AcDbSavedByObjectVersion
1070
     0
1000
AcDbSavedByObjectVersion
1070
     0
1000
AcDbSavedByObjectVersion
1070
     0
1000
AcDbSavedByObjectVersion
1070
     0
1000
AcDbSavedByObjectVersion
1070
     0
1000
AcDbSavedByObjectVersion
1070
     0
1000
AcDbSavedByObjectVersion
1070
     0
1000
AcDbSavedByObjectVersion
1070
     0
1000
AcDbSavedByObjectVersion
1070
     0
1000
AcDbSavedByObjectVersion
1070
     0
1000
AcDbSavedByObjectVersion
1070
     0
1000
AcDbSavedByObjectVersion
1070
     0
1000
AcDbSavedByObjectVersion
1070
     0
1000
AcDbSavedByObjectVersion
1070
     0
1000
AcDbSavedByObjectVersion
1070
     0
1000
AcDbSavedByObjectVersion
1070
     0
1000
AcDbSavedByObjectVersion
1070
     0
1000
AcDbSavedByObjectVersion
1070
     0
1000
AcDbSavedByObjectVersion
1070
     0
1000
AcDbSavedByObjectVersion
1070
     0
1000
AcDbSavedByObjectVersion
1070
     0
1000
AcDbSavedByObjectVersion
1070
     0
1000
AcDbSavedByObjectVersion
1070
     0
1000
AcDbSavedByObjectVersion
1070
     0
1000
AcDbSavedByObjectVersion
1070
     0
1000
AcDbSavedByObjectVersion
1070
     0
1000
AcDbSavedByObjectVersion
1070
     0
1000
AcDbSavedByObjectVersion
1070
     0
1000
AcDbSavedByObjectVersion
1070
     0
1000
AcDbSavedByObjectVersion
1070
     0
1000
AcDbSavedByObjectVersion
1070
     0
1000
AcDbSavedByObjectVersion
1070
     0
1000
AcDbSavedByObjectVersion
1070
     0
1000
AcDbSavedByObjectVersion
1070
     0
1000
AcDbSavedByObjectVersion
1070
     0
1000
AcDbSavedByObjectVersion
1070
     0
  0
VISUALSTYLE
  5
37
102
{ACAD_REACTORS
330
2A
102
}
330
2A
100
AcDbVisualStyle
  2
Thicken
 70
    13
 71
     2
 72
     2
 73
     0
 90
        0
 40
-0.6
 41
-30.0
 62
     5
 63
     7
 74
     1
 91
        4
 64
     7
 65
   257
 75
     1
175
     1
 42
1.0
 92
       12
 66
     7
 43
1.0
 76
     1
 77
     6
 78
     2
 67
     7
 79
     5
170
     0
171
     0
290
     0
174
     0
 93
        1
 44
0.0
173
     0
291
     1
 45
0.0
1001
ACAD
1000
AcDbSavedByObjectVersion
1070
     0
1000
AcDbSavedByObjectVersion
1070
     0
1000
AcDbSavedByObjectVersion
1070
     0
1000
AcDbSavedByObjectVersion
1070
     0
1000
AcDbSavedByObjectVersion
1070
     0
1000
AcDbSavedByObjectVersion
1070
     0
1000
AcDbSavedByObjectVersion
1070
     0
1000
AcDbSavedByObjectVersion
1070
     0
1000
AcDbSavedByObjectVersion
1070
     0
1000
AcDbSavedByObjectVersion
1070
     0
1000
AcDbSavedByObjectVersion
1070
     0
1000
AcDbSavedByObjectVersion
1070
     0
1000
AcDbSavedByObjectVersion
1070
     0
1000
AcDbSavedByObjectVersion
1070
     0
1000
AcDbSavedByObjectVersion
1070
     0
1000
AcDbSavedByObjectVersion
1070
     0
1000
AcDbSavedByObjectVersion
1070
     0
1000
AcDbSavedByObjectVersion
1070
     0
1000
AcDbSavedByObjectVersion
1070
     0
1000
AcDbSavedByObjectVersion
1070
     0
1000
AcDbSavedByObjectVersion
1070
     0
1000
AcDbSavedByObjectVersion
1070
     0
1000
AcDbSavedByObjectVersion
1070
     0
1000
AcDbSavedByObjectVersion
1070
     0
1000
AcDbSavedByObjectVersion
1070
     0
1000
AcDbSavedByObjectVersion
1070
     0
1000
AcDbSavedByObjectVersion
1070
     0
1000
AcDbSavedByObjectVersion
1070
     0
1000
AcDbSavedByObjectVersion
1070
     0
1000
AcDbSavedByObjectVersion
1070
     0
1000
AcDbSavedByObjectVersion
1070
     0
1000
AcDbSavedByObjectVersion
1070
     0
1000
AcDbSavedByObjectVersion
1070
     0
1000
AcDbSavedByObjectVersion
1070
     0
1000
AcDbSavedByObjectVersion
1070
     0
1000
AcDbSavedByObjectVersion
1070
     0
1000
AcDbSavedByObjectVersion
1070
     0
1000
AcDbSavedByObjectVersion
1070
     0
1000
AcDbSavedByObjectVersion
1070
     0
1000
AcDbSavedByObjectVersion
1070
     0
1000
AcDbSavedByObjectVersion
1070
     0
1000
AcDbSavedByObjectVersion
1070
     0
1000
AcDbSavedByObjectVersion
1070
     0
1000
AcDbSavedByObjectVersion
1070
     0
1000
AcDbSavedByObjectVersion
1070
     0
1000
AcDbSavedByObjectVersion
1070
     0
1000
AcDbSavedByObjectVersion
1070
     0
1000
AcDbSavedByObjectVersion
1070
     0
1000
AcDbSavedByObjectVersion
1070
     0
1000
AcDbSavedByObjectVersion
1070
     0
1000
AcDbSavedByObjectVersion
1070
     0
1000
AcDbSavedByObjectVersion
1070
     0
1000
AcDbSavedByObjectVersion
1070
     0
1000
AcDbSavedByObjectVersion
1070
     0
1000
AcDbSavedByObjectVersion
1070
     0
1000
AcDbSavedByObjectVersion
1070
     0
1000
AcDbSavedByObjectVersion
1070
     0
1000
AcDbSavedByObjectVersion
1070
     0
1000
AcDbSavedByObjectVersion
1070
     0
1000
AcDbSavedByObjectVersion
1070
     0
1000
AcDbSavedByObjectVersion
1070
     0
1000
AcDbSavedByObjectVersion
1070
     0
  0
DICTIONARYVAR
  5
510B
102
{ACAD_REACTORS
330
5108
102
}
330
5108
100
DictionaryVariables
280
     0
  1
1:1
  0
DICTIONARYVAR
  5
510A
102
{ACAD_REACTORS
330
5108
102
}
330
5108
100
DictionaryVariables
280
     0
  1
STANDARD
  0
DICTIONARYVAR
  5
5109
102
{ACAD_REACTORS
330
5108
102
}
330
5108
100
DictionaryVariables
280
     0
  1
STANDARD
  0
DICTIONARYVAR
  5
510E
102
{ACAD_REACTORS
330
5108
102
}
330
5108
100
DictionaryVariables
280
     0
  1
1
  0
DICTIONARYVAR
  5
510D
102
{ACAD_REACTORS
330
5108
102
}
330
5108
100
DictionaryVariables
280
     0
  1
0
  0
DICTIONARYVAR
  5
1C8A8
102
{ACAD_REACTORS
330
5108
102
}
330
5108
100
DictionaryVariables
280
     0
  1
0
  0
DICTIONARYVAR
  5
1C8A7
102
{ACAD_REACTORS
330
5108
102
}
330
5108
100
DictionaryVariables
280
     0
  1
0
  0
DICTIONARYVAR
  5
510C
102
{ACAD_REACTORS
330
5108
102
}
330
5108
100
DictionaryVariables
280
     0
  1
127
  0
XRECORD
  5
14144
102
{ACAD_REACTORS
330
14143
102
}
330
14143
100
AcDbXrecord
280
     1
330
0
  0
DICTIONARY
  5
4FEF
330
4FEE
100
AcDbDictionary
280
     1
281
     1
  3
ACAD_XREC_ROUNDTRIP
360
7C2C
  3
BUMPTILE
360
4FF1
  3
DIFFUSETILE
360
4FF0
  3
OPACITYTILE
360
4FF4
  3
REFLECTIONTILE
360
4FF3
  3
REFRACTIONTILE
360
4FF5
  3
SPECULARTILE
360
4FF2
  0
DICTIONARY
  5
4FE7
330
4FE6
100
AcDbDictionary
280
     1
281
     1
  3
ACAD_XREC_ROUNDTRIP
360
7C2B
  3
BUMPTILE
360
4FE9
  3
DIFFUSETILE
360
4FE8
  3
OPACITYTILE
360
4FEC
  3
REFLECTIONTILE
360
4FEB
  3
REFRACTIONTILE
360
4FED
  3
SPECULARTILE
360
4FEA
  0
DICTIONARY
  5
4FF7
330
4FF6
100
AcDbDictionary
280
     1
281
     1
  3
ACAD_XREC_ROUNDTRIP
360
7C2D
  3
BUMPTILE
360
4FF9
  3
DIFFUSETILE
360
4FF8
  3
OPACITYTILE
360
4FFC
  3
REFLECTIONTILE
360
4FFB
  3
REFRACTIONTILE
360
4FFD
  3
SPECULARTILE
360
4FFA
  0
DICTIONARY
  5
50D6
330
4FFF
100
AcDbDictionary
280
     1
281
     1
  3
ACAD_ROUNDTRIP_2008_TABLESTYLE_CELLSTYLEMAP
360
1C8B6
  0
XRECORD
  5
7C2C
102
{ACAD_REACTORS
330
4FEF
102
}
330
4FEF
100
AcDbXrecord
280
     1
102
MATERIAL
148
0.0
149
0.0
149
0.0
 93
        0
 94
      127
282
     0
 72
     0
 77
     0
171
     0
175
     0
179
     0
273
     0
  0
XRECORD
  5
4FF1
102
{ACAD_REACTORS
330
4FEF
102
}
330
4FEF
100
AcDbXrecord
280
     1
270
     1
271
     1
  0
XRECORD
  5
4FF0
102
{ACAD_REACTORS
330
4FEF
102
}
330
4FEF
100
AcDbXrecord
280
     1
270
     1
271
     1
  0
XRECORD
  5
4FF4
102
{ACAD_REACTORS
330
4FEF
102
}
330
4FEF
100
AcDbXrecord
280
     1
270
     1
271
     1
  0
XRECORD
  5
4FF3
102
{ACAD_REACTORS
330
4FEF
102
}
330
4FEF
100
AcDbXrecord
280
     1
270
     1
271
     1
  0
XRECORD
  5
4FF5
102
{ACAD_REACTORS
330
4FEF
102
}
330
4FEF
100
AcDbXrecord
280
     1
270
     1
271
     1
  0
XRECORD
  5
4FF2
102
{ACAD_REACTORS
330
4FEF
102
}
330
4FEF
100
AcDbXrecord
280
     1
270
     1
271
     1
  0
XRECORD
  5
7C2B
102
{ACAD_REACTORS
330
4FE7
102
}
330
4FE7
100
AcDbXrecord
280
     1
102
MATERIAL
148
0.0
149
0.0
149
0.0
 93
        0
 94
      127
282
     0
 72
     0
 77
     0
171
     0
175
     0
179
     0
273
     0
  0
XRECORD
  5
4FE9
102
{ACAD_REACTORS
330
4FE7
102
}
330
4FE7
100
AcDbXrecord
280
     1
270
     1
271
     1
  0
XRECORD
  5
4FE8
102
{ACAD_REACTORS
330
4FE7
102
}
330
4FE7
100
AcDbXrecord
280
     1
270
     1
271
     1
  0
XRECORD
  5
4FEC
102
{ACAD_REACTORS
330
4FE7
102
}
330
4FE7
100
AcDbXrecord
280
     1
270
     1
271
     1
  0
XRECORD
  5
4FEB
102
{ACAD_REACTORS
330
4FE7
102
}
330
4FE7
100
AcDbXrecord
280
     1
270
     1
271
     1
  0
XRECORD
  5
4FED
102
{ACAD_REACTORS
330
4FE7
102
}
330
4FE7
100
AcDbXrecord
280
     1
270
     1
271
     1
  0
XRECORD
  5
4FEA
102
{ACAD_REACTORS
330
4FE7
102
}
330
4FE7
100
AcDbXrecord
280
     1
270
     1
271
     1
  0
XRECORD
  5
7C2D
102
{ACAD_REACTORS
330
4FF7
102
}
330
4FF7
100
AcDbXrecord
280
     1
102
MATERIAL
148
0.0
149
0.0
149
0.0
 93
        0
 94
      127
282
     0
 72
     0
 77
     0
171
     0
175
     0
179
     0
273
     0
  0
XRECORD
  5
4FF9
102
{ACAD_REACTORS
330
4FF7
102
}
330
4FF7
100
AcDbXrecord
280
     1
270
     1
271
     1
  0
XRECORD
  5
4FF8
102
{ACAD_REACTORS
330
4FF7
102
}
330
4FF7
100
AcDbXrecord
280
     1
270
     1
271
     1
  0
XRECORD
  5
4FFC
102
{ACAD_REACTORS
330
4FF7
102
}
330
4FF7
100
AcDbXrecord
280
     1
270
     1
271
     1
  0
XRECORD
  5
4FFB
102
{ACAD_REACTORS
330
4FF7
102
}
330
4FF7
100
AcDbXrecord
280
     1
270
     1
271
     1
  0
XRECORD
  5
4FFD
102
{ACAD_REACTORS
330
4FF7
102
}
330
4FF7
100
AcDbXrecord
280
     1
270
     1
271
     1
  0
XRECORD
  5
4FFA
102
{ACAD_REACTORS
330
4FF7
102
}
330
4FF7
100
AcDbXrecord
280
     1
270
     1
271
     1
  0
CELLSTYLEMAP
  5
1C8B6
102
{ACAD_REACTORS
330
50D6
102
}
330
50D6
100
AcDbCellStyleMap
 90
        3
300
CELLSTYLE
  1
TABLEFORMAT_BEGIN
 90
        5
170
     1
 91
        0
 92
    32768
 62
   257
 93
        1
300
CONTENTFORMAT
  1
CONTENTFORMAT_BEGIN
 90
        0
 91
        0
 92
      512
 93
        0
300

 40
0.0
140
1.0
 94
        5
 62
     0
340
11
144
0.25
309
CONTENTFORMAT_END
171
     1
301
MARGIN
  1
CELLMARGIN_BEGIN
 40
0.06
 40
0.06
 40
0.06
 40
0.06
 40
0.18
 40
0.18
309
CELLMARGIN_END
 94
        6
 95
        1
302
GRIDFORMAT
  1
GRIDFORMAT_BEGIN
 90
        0
 91
        1
 62
     0
 92
       -2
340
0
 93
        0
 40
0.045
309
GRIDFORMAT_END
 95
        2
302
GRIDFORMAT
  1
GRIDFORMAT_BEGIN
 90
        0
 91
        1
 62
     0
 92
       -2
340
0
 93
        0
 40
0.045
309
GRIDFORMAT_END
 95
        4
302
GRIDFORMAT
  1
GRIDFORMAT_BEGIN
 90
        0
 91
        1
 62
     0
 92
       -2
340
0
 93
        0
 40
0.045
309
GRIDFORMAT_END
 95
        8
302
GRIDFORMAT
  1
GRIDFORMAT_BEGIN
 90
        0
 91
        1
 62
     0
 92
       -2
340
0
 93
        0
 40
0.045
309
GRIDFORMAT_END
 95
       16
302
GRIDFORMAT
  1
GRIDFORMAT_BEGIN
 90
        0
 91
        1
 62
     0
 92
       -2
340
0
 93
        0
 40
0.045
309
GRIDFORMAT_END
 95
       32
302
GRIDFORMAT
  1
GRIDFORMAT_BEGIN
 90
        0
 91
        1
 62
     0
 92
       -2
340
0
 93
        0
 40
0.045
309
GRIDFORMAT_END
309
TABLEFORMAT_END
  1
CELLSTYLE_BEGIN
 90
        1
 91
        1
300
_TITLE
309
CELLSTYLE_END
300
CELLSTYLE
  1
TABLEFORMAT_BEGIN
 90
        5
170
     1
 91
        0
 92
        0
 62
   257
 93
        1
300
CONTENTFORMAT
  1
CONTENTFORMAT_BEGIN
 90
        0
 91
        0
 92
      512
 93
        0
300

 40
0.0
140
1.0
 94
        5
 62
     0
340
11
144
0.18
309
CONTENTFORMAT_END
171
     1
301
MARGIN
  1
CELLMARGIN_BEGIN
 40
0.06
 40
0.06
 40
0.06
 40
0.06
 40
0.18
 40
0.18
309
CELLMARGIN_END
 94
        6
 95
        1
302
GRIDFORMAT
  1
GRIDFORMAT_BEGIN
 90
        0
 91
        1
 62
     0
 92
       -2
340
0
 93
        0
 40
0.045
309
GRIDFORMAT_END
 95
        2
302
GRIDFORMAT
  1
GRIDFORMAT_BEGIN
 90
        0
 91
        1
 62
     0
 92
       -2
340
0
 93
        0
 40
0.045
309
GRIDFORMAT_END
 95
        4
302
GRIDFORMAT
  1
GRIDFORMAT_BEGIN
 90
        0
 91
        1
 62
     0
 92
       -2
340
0
 93
        0
 40
0.045
309
GRIDFORMAT_END
 95
        8
302
GRIDFORMAT
  1
GRIDFORMAT_BEGIN
 90
        0
 91
        1
 62
     0
 92
       -2
340
0
 93
        0
 40
0.045
309
GRIDFORMAT_END
 95
       16
302
GRIDFORMAT
  1
GRIDFORMAT_BEGIN
 90
        0
 91
        1
 62
     0
 92
       -2
340
0
 93
        0
 40
0.045
309
GRIDFORMAT_END
 95
       32
302
GRIDFORMAT
  1
GRIDFORMAT_BEGIN
 90
        0
 91
        1
 62
     0
 92
       -2
340
0
 93
        0
 40
0.045
309
GRIDFORMAT_END
309
TABLEFORMAT_END
  1
CELLSTYLE_BEGIN
 90
        2
 91
        1
300
_HEADER
309
CELLSTYLE_END
300
CELLSTYLE
  1
TABLEFORMAT_BEGIN
 90
        5
170
     1
 91
        0
 92
        0
 62
   257
 93
        1
300
CONTENTFORMAT
  1
CONTENTFORMAT_BEGIN
 90
        0
 91
        0
 92
      512
 93
        0
300

 40
0.0
140
1.0
 94
        2
 62
     0
340
11
144
0.18
309
CONTENTFORMAT_END
171
     1
301
MARGIN
  1
CELLMARGIN_BEGIN
 40
0.06
 40
0.06
 40
0.06
 40
0.06
 40
0.18
 40
0.18
309
CELLMARGIN_END
 94
        6
 95
        1
302
GRIDFORMAT
  1
GRIDFORMAT_BEGIN
 90
        0
 91
        1
 62
     0
 92
       -2
340
0
 93
        0
 40
0.045
309
GRIDFORMAT_END
 95
        2
302
GRIDFORMAT
  1
GRIDFORMAT_BEGIN
 90
        0
 91
        1
 62
     0
 92
       -2
340
0
 93
        0
 40
0.045
309
GRIDFORMAT_END
 95
        4
302
GRIDFORMAT
  1
GRIDFORMAT_BEGIN
 90
        0
 91
        1
 62
     0
 92
       -2
340
0
 93
        0
 40
0.045
309
GRIDFORMAT_END
 95
        8
302
GRIDFORMAT
  1
GRIDFORMAT_BEGIN
 90
        0
 91
        1
 62
     0
 92
       -2
340
0
 93
        0
 40
0.045
309
GRIDFORMAT_END
 95
       16
302
GRIDFORMAT
  1
GRIDFORMAT_BEGIN
 90
        0
 91
        1
 62
     0
 92
       -2
340
0
 93
        0
 40
0.045
309
GRIDFORMAT_END
 95
       32
302
GRIDFORMAT
  1
GRIDFORMAT_BEGIN
 90
        0
 91
        1
 62
     0
 92
       -2
340
0
 93
        0
 40
0.045
309
GRIDFORMAT_END
309
TABLEFORMAT_END
  1
CELLSTYLE_BEGIN
 90
        3
 91
        2
300
_DATA
309
CELLSTYLE_END
  0
ENDSEC
  0
EOF
