  0
SECTION
  2
HEADER
  9
$ACADVER
  1
AC1021
  9
$ACADMAINTVER
 70
    25
  9
$DWGCODEPAGE
  3
ANSI_936
  9
$LASTSAVEDBY
  1
zb.ye
  9
$INSBASE
 10
0.0
 20
0.0
 30
0.0
  9
$EXTMIN
 10
362.1913288019441
 20
184.5317611943767
 30
-0.0000000349181948
  9
$EXTMAX
 10
510.7901595154102
 20
289.5841011132693
 30
0.0000000814935746
  9
$LIMMIN
 10
0.0
 20
0.0
  9
$LIMMAX
 10
12.0
 20
9.0
  9
$ORTHOMODE
 70
     0
  9
$REGENMODE
 70
     1
  9
$FILLMODE
 70
     1
  9
$QTEXTMODE
 70
     0
  9
$MIRRTEXT
 70
     1
  9
$LTSCALE
 40
1.0
  9
$ATTMODE
 70
     1
  9
$TEXTSIZE
 40
0.2
  9
$TRACEWID
 40
0.05
  9
$TEXTSTYLE
  7
Standard
  9
$CLAYER
  8
0
  9
$CELTYPE
  6
ByLayer
  9
$CECOLOR
 62
   256
  9
$CELTSCALE
 40
1.0
  9
$DISPSILH
 70
     0
  9
$DIMSCALE
 40
1.0
  9
$DIMASZ
 40
1.0
  9
$DIMEXO
 40
0.2
  9
$DIMDLI
 40
0.2
  9
$DIMRND
 40
0.0
  9
$DIMDLE
 40
0.0
  9
$DIMEXE
 40
0.5
  9
$DIMTP
 40
0.0
  9
$DIMTM
 40
0.0
  9
$DIMTXT
 40
1.5
  9
$DIMCEN
 40
0.0
  9
$DIMTSZ
 40
0.0
  9
$DIMTOL
 70
     0
  9
$DIMLIM
 70
     0
  9
$DIMTIH
 70
     0
  9
$DIMTOH
 70
     0
  9
$DIMSE1
 70
     0
  9
$DIMSE2
 70
     0
  9
$DIMTAD
 70
     1
  9
$DIMZIN
 70
     8
  9
$DIMBLK
  1

  9
$DIMASO
 70
     1
  9
$DIMSHO
 70
     1
  9
$DIMPOST
  1

  9
$DIMAPOST
  1

  9
$DIMALT
 70
     0
  9
$DIMALTD
 70
     2
  9
$DIMALTF
 40
25.4
  9
$DIMLFAC
 40
1.0
  9
$DIMTOFL
 70
     0
  9
$DIMTVP
 40
0.0
  9
$DIMTIX
 70
     0
  9
$DIMSOXD
 70
     0
  9
$DIMSAH
 70
     0
  9
$DIMBLK1
  1

  9
$DIMBLK2
  1

  9
$DIMSTYLE
  2
01
  9
$DIMCLRD
 70
     1
  9
$DIMCLRE
 70
     6
  9
$DIMCLRT
 70
     4
  9
$DIMTFAC
 40
1.0
  9
$DIMGAP
 40
0.5
  9
$DIMJUST
 70
     0
  9
$DIMSD1
 70
     0
  9
$DIMSD2
 70
     0
  9
$DIMTOLJ
 70
     1
  9
$DIMTZIN
 70
     0
  9
$DIMALTZ
 70
     0
  9
$DIMALTTZ
 70
     0
  9
$DIMUPT
 70
     0
  9
$DIMDEC
 70
     1
  9
$DIMTDEC
 70
     1
  9
$DIMALTU
 70
     2
  9
$DIMALTTD
 70
     2
  9
$DIMTXSTY
  7
Romans字体
  9
$DIMAUNIT
 70
     0
  9
$DIMADEC
 70
     2
  9
$DIMALTRND
 40
0.0
  9
$DIMAZIN
 70
     2
  9
$DIMDSEP
 70
    46
  9
$DIMATFIT
 70
     3
  9
$DIMFRAC
 70
     0
  9
$DIMLDRBLK
  1

  9
$DIMLUNIT
 70
     2
  9
$DIMLWD
 70
    -2
  9
$DIMLWE
 70
    -2
  9
$DIMTMOVE
 70
     0
  9
$DIMFXL
 40
1.0
  9
$DIMFXLON
 70
     0
  9
$DIMJOGANG
 40
0.7853981633974483
  9
$DIMTFILL
 70
     0
  9
$DIMTFILLCLR
 70
     0
  9
$DIMARCSYM
 70
     0
  9
$DIMLTYPE
  6

  9
$DIMLTEX1
  6

  9
$DIMLTEX2
  6

  9
$LUNITS
 70
     2
  9
$LUPREC
 70
     4
  9
$SKETCHINC
 40
0.1
  9
$FILLETRAD
 40
0.5
  9
$AUNITS
 70
     0
  9
$AUPREC
 70
     0
  9
$MENU
  1
.
  9
$ELEVATION
 40
0.0
  9
$PELEVATION
 40
0.0
  9
$THICKNESS
 40
0.0
  9
$LIMCHECK
 70
     0
  9
$CHAMFERA
 40
0.5
  9
$CHAMFERB
 40
0.5
  9
$CHAMFERC
 40
1.0
  9
$CHAMFERD
 40
0.0
  9
$SKPOLY
 70
     0
  9
$TDCREATE
 40
2456524.383632987
  9
$TDUCREATE
 40
2456524.050299653
  9
$TDUPDATE
 40
2460293.717105243
  9
$TDUUPDATE
 40
2460293.383771910
  9
$TDINDWG
 40
1.1808804745
  9
$TDUSRTIMER
 40
1.1808607060
  9
$USRTIMER
 70
     1
  9
$ANGBASE
 50
0.0
  9
$ANGDIR
 70
     0
  9
$PDMODE
 70
     0
  9
$PDSIZE
 40
0.0
  9
$PLINEWID
 40
0.0
  9
$SPLFRAME
 70
     0
  9
$SPLINETYPE
 70
     6
  9
$SPLINESEGS
 70
     8
  9
$HANDSEED
  5
147E1
  9
$SURFTAB1
 70
     6
  9
$SURFTAB2
 70
     6
  9
$SURFTYPE
 70
     6
  9
$SURFU
 70
     6
  9
$SURFV
 70
     6
  9
$UCSBASE
  2

  9
$UCSNAME
  2

  9
$UCSORG
 10
0.0
 20
0.0
 30
0.0
  9
$UCSXDIR
 10
1.0
 20
0.0
 30
0.0
  9
$UCSYDIR
 10
0.0
 20
1.0
 30
0.0
  9
$UCSORTHOREF
  2

  9
$UCSORTHOVIEW
 70
     0
  9
$UCSORGTOP
 10
0.0
 20
0.0
 30
0.0
  9
$UCSORGBOTTOM
 10
0.0
 20
0.0
 30
0.0
  9
$UCSORGLEFT
 10
0.0
 20
0.0
 30
0.0
  9
$UCSORGRIGHT
 10
0.0
 20
0.0
 30
0.0
  9
$UCSORGFRONT
 10
0.0
 20
0.0
 30
0.0
  9
$UCSORGBACK
 10
0.0
 20
0.0
 30
0.0
  9
$PUCSBASE
  2

  9
$PUCSNAME
  2

  9
$PUCSORG
 10
0.0
 20
0.0
 30
0.0
  9
$PUCSXDIR
 10
1.0
 20
0.0
 30
0.0
  9
$PUCSYDIR
 10
0.0
 20
1.0
 30
0.0
  9
$PUCSORTHOREF
  2

  9
$PUCSORTHOVIEW
 70
     0
  9
$PUCSORGTOP
 10
0.0
 20
0.0
 30
0.0
  9
$PUCSORGBOTTOM
 10
0.0
 20
0.0
 30
0.0
  9
$PUCSORGLEFT
 10
0.0
 20
0.0
 30
0.0
  9
$PUCSORGRIGHT
 10
0.0
 20
0.0
 30
0.0
  9
$PUCSORGFRONT
 10
0.0
 20
0.0
 30
0.0
  9
$PUCSORGBACK
 10
0.0
 20
0.0
 30
0.0
  9
$USERI1
 70
     0
  9
$USERI2
 70
     0
  9
$USERI3
 70
     0
  9
$USERI4
 70
     0
  9
$USERI5
 70
     0
  9
$USERR1
 40
0.0
  9
$USERR2
 40
0.0
  9
$USERR3
 40
0.0
  9
$USERR4
 40
0.0
  9
$USERR5
 40
0.0
  9
$WORLDVIEW
 70
     1
  9
$SHADEDGE
 70
     3
  9
$SHADEDIF
 70
    70
  9
$TILEMODE
 70
     1
  9
$MAXACTVP
 70
    64
  9
$PINSBASE
 10
0.0
 20
0.0
 30
0.0
  9
$PLIMCHECK
 70
     0
  9
$PEXTMIN
 10
1.000000000000000E+20
 20
1.000000000000000E+20
 30
1.000000000000000E+20
  9
$PEXTMAX
 10
-1.000000000000000E+20
 20
-1.000000000000000E+20
 30
-1.000000000000000E+20
  9
$PLIMMIN
 10
0.0
 20
0.0
  9
$PLIMMAX
 10
12.0
 20
9.0
  9
$UNITMODE
 70
     0
  9
$VISRETAIN
 70
     1
  9
$PLINEGEN
 70
     0
  9
$PSLTSCALE
 70
     1
  9
$TREEDEPTH
 70
  3020
  9
$CMLSTYLE
  2
Standard
  9
$CMLJUST
 70
     0
  9
$CMLSCALE
 40
1.0
  9
$PROXYGRAPHICS
 70
     1
  9
$MEASUREMENT
 70
     0
  9
$CELWEIGHT
370
    -1
  9
$ENDCAPS
280
     0
  9
$JOINSTYLE
280
     0
  9
$LWDISPLAY
290
     0
  9
$INSUNITS
 70
     4
  9
$HYPERLINKBASE
  1

  9
$STYLESHEET
  1
MONOCHROME.CTB
  9
$XEDIT
290
     1
  9
$CEPSNTYPE
380
     0
  9
$PSTYLEMODE
290
     1
  9
$FINGERPRINTGUID
  2
{4A02065B-8BB3-4A96-9036-502DC906C165}
  9
$VERSIONGUID
  2
{285AB6A1-45F1-4287-B473-5C91BD81D40B}
  9
$EXTNAMES
290
     1
  9
$PSVPSCALE
 40
0.0
  9
$OLESTARTUP
290
     0
  9
$SORTENTS
280
   127
  9
$INDEXCTL
280
     0
  9
$HIDETEXT
280
     0
  9
$XCLIPFRAME
290
     0
  9
$HALOGAP
280
     0
  9
$OBSCOLOR
 70
   257
  9
$OBSLTYPE
280
     0
  9
$INTERSECTIONDISPLAY
280
     0
  9
$INTERSECTIONCOLOR
 70
   257
  9
$DIMASSOC
280
     1
  9
$PROJECTNAME
  1

  9
$CAMERADISPLAY
290
     0
  9
$LENSLENGTH
 40
50.0
  9
$CAMERAHEIGHT
 40
0.0
  9
$STEPSPERSEC
 40
2.0
  9
$STEPSIZE
 40
6.0
  9
$3DDWFPREC
 40
2.0
  9
$PSOLWIDTH
 40
0.25
  9
$PSOLHEIGHT
 40
4.0
  9
$LOFTANG1
 40
1.570796326794896
  9
$LOFTANG2
 40
1.570796326794896
  9
$LOFTMAG1
 40
0.0
  9
$LOFTMAG2
 40
0.0
  9
$LOFTPARAM
 70
     7
  9
$LOFTNORMALS
280
     1
  9
$LATITUDE
 40
37.795
  9
$LONGITUDE
 40
-122.394
  9
$NORTHDIRECTION
 40
0.0
  9
$TIMEZONE
 70
 -8000
  9
$LIGHTGLYPHDISPLAY
280
     1
  9
$TILEMODELIGHTSYNCH
280
     1
  9
$CMATERIAL
347
4FE6
  9
$SOLIDHIST
280
     1
  9
$SHOWHIST
280
     1
  9
$DWFFRAME
280
     2
  9
$DGNFRAME
280
     0
  9
$REALWORLDSCALE
290
     1
  9
$INTERFERECOLOR
 62
     1
  9
$INTERFEREOBJVS
345
33
  9
$INTERFEREVPVS
346
30
  9
$CSHADOW
280
     0
  9
$SHADOWPLANELOCATION
 40
0.0
  0
ENDSEC
  0
SECTION
  2
CLASSES
  0
CLASS
  1
ACDBDICTIONARYWDFLT
  2
AcDbDictionaryWithDefault
  3
ObjectDBX Classes
 90
        0
 91
        1
280
     0
281
     0
  0
CLASS
  1
VISUALSTYLE
  2
AcDbVisualStyle
  3
ObjectDBX Classes
 90
     4095
 91
       16
280
     0
281
     0
  0
CLASS
  1
MATERIAL
  2
AcDbMaterial
  3
ObjectDBX Classes
 90
     1153
 91
        3
280
     0
281
     0
  0
CLASS
  1
TABLESTYLE
  2
AcDbTableStyle
  3
ObjectDBX Classes
 90
     4095
 91
        1
280
     0
281
     0
  0
CLASS
  1
SCALE
  2
AcDbScale
  3
ObjectDBX Classes
 90
     1153
 91
       33
280
     0
281
     0
  0
CLASS
  1
MLEADERSTYLE
  2
AcDbMLeaderStyle
  3
ACDB_MLEADERSTYLE_CLASS
 90
     4095
 91
        1
280
     0
281
     0
  0
CLASS
  1
CELLSTYLEMAP
  2
AcDbCellStyleMap
  3
ObjectDBX Classes
 90
     1152
 91
        2
280
     0
281
     0
  0
CLASS
  1
DICTIONARYVAR
  2
AcDbDictionaryVar
  3
ObjectDBX Classes
 90
        0
 91
        8
280
     0
281
     0
  0
CLASS
  1
SORTENTSTABLE
  2
AcDbSortentsTable
  3
ObjectDBX Classes
 90
        0
 91
        1
280
     0
281
     0
  0
CLASS
  1
ACAD_EVALUATION_GRAPH
  2
AcDbEvalGraph
  3
ObjectDBX Classes
 90
     1153
 91
        1
280
     0
281
     0
  0
CLASS
  1
ACAECUSTOBJ
  2
AcAeEditorObj
  3
AcAeEditorObj
 90
     1024
 91
        1
280
     0
281
     0
  0
CLASS
  1
ACDB_DYNAMICBLOCKPURGEPREVENTER_VERSION
  2
AcDbDynamicBlockPurgePreventer
  3
ObjectDBX Classes
 90
     1153
 91
        1
280
     0
281
     0
  0
CLASS
  1
MENTALRAYRENDERSETTINGS
  2
AcDbMentalRayRenderSettings
  3
SCENEOE
 90
     1024
 91
        1
280
     0
281
     0
  0
CLASS
  1
ACDB_BLOCKREPRESENTATION_DATA
  2
AcDbBlockRepresentationData
  3
ObjectDBX Classes
 90
     1153
 91
        0
280
     0
281
     0
  0
CLASS
  1
DIMASSOC
  2
AcDbDimAssoc
  3
"AcDbDimAssoc|Product Desc:     AcDim ARX App For Dimension|Company:          Autodesk, Inc.|WEB Address:      www.autodesk.com"
 90
        0
 91
        3
280
     0
281
     0
  0
ENDSEC
  0
SECTION
  2
TABLES
  0
TABLE
  2
VPORT
  5
8
102
{ACAD_XDICTIONARY
360
50EE
102
}
330
0
100
AcDbSymbolTable
 70
     1
  0
VPORT
  5
29
330
8
100
AcDbSymbolTableRecord
100
AcDbViewportTableRecord
  2
*Active
 70
     0
 10
0.0
 20
0.0
 11
1.0
 21
1.0
 12
331.5252472867686
 22
88.55570038522518
 13
0.0
 23
0.0
 14
0.5
 24
0.5
 15
0.5
 25
0.5
 16
0.0
 26
0.0
 36
1.0
 17
104.9654968719086
 27
148.5022307685978
 37
0.0
 40
106.1170595802327
 41
2.426395939086294
 42
50.0
 43
0.0
 44
0.0
 50
0.0
 51
0.0
 71
     0
 72
   100
 73
     1
 74
     3
 75
     0
 76
     0
 77
     0
 78
     0
281
     0
 65
     1
110
0.0
120
0.0
130
0.0
111
1.0
121
0.0
131
0.0
112
0.0
122
1.0
132
0.0
 79
     0
146
0.0
348
2F
 60
     3
 61
     5
292
     1
282
     1
141
0.0
142
0.0
 63
   250
421
  3355443
  0
ENDTAB
  0
TABLE
  2
LTYPE
  5
5
330
0
100
AcDbSymbolTable
 70
     2
  0
LTYPE
  5
14
330
5
100
AcDbSymbolTableRecord
100
AcDbLinetypeTableRecord
  2
ByBlock
 70
     0
  3

 72
    65
 73
     0
 40
0.0
  0
LTYPE
  5
15
330
5
100
AcDbSymbolTableRecord
100
AcDbLinetypeTableRecord
  2
ByLayer
 70
     0
  3

 72
    65
 73
     0
 40
0.0
  0
LTYPE
  5
16
330
5
100
AcDbSymbolTableRecord
100
AcDbLinetypeTableRecord
  2
Continuous
 70
     0
  3
Solid line
 72
    65
 73
     0
 40
0.0
  0
LTYPE
  5
67BA
330
5
100
AcDbSymbolTableRecord
100
AcDbLinetypeTableRecord
  2
CENTER
 70
     0
  3
Center ____ _ ____ _ ____ _ ____ _ ____ _ ____
 72
    65
 73
     4
 40
2.0
 49
1.25
 74
     0
 49
-0.25
 74
     0
 49
0.25
 74
     0
 49
-0.25
 74
     0
  0
ENDTAB
  0
TABLE
  2
LAYER
  5
2
102
{ACAD_XDICTIONARY
360
50B8
102
}
330
0
100
AcDbSymbolTable
 70
    10
  0
LAYER
  5
10
102
{ACAD_XDICTIONARY
360
50D0
102
}
330
2
100
AcDbSymbolTableRecord
100
AcDbLayerTableRecord
  2
0
 70
     0
 62
     7
  6
Continuous
370
    25
390
F
347
4FF6
  0
LAYER
  5
3B
102
{ACAD_XDICTIONARY
360
50D2
102
}
330
2
100
AcDbSymbolTableRecord
100
AcDbLayerTableRecord
  2
图层 1
 70
     0
 62
     7
  6
Continuous
370
    -3
390
F
347
4FF6
  0
LAYER
  5
50AE
102
{ACAD_XDICTIONARY
360
50AF
102
}
330
2
100
AcDbSymbolTableRecord
100
AcDbLayerTableRecord
  2
图框
 70
     0
 62
     7
  6
Continuous
370
    20
390
F
347
4FF6
  0
LAYER
  5
5141
330
2
100
AcDbSymbolTableRecord
100
AcDbLayerTableRecord
  2
Defpoints
 70
     0
 62
     7
  6
Continuous
290
     0
370
    -3
390
F
347
4FF6
  0
LAYER
  5
5144
330
2
100
AcDbSymbolTableRecord
100
AcDbLayerTableRecord
  2
DIM
 70
     0
 62
     3
  6
Continuous
370
    15
390
F
347
4FF6
1001
AcAecLayerStandard
1000

1000

  0
LAYER
  5
52F3
330
2
100
AcDbSymbolTableRecord
100
AcDbLayerTableRecord
  2
打标文字
 70
     0
 62
     3
  6
Continuous
370
    20
390
F
347
4FF6
  0
LAYER
  5
67B7
330
2
100
AcDbSymbolTableRecord
100
AcDbLayerTableRecord
  2
CEN
 70
     0
 62
     1
  6
CENTER
370
    15
390
F
347
4FF6
1001
AcAecLayerStandard
1000

1000

  0
LAYER
  5
11B6B
330
2
100
AcDbSymbolTableRecord
100
AcDbLayerTableRecord
  2
hat
 70
     0
 62
     6
  6
Continuous
370
    15
390
F
347
4FF6
1001
AcAecLayerStandard
1000

1000

  0
LAYER
  5
11B6D
330
2
100
AcDbSymbolTableRecord
100
AcDbLayerTableRecord
  2
文本
 70
     0
 62
     4
  6
Continuous
370
    25
390
11B6F
347
4FF6
  0
LAYER
  5
142F8
330
2
100
AcDbSymbolTableRecord
100
AcDbLayerTableRecord
  2
02___PRT_ALL_AXES
 70
     0
 62
     7
  6
Continuous
370
    -3
390
F
347
4FF6
  0
ENDTAB
  0
TABLE
  2
STYLE
  5
3
330
0
100
AcDbSymbolTable
 70
     4
  0
STYLE
  5
11
330
3
100
AcDbSymbolTableRecord
100
AcDbTextStyleTableRecord
  2
Standard
 70
     0
 40
0.0
 41
0.75
 50
0.0
 71
     0
 42
0.2
  3
SIMFANG.TTF
  4

1001
ACAD
1000
FangSong_GB2312
1071
    34353
  0
STYLE
  5
FD48
330
3
100
AcDbSymbolTableRecord
100
AcDbTextStyleTableRecord
  2
Romans字体
 70
     0
 40
0.0
 41
0.75
 50
0.0
 71
     0
 42
0.2
  3
romans.shx
  4

  0
STYLE
  5
11080
330
3
100
AcDbSymbolTableRecord
100
AcDbTextStyleTableRecord
  2
工程字
 70
     0
 40
0.0
 41
1.0
 50
0.0
 71
     0
 42
3.5
  3
gbenor.shx
  4
gbcbig.shx
  0
STYLE
  5
11081
330
3
100
AcDbSymbolTableRecord
100
AcDbTextStyleTableRecord
  2
Chinese
 70
     0
 40
0.0
 41
1.0
 50
0.0
 71
     0
 42
2.5
  3
PMingLiU.ttf
  4

1001
ACAD
1000
PMingLiU
1071
    34834
  0
ENDTAB
  0
TABLE
  2
VIEW
  5
6
330
0
100
AcDbSymbolTable
 70
     0
  0
ENDTAB
  0
TABLE
  2
UCS
  5
7
330
0
100
AcDbSymbolTable
 70
     0
  0
ENDTAB
  0
TABLE
  2
APPID
  5
9
330
0
100
AcDbSymbolTable
 70
    17
  0
APPID
  5
12
330
9
100
AcDbSymbolTableRecord
100
AcDbRegAppTableRecord
  2
ACAD
 70
     0
  0
APPID
  5
5024
330
9
100
AcDbSymbolTableRecord
100
AcDbRegAppTableRecord
  2
ACAD_MLEADERVER
 70
     0
  0
APPID
  5
50B5
330
9
100
AcDbSymbolTableRecord
100
AcDbRegAppTableRecord
  2
AcDbDynamicBlockGUID
 70
     0
  0
APPID
  5
50B6
330
9
100
AcDbSymbolTableRecord
100
AcDbRegAppTableRecord
  2
AcDbBlockRepETag
 70
     0
  0
APPID
  5
50B7
330
9
100
AcDbSymbolTableRecord
100
AcDbRegAppTableRecord
  2
ACAD_PSEXT
 70
     0
  0
APPID
  5
50CF
330
9
100
AcDbSymbolTableRecord
100
AcDbRegAppTableRecord
  2
AcadAnnoPO
 70
     0
  0
APPID
  5
5146
330
9
100
AcDbSymbolTableRecord
100
AcDbRegAppTableRecord
  2
AcAecLayerStandard
 70
     0
  0
APPID
  5
5147
330
9
100
AcDbSymbolTableRecord
100
AcDbRegAppTableRecord
  2
ACAD_DSTYLE_DIMJAG
 70
     0
  0
APPID
  5
5148
330
9
100
AcDbSymbolTableRecord
100
AcDbRegAppTableRecord
  2
ACAD_DSTYLE_DIMTALN
 70
     0
  0
APPID
  5
52AD
330
9
100
AcDbSymbolTableRecord
100
AcDbRegAppTableRecord
  2
ACAUTHENVIRON
 70
     0
  0
APPID
  5
52B0
330
9
100
AcDbSymbolTableRecord
100
AcDbRegAppTableRecord
  2
AcDbDynamicBlockTrueName
 70
     0
  0
APPID
  5
67C6
330
9
100
AcDbSymbolTableRecord
100
AcDbRegAppTableRecord
  2
ACAD_EXEMPT_FROM_CAD_STANDARDS
 70
     0
  0
APPID
  5
6838
330
9
100
AcDbSymbolTableRecord
100
AcDbRegAppTableRecord
  2
ACAD_NAV_VCDISPLAY
 70
     0
  0
APPID
  5
70A9
330
9
100
AcDbSymbolTableRecord
100
AcDbRegAppTableRecord
  2
DCO15
 70
     0
  0
APPID
  5
8725
330
9
100
AcDbSymbolTableRecord
100
AcDbRegAppTableRecord
  2
AcDbBlockRepBTag
 70
     0
  0
APPID
  5
FE64
330
9
100
AcDbSymbolTableRecord
100
AcDbRegAppTableRecord
  2
ACAD_DSTYLE_DIMRADIAL_EXTENSION
 70
     0
  0
APPID
  5
FF93
330
9
100
AcDbSymbolTableRecord
100
AcDbRegAppTableRecord
  2
ACAD_DSTYLE_DIMBREAK
 70
     0
  0
ENDTAB
  0
TABLE
  2
DIMSTYLE
  5
A
330
0
100
AcDbSymbolTable
 70
     2
100
AcDbDimStyleTable
 71
     2
340
5145
340
27
  0
DIMSTYLE
105
27
330
A
100
AcDbSymbolTableRecord
100
AcDbDimStyleTableRecord
  2
Standard
 70
     0
340
11
  0
DIMSTYLE
105
5145
102
{ACAD_REACTORS
330
143E4
330
143EB
330
143E5
330
143D4
330
143F6
330
143C0
102
}
330
A
100
AcDbSymbolTableRecord
100
AcDbDimStyleTableRecord
  2
01
 70
     0
 41
1.0
 42
0.2
 43
0.2
 44
0.5
 73
     0
 74
     0
 77
     1
 78
     8
 79
     2
140
1.5
141
0.0
147
0.5
176
     1
177
     6
178
     4
179
     2
271
     1
272
     1
340
FD48
1001
ACAD_DSTYLE_DIMJAG
1070
   388
1040
1.5
1001
ACAD_DSTYLE_DIMTALN
1070
   392
1070
     0
  0
ENDTAB
  0
TABLE
  2
BLOCK_RECORD
  5
1
330
0
100
AcDbSymbolTable
 70
    21
  0
BLOCK_RECORD
  5
1F
102
{ACAD_XDICTIONARY
360
67C0
102
}
330
1
100
AcDbSymbolTableRecord
100
AcDbBlockTableRecord
  2
*Model_Space
340
22
 70
     0
280
     1
281
     0
  0
BLOCK_RECORD
  5
1B
330
1
100
AcDbSymbolTableRecord
100
AcDbBlockTableRecord
  2
*Paper_Space
340
1E
 70
     0
280
     1
281
     0
  0
BLOCK_RECORD
  5
23
330
1
100
AcDbSymbolTableRecord
100
AcDbBlockTableRecord
  2
*Paper_Space0
340
26
 70
     0
280
     1
281
     0
  0
BLOCK_RECORD
  5
12C64
330
1
100
AcDbSymbolTableRecord
100
AcDbBlockTableRecord
  2
*D1
340
0
 70
     0
280
     1
281
     0
  0
BLOCK_RECORD
  5
12C70
330
1
100
AcDbSymbolTableRecord
100
AcDbBlockTableRecord
  2
*D2
340
0
 70
     0
280
     1
281
     0
  0
BLOCK_RECORD
  5
12C85
330
1
100
AcDbSymbolTableRecord
100
AcDbBlockTableRecord
  2
*D3
340
0
 70
     0
280
     1
281
     0
  0
BLOCK_RECORD
  5
12C91
330
1
100
AcDbSymbolTableRecord
100
AcDbBlockTableRecord
  2
*D4
340
0
 70
     0
280
     1
281
     0
  0
BLOCK_RECORD
  5
12C9E
330
1
100
AcDbSymbolTableRecord
100
AcDbBlockTableRecord
  2
*D5
340
0
 70
     0
280
     1
281
     0
  0
BLOCK_RECORD
  5
12CB4
330
1
100
AcDbSymbolTableRecord
100
AcDbBlockTableRecord
  2
*D6
340
0
 70
     0
280
     1
281
     0
  0
BLOCK_RECORD
  5
13E17
102
{ACAD_XDICTIONARY
360
147BF
102
}
330
1
100
AcDbSymbolTableRecord
100
AcDbBlockTableRecord
  2
A4图框-NEW
340
0
310
2800000020000000200000000100080000000000000400000000000000000000000000000000000000000000000080000080000000808000800000008000800080800000C0C0C000C0DCC000F0CAA6000020400000206000002080000020A0000020C0000020E00000400000004020000040400000406000004080000040A0
310
000040C0000040E00000600000006020000060400000606000006080000060A0000060C0000060E00000800000008020000080400000806000008080000080A0000080C0000080E00000A0000000A0200000A0400000A0600000A0800000A0A00000A0C00000A0E00000C0000000C0200000C0400000C0600000C0800000C0
310
A00000C0C00000C0E00000E0000000E0200000E0400000E0600000E0800000E0A00000E0C00000E0E00040000000400020004000400040006000400080004000A0004000C0004000E00040200000402020004020400040206000402080004020A0004020C0004020E000404000004040200040404000404060004040800040
310
40A0004040C0004040E00040600000406020004060400040606000406080004060A0004060C0004060E00040800000408020004080400040806000408080004080A0004080C0004080E00040A0000040A0200040A0400040A0600040A0800040A0A00040A0C00040A0E00040C0000040C0200040C0400040C0600040C08000
310
40C0A00040C0C00040C0E00040E0000040E0200040E0400040E0600040E0800040E0A00040E0C00040E0E00080000000800020008000400080006000800080008000A0008000C0008000E00080200000802020008020400080206000802080008020A0008020C0008020E00080400000804020008040400080406000804080
310
008040A0008040C0008040E00080600000806020008060400080606000806080008060A0008060C0008060E00080800000808020008080400080806000808080008080A0008080C0008080E00080A0000080A0200080A0400080A0600080A0800080A0A00080A0C00080A0E00080C0000080C0200080C0400080C0600080C0
310
800080C0A00080C0C00080C0E00080E0000080E0200080E0400080E0600080E0800080E0A00080E0C00080E0E000C0000000C0002000C0004000C0006000C0008000C000A000C000C000C000E000C0200000C0202000C0204000C0206000C0208000C020A000C020C000C020E000C0400000C0402000C0404000C0406000C0
310
408000C040A000C040C000C040E000C0600000C0602000C0604000C0606000C0608000C060A000C060C000C060E000C0800000C0802000C0804000C0806000C0808000C080A000C080C000C080E000C0A00000C0A02000C0A04000C0A06000C0A08000C0A0A000C0A0C000C0A0E000C0C00000C0C02000C0C04000C0C06000
310
C0C08000C0C0A000F0FBFF00A4A0A000808080000000FF0000FF000000FFFF00FF000000FF00FF00FFFF0000FFFFFF0000000000000000000000000000000000000000000000000000000000000000000000000000000000000000000000000000000000000000000000000000000000000000000000000000000000000000
310
000000000000000000000000000000000000000000000000000000000000000000000000000000000000000000000000000000000000000000000000000000000000000000000000000000000000000000000000000000000000000000000000000000000000000000000000000000000000F9F9F9F9F9F9F9F9F9F9F9F9F9
310
F9F9F9F9F9F9F9F9F9F9F9F9F9F9FF00000000F9FF000000000000000000FFFFFFFFFFFFFFFFFFFFFFFFF9FAFAFAFF00000000F9FF000000000000000000FFFFFFFFFFFFFFFFFFFFFFFFFFFFFFFFFF00000000F9FD000000000000000000FFFFFFFFFFFFFFFFFFFFFFFFFFFFFFFFFF00000000F9FF000000000000000000FF
310
FFFFFFFFFFFFFFFFFFFFFFFFFFFFFFFF00000000F9FD000000000000000000FFFFFFFFFFFFFFFFFFFFFFFFFFFFFFFFFF00000000F9FF00000000000000000000000000000000000000000000000000FF00000000F9FD00000000000000000000000000000000000000000000000000FF00000000F9FF000000000000000000
310
00000000000000000000000000000000FF00000000F9FD00000000000000000000000000000000000000000000000000FF00000000F9FF00000000000000000000000000000000000000000000000000FF00000000F9FD00000000000000000000000000000000000000000000000000FF00000000F9FD0000000000000000
310
0000000000000000000000000000000000FF00000000F9FF00000000000000000000000000000000000000000000000000FF00000000F9FD00000000000000000000000000000000000000000000000000FF00000000F9FF00000000000000000000000000000000000000000000000000FF00000000F9FD00000000000000
310
000000000000000000000000000000000000FF00000000F9FF00000000000000000000000000000000000000000000000000FF00000000F9FFFFFFFFFFFFFFFFFFFFFFFFFFFFFFFFFFFFFFFFFFFFFFFFFFFFFF00000000F9FFFFFFF9F9F9F9F9F9F9F9F9F9F9F9F9F9F9F9F9F9F9F9F9F9F9F9000000000000000000000000
310
00000000000000000000000000000000000000000000000000000000000000000000000000000000000000000000000000000000000000000000000000000000000000000000000000000000000000000000000000000000000000000000000000000000000000000000000000000000000000000000000000000000000000
310
0000000000000000000000000000000000000000000000000000000000000000000000000000000000000000000000000000000000000000
102
{BLKREFS
331
13EBE
102
}
 70
     4
280
     1
281
     0
1001
AcDbDynamicBlockGUID
1000
{4BBAC757-E8A7-4A6C-A6D6-4EAD8A902E0C}
1001
AcDbBlockRepETag
1070
     1
1071
      149
  0
BLOCK_RECORD
  5
142AA
330
1
100
AcDbSymbolTableRecord
100
AcDbBlockTableRecord
  2
*D8
340
0
 70
     0
280
     1
281
     0
  0
BLOCK_RECORD
  5
142B7
330
1
100
AcDbSymbolTableRecord
100
AcDbBlockTableRecord
  2
*D9
340
0
 70
     0
280
     1
281
     0
  0
BLOCK_RECORD
  5
142C4
330
1
100
AcDbSymbolTableRecord
100
AcDbBlockTableRecord
  2
*D10
340
0
 70
     0
280
     1
281
     0
  0
BLOCK_RECORD
  5
142D1
330
1
100
AcDbSymbolTableRecord
100
AcDbBlockTableRecord
  2
*D11
340
0
 70
     0
280
     1
281
     0
  0
BLOCK_RECORD
  5
142DE
330
1
100
AcDbSymbolTableRecord
100
AcDbBlockTableRecord
  2
*D12
340
0
 70
     0
280
     1
281
     0
  0
BLOCK_RECORD
  5
142EB
330
1
100
AcDbSymbolTableRecord
100
AcDbBlockTableRecord
  2
*D13
340
0
 70
     0
280
     1
281
     0
  0
BLOCK_RECORD
  5
1441C
330
1
100
AcDbSymbolTableRecord
100
AcDbBlockTableRecord
  2
*D14
340
0
 70
     0
280
     1
281
     0
  0
BLOCK_RECORD
  5
14428
330
1
100
AcDbSymbolTableRecord
100
AcDbBlockTableRecord
  2
*D15
340
0
 70
     0
280
     1
281
     0
  0
BLOCK_RECORD
  5
14435
330
1
100
AcDbSymbolTableRecord
100
AcDbBlockTableRecord
  2
*D16
340
0
 70
     0
280
     1
281
     0
  0
BLOCK_RECORD
  5
1444A
330
1
100
AcDbSymbolTableRecord
100
AcDbBlockTableRecord
  2
*D17
340
0
 70
     0
280
     1
281
     0
  0
BLOCK_RECORD
  5
14460
330
1
100
AcDbSymbolTableRecord
100
AcDbBlockTableRecord
  2
*D18
340
0
 70
     0
280
     1
281
     0
  0
BLOCK_RECORD
  5
14476
330
1
100
AcDbSymbolTableRecord
100
AcDbBlockTableRecord
  2
*D19
340
0
 70
     0
280
     1
281
     0
  0
ENDTAB
  0
ENDSEC
  0
SECTION
  2
BLOCKS
  0
BLOCK
  5
20
330
1F
100
AcDbEntity
  8
0
100
AcDbBlockBegin
  2
*Model_Space
 70
     0
 10
0.0
 20
0.0
 30
0.0
  3
*Model_Space
  1

  0
ENDBLK
  5
21
330
1F
100
AcDbEntity
  8
0
100
AcDbBlockEnd
  0
BLOCK
  5
1C
330
1B
100
AcDbEntity
 67
     1
  8
0
100
AcDbBlockBegin
  2
*Paper_Space
 70
     0
 10
0.0
 20
0.0
 30
0.0
  3
*Paper_Space
  1

  0
ENDBLK
  5
1D
330
1B
100
AcDbEntity
 67
     1
  8
0
100
AcDbBlockEnd
  0
BLOCK
  5
24
330
23
100
AcDbEntity
 67
     1
  8
0
100
AcDbBlockBegin
  2
*Paper_Space0
 70
     0
 10
0.0
 20
0.0
 30
0.0
  3
*Paper_Space0
  1

  0
ENDBLK
  5
25
330
23
100
AcDbEntity
 67
     1
  8
0
100
AcDbBlockEnd
  0
BLOCK
  5
12C65
330
12C64
100
AcDbEntity
  8
0
100
AcDbBlockBegin
  2
*D1
 70
     1
 10
0.0
 20
0.0
 30
0.0
  3
*D1
  1

  0
LINE
  5
1450E
330
12C64
100
AcDbEntity
  8
DIM
 62
     6
370
    -2
100
AcDbLine
 10
412.5155926693641
 20
238.4136002705516
 30
0.0
 11
407.0272650947232
 21
238.4136002705516
 31
0.0
  0
LINE
  5
1450F
330
12C64
100
AcDbEntity
  8
DIM
 62
     6
370
    -2
100
AcDbLine
 10
412.5155926693641
 20
233.9136002700613
 30
0.0
 11
407.0272650947232
 21
233.9136002700613
 31
0.0
  0
LINE
  5
14510
330
12C64
100
AcDbEntity
  8
DIM
 62
     1
370
    -2
100
AcDbLine
 10
407.5272650947232
 20
237.4136002705516
 30
0.0
 11
407.5272650947232
 21
234.9136002700613
 31
0.0
  0
SOLID
  5
14511
330
12C64
100
AcDbEntity
  8
DIM
 62
     1
100
AcDbTrace
 10
407.3605984280566
 20
237.4136002705516
 30
0.0
 11
407.6939317613898
 21
237.4136002705516
 31
0.0
 12
407.5272650947232
 22
238.4136002705516
 32
0.0
 13
407.5272650947232
 23
238.4136002705516
 33
0.0
  0
SOLID
  5
14512
330
12C64
100
AcDbEntity
  8
DIM
 62
     1
100
AcDbTrace
 10
407.3605984280566
 20
234.9136002700613
 30
0.0
 11
407.6939317613898
 21
234.9136002700613
 31
0.0
 12
407.5272650947232
 22
233.9136002700613
 32
0.0
 13
407.5272650947232
 23
233.9136002700613
 33
0.0
  0
MTEXT
  5
14513
330
12C64
100
AcDbEntity
  8
DIM
 62
     4
100
AcDbMText
 10
406.2772650947231
 20
236.1636002703065
 30
0.0
 40
1.5
 41
0.0
 46
0.0
 71
     5
 72
     1
  1
\A1;%%C4.5
  7
Romans字体
 11
0.0000000000000001
 21
1.0
 31
0.0
 73
     1
 44
1.0
  0
POINT
  5
14514
330
12C64
100
AcDbEntity
  8
Defpoints
 62
     0
100
AcDbPoint
 10
412.7155926693641
 20
238.4136002705516
 30
0.0
  0
POINT
  5
14515
330
12C64
100
AcDbEntity
  8
Defpoints
 62
     0
100
AcDbPoint
 10
412.7155926693641
 20
233.9136002700613
 30
0.0
  0
POINT
  5
14516
330
12C64
100
AcDbEntity
  8
Defpoints
 62
     0
100
AcDbPoint
 10
407.5272650947232
 20
233.9136002700613
 30
0.0
  0
ENDBLK
  5
12C66
330
12C64
100
AcDbEntity
  8
0
100
AcDbBlockEnd
  0
BLOCK
  5
12C71
330
12C70
100
AcDbEntity
  8
0
100
AcDbBlockBegin
  2
*D2
 70
     1
 10
0.0
 20
0.0
 30
0.0
  3
*D2
  1

  0
LINE
  5
14534
330
12C70
100
AcDbEntity
  8
DIM
 62
     6
370
    -2
100
AcDbLine
 10
412.7155926693641
 20
233.260510985133
 30
0.0
 11
412.7155926693641
 21
227.4903017713706
 31
0.0
  0
LINE
  5
14535
330
12C70
100
AcDbEntity
  8
DIM
 62
     6
370
    -2
100
AcDbLine
 10
420.2155926693373
 20
234.8386002710826
 30
0.0
 11
420.2155926693373
 21
227.4903017713706
 31
0.0
  0
LINE
  5
14536
330
12C70
100
AcDbEntity
  8
DIM
 62
     1
370
    -2
100
AcDbLine
 10
413.7155926693639
 20
227.9903017713706
 30
0.0
 11
419.2155926693373
 21
227.9903017713706
 31
0.0
  0
SOLID
  5
14537
330
12C70
100
AcDbEntity
  8
DIM
 62
     1
100
AcDbTrace
 10
413.7155926693639
 20
228.1569684380372
 30
0.0
 11
413.7155926693639
 21
227.8236351047039
 31
0.0
 12
412.7155926693641
 22
227.9903017713706
 32
0.0
 13
412.7155926693641
 23
227.9903017713706
 33
0.0
  0
SOLID
  5
14538
330
12C70
100
AcDbEntity
  8
DIM
 62
     1
100
AcDbTrace
 10
419.2155926693373
 20
228.1569684380372
 30
0.0
 11
419.2155926693373
 21
227.8236351047039
 31
0.0
 12
420.2155926693373
 22
227.9903017713706
 32
0.0
 13
420.2155926693373
 23
227.9903017713706
 33
0.0
  0
MTEXT
  5
14539
330
12C70
100
AcDbEntity
  8
DIM
 62
     4
100
AcDbMText
 10
416.4655926693506
 20
229.2403017713706
 30
0.0
 40
1.5
 41
0.0
 46
0.0
 71
     5
 72
     1
  1
\A1;7.5
  7
Romans字体
 73
     1
 44
1.0
  0
POINT
  5
1453A
330
12C70
100
AcDbEntity
  8
Defpoints
 62
     0
100
AcDbPoint
 10
412.7155926693641
 20
233.460510985133
 30
0.0
  0
POINT
  5
1453B
330
12C70
100
AcDbEntity
  8
Defpoints
 62
     0
100
AcDbPoint
 10
420.2155926693373
 20
235.0386002710826
 30
0.0
  0
POINT
  5
1453C
330
12C70
100
AcDbEntity
  8
Defpoints
 62
     0
100
AcDbPoint
 10
420.2155926693373
 20
227.9903017713706
 30
0.0
  0
ENDBLK
  5
12C72
330
12C70
100
AcDbEntity
  8
0
100
AcDbBlockEnd
  0
BLOCK
  5
12C86
330
12C85
100
AcDbEntity
  8
0
100
AcDbBlockBegin
  2
*D3
 70
     1
 10
0.0
 20
0.0
 30
0.0
  3
*D3
  1

  0
LINE
  5
14517
330
12C85
100
AcDbEntity
  8
DIM
 62
     6
370
    -2
100
AcDbLine
 10
437.7155926705341
 20
235.9636002709412
 30
0.0
 11
437.7155926705341
 21
224.575775548548
 31
0.0
  0
LINE
  5
14518
330
12C85
100
AcDbEntity
  8
DIM
 62
     6
370
    -2
100
AcDbLine
 10
412.7155926693641
 20
233.7136002700613
 30
0.0
 11
412.7155926693641
 21
224.575775548548
 31
0.0
  0
LINE
  5
14519
330
12C85
100
AcDbEntity
  8
DIM
 62
     1
370
    -2
100
AcDbLine
 10
436.7155926705341
 20
225.075775548548
 30
0.0
 11
413.7155926693639
 21
225.075775548548
 31
0.0
  0
SOLID
  5
1451A
330
12C85
100
AcDbEntity
  8
DIM
 62
     1
100
AcDbTrace
 10
436.7155926705341
 20
225.2424422152147
 30
0.0
 11
436.7155926705341
 21
224.9091088818814
 31
0.0
 12
437.7155926705341
 22
225.075775548548
 32
0.0
 13
437.7155926705341
 23
225.075775548548
 33
0.0
  0
SOLID
  5
1451B
330
12C85
100
AcDbEntity
  8
DIM
 62
     1
100
AcDbTrace
 10
413.7155926693639
 20
225.2424422152147
 30
0.0
 11
413.7155926693639
 21
224.9091088818814
 31
0.0
 12
412.7155926693641
 22
225.075775548548
 32
0.0
 13
412.7155926693641
 23
225.075775548548
 33
0.0
  0
MTEXT
  5
1451C
330
12C85
100
AcDbEntity
  8
DIM
 62
     4
100
AcDbMText
 10
425.2155926699491
 20
226.325775548548
 30
0.0
 40
1.5
 41
0.0
 46
0.0
 71
     5
 72
     1
  1
\A1;25
  7
Romans字体
 73
     1
 44
1.0
  0
POINT
  5
1451D
330
12C85
100
AcDbEntity
  8
Defpoints
 62
     0
100
AcDbPoint
 10
437.7155926705341
 20
236.1636002709412
 30
0.0
  0
POINT
  5
1451E
330
12C85
100
AcDbEntity
  8
Defpoints
 62
     0
100
AcDbPoint
 10
412.7155926693641
 20
233.9136002700613
 30
0.0
  0
POINT
  5
1451F
330
12C85
100
AcDbEntity
  8
Defpoints
 62
     0
100
AcDbPoint
 10
412.7155926693641
 20
225.075775548548
 30
0.0
  0
ENDBLK
  5
12C87
330
12C85
100
AcDbEntity
  8
0
100
AcDbBlockEnd
  0
BLOCK
  5
12C92
330
12C91
100
AcDbEntity
  8
0
100
AcDbBlockBegin
  2
*D4
 70
     1
 10
0.0
 20
0.0
 30
0.0
  3
*D4
  1

  0
LINE
  5
14520
330
12C91
100
AcDbEntity
  8
DIM
 62
     6
370
    -2
100
AcDbLine
 10
413.7713295035493
 20
237.2886002709522
 30
0.0
 11
410.4808532674292
 21
237.2886002709522
 31
0.0
  0
LINE
  5
14521
330
12C91
100
AcDbEntity
  8
DIM
 62
     6
370
    -2
100
AcDbLine
 10
413.7713295035996
 20
235.0386002709522
 30
0.0
 11
410.4808532674292
 21
235.0386002709522
 31
0.0
  0
LINE
  5
14522
330
12C91
100
AcDbEntity
  8
DIM
 62
     1
370
    -2
100
AcDbLine
 10
410.9808532674292
 20
238.2886002709522
 30
0.0
 11
410.9808532674292
 21
239.2886002709522
 31
0.0
  0
LINE
  5
14523
330
12C91
100
AcDbEntity
  8
DIM
 62
     1
370
    -2
100
AcDbLine
 10
410.9808532674292
 20
234.0386002709522
 30
0.0
 11
410.9808532674292
 21
233.0386002709522
 31
0.0
  0
SOLID
  5
14524
330
12C91
100
AcDbEntity
  8
DIM
 62
     1
100
AcDbTrace
 10
410.8141866007626
 20
238.2886002709522
 30
0.0
 11
411.1475199340958
 21
238.2886002709522
 31
0.0
 12
410.9808532674292
 22
237.2886002709522
 32
0.0
 13
410.9808532674292
 23
237.2886002709522
 33
0.0
  0
SOLID
  5
14525
330
12C91
100
AcDbEntity
  8
DIM
 62
     1
100
AcDbTrace
 10
410.8141866007626
 20
234.0386002709522
 30
0.0
 11
411.1475199340958
 21
234.0386002709522
 31
0.0
 12
410.9808532674292
 22
235.0386002709522
 32
0.0
 13
410.9808532674292
 23
235.0386002709522
 33
0.0
  0
MTEXT
  5
14526
330
12C91
100
AcDbEntity
  8
DIM
 62
     4
100
AcDbMText
 10
409.7308532674292
 20
236.1636002709522
 30
0.0
 40
1.5
 41
0.0
 46
0.0
 71
     5
 72
     1
  1
\A1;%%Cd
  7
Romans字体
 11
0.0000000000000001
 21
1.0
 31
0.0
 73
     1
 44
1.0
  0
POINT
  5
14527
330
12C91
100
AcDbEntity
  8
Defpoints
 62
     0
100
AcDbPoint
 10
413.9713295035493
 20
237.2886002709522
 30
0.0
  0
POINT
  5
14528
330
12C91
100
AcDbEntity
  8
Defpoints
 62
     0
100
AcDbPoint
 10
413.9713295035996
 20
235.0386002709522
 30
0.0
  0
POINT
  5
14529
330
12C91
100
AcDbEntity
  8
Defpoints
 62
     0
100
AcDbPoint
 10
410.9808532674292
 20
235.0386002709522
 30
0.0
  0
ENDBLK
  5
12C93
330
12C91
100
AcDbEntity
  8
0
100
AcDbBlockEnd
  0
BLOCK
  5
12C9F
330
12C9E
100
AcDbEntity
  8
0
100
AcDbBlockBegin
  2
*D5
 70
     1
 10
0.0
 20
0.0
 30
0.0
  3
*D5
  1

  0
LINE
  5
1452A
330
12C9E
100
AcDbEntity
  8
DIM
 62
     6
370
    -2
100
AcDbLine
 10
436.6655926699039
 20
237.4136002715712
 30
0.0
 11
443.1370968699607
 21
237.4136002715712
 31
0.0
  0
LINE
  5
1452B
330
12C9E
100
AcDbEntity
  8
DIM
 62
     6
370
    -2
100
AcDbLine
 10
436.6655926699039
 20
234.9136002703112
 30
0.0
 11
443.1370968699607
 21
234.9136002703112
 31
0.0
  0
LINE
  5
1452C
330
12C9E
100
AcDbEntity
  8
DIM
 62
     1
370
    -2
100
AcDbLine
 10
442.6370968699607
 20
238.4136002715712
 30
0.0
 11
442.6370968699607
 21
239.4136002715712
 31
0.0
  0
LINE
  5
1452D
330
12C9E
100
AcDbEntity
  8
DIM
 62
     1
370
    -2
100
AcDbLine
 10
442.6370968699607
 20
233.9136002703112
 30
0.0
 11
442.6370968699607
 21
228.4850288417398
 31
0.0
  0
SOLID
  5
1452E
330
12C9E
100
AcDbEntity
  8
DIM
 62
     1
100
AcDbTrace
 10
442.470430203294
 20
238.4136002715712
 30
0.0
 11
442.8037635366273
 21
238.4136002715712
 31
0.0
 12
442.6370968699607
 22
237.4136002715712
 32
0.0
 13
442.6370968699607
 23
237.4136002715712
 33
0.0
  0
SOLID
  5
1452F
330
12C9E
100
AcDbEntity
  8
DIM
 62
     1
100
AcDbTrace
 10
442.470430203294
 20
233.9136002703112
 30
0.0
 11
442.8037635366273
 21
233.9136002703112
 31
0.0
 12
442.6370968699607
 22
234.9136002703112
 32
0.0
 13
442.6370968699607
 23
234.9136002703112
 33
0.0
  0
MTEXT
  5
14530
330
12C9E
100
AcDbEntity
  8
DIM
 62
     4
100
AcDbMText
 10
441.3870968699606
 20
230.6993145560255
 30
0.0
 40
1.5
 41
0.0
 46
0.0
 71
     5
 72
     1
  1
\A1;{\Fromand,hztxt|c134;%%C}2.5
  7
Romans字体
 11
0.0000000000000001
 21
1.0
 31
0.0
 73
     1
 44
1.0
  0
POINT
  5
14531
330
12C9E
100
AcDbEntity
  8
Defpoints
 62
     0
100
AcDbPoint
 10
436.4655926699041
 20
237.4136002715712
 30
0.0
  0
POINT
  5
14532
330
12C9E
100
AcDbEntity
  8
Defpoints
 62
     0
100
AcDbPoint
 10
436.4655926699041
 20
234.9136002703112
 30
0.0
  0
POINT
  5
14533
330
12C9E
100
AcDbEntity
  8
Defpoints
 62
     0
100
AcDbPoint
 10
442.6370968699607
 20
234.9136002703112
 30
0.0
  0
ENDBLK
  5
12CA0
330
12C9E
100
AcDbEntity
  8
0
100
AcDbBlockEnd
  0
BLOCK
  5
12CB5
330
12CB4
100
AcDbEntity
  8
0
100
AcDbBlockBegin
  2
*D6
 70
     1
 10
0.0
 20
0.0
 30
0.0
  3
*D6
  1

  0
LINE
  5
1453D
330
12CB4
100
AcDbEntity
  8
DIM
 62
     6
370
    -2
100
AcDbLine
 10
416.495218805547
 20
234.4136002710129
 30
0.0
 11
415.7327022548138
 21
234.4136002710129
 31
0.0
  0
LINE
  5
1453E
330
12CB4
100
AcDbEntity
  8
DIM
 62
     6
370
    -2
100
AcDbLine
 10
417.0202188051275
 20
237.9136002710244
 30
0.0
 11
415.7327022548138
 21
237.9136002710244
 31
0.0
  0
LINE
  5
1453F
330
12CB4
100
AcDbEntity
  8
DIM
 62
     1
370
    -2
100
AcDbLine
 10
416.2327022548137
 20
235.4136002710129
 30
0.0
 11
416.2327022548137
 21
236.9136002710244
 31
0.0
  0
LINE
  5
14540
330
12CB4
100
AcDbEntity
  8
DIM
 62
     1
370
    -2
100
AcDbLine
 10
416.2327022548137
 20
237.9136002710244
 30
0.0
 11
416.2327022548137
 21
244.0386002710244
 31
0.0
  0
SOLID
  5
14541
330
12CB4
100
AcDbEntity
  8
DIM
 62
     1
100
AcDbTrace
 10
416.066035588147
 20
235.4136002710129
 30
0.0
 11
416.3993689214803
 21
235.4136002710129
 31
0.0
 12
416.2327022548137
 22
234.4136002710129
 32
0.0
 13
416.2327022548137
 23
234.4136002710129
 33
0.0
  0
SOLID
  5
14542
330
12CB4
100
AcDbEntity
  8
DIM
 62
     1
100
AcDbTrace
 10
416.066035588147
 20
236.9136002710244
 30
0.0
 11
416.3993689214803
 21
236.9136002710244
 31
0.0
 12
416.2327022548137
 22
237.9136002710244
 32
0.0
 13
416.2327022548137
 23
237.9136002710244
 33
0.0
  0
MTEXT
  5
14543
330
12CB4
100
AcDbEntity
  8
DIM
 62
     4
100
AcDbMText
 10
414.9827022548135
 20
242.6278859853102
 30
0.0
 40
1.5
 41
0.0
 46
0.0
 71
     5
 72
     1
  1
\A1;%%CD
  7
Romans字体
 11
0.0000000000000001
 21
1.0
 31
0.0
 73
     1
 44
1.0
  0
POINT
  5
14544
330
12CB4
100
AcDbEntity
  8
Defpoints
 62
     0
100
AcDbPoint
 10
416.695218805547
 20
234.4136002710129
 30
0.0
  0
POINT
  5
14545
330
12CB4
100
AcDbEntity
  8
Defpoints
 62
     0
100
AcDbPoint
 10
417.2202188051275
 20
237.9136002710244
 30
0.0
  0
POINT
  5
14546
330
12CB4
100
AcDbEntity
  8
Defpoints
 62
     0
100
AcDbPoint
 10
416.2327022548137
 20
237.9136002710244
 30
0.0
  0
ENDBLK
  5
12CB6
330
12CB4
100
AcDbEntity
  8
0
100
AcDbBlockEnd
  0
BLOCK
  5
13E19
330
13E17
100
AcDbEntity
  8
0
100
AcDbBlockBegin
  2
A4图框-NEW
 70
     0
 10
0.0
 20
0.0
 30
0.0
  3
A4图框-NEW
  1

  0
MTEXT
  5
1472A
102
{ACAD_XDICTIONARY
360
147C9
102
}
330
13E17
100
AcDbEntity
  8
图框
 62
     3
100
AcDbMText
 10
967.6594956750133
 20
499.7664151964293
 30
0.0
 40
2.985513575034151
 41
15.50176341157864
 46
6.292658374511018
 71
     5
 72
     5
  1
BQ LUO
  7
Romans字体
 73
     1
 44
1.0
1001
AcDbBlockRepETag
1070
     1
1071
        0
1005
1472A
1001
ACAD
1000
ACAD_MTEXT_DEFINED_HEIGHT_BEGIN
1070
    46
1040
6.292658374511018
1000
ACAD_MTEXT_DEFINED_HEIGHT_END
  0
MTEXT
  5
1472B
330
13E17
100
AcDbEntity
  8
图框
 62
     3
100
AcDbMText
 10
983.041569333247
 20
499.7664151964293
 30
0.0
 40
2.487927979195124
 41
15.26238390489062
 46
6.292658374511042
 71
     5
 72
     5
  1
{\W0.7;18.10.2010}
  7
Romans字体
 73
     1
 44
1.0
1001
AcDbBlockRepETag
1070
     1
1071
        1
1005
1472B
1001
ACAD
1000
ACAD_MTEXT_DEFINED_HEIGHT_BEGIN
1070
    46
1040
6.292658374511042
1000
ACAD_MTEXT_DEFINED_HEIGHT_END
  0
MTEXT
  5
1472C
330
13E17
100
AcDbEntity
  8
图框
 62
     3
100
AcDbMText
 10
1012.477254728976
 20
487.1810984474071
 30
0.0
 40
2.985513575034151
 41
17.64876416884615
 46
6.292658374511455
 71
     5
 72
     5
  1
YY LIN
  7
Romans字体
 73
     1
 44
1.0
1001
AcDbBlockRepETag
1070
     1
1071
        2
1005
1472C
1001
ACAD
1000
ACAD_MTEXT_DEFINED_HEIGHT_BEGIN
1070
    46
1040
6.292658374511455
1000
ACAD_MTEXT_DEFINED_HEIGHT_END
  0
MTEXT
  5
1472D
330
13E17
100
AcDbEntity
  8
图框
 62
     3
100
AcDbMText
 10
1028.977802139886
 20
487.1810984474071
 30
0.0
 40
2.487927979195124
 41
15.35233065297276
 46
6.292658374511495
 71
     5
 72
     5
  1
{\W0.7;18.10.2010}
  7
Romans字体
 73
     1
 44
1.0
1001
AcDbBlockRepETag
1070
     1
1071
        3
1005
1472D
1001
ACAD
1000
ACAD_MTEXT_DEFINED_HEIGHT_BEGIN
1070
    46
1040
6.292658374511495
1000
ACAD_MTEXT_DEFINED_HEIGHT_END
  0
MTEXT
  5
1472E
330
13E17
100
AcDbEntity
  8
图框
 62
     3
100
AcDbMText
 10
1063.722665487208
 20
525.4145966538831
 30
0.0
 40
2.985513575034151
 41
32.4973914334545
 46
11.82914190181707
 71
     5
 72
     5
  1
-
  7
Romans字体
 73
     1
 44
1.0
1001
AcDbBlockRepETag
1070
     1
1071
        4
1005
1472E
1001
ACAD
1000
ACAD_MTEXT_DEFINED_HEIGHT_BEGIN
1070
    46
1040
11.82914190181707
1000
ACAD_MTEXT_DEFINED_HEIGHT_END
  0
MTEXT
  5
1472F
330
13E17
100
AcDbEntity
  8
图框
 62
     3
100
AcDbMText
 10
1063.727338552349
 20
513.5854547520641
 30
0.0
 40
2.985513575034151
 41
32.48804530317308
 46
11.82914190182139
 71
     5
 72
     5
  1
-
  7
Romans字体
 73
     1
 44
1.0
1001
AcDbBlockRepETag
1070
     1
1071
        5
1005
1472F
1001
ACAD
1000
ACAD_MTEXT_DEFINED_HEIGHT_BEGIN
1070
    46
1040
11.82914190182139
1000
ACAD_MTEXT_DEFINED_HEIGHT_END
  0
MTEXT
  5
14730
330
13E17
100
AcDbEntity
  8
图框
 62
     3
100
AcDbMText
 10
1110.122306614152
 20
526.8006839312707
 30
0.0
 40
2.985513575034151
 41
33.61239199242139
 46
9.05696734704178
 71
     5
 72
     5
  1
-
  7
Romans字体
 73
     1
 44
1.0
1001
AcDbBlockRepETag
1070
     1
1071
        6
1005
14730
1001
ACAD
1000
ACAD_MTEXT_DEFINED_HEIGHT_BEGIN
1070
    46
1040
9.05696734704178
1000
ACAD_MTEXT_DEFINED_HEIGHT_END
  0
MTEXT
  5
14731
330
13E17
100
AcDbEntity
  8
图框
 62
     3
100
AcDbMText
 10
1110.122306614152
 20
500.2775205517162
 30
0.0
 40
2.985513575034151
 41
33.61239199242139
 46
8.871557304763419
 71
     5
 72
     5
  1
-
  7
Romans字体
 73
     1
 44
1.0
1001
AcDbBlockRepETag
1070
     1
1071
        7
1005
14731
1001
ACAD
1000
ACAD_MTEXT_DEFINED_HEIGHT_BEGIN
1070
    46
1040
8.871557304763419
1000
ACAD_MTEXT_DEFINED_HEIGHT_END
  0
MTEXT
  5
14732
330
13E17
100
AcDbEntity
  8
图框
 62
     3
100
AcDbMText
 10
967.6594956750133
 20
493.4737568219182
 30
0.0
 40
2.985513575034151
 41
15.50176341157864
 46
6.292658374510335
 71
     5
 72
     5
  1
P RAO
  7
Romans字体
 73
     1
 44
1.0
1001
AcDbBlockRepETag
1070
     1
1071
        8
1005
14732
1001
ACAD
1000
ACAD_MTEXT_DEFINED_HEIGHT_BEGIN
1070
    46
1040
6.292658374510335
1000
ACAD_MTEXT_DEFINED_HEIGHT_END
  0
MTEXT
  5
14733
330
13E17
100
AcDbEntity
  8
图框
 62
     3
100
AcDbMText
 10
983.041569333247
 20
493.2441970450405
 30
0.0
 40
2.487927979195124
 41
15.26238390489051
 46
6.751777928266487
 71
     5
 72
     5
  1
{\W0.7;18.10.2010}
  7
Romans字体
 73
     1
 44
1.0
1001
AcDbBlockRepETag
1070
     1
1071
        9
1005
14733
1001
ACAD
1000
ACAD_MTEXT_DEFINED_HEIGHT_BEGIN
1070
    46
1040
6.751777928266487
1000
ACAD_MTEXT_DEFINED_HEIGHT_END
  0
MTEXT
  5
14734
330
13E17
100
AcDbEntity
  8
图框
 62
     3
100
AcDbMText
 10
1012.477254728976
 20
499.7664151964291
 30
0.0
 40
2.985513575034151
 41
17.64876416884615
 46
6.292658374511397
 71
     5
 72
     5
  1
-
  7
Romans字体
 73
     1
 44
1.0
1001
AcDbBlockRepETag
1070
     1
1071
       10
1005
14734
1001
ACAD
1000
ACAD_MTEXT_DEFINED_HEIGHT_BEGIN
1070
    46
1040
6.292658374511397
1000
ACAD_MTEXT_DEFINED_HEIGHT_END
  0
MTEXT
  5
14735
330
13E17
100
AcDbEntity
  8
图框
 62
     3
100
AcDbMText
 10
1028.977802139886
 20
499.7664151964289
 30
0.0
 40
2.487927979195124
 41
15.35233065297265
 46
6.292658374511382
 71
     5
 72
     5
  1
-
  7
Romans字体
 73
     1
 44
1.0
1001
AcDbBlockRepETag
1070
     1
1071
       11
1005
14735
1001
ACAD
1000
ACAD_MTEXT_DEFINED_HEIGHT_BEGIN
1070
    46
1040
6.292658374511382
1000
ACAD_MTEXT_DEFINED_HEIGHT_END
  0
MTEXT
  5
14736
330
13E17
100
AcDbEntity
  8
图框
 62
     3
100
AcDbMText
 10
967.6594956750133
 20
487.1810984474071
 30
0.0
 40
2.985513575034151
 41
15.50176341157863
 46
6.292658374511478
 71
     5
 72
     5
  1
-
  7
Romans字体
 73
     1
 44
1.0
1001
AcDbBlockRepETag
1070
     1
1071
       12
1005
14736
1001
ACAD
1000
ACAD_MTEXT_DEFINED_HEIGHT_BEGIN
1070
    46
1040
6.292658374511478
1000
ACAD_MTEXT_DEFINED_HEIGHT_END
  0
MTEXT
  5
14737
330
13E17
100
AcDbEntity
  8
图框
 62
     3
100
AcDbMText
 10
983.041569333247
 20
487.1810984474071
 30
0.0
 40
2.487927979195124
 41
15.26238390489062
 46
6.292658374511495
 71
     5
 72
     5
  1
-
  7
Romans字体
 73
     1
 44
1.0
1001
AcDbBlockRepETag
1070
     1
1071
       13
1005
14737
1001
ACAD
1000
ACAD_MTEXT_DEFINED_HEIGHT_BEGIN
1070
    46
1040
6.292658374511495
1000
ACAD_MTEXT_DEFINED_HEIGHT_END
  0
MTEXT
  5
14738
330
13E17
100
AcDbEntity
  8
图框
 62
     3
100
AcDbMText
 10
1074.556686986741
 20
495.8417418993361
 30
0.0
 40
2.985513575034151
 41
10.82934843438978
 46
7.886094601210427
 71
     5
 72
     5
  1
-
  7
Romans字体
 73
     1
 44
1.0
1001
AcDbBlockRepETag
1070
     1
1071
       14
1005
14738
1001
ACAD
1000
ACAD_MTEXT_DEFINED_HEIGHT_BEGIN
1070
    46
1040
7.886094601210427
1000
ACAD_MTEXT_DEFINED_HEIGHT_END
  0
LINE
  5
14739
330
13E17
100
AcDbEntity
  8
图框
370
    -3
100
AcDbLine
 10
1036.653967466372
 20
499.7847891999413
 30
0.0
 11
1079.971361203936
 21
499.7847891999413
 31
0.0
1001
AcDbBlockRepETag
1070
     1
1071
       15
1005
14739
  0
MTEXT
  5
1473A
330
13E17
100
AcDbEntity
  8
图框
 62
     1
370
    20
100
AcDbMText
 10
1108.26336443907
 20
491.5162596080882
 30
0.0
 40
2.699054613030988
 41
82.30831305643079
 46
0.0
 71
     5
 72
     5
  1
{\fSimHei|b0|i0|c134|p2;厦门唯恩电气有限公司}
 73
     1
 44
1.0
1001
AcDbBlockRepETag
1070
     1
1071
       16
1005
1473A
  0
MTEXT
  5
1473B
330
13E17
100
AcDbEntity
  8
图框
 62
     3
370
    20
100
AcDbMText
 10
1108.435451459908
 20
487.298967726064
 30
0.0
 40
1.652482416141417
 41
68.08558693693567
 46
0.0
 71
     5
 72
     5
  1
{\fArial Narrow|b0|i0|c0|p34;XIAMEN WAIN ELECTRICAL CO.LTD}
  7
工程字
 73
     1
 44
1.0
1001
AcDbBlockRepETag
1070
     1
1071
       17
1005
1473B
  0
MTEXT
  5
1473C
330
13E17
100
AcDbEntity
  8
图框
 62
     1
370
    20
100
AcDbMText
 10
1085.711816899387
 20
491.0944802995856
 30
0.0
 40
2.005930044038334
 41
5.047240019334847
 46
0.0
 71
     1
 72
     5
  1
{\fArial|b0|i0|c0|p34;A}
  7
Chinese
 73
     1
 44
1.0
1001
AcDbBlockRepETag
1070
     1
1071
       18
1005
1473C
  0
MTEXT
  5
1473D
330
13E17
100
AcDbEntity
  8
图框
 62
     1
370
    20
100
AcDbMText
 10
1088.213485935716
 20
491.0944802995856
 30
0.0
 40
2.005930044038334
 41
5.047240019334847
 46
0.0
 71
     1
 72
     5
  1
{\fArial|b0|i0|c0|p34;I}
  7
Chinese
 73
     1
 44
1.0
1001
AcDbBlockRepETag
1070
     1
1071
       19
1005
1473D
  0
MTEXT
  5
1473E
330
13E17
100
AcDbEntity
  8
图框
 62
     1
370
    20
100
AcDbMText
 10
1089.142375222864
 20
491.0822866326808
 30
0.0
 40
2.005930044038334
 41
5.047240019334847
 46
0.0
 71
     1
 72
     5
  1
{\fArial|b0|i0|c0|p34;N}
  7
Chinese
 73
     1
 44
1.0
1001
AcDbBlockRepETag
1070
     1
1071
       20
1005
1473E
  0
MTEXT
  5
1473F
330
13E17
100
AcDbEntity
  8
图框
100
AcDbMText
 10
1069.142012769545
 20
487.9667319294409
 30
0.0
 40
2.252848170144607
 41
21.65869686878327
 46
7.863925338579296
 71
     5
 72
     5
  1
{\W0.5;\C1;All Dimensions in mm\POriginal Size DIN A 4}
  7
Romans字体
 73
     1
 44
1.0
1001
AcDbBlockRepETag
1070
     1
1071
       21
1005
1473F
1001
ACAD
1000
ACAD_MTEXT_DEFINED_HEIGHT_BEGIN
1070
    46
1040
7.863925338579296
1000
ACAD_MTEXT_DEFINED_HEIGHT_END
  0
MTEXT
  5
14740
330
13E17
100
AcDbEntity
  8
图框
  6
ByBlock
 62
     6
370
    18
100
AcDbMText
 10
1127.40434942308
 20
508.7896535755975
 30
0.0
 40
2.651776162684904
 41
2.557913877927211
 46
0.0
 71
     1
 72
     5
  1
A
  7
Romans字体
 11
0.0000000000000001
 21
1.0
 31
0.0
 73
     1
 44
1.0
1001
AcDbBlockRepETag
1070
     1
1071
       22
1005
14740
  0
MTEXT
  5
14741
330
13E17
100
AcDbEntity
  8
图框
 62
     6
100
AcDbMText
 10
1127.40434942308
 20
556.3746573232886
 30
0.0
 40
2.651776162684904
 41
2.557913877927211
 46
0.0
 71
     1
 72
     5
  1
B
  7
Romans字体
 11
0.0000000000000001
 21
1.0
 31
0.0
 73
     1
 44
1.0
1001
AcDbBlockRepETag
1070
     1
1071
       23
1005
14741
  0
MTEXT
  5
14742
330
13E17
100
AcDbEntity
  8
图框
 62
     6
100
AcDbMText
 10
1127.40434942308
 20
607.5539372630998
 30
0.0
 40
2.651776162684904
 41
2.557913877927211
 46
0.0
 71
     1
 72
     5
  1
C
  7
Romans字体
 11
0.0000000000000001
 21
1.0
 31
0.0
 73
     1
 44
1.0
1001
AcDbBlockRepETag
1070
     1
1071
       24
1005
14742
  0
MTEXT
  5
14743
330
13E17
100
AcDbEntity
  8
图框
 62
     6
100
AcDbMText
 10
1127.40434942308
 20
658.7332172029115
 30
0.0
 40
2.651776162684904
 41
2.557913877927211
 46
0.0
 71
     1
 72
     5
  1
D
  7
Romans字体
 11
0.0000000000000001
 21
1.0
 31
0.0
 73
     1
 44
1.0
1001
AcDbBlockRepETag
1070
     1
1071
       25
1005
14743
  0
LINE
  5
14744
330
13E17
100
AcDbEntity
  8
图框
 62
     6
100
AcDbLine
 10
1130.411601781241
 20
634.0726090796082
 30
0.0
 11
1126.928502610363
 21
634.0726090796082
 31
0.0
1001
AcDbBlockRepETag
1070
     1
1071
       26
1005
14744
  0
LINE
  5
14745
330
13E17
100
AcDbEntity
  8
图框
 62
     6
100
AcDbLine
 10
1130.411601781241
 20
582.89332913979
 30
0.0
 11
1126.928502610363
 21
582.89332913979
 31
0.0
1001
AcDbBlockRepETag
1070
     1
1071
       27
1005
14745
  0
MTEXT
  5
14746
330
13E17
100
AcDbEntity
  8
图框
 62
     6
100
AcDbMText
 10
1105.329704038389
 20
483.6164543011163
 30
0.0
 40
2.651776162684904
 41
2.557913877927211
 46
0.0
 71
     1
 72
     5
  1
6
  7
Romans字体
 73
     1
 44
1.0
1001
AcDbBlockRepETag
1070
     1
1071
       28
1005
14746
  0
LINE
  5
14747
330
13E17
100
AcDbEntity
  8
图框
 62
     6
100
AcDbLine
 10
1081.088565155284
 20
484.0347692601515
 30
0.0
 11
1081.088565155284
 21
480.5347692601475
 31
0.0
1001
AcDbBlockRepETag
1070
     1
1071
       29
1005
14747
  0
MTEXT
  5
14748
330
13E17
100
AcDbEntity
  8
图框
 62
     6
100
AcDbMText
 10
1055.900596365941
 20
483.520053108993
 30
0.0
 40
2.651776162684904
 41
2.557913877927211
 46
0.0
 71
     1
 72
     5
  1
5
  7
Romans字体
 73
     1
 44
1.0
1001
AcDbBlockRepETag
1070
     1
1071
       30
1005
14748
  0
LINE
  5
14749
330
13E17
100
AcDbEntity
  8
图框
 62
     6
100
AcDbLine
 10
1031.553386436349
 20
484.0347692601515
 30
0.0
 11
1031.553386436349
 21
480.5347692601475
 31
0.0
1001
AcDbBlockRepETag
1070
     1
1071
       31
1005
14749
  0
MTEXT
  5
1474A
330
13E17
100
AcDbEntity
  8
图框
 62
     6
100
AcDbMText
 10
1006.383180575197
 20
483.5687958215896
 30
0.0
 40
2.651776162684904
 41
2.557913877927211
 46
0.0
 71
     1
 72
     5
  1
4
  7
Romans字体
 73
     1
 44
1.0
1001
AcDbBlockRepETag
1070
     1
1071
       32
1005
1474A
  0
LINE
  5
1474B
330
13E17
100
AcDbEntity
  8
图框
 62
     6
100
AcDbLine
 10
982.0182077173887
 20
484.0347692601515
 30
0.0
 11
982.0182077173887
 21
480.5347692601475
 31
0.0
1001
AcDbBlockRepETag
1070
     1
1071
       33
1005
1474B
  0
MTEXT
  5
1474C
330
13E17
100
AcDbEntity
  8
图框
 62
     6
100
AcDbMText
 10
956.8302389280352
 20
483.5989680297948
 30
0.0
 40
2.651776162684904
 41
2.557913877927211
 46
0.0
 71
     1
 72
     5
  1
3
  7
Romans字体
 73
     1
 44
1.0
1001
AcDbBlockRepETag
1070
     1
1071
       34
1005
1474C
  0
LINE
  5
1474D
330
13E17
100
AcDbEntity
  8
图框
 62
     6
100
AcDbLine
 10
932.4830289984245
 20
484.0347692601515
 30
0.0
 11
932.4830289984245
 21
480.5347692601475
 31
0.0
1001
AcDbBlockRepETag
1070
     1
1071
       35
1005
1474D
  0
MTEXT
  5
1474E
330
13E17
100
AcDbEntity
  8
图框
 62
     6
100
AcDbMText
 10
906.0252349826365
 20
483.6475250013156
 30
0.0
 40
2.651776162684904
 41
2.557913877927211
 46
0.0
 71
     1
 72
     5
  1
2
  7
Romans字体
 73
     1
 44
1.0
1001
AcDbBlockRepETag
1070
     1
1071
       36
1005
1474E
  0
LINE
  5
1474F
330
13E17
100
AcDbEntity
  8
图框
 62
     6
100
AcDbLine
 10
882.9478502794648
 20
484.0347692601515
 30
0.0
 11
882.9478502794648
 21
480.5347692601475
 31
0.0
1001
AcDbBlockRepETag
1070
     1
1071
       37
1005
1474F
  0
MTEXT
  5
14750
330
13E17
100
AcDbEntity
  8
图框
 62
     6
100
AcDbMText
 10
857.7598814901191
 20
483.651829494754
 30
0.0
 40
2.651776162684904
 41
2.557913877927211
 46
0.0
 71
     1
 72
     5
  1
1
  7
Romans字体
 73
     1
 44
1.0
1001
AcDbBlockRepETag
1070
     1
1071
       38
1005
14750
  0
LINE
  5
14751
330
13E17
100
AcDbEntity
  8
图框
370
    50
100
AcDbLine
 10
836.8548209370597
 20
484.0347692601515
 30
0.0
 11
1126.928502610363
 21
484.0347692601515
 31
0.0
1001
AcDbBlockRepETag
1070
     1
1071
       39
1005
14751
  0
LINE
  5
14752
330
13E17
100
AcDbEntity
  8
图框
370
    50
100
AcDbLine
 10
836.9128518455362
 20
484.0178684310246
 30
0.0
 11
836.9128518455394
 21
675.0207195125422
 31
0.0
1001
AcDbBlockRepETag
1070
     1
1071
       40
1005
14752
  0
MTEXT
  5
14753
330
13E17
100
AcDbEntity
  8
图框
 62
     6
100
AcDbMText
 10
833.8475685789031
 20
658.7332172029115
 30
0.0
 40
2.651776162684904
 41
2.557913877927211
 46
0.0
 71
     1
 72
     5
  1
D
  7
Romans字体
 11
0.0000000000000001
 21
1.0
 31
0.0
 73
     1
 44
1.0
1001
AcDbBlockRepETag
1070
     1
1071
       41
1005
14753
  0
LINE
  5
14754
330
13E17
100
AcDbEntity
  8
图框
 62
     6
100
AcDbLine
 10
836.9128518455386
 20
634.0726090796082
 30
0.0
 11
833.4128518455365
 21
634.0726090796082
 31
0.0
1001
AcDbBlockRepETag
1070
     1
1071
       42
1005
14754
  0
MTEXT
  5
14755
330
13E17
100
AcDbEntity
  8
图框
 62
     6
100
AcDbMText
 10
833.9039177480142
 20
607.5539372630998
 30
0.0
 40
2.651776162684904
 41
2.557913877927211
 46
0.0
 71
     1
 72
     5
  1
C
  7
Romans字体
 11
0.0000000000000001
 21
1.0
 31
0.0
 73
     1
 44
1.0
1001
AcDbBlockRepETag
1070
     1
1071
       43
1005
14755
  0
LINE
  5
14756
330
13E17
100
AcDbEntity
  8
图框
 62
     6
100
AcDbLine
 10
836.9128518455378
 20
582.89332913979
 30
0.0
 11
833.4128518455365
 21
582.89332913979
 31
0.0
1001
AcDbBlockRepETag
1070
     1
1071
       44
1005
14756
  0
MTEXT
  5
14757
330
13E17
100
AcDbEntity
  8
图框
 62
     6
100
AcDbMText
 10
833.9039177480142
 20
556.3746573232886
 30
0.0
 40
2.651776162684904
 41
2.557913877927211
 46
0.0
 71
     1
 72
     5
  1
B
  7
Romans字体
 11
0.0000000000000001
 21
1.0
 31
0.0
 73
     1
 44
1.0
1001
AcDbBlockRepETag
1070
     1
1071
       45
1005
14757
  0
LINE
  5
14758
330
13E17
100
AcDbEntity
  8
图框
 62
     6
100
AcDbLine
 10
836.9128518455367
 20
531.714049199969
 30
0.0
 11
833.4128518455365
 21
531.714049199969
 31
0.0
1001
AcDbBlockRepETag
1070
     1
1071
       46
1005
14758
  0
MTEXT
  5
14759
330
13E17
100
AcDbEntity
  8
图框
 62
     6
100
AcDbMText
 10
833.9039177480142
 20
508.7896535755975
 30
0.0
 40
2.651776162684904
 41
2.557913877927211
 46
0.0
 71
     1
 72
     5
  1
A
  7
Romans字体
 11
0.0000000000000001
 21
1.0
 31
0.0
 73
     1
 44
1.0
1001
AcDbBlockRepETag
1070
     1
1071
       47
1005
14759
  0
LINE
  5
1475A
330
13E17
100
AcDbEntity
  8
图框
370
    -3
100
AcDbLine
 10
836.9128518455394
 20
675.0207195125422
 30
0.0
 11
836.9128518455394
 21
684.5021384922564
 31
0.0
1001
AcDbBlockRepETag
1070
     1
1071
       48
1005
1475A
  0
LINE
  5
1475B
330
13E17
100
AcDbEntity
  8
图框
370
    -3
100
AcDbLine
 10
842.6237321475781
 20
675.5347692601515
 30
0.0
 11
842.6237321475781
 21
685.0161882398658
 31
0.0
1001
AcDbBlockRepETag
1070
     1
1071
       49
1005
1475B
  0
LINE
  5
1475C
330
13E17
100
AcDbEntity
  8
图框
370
    -3
100
AcDbLine
 10
848.3346124496179
 20
675.5347692601515
 30
0.0
 11
848.3346124496179
 21
685.0161882398658
 31
0.0
1001
AcDbBlockRepETag
1070
     1
1071
       50
1005
1475C
  0
LINE
  5
1475D
330
13E17
100
AcDbEntity
  8
图框
370
    -3
100
AcDbLine
 10
854.0454927516588
 20
675.5347692601515
 30
0.0
 11
854.0454927516588
 21
685.0161882398658
 31
0.0
1001
AcDbBlockRepETag
1070
     1
1071
       51
1005
1475D
  0
LINE
  5
1475E
330
13E17
100
AcDbEntity
  8
图框
370
    -3
100
AcDbLine
 10
861.5351874539182
 20
675.5347692601515
 30
0.0
 11
861.5351874539182
 21
686.7901958362482
 31
0.0
1001
AcDbBlockRepETag
1070
     1
1071
       52
1005
1475E
  0
MTEXT
  5
1475F
330
13E17
100
AcDbEntity
  8
图框
 62
     6
100
AcDbMText
 10
1105.329704038389
 20
678.859919059449
 30
0.0
 40
2.651776162684904
 41
2.557913877927211
 46
0.0
 71
     1
 72
     5
  1
6
  7
Romans字体
 73
     1
 44
1.0
1001
AcDbBlockRepETag
1070
     1
1071
       53
1005
1475F
  0
LINE
  5
14760
330
13E17
100
AcDbEntity
  8
图框
 62
     6
100
AcDbLine
 10
1081.088565155284
 20
679.0347692601516
 30
0.0
 11
1081.088565155284
 21
675.5347692601515
 31
0.0
1001
AcDbBlockRepETag
1070
     1
1071
       54
1005
14760
  0
MTEXT
  5
14761
330
13E17
100
AcDbEntity
  8
图框
 62
     6
100
AcDbMText
 10
1055.900596365941
 20
678.859919059449
 30
0.0
 40
2.651776162684904
 41
2.557913877927211
 46
0.0
 71
     1
 72
     5
  1
5
  7
Romans字体
 73
     1
 44
1.0
1001
AcDbBlockRepETag
1070
     1
1071
       55
1005
14761
  0
LINE
  5
14762
330
13E17
100
AcDbEntity
  8
图框
 62
     6
100
AcDbLine
 10
1031.553386436349
 20
679.0347692601516
 30
0.0
 11
1031.553386436349
 21
675.5347692601515
 31
0.0
1001
AcDbBlockRepETag
1070
     1
1071
       56
1005
14762
  0
MTEXT
  5
14763
330
13E17
100
AcDbEntity
  8
图框
 62
     6
100
AcDbMText
 10
1006.36541764698
 20
678.7312083656147
 30
0.0
 40
2.651776162684904
 41
2.557913877927211
 46
0.0
 71
     1
 72
     5
  1
4
  7
Romans字体
 73
     1
 44
1.0
1001
AcDbBlockRepETag
1070
     1
1071
       57
1005
14763
  0
LINE
  5
14764
330
13E17
100
AcDbEntity
  8
图框
 62
     6
100
AcDbLine
 10
982.0182077173887
 20
679.0347692601516
 30
0.0
 11
982.0182077173887
 21
675.5347692601515
 31
0.0
1001
AcDbBlockRepETag
1070
     1
1071
       58
1005
14764
  0
MTEXT
  5
14765
330
13E17
100
AcDbEntity
  8
图框
 62
     6
100
AcDbMText
 10
956.8302389280352
 20
678.859919059449
 30
0.0
 40
2.651776162684904
 41
2.557913877927211
 46
0.0
 71
     1
 72
     5
  1
3
  7
Romans字体
 73
     1
 44
1.0
1001
AcDbBlockRepETag
1070
     1
1071
       59
1005
14765
  0
LINE
  5
14766
330
13E17
100
AcDbEntity
  8
图框
 62
     6
100
AcDbLine
 10
932.4830289984245
 20
679.0347692601516
 30
0.0
 11
932.4830289984245
 21
675.5347692601515
 31
0.0
1001
AcDbBlockRepETag
1070
     1
1071
       60
1005
14766
  0
MTEXT
  5
14767
330
13E17
100
AcDbEntity
  8
图框
 62
     6
100
AcDbMText
 10
907.295060209082
 20
678.859919059449
 30
0.0
 40
2.651776162684904
 41
2.557913877927211
 46
0.0
 71
     1
 72
     5
  1
2
  7
Romans字体
 73
     1
 44
1.0
1001
AcDbBlockRepETag
1070
     1
1071
       61
1005
14767
  0
LINE
  5
14768
330
13E17
100
AcDbEntity
  8
图框
 62
     6
100
AcDbLine
 10
882.9478502794648
 20
678.7962435131815
 30
0.0
 11
882.9478502794648
 21
675.5347692601515
 31
0.0
1001
AcDbBlockRepETag
1070
     1
1071
       62
1005
14768
  0
MTEXT
  5
14769
330
13E17
100
AcDbEntity
  8
图框
 62
     6
100
AcDbMText
 10
862.6286629643733
 20
678.859919059449
 30
0.0
 40
2.651776162684904
 41
2.557913877927211
 46
0.0
 71
     1
 72
     5
  1
1
  7
Romans字体
 73
     1
 44
1.0
1001
AcDbBlockRepETag
1070
     1
1071
       63
1005
14769
  0
LINE
  5
1476A
330
13E17
100
AcDbEntity
  8
图框
370
    -3
100
AcDbLine
 10
836.9128518455394
 20
675.0207195125422
 30
0.0
 11
836.9128518455394
 21
686.7901958362482
 31
0.0
1001
AcDbBlockRepETag
1070
     1
1071
       64
1005
1476A
  0
LINE
  5
1476B
330
13E17
100
AcDbEntity
  8
图框
370
    50
100
AcDbLine
 10
836.9128518455394
 20
675.5347692601515
 30
0.0
 11
1126.928502610363
 21
675.5347692601515
 31
0.0
1001
AcDbBlockRepETag
1070
     1
1071
       65
1005
1476B
  0
LINE
  5
1476C
330
13E17
100
AcDbEntity
  8
图框
370
    -3
100
AcDbLine
 10
842.6237321475781
 20
675.5347692601515
 30
0.0
 11
842.6237321475781
 21
686.7901958362482
 31
0.0
1001
AcDbBlockRepETag
1070
     1
1071
       66
1005
1476C
  0
LINE
  5
1476D
330
13E17
100
AcDbEntity
  8
图框
370
    -3
100
AcDbLine
 10
848.3346124496179
 20
675.5347692601515
 30
0.0
 11
848.3346124496179
 21
686.7901958362482
 31
0.0
1001
AcDbBlockRepETag
1070
     1
1071
       67
1005
1476D
  0
MTEXT
  5
1476E
102
{ACAD_XDICTIONARY
360
147CB
102
}
330
13E17
100
AcDbEntity
  8
图框
100
AcDbMText
 10
857.7903401027889
 20
686.7901958362482
 30
0.0
 40
1.958998408821398
 41
11.25542657609672
 46
7.489694702258906
 71
     4
 72
     5
  1
\pi2.6646;{\fSimSun|b0|i0|c134|p2;档案员\fFangSong_GB2312|b0|i0|c134|p49;\H0.7x;\P\pi1.4159;\Fromans|c134;Filing Clerk\fFangSong_GB2312|b0|i0|c134|p49; }
 11
-0.0000000000000002
 21
-1.0
 31
0.0
 73
     1
 44
1.0
1001
AcDbBlockRepETag
1070
     1
1071
       68
1005
1476E
1001
ACAD
1000
ACAD_MTEXT_DEFINED_HEIGHT_BEGIN
1070
    46
1040
7.489694702258906
1000
ACAD_MTEXT_DEFINED_HEIGHT_END
  0
MTEXT
  5
1476F
102
{ACAD_XDICTIONARY
360
147CD
102
}
330
13E17
100
AcDbEntity
  8
图框
100
AcDbMText
 10
845.479172298598
 20
686.7901958362482
 30
0.0
 40
1.958998408821398
 41
11.25542657609672
 46
5.710880302039671
 71
     4
 72
     5
  1
\pi0.63465;{\fSimSun|b0|i0|c134|p2;日期\Fromans|c134;/Date}
 11
-0.0000000000000002
 21
-1.0
 31
0.0
 73
     1
 44
1.0
1001
AcDbBlockRepETag
1070
     1
1071
       69
1005
1476F
1001
ACAD
1000
ACAD_MTEXT_DEFINED_HEIGHT_BEGIN
1070
    46
1040
5.710880302039671
1000
ACAD_MTEXT_DEFINED_HEIGHT_END
  0
LINE
  5
14770
330
13E17
100
AcDbEntity
  8
图框
370
    -3
100
AcDbLine
 10
854.0454927516588
 20
675.5347692601515
 30
0.0
 11
854.0454927516588
 21
686.7901958362482
 31
0.0
1001
AcDbBlockRepETag
1070
     1
1071
       70
1005
14770
  0
LINE
  5
14771
330
13E17
100
AcDbEntity
  8
图框
370
    -3
100
AcDbLine
 10
1036.653967466372
 20
531.3291676047914
 30
0.0
 11
1036.653967466372
 21
484.0126019753161
 31
0.0
1001
AcDbBlockRepETag
1070
     1
1071
       71
1005
14771
  0
LINE
  5
14772
330
13E17
100
AcDbEntity
  8
图框
370
    -3
100
AcDbLine
 10
1047.483315900763
 20
507.6708838011533
 30
0.0
 11
1047.483315900763
 21
491.8986945987308
 31
0.0
1001
AcDbBlockRepETag
1070
     1
1071
       72
1005
14772
  0
LINE
  5
14773
330
13E17
100
AcDbEntity
  8
图框
370
    -3
100
AcDbLine
 10
1058.312664335153
 20
507.6708838011533
 30
0.0
 11
1058.312664335153
 21
484.0347692601515
 31
0.0
1001
AcDbBlockRepETag
1070
     1
1071
       73
1005
14773
  0
LINE
  5
14774
330
13E17
100
AcDbEntity
  8
图框
370
    25
100
AcDbLine
 10
1048.474135214456
 20
488.1095628329926
 30
0.0
 11
1054.946420288459
 21
488.1095628329926
 31
0.0
1001
AcDbBlockRepETag
1070
     1
1071
       74
1005
14774
  0
LINE
  5
14775
330
13E17
100
AcDbEntity
  8
图框
370
    25
100
AcDbLine
 10
1054.232527365989
 20
487.0761716842634
 30
0.0
 11
1049.156490914508
 21
486.4576273751
 31
0.0
1001
AcDbBlockRepETag
1070
     1
1071
       75
1005
14775
  0
LINE
  5
14776
330
13E17
100
AcDbEntity
  8
图框
370
    25
100
AcDbLine
 10
1054.232527365989
 20
489.1429539817209
 30
0.0
 11
1049.156490914508
 21
489.7614982908846
 31
0.0
1001
AcDbBlockRepETag
1070
     1
1071
       76
1005
14776
  0
LINE
  5
14777
330
13E17
100
AcDbEntity
  8
图框
370
    25
100
AcDbLine
 10
1049.156490914508
 20
489.7614982908846
 30
0.0
 11
1049.156490914508
 21
486.4576273751
 31
0.0
1001
AcDbBlockRepETag
1070
     1
1071
       77
1005
14777
  0
LINE
  5
14778
330
13E17
100
AcDbEntity
  8
图框
370
    25
100
AcDbLine
 10
1054.232527365989
 20
489.1429539817209
 30
0.0
 11
1054.232527365989
 21
487.0761716842634
 31
0.0
1001
AcDbBlockRepETag
1070
     1
1071
       78
1005
14778
  0
CIRCLE
  5
14779
330
13E17
100
AcDbEntity
  8
图框
370
    25
100
AcDbCircle
 10
1042.502700458579
 20
488.1095628329926
 30
0.0
 40
1.651935457891863
1001
AcDbBlockRepETag
1070
     1
1071
       79
1005
14779
  0
CIRCLE
  5
1477A
330
13E17
100
AcDbEntity
  8
图框
370
    25
100
AcDbCircle
 10
1042.502700458579
 20
488.1095628329926
 30
0.0
 40
1.033391148728775
1001
AcDbBlockRepETag
1070
     1
1071
       80
1005
1477A
  0
LINE
  5
1477B
330
13E17
100
AcDbEntity
  8
图框
370
    25
100
AcDbLine
 10
1040.136872078216
 20
488.1095628329926
 30
0.0
 11
1044.868528838943
 21
488.1095628329926
 31
0.0
1001
AcDbBlockRepETag
1070
     1
1071
       81
1005
1477B
  0
LINE
  5
1477C
330
13E17
100
AcDbEntity
  8
图框
370
    25
100
AcDbLine
 10
1042.502700458579
 20
490.475391213355
 30
0.0
 11
1042.502700458579
 21
485.743734452629
 31
0.0
1001
AcDbBlockRepETag
1070
     1
1071
       82
1005
1477C
  0
LINE
  5
1477D
330
13E17
100
AcDbEntity
  8
图框
370
    -3
100
AcDbLine
 10
1069.142012769546
 20
507.6708838011533
 30
0.0
 11
1069.142012769546
 21
491.8986945987308
 31
0.0
1001
AcDbBlockRepETag
1070
     1
1071
       83
1005
1477D
  0
MTEXT
  5
1477E
330
13E17
100
AcDbEntity
  8
图框
100
AcDbMText
 10
1086.643735910939
 20
526.8006839312707
 30
0.0
 40
2.154898249703542
 41
13.34474941400573
 46
9.056967347041775
 71
     5
 72
     5
  1
图号{\Ftxt|c134;\P\Fromans|c134;\W0.65;Drawing No.}
 73
     1
 44
1.0
1001
AcDbBlockRepETag
1070
     1
1071
       84
1005
1477E
1001
ACAD
1000
ACAD_MTEXT_DEFINED_HEIGHT_BEGIN
1070
    46
1040
9.056967347041775
1000
ACAD_MTEXT_DEFINED_HEIGHT_END
  0
LINE
  5
1477F
330
13E17
100
AcDbEntity
  8
图框
370
    -3
100
AcDbLine
 10
1093.316110617942
 20
531.3291676047914
 30
0.0
 11
1093.316110617942
 21
495.8417418993347
 31
0.0
1001
AcDbBlockRepETag
1070
     1
1071
       85
1005
1477F
  0
LINE
  5
14780
330
13E17
100
AcDbEntity
  8
图框
370
    -3
100
AcDbLine
 10
1047.473969770481
 20
531.3291676047914
 30
0.0
 11
1047.473969770481
 21
507.6708838011533
 31
0.0
1001
AcDbBlockRepETag
1070
     1
1071
       86
1005
14780
  0
MTEXT
  5
14781
330
13E17
100
AcDbEntity
  8
图框
100
AcDbMText
 10
1063.72733855235
 20
503.7278365005473
 30
0.0
 40
2.252848170144607
 41
10.82934843439208
 46
7.886094601212128
 71
     5
 72
     5
  1
重量\P{\Fromans|c134;Weight}
 73
     1
 44
1.0
1001
AcDbBlockRepETag
1070
     1
1071
       87
1005
14781
1001
ACAD
1000
ACAD_MTEXT_DEFINED_HEIGHT_BEGIN
1070
    46
1040
7.886094601212128
1000
ACAD_MTEXT_DEFINED_HEIGHT_END
  0
LINE
  5
14782
330
13E17
100
AcDbEntity
  8
图框
370
    -3
100
AcDbLine
 10
1036.653967466372
 20
519.5000257029746
 30
0.0
 11
1079.971361203936
 21
519.5000257029746
 31
0.0
1001
AcDbBlockRepETag
1070
     1
1071
       88
1005
14782
  0
MTEXT
  5
14783
330
13E17
100
AcDbEntity
  8
图框
100
AcDbMText
 10
1074.556686986741
 20
503.7278365005473
 30
0.0
 40
2.252848170144607
 41
10.82934843438984
 46
7.886094601212141
 71
     5
 72
     5
  1
数量\P{\Fromans|c134;Qty.}
 73
     1
 44
1.0
1001
AcDbBlockRepETag
1070
     1
1071
       89
1005
14783
1001
ACAD
1000
ACAD_MTEXT_DEFINED_HEIGHT_BEGIN
1070
    46
1040
7.886094601212141
1000
ACAD_MTEXT_DEFINED_HEIGHT_END
  0
LINE
  5
14784
330
13E17
100
AcDbEntity
  8
图框
370
    -3
100
AcDbLine
 10
1079.971361203936
 20
495.8417418993347
 30
0.0
 11
1126.928502610363
 21
495.8417418993342
 31
0.0
1001
AcDbBlockRepETag
1070
     1
1071
       90
1005
14784
  0
LINE
  5
14785
330
13E17
100
AcDbEntity
  8
图框
370
    -3
100
AcDbLine
 10
1079.971361203936
 20
504.7132992040975
 30
0.0
 11
1126.928502610363
 21
504.7132992040975
 31
0.0
1001
AcDbBlockRepETag
1070
     1
1071
       91
1005
14785
  0
MTEXT
  5
14786
330
13E17
100
AcDbEntity
  8
图框
100
AcDbMText
 10
1052.893317052817
 20
503.7278365005473
 30
0.0
 40
2.252848170144607
 41
10.83869456467139
 46
7.886094601212101
 71
     5
 72
     5
  1
版本\P{\Fromans|c134;REV.}
 73
     1
 44
1.0
1001
AcDbBlockRepETag
1070
     1
1071
       92
1005
14786
1001
ACAD
1000
ACAD_MTEXT_DEFINED_HEIGHT_BEGIN
1070
    46
1040
7.886094601212101
1000
ACAD_MTEXT_DEFINED_HEIGHT_END
  0
MTEXT
  5
14787
330
13E17
100
AcDbEntity
  8
图框
100
AcDbMText
 10
1042.068641683568
 20
503.7278365005473
 30
0.0
 40
2.252848170144607
 41
10.8293484343908
 46
7.886094601212136
 71
     5
 72
     5
  1
比例\P{\Fromans|c134;Scale}
 73
     1
 44
1.0
1001
AcDbBlockRepETag
1070
     1
1071
       93
1005
14787
1001
ACAD
1000
ACAD_MTEXT_DEFINED_HEIGHT_BEGIN
1070
    46
1040
7.886094601212136
1000
ACAD_MTEXT_DEFINED_HEIGHT_END
  0
LINE
  5
14788
330
13E17
100
AcDbEntity
  8
图框
370
    -3
100
AcDbLine
 10
1036.653967466372
 20
507.6708838011533
 30
0.0
 11
1079.971361203936
 21
507.6708838011533
 31
0.0
1001
AcDbBlockRepETag
1070
     1
1071
       94
1005
14788
  0
LINE
  5
14789
330
13E17
100
AcDbEntity
  8
图框
370
    -3
100
AcDbLine
 10
1036.653967466372
 20
491.8986945987308
 30
0.0
 11
1079.971361203936
 21
491.8986945987308
 31
0.0
1001
AcDbBlockRepETag
1070
     1
1071
       95
1005
14789
  0
LINE
  5
1478A
330
13E17
100
AcDbEntity
  8
图框
370
    -3
100
AcDbLine
 10
1079.971361203936
 20
531.3291676047914
 30
0.0
 11
1079.971361203936
 21
484.0125999975168
 31
0.0
1001
AcDbBlockRepETag
1070
     1
1071
       96
1005
1478A
  0
MTEXT
  5
1478B
330
13E17
100
AcDbEntity
  8
图框
100
AcDbMText
 10
1042.063968618426
 20
525.4145966538832
 30
0.0
 40
2.252848170144607
 41
10.82000230410933
 46
11.82914190181708
 71
     5
 72
     5
  1
表面处理\P{\Fromans|c134;Finish}
 73
     1
 44
1.0
1001
AcDbBlockRepETag
1070
     1
1071
       97
1005
1478B
1001
ACAD
1000
ACAD_MTEXT_DEFINED_HEIGHT_BEGIN
1070
    46
1040
11.82914190181708
1000
ACAD_MTEXT_DEFINED_HEIGHT_END
  0
MTEXT
  5
1478C
330
13E17
100
AcDbEntity
  8
图框
100
AcDbMText
 10
1042.063968618426
 20
513.5854547520639
 30
0.0
 40
2.252848170144607
 41
10.82000230410933
 46
11.8291419018212
 71
     5
 72
     5
  1
材料\P{\Fromans|c134;Material}
 73
     1
 44
1.0
1001
AcDbBlockRepETag
1070
     1
1071
       98
1005
1478C
1001
ACAD
1000
ACAD_MTEXT_DEFINED_HEIGHT_BEGIN
1070
    46
1040
11.8291419018212
1000
ACAD_MTEXT_DEFINED_HEIGHT_END
  0
LINE
  5
1478D
330
13E17
100
AcDbEntity
  8
图框
370
    -3
100
AcDbLine
 10
1079.971361203936
 20
522.27220025775
 30
0.0
 11
1126.928502610363
 21
522.27220025775
 31
0.0
1001
AcDbBlockRepETag
1070
     1
1071
       99
1005
1478D
  0
LINE
  5
1478E
330
13E17
100
AcDbEntity
  8
图框
370
    -3
100
AcDbLine
 10
1079.971361203936
 20
513.5854547520641
 30
0.0
 11
1126.928502610363
 21
513.5854547520639
 31
0.0
1001
AcDbBlockRepETag
1070
     1
1071
      100
1005
1478E
  0
MTEXT
  5
1478F
330
13E17
100
AcDbEntity
  8
图框
100
AcDbMText
 10
1086.643735910939
 20
517.9288275049072
 30
0.0
 40
1.958998408821398
 41
13.34474941400573
 46
8.686745505685811
 71
     5
 72
     5
  1
产品代号\P{\Fromans|c134;Part Code}
 73
     1
 44
1.0
1001
AcDbBlockRepETag
1070
     1
1071
      101
1005
1478F
1001
ACAD
1000
ACAD_MTEXT_DEFINED_HEIGHT_BEGIN
1070
    46
1040
8.686745505685811
1000
ACAD_MTEXT_DEFINED_HEIGHT_END
  0
LINE
  5
14790
330
13E17
100
AcDbEntity
  8
图框
370
    -3
100
AcDbLine
 10
946.9285026103634
 20
525.7982263931411
 30
0.0
 11
1036.653967466372
 21
525.7982263931411
 31
0.0
1001
AcDbBlockRepETag
1070
     1
1071
      102
1005
14790
  0
LINE
  5
14791
330
13E17
100
AcDbEntity
  8
图框
370
    -3
100
AcDbLine
 10
946.9285026103634
 20
520.2672851814959
 30
0.0
 11
1036.653967466372
 21
520.2672851814959
 31
0.0
1001
AcDbBlockRepETag
1070
     1
1071
      103
1005
14791
  0
LINE
  5
14792
330
13E17
100
AcDbEntity
  8
图框
370
    35
100
AcDbLine
 10
946.9285026103634
 20
531.3291676047914
 30
0.0
 11
1126.928502610363
 21
531.3291676047914
 31
0.0
1001
AcDbBlockRepETag
1070
     1
1071
      104
1005
14792
  0
LINE
  5
14793
330
13E17
100
AcDbEntity
  8
图框
370
    -3
100
AcDbLine
 10
990.6727612856927
 20
509.2054027581959
 30
0.0
 11
990.6727612856927
 21
484.0347692601515
 31
0.0
1001
AcDbBlockRepETag
1070
     1
1071
      105
1005
14793
  0
MTEXT
  5
14794
102
{ACAD_XDICTIONARY
360
147CF
102
}
330
13E17
100
AcDbEntity
  8
图框
100
AcDbMText
 10
997.1628169651232
 20
499.816589978722
 30
0.0
 40
2.252848170144607
 41
12.98011135886052
 46
6.19230880992475
 71
     5
 72
     5
  1
{\fSimSun|b0|i0|c134|p2;标准化}\PStand.
  7
Romans字体
 73
     1
 44
1.0
1001
AcDbBlockRepETag
1070
     1
1071
      106
1005
14794
1001
ACAD
1000
ACAD_MTEXT_DEFINED_HEIGHT_BEGIN
1070
    46
1040
6.19230880992475
1000
ACAD_MTEXT_DEFINED_HEIGHT_END
  0
LINE
  5
14795
330
13E17
100
AcDbEntity
  8
图框
370
    -3
100
AcDbLine
 10
975.4103773808022
 20
509.2054027581959
 30
0.0
 11
975.4103773808022
 21
484.0347692601515
 31
0.0
1001
AcDbBlockRepETag
1070
     1
1071
      107
1005
14795
  0
MTEXT
  5
14796
330
13E17
100
AcDbEntity
  8
图框
100
AcDbMText
 10
984.5089229802068
 20
511.9708733640202
 30
0.0
 40
2.448748011026752
 41
38.287899328693
 46
5.530941211648832
 71
     5
 72
     5
  1
  变更描述{\Fromans|c134;/Description}
 73
     1
 44
1.0
1001
AcDbBlockRepETag
1070
     1
1071
      108
1005
14796
1001
ACAD
1000
ACAD_MTEXT_DEFINED_HEIGHT_BEGIN
1070
    46
1040
5.530941211648832
1000
ACAD_MTEXT_DEFINED_HEIGHT_END
  0
MTEXT
  5
14797
102
{ACAD_XDICTIONARY
360
147D1
102
}
330
13E17
100
AcDbEntity
  8
图框
100
AcDbMText
 10
1012.477254728976
 20
511.9708733640202
 30
0.0
 40
1.958998408821398
 41
17.64876416884548
 46
5.530941211649166
 71
     5
 72
     5
  1
{\fSimSun|b0|i0|c134|p2;签名\P\Fromans|c134;Signature} 
 73
     1
 44
1.0
1001
AcDbBlockRepETag
1070
     1
1071
      109
1005
14797
1001
ACAD
1000
ACAD_MTEXT_DEFINED_HEIGHT_BEGIN
1070
    46
1040
5.530941211649166
1000
ACAD_MTEXT_DEFINED_HEIGHT_END
  0
MTEXT
  5
14798
102
{ACAD_XDICTIONARY
360
147D3
102
}
330
13E17
100
AcDbEntity
  8
图框
100
AcDbMText
 10
960.7558556394856
 20
511.9708733640202
 30
0.0
 40
1.958998408821398
 41
9.218235352749283
 46
5.530941211648841
 71
     5
 72
     5
  1
{\fSimSun|b0|i0|c134|p2;处数\P\Fromans|c134;Number }
 73
     1
 44
1.0
1001
AcDbBlockRepETag
1070
     1
1071
      110
1005
14798
1001
ACAD
1000
ACAD_MTEXT_DEFINED_HEIGHT_BEGIN
1070
    46
1040
5.530941211648841
1000
ACAD_MTEXT_DEFINED_HEIGHT_END
  0
LINE
  5
14799
330
13E17
100
AcDbEntity
  8
图框
370
    -3
100
AcDbLine
 10
946.9285026103634
 20
514.7363439698449
 30
0.0
 11
1036.653967466372
 21
514.7363439698449
 31
0.0
1001
AcDbBlockRepETag
1070
     1
1071
      111
1005
14799
  0
LINE
  5
1479A
330
13E17
100
AcDbEntity
  8
图框
370
    -3
100
AcDbLine
 10
946.9285026103634
 20
509.2054027581959
 30
0.0
 11
1036.653967466372
 21
509.2054027581959
 31
0.0
1001
AcDbBlockRepETag
1070
     1
1071
      112
1005
1479A
  0
LINE
  5
1479B
330
13E17
100
AcDbEntity
  8
图框
370
    -3
100
AcDbLine
 10
946.9285026103634
 20
502.9127443836848
 30
0.0
 11
1036.653967466372
 21
502.9127443836848
 31
0.0
1001
AcDbBlockRepETag
1070
     1
1071
      113
1005
1479B
  0
LINE
  5
1479C
330
13E17
100
AcDbEntity
  8
图框
370
    -3
100
AcDbLine
 10
946.9285026103634
 20
496.620086009173
 30
0.0
 11
1036.653967466372
 21
496.620086009173
 31
0.0
1001
AcDbBlockRepETag
1070
     1
1071
      114
1005
1479C
  0
LINE
  5
1479D
330
13E17
100
AcDbEntity
  8
图框
370
    35
380
     1
100
AcDbLine
 10
946.9285026103634
 20
531.3291676047914
 30
0.0
 11
946.9285026103634
 21
484.0347692601515
 31
0.0
1001
AcDbBlockRepETag
1070
     1
1071
      115
1005
1479D
  0
LINE
  5
1479E
330
13E17
100
AcDbEntity
  8
图框
370
    -3
100
AcDbLine
 10
1021.301636813399
 20
531.3291676047914
 30
0.0
 11
1021.301636813399
 21
484.0347692601515
 31
0.0
1001
AcDbBlockRepETag
1070
     1
1071
      116
1005
1479E
  0
LINE
  5
1479F
330
13E17
100
AcDbEntity
  8
图框
370
    -3
100
AcDbLine
 10
1003.652872644553
 20
531.3291676047914
 30
0.0
 11
1003.652872644553
 21
484.0347692601515
 31
0.0
1001
AcDbBlockRepETag
1070
     1
1071
      117
1005
1479F
  0
LINE
  5
147A0
330
13E17
100
AcDbEntity
  8
图框
370
    -3
100
AcDbLine
 10
965.3649733158603
 20
531.3291676047914
 30
0.0
 11
965.3649733158603
 21
509.2054027581959
 31
0.0
1001
AcDbBlockRepETag
1070
     1
1071
      118
1005
147A0
  0
LINE
  5
147A1
330
13E17
100
AcDbEntity
  8
图框
370
    -3
100
AcDbLine
 10
956.1467379631109
 20
531.3291676047914
 30
0.0
 11
956.1467379631109
 21
509.2054027581959
 31
0.0
1001
AcDbBlockRepETag
1070
     1
1071
      119
1005
147A1
  0
MTEXT
  5
147A2
102
{ACAD_XDICTIONARY
360
147D5
102
}
330
13E17
100
AcDbEntity
  8
图框
100
AcDbMText
 10
951.537620286737
 20
511.9708733640202
 30
0.0
 40
1.958998408821398
 41
9.218235352747692
 46
5.530941211648832
 71
     5
 72
     5
  1
{\fSimSun|b0|i0|c134|p2;标记\P\Fromans|c134;Mark}
 73
     1
 44
1.0
1001
AcDbBlockRepETag
1070
     1
1071
      120
1005
147A2
1001
ACAD
1000
ACAD_MTEXT_DEFINED_HEIGHT_BEGIN
1070
    46
1040
5.530941211648832
1000
ACAD_MTEXT_DEFINED_HEIGHT_END
  0
MTEXT
  5
147A3
102
{ACAD_XDICTIONARY
360
147D7
102
}
330
13E17
100
AcDbEntity
  8
图框
100
AcDbMText
 10
953.4185582897936
 20
493.4737568219182
 30
0.0
 40
2.252848170144607
 41
12.98011135886041
 46
6.292658374510382
 71
     5
 72
     5
  1
{\fSimSun|b0|i0|c134|p2;审核\P\Fromans|c134;Checked}
 73
     1
 44
1.0
1001
AcDbBlockRepETag
1070
     1
1071
      121
1005
147A3
1001
ACAD
1000
ACAD_MTEXT_DEFINED_HEIGHT_BEGIN
1070
    46
1040
6.292658374510382
1000
ACAD_MTEXT_DEFINED_HEIGHT_END
  0
MTEXT
  5
147A4
102
{ACAD_XDICTIONARY
360
147D9
102
}
330
13E17
100
AcDbEntity
  8
图框
100
AcDbMText
 10
953.4185582897936
 20
499.8775635376777
 30
0.0
 40
2.252848170144607
 41
12.98011135886041
 46
6.070361692014189
 71
     5
 72
     5
  1
{\fSimSun|b0|i0|c134|p2;绘图\P\Fromans|c134;Drawn\Ftxt|c134; }
 73
     1
 44
1.0
1001
AcDbBlockRepETag
1070
     1
1071
      122
1005
147A4
1001
ACAD
1000
ACAD_MTEXT_DEFINED_HEIGHT_BEGIN
1070
    46
1040
6.070361692014189
1000
ACAD_MTEXT_DEFINED_HEIGHT_END
  0
ARC
  5
147A5
330
13E17
100
AcDbEntity
  8
图框
 62
     4
370
    35
100
AcDbCircle
 10
1086.900627017421
 20
490.0179944151195
 30
0.0
 40
4.063310408393665
100
AcDbArc
 50
18.95237904564806
 51
161.0476209543519
1001
AcDbBlockRepETag
1070
     1
1071
      123
1005
147A5
  0
ARC
  5
147A6
330
13E17
100
AcDbEntity
  8
图框
 62
     4
370
    35
100
AcDbCircle
 10
1086.900627017421
 20
490.0179944151195
 30
0.0
 40
4.063310408393665
100
AcDbArc
 50
198.952379045648
 51
341.0476209543519
1001
AcDbBlockRepETag
1070
     1
1071
      124
1005
147A6
  0
LINE
  5
147A7
330
13E17
100
AcDbEntity
  8
图框
 62
     4
370
    35
100
AcDbLine
 10
1083.057593369548
 20
488.6983035966752
 30
0.0
 11
1090.74366066529
 21
488.6983035966752
 31
0.0
1001
AcDbBlockRepETag
1070
     1
1071
      125
1005
147A7
  0
LINE
  5
147A8
330
13E17
100
AcDbEntity
  8
图框
 62
     4
370
    35
100
AcDbLine
 10
1083.057593369548
 20
491.3376852335652
 30
0.0
 11
1090.74366066529
 21
491.3376852335652
 31
0.0
1001
AcDbBlockRepETag
1070
     1
1071
      126
1005
147A8
  0
MTEXT
  5
147A9
330
13E17
100
AcDbEntity
  8
图框
 62
     1
370
    20
100
AcDbMText
 10
1083.034582879669
 20
491.0506288081688
 30
0.0
 40
2.005930044038334
 41
5.047240019334847
 46
0.0
 71
     1
 72
     5
  1
{\fArial|b0|i0|c0|p34;W}
  7
Chinese
 73
     1
 44
1.0
1001
AcDbBlockRepETag
1070
     1
1071
      127
1005
147A9
  0
LINE
  5
147AA
330
13E17
100
AcDbEntity
  8
图框
370
    -3
100
AcDbLine
 10
946.9285026103634
 20
490.327427634663
 30
0.0
 11
1036.653967466372
 21
490.327427634663
 31
0.0
1001
AcDbBlockRepETag
1070
     1
1071
      128
1005
147AA
  0
LINE
  5
147AB
330
13E17
100
AcDbEntity
  8
图框
370
    -3
100
AcDbLine
 10
959.9086139692238
 20
509.2054027581959
 30
0.0
 11
959.9086139692238
 21
484.0347692601515
 31
0.0
1001
AcDbBlockRepETag
1070
     1
1071
      129
1005
147AB
  0
MTEXT
  5
147AC
330
13E17
100
AcDbEntity
  8
图框
100
AcDbMText
 10
967.6594956750129
 20
506.0590735709403
 30
0.0
 40
2.252848170144607
 41
15.50176341157869
 46
6.292658374511246
 71
     5
 72
     5
  1
姓名{\Fromans|c134;/Name\Ftxt|c134; }
 73
     1
 44
1.0
1001
AcDbBlockRepETag
1070
     1
1071
      130
1005
147AC
1001
ACAD
1000
ACAD_MTEXT_DEFINED_HEIGHT_BEGIN
1070
    46
1040
6.292658374511246
1000
ACAD_MTEXT_DEFINED_HEIGHT_END
  0
MTEXT
  5
147AD
330
13E17
100
AcDbEntity
  8
图框
100
AcDbMText
 10
983.0415693332477
 20
506.0590735709403
 30
0.0
 40
2.252848170144607
 41
15.26238390489042
 46
6.2926583745112
 71
     5
 72
     5
  1
日期{\Fromans|c134;/Date}
 73
     1
 44
1.0
1001
AcDbBlockRepETag
1070
     1
1071
      131
1005
147AD
1001
ACAD
1000
ACAD_MTEXT_DEFINED_HEIGHT_BEGIN
1070
    46
1040
6.2926583745112
1000
ACAD_MTEXT_DEFINED_HEIGHT_END
  0
LINE
  5
147AE
330
13E17
100
AcDbEntity
  8
图框
370
    -3
100
AcDbLine
 10
946.9285026103634
 20
509.2054027581959
 30
0.0
 11
959.9086139692238
 21
502.9127443836848
 31
0.0
1001
AcDbBlockRepETag
1070
     1
1071
      132
1005
147AE
  0
MTEXT
  5
147AF
330
13E17
100
AcDbEntity
  8
图框
100
AcDbMText
 10
1012.931405110086
 20
506.0185715840725
 30
0.0
 40
2.252848170144607
 41
16.93492221063566
 46
0.0
 71
     5
 72
     5
  1
姓名{\Fromans|c134;/Name}
 73
     1
 44
1.0
1001
AcDbBlockRepETag
1070
     1
1071
      133
1005
147AF
  0
MTEXT
  5
147B0
330
13E17
100
AcDbEntity
  8
图框
100
AcDbMText
 10
1028.977802139886
 20
506.0590735709403
 30
0.0
 40
2.252848170144607
 41
15.35233065297283
 46
6.292658374511256
 71
     5
 72
     5
  1
日期{\Fromans|c134;/Date}
 73
     1
 44
1.0
1001
AcDbBlockRepETag
1070
     1
1071
      134
1005
147B0
1001
ACAD
1000
ACAD_MTEXT_DEFINED_HEIGHT_BEGIN
1070
    46
1040
6.292658374511256
1000
ACAD_MTEXT_DEFINED_HEIGHT_END
  0
LINE
  5
147B1
330
13E17
100
AcDbEntity
  8
图框
370
    -3
100
AcDbLine
 10
1003.652872644553
 20
502.9127443836848
 30
0.0
 11
990.6727612856927
 21
509.2054027581959
 31
0.0
1001
AcDbBlockRepETag
1070
     1
1071
      135
1005
147B1
  0
MTEXT
  5
147B2
102
{ACAD_XDICTIONARY
360
147DB
102
}
330
13E17
100
AcDbEntity
  8
图框
100
AcDbMText
 10
997.1628169651232
 20
487.1810984474071
 30
0.0
 40
2.252848170144607
 41
12.98011135886052
 46
6.292658374511517
 71
     5
 72
     5
  1
{\fSimSun|b0|i0|c134|p2;批准\P\Fromans|c134;Approved}
 73
     1
 44
1.0
1001
AcDbBlockRepETag
1070
     1
1071
      136
1005
147B2
1001
ACAD
1000
ACAD_MTEXT_DEFINED_HEIGHT_BEGIN
1070
    46
1040
6.292658374511517
1000
ACAD_MTEXT_DEFINED_HEIGHT_END
  0
MTEXT
  5
147B3
102
{ACAD_XDICTIONARY
360
147DD
102
}
330
13E17
100
AcDbEntity
  8
图框
100
AcDbMText
 10
953.4185582897936
 20
487.1810984474071
 30
0.0
 40
2.252848170144607
 41
12.98011135886041
 46
6.292658374511495
 71
     5
 72
     5
  1
{\fSimSun|b0|i0|c134|p2;工艺\P\Fromans|c134;Process}
 73
     1
 44
1.0
1001
AcDbBlockRepETag
1070
     1
1071
      137
1005
147B3
1001
ACAD
1000
ACAD_MTEXT_DEFINED_HEIGHT_BEGIN
1070
    46
1040
6.292658374511495
1000
ACAD_MTEXT_DEFINED_HEIGHT_END
  0
MTEXT
  5
147B4
102
{ACAD_XDICTIONARY
360
147DF
102
}
330
13E17
100
AcDbEntity
  8
图框
100
AcDbMText
 10
1028.977802139886
 20
511.9708733640202
 30
0.0
 40
1.958998408821398
 41
15.35233065297235
 46
5.530941211648912
 71
     5
 72
     5
  1
{\fSimSun|b0|i0|c134|p2;日期\P\Fromans|c134;Date}
 73
     1
 44
1.0
1001
AcDbBlockRepETag
1070
     1
1071
      138
1005
147B4
1001
ACAD
1000
ACAD_MTEXT_DEFINED_HEIGHT_BEGIN
1070
    46
1040
5.530941211648912
1000
ACAD_MTEXT_DEFINED_HEIGHT_END
  0
MTEXT
  5
147B5
330
13E17
100
AcDbEntity
  8
图框
100
AcDbMText
 10
1086.643735910939
 20
509.1493769780809
 30
0.0
 40
2.154898249703542
 41
13.34474941400573
 46
8.87215554796615
 71
     5
 72
     5
  1
产品料号\P{\Fromans|c134;Part No.}
 73
     1
 44
1.0
1001
AcDbBlockRepETag
1070
     1
1071
      139
1005
147B5
1001
ACAD
1000
ACAD_MTEXT_DEFINED_HEIGHT_BEGIN
1070
    46
1040
8.87215554796615
1000
ACAD_MTEXT_DEFINED_HEIGHT_END
  0
MTEXT
  5
147B6
330
13E17
100
AcDbEntity
  8
图框
100
AcDbMText
 10
1086.643735910939
 20
500.2775205517163
 30
0.0
 40
1.958998408821398
 41
13.34474941400573
 46
8.871557304763321
 71
     5
 72
     5
  1
产品名称\P{\Fromans|c134;Part Name}
 73
     1
 44
1.0
1001
AcDbBlockRepETag
1070
     1
1071
      140
1005
147B6
1001
ACAD
1000
ACAD_MTEXT_DEFINED_HEIGHT_BEGIN
1070
    46
1040
8.871557304763321
1000
ACAD_MTEXT_DEFINED_HEIGHT_END
  0
LINE
  5
147B7
330
13E17
100
AcDbEntity
  8
图框
 62
     1
370
    18
100
AcDbLine
 10
833.4128518455365
 20
690.5347692601515
 30
0.0
 11
833.4128518455365
 21
480.5347692601515
 31
0.0
1001
AcDbBlockRepETag
1070
     1
1071
      141
1005
147B7
  0
LINE
  5
147B8
330
13E17
100
AcDbEntity
  8
图框
 62
     1
370
    18
100
AcDbLine
 10
833.4128518455365
 20
480.5347692601515
 30
0.0
 11
1130.411601781236
 21
480.5347692601515
 31
0.0
1001
AcDbBlockRepETag
1070
     1
1071
      142
1005
147B8
  0
LINE
  5
147B9
330
13E17
100
AcDbEntity
  8
图框
 62
     1
370
    18
100
AcDbLine
 10
833.4128518455365
 20
690.5347692601515
 30
0.0
 11
1130.411601781236
 21
690.5347692601515
 31
0.0
1001
AcDbBlockRepETag
1070
     1
1071
      143
1005
147B9
  0
LINE
  5
147BA
330
13E17
100
AcDbEntity
  8
图框
 62
     1
370
    18
100
AcDbLine
 10
1130.411601781236
 20
480.5347692601515
 30
0.0
 11
1130.411601781236
 21
690.5347692601515
 31
0.0
1001
AcDbBlockRepETag
1070
     1
1071
      144
1005
147BA
  0
LINE
  5
147BB
330
13E17
100
AcDbEntity
  8
图框
370
    18
100
AcDbLine
 10
836.9128518455394
 20
686.7901958362482
 30
0.0
 11
861.5351874539182
 21
686.7901958362482
 31
0.0
1001
AcDbBlockRepETag
1070
     1
1071
      145
1005
147BB
  0
LINE
  5
147BC
330
13E17
100
AcDbEntity
  8
图框
370
    50
100
AcDbLine
 10
1126.928502610363
 20
484.3410054693078
 30
0.0
 11
1126.928502610363
 21
675.5347692601515
 31
0.0
1001
AcDbBlockRepETag
1070
     1
1071
      146
1005
147BC
  0
MTEXT
  5
147BD
330
13E17
100
AcDbEntity
  8
图框
 62
     3
100
AcDbMText
 10
1052.897990117958
 20
495.8417418993364
 30
0.0
 40
2.985513575034151
 41
10.82934843439114
 46
7.886094601211307
 71
     5
 72
     5
  1
V1.1
  7
Romans字体
 73
     1
 44
1.0
1001
AcDbBlockRepETag
1070
     1
1071
      147
1005
147BD
1001
ACAD
1000
ACAD_MTEXT_DEFINED_HEIGHT_BEGIN
1070
    46
1040
7.886094601211307
1000
ACAD_MTEXT_DEFINED_HEIGHT_END
  0
LINE
  5
147BE
330
13E17
100
AcDbEntity
  8
图框
 62
     6
100
AcDbLine
 10
1126.911601781236
 20
531.714049199969
 30
0.0
 11
1130.411601781236
 21
531.714049199969
 31
0.0
1001
AcDbBlockRepETag
1070
     1
1071
      148
1005
147BE
  0
ENDBLK
  5
13EAE
330
13E17
100
AcDbEntity
  8
0
100
AcDbBlockEnd
  0
BLOCK
  5
142AB
330
142AA
100
AcDbEntity
  8
0
100
AcDbBlockBegin
  2
*D8
 70
     1
 10
0.0
 20
0.0
 30
0.0
  3
*D8
  1

  0
LINE
  5
142AC
330
142AA
100
AcDbEntity
  8
DIM
 62
     6
370
    -2
100
AcDbLine
 10
-1953.679326405037
 20
-449.2264092918206
 30
0.0
 11
-1956.902406409544
 21
-449.2264092918206
 31
0.0
  0
LINE
  5
142AD
330
142AA
100
AcDbEntity
  8
DIM
 62
     6
370
    -2
100
AcDbLine
 10
-1953.679326405037
 20
-453.7264092923107
 30
0.0
 11
-1956.902406409544
 21
-453.7264092923107
 31
0.0
  0
LINE
  5
142AE
330
142AA
100
AcDbEntity
  8
DIM
 62
     1
370
    -2
100
AcDbLine
 10
-1956.602406409544
 20
-449.9264092918206
 30
0.0
 11
-1956.602406409544
 21
-450.2859331015891
 31
0.0
  0
LINE
  5
142AF
330
142AA
100
AcDbEntity
  8
DIM
 62
     1
370
    -2
100
AcDbLine
 10
-1956.602406409544
 20
-453.0264092923109
 30
0.0
 11
-1956.602406409544
 21
-452.6668854825413
 31
0.0
  0
SOLID
  5
142B0
330
142AA
100
AcDbEntity
  8
DIM
 62
     1
100
AcDbTrace
 10
-1956.719073076211
 20
-449.9264092918206
 30
0.0
 11
-1956.485739742878
 21
-449.9264092918206
 31
0.0
 12
-1956.602406409544
 22
-449.2264092918206
 32
0.0
 13
-1956.602406409544
 23
-449.2264092918206
 33
0.0
  0
SOLID
  5
142B1
330
142AA
100
AcDbEntity
  8
DIM
 62
     1
100
AcDbTrace
 10
-1956.719073076211
 20
-453.0264092923109
 30
0.0
 11
-1956.485739742878
 21
-453.0264092923109
 31
0.0
 12
-1956.602406409544
 22
-453.7264092923107
 32
0.0
 13
-1956.602406409544
 23
-453.7264092923107
 33
0.0
  0
MTEXT
  5
142B2
330
142AA
100
AcDbEntity
  8
DIM
 62
     4
100
AcDbMText
 10
-1956.602406409544
 20
-451.4764092920656
 30
0.0
 40
0.8
 41
0.0
 46
0.0
 71
     5
 72
     1
  1
%%C4.5
 11
0.0000000000000001
 21
1.0
 31
0.0
 73
     1
 44
1.0
  0
POINT
  5
142B3
330
142AA
100
AcDbEntity
  8
Defpoints
 62
     0
100
AcDbPoint
 10
-1953.679326405037
 20
-449.2264092918206
 30
0.0
  0
POINT
  5
142B4
330
142AA
100
AcDbEntity
  8
Defpoints
 62
     0
100
AcDbPoint
 10
-1953.679326405037
 20
-453.7264092923107
 30
0.0
  0
POINT
  5
142B5
330
142AA
100
AcDbEntity
  8
Defpoints
 62
     0
100
AcDbPoint
 10
-1956.602406409544
 20
-453.7264092923107
 30
0.0
  0
ENDBLK
  5
142B6
330
142AA
100
AcDbEntity
  8
0
100
AcDbBlockEnd
  0
BLOCK
  5
142B8
330
142B7
100
AcDbEntity
  8
0
100
AcDbBlockBegin
  2
*D9
 70
     1
 10
0.0
 20
0.0
 30
0.0
  3
*D9
  1

  0
LINE
  5
142B9
330
142B7
100
AcDbEntity
  8
DIM
 62
     6
370
    -2
100
AcDbLine
 10
-1930.879326405037
 20
-451.4764092914309
 30
0.0
 11
-1930.879326405037
 21
-457.1212666326819
 31
0.0
  0
LINE
  5
142BA
330
142B7
100
AcDbEntity
  8
DIM
 62
     6
370
    -2
100
AcDbLine
 10
-1953.679326405037
 20
-453.7264092923107
 30
0.0
 11
-1953.679326405037
 21
-457.1212666326819
 31
0.0
  0
LINE
  5
142BB
330
142B7
100
AcDbEntity
  8
DIM
 62
     1
370
    -2
100
AcDbLine
 10
-1931.579326405037
 20
-456.8212666326819
 30
0.0
 11
-1941.08885021456
 21
-456.8212666326819
 31
0.0
  0
LINE
  5
142BC
330
142B7
100
AcDbEntity
  8
DIM
 62
     1
370
    -2
100
AcDbLine
 10
-1952.979326405037
 20
-456.8212666326819
 30
0.0
 11
-1943.469802595513
 21
-456.8212666326819
 31
0.0
  0
SOLID
  5
142BD
330
142B7
100
AcDbEntity
  8
DIM
 62
     1
100
AcDbTrace
 10
-1931.579326405037
 20
-456.7045999660153
 30
0.0
 11
-1931.579326405037
 21
-456.9379332993486
 31
0.0
 12
-1930.879326405037
 22
-456.8212666326819
 32
0.0
 13
-1930.879326405037
 23
-456.8212666326819
 33
0.0
  0
SOLID
  5
142BE
330
142B7
100
AcDbEntity
  8
DIM
 62
     1
100
AcDbTrace
 10
-1952.979326405037
 20
-456.7045999660153
 30
0.0
 11
-1952.979326405037
 21
-456.9379332993486
 31
0.0
 12
-1953.679326405037
 22
-456.8212666326819
 32
0.0
 13
-1953.679326405037
 23
-456.8212666326819
 33
0.0
  0
MTEXT
  5
142BF
330
142B7
100
AcDbEntity
  8
DIM
 62
     4
100
AcDbMText
 10
-1942.279326405037
 20
-456.8212666326819
 30
0.0
 40
0.8
 41
0.0
 46
0.0
 71
     5
 72
     1
  1
22.8
 73
     1
 44
1.0
  0
POINT
  5
142C0
330
142B7
100
AcDbEntity
  8
Defpoints
 62
     0
100
AcDbPoint
 10
-1930.879326405037
 20
-451.4764092914309
 30
0.0
  0
POINT
  5
142C1
330
142B7
100
AcDbEntity
  8
Defpoints
 62
     0
100
AcDbPoint
 10
-1953.679326405037
 20
-453.7264092923107
 30
0.0
  0
POINT
  5
142C2
330
142B7
100
AcDbEntity
  8
Defpoints
 62
     0
100
AcDbPoint
 10
-1953.679326405037
 20
-456.8212666326819
 30
0.0
  0
ENDBLK
  5
142C3
330
142B7
100
AcDbEntity
  8
0
100
AcDbBlockEnd
  0
BLOCK
  5
142C5
330
142C4
100
AcDbEntity
  8
0
100
AcDbBlockBegin
  2
*D10
 70
     1
 10
0.0
 20
0.0
 30
0.0
  3
*D10
  1

  0
LINE
  5
142C6
330
142C4
100
AcDbEntity
  8
DIM
 62
     6
370
    -2
100
AcDbLine
 10
-1952.423589570852
 20
-450.3514092914199
 30
0.0
 11
-1955.474760146753
 21
-450.3514092914199
 31
0.0
  0
LINE
  5
142C7
330
142C4
100
AcDbEntity
  8
DIM
 62
     6
370
    -2
100
AcDbLine
 10
-1952.423589570802
 20
-452.6014092914198
 30
0.0
 11
-1955.474760146753
 21
-452.6014092914198
 31
0.0
  0
LINE
  5
142C8
330
142C4
100
AcDbEntity
  8
DIM
 62
     1
370
    -2
100
AcDbLine
 10
-1955.174760146753
 20
-449.6514092914199
 30
0.0
 11
-1955.174760146753
 21
-448.9514092914198
 31
0.0
  0
LINE
  5
142C9
330
142C4
100
AcDbEntity
  8
DIM
 62
     1
370
    -2
100
AcDbLine
 10
-1955.174760146753
 20
-453.3014092914199
 30
0.0
 11
-1955.174760146753
 21
-454.00140929142
 31
0.0
  0
SOLID
  5
142CA
330
142C4
100
AcDbEntity
  8
DIM
 62
     1
100
AcDbTrace
 10
-1955.29142681342
 20
-449.6514092914199
 30
0.0
 11
-1955.058093480087
 21
-449.6514092914199
 31
0.0
 12
-1955.174760146753
 22
-450.3514092914199
 32
0.0
 13
-1955.174760146753
 23
-450.3514092914199
 33
0.0
  0
SOLID
  5
142CB
330
142C4
100
AcDbEntity
  8
DIM
 62
     1
100
AcDbTrace
 10
-1955.29142681342
 20
-453.3014092914199
 30
0.0
 11
-1955.058093480087
 21
-453.3014092914199
 31
0.0
 12
-1955.174760146753
 22
-452.6014092914198
 32
0.0
 13
-1955.174760146753
 23
-452.6014092914198
 33
0.0
  0
MTEXT
  5
142CC
330
142C4
100
AcDbEntity
  8
DIM
 62
     4
100
AcDbMText
 10
-1955.174760146753
 20
-451.4764092914198
 30
0.0
 40
0.8
 41
0.0
 46
0.0
 71
     5
 72
     1
  1
{\fISOCPEUR|b0|i0|c0|p34;%%C}d
 11
0.0000000000000001
 21
1.0
 31
0.0
 73
     1
 44
1.0
  0
POINT
  5
142CD
330
142C4
100
AcDbEntity
  8
Defpoints
 62
     0
100
AcDbPoint
 10
-1952.423589570852
 20
-450.3514092914199
 30
0.0
  0
POINT
  5
142CE
330
142C4
100
AcDbEntity
  8
Defpoints
 62
     0
100
AcDbPoint
 10
-1952.423589570802
 20
-452.6014092914198
 30
0.0
  0
POINT
  5
142CF
330
142C4
100
AcDbEntity
  8
Defpoints
 62
     0
100
AcDbPoint
 10
-1955.174760146753
 20
-452.6014092914198
 30
0.0
  0
ENDBLK
  5
142D0
330
142C4
100
AcDbEntity
  8
0
100
AcDbBlockEnd
  0
BLOCK
  5
142D2
330
142D1
100
AcDbEntity
  8
0
100
AcDbBlockBegin
  2
*D11
 70
     1
 10
0.0
 20
0.0
 30
0.0
  3
*D11
  1

  0
LINE
  5
142D3
330
142D1
100
AcDbEntity
  8
DIM
 62
     6
370
    -2
100
AcDbLine
 10
-1932.129326405667
 20
-450.2264092908008
 30
0.0
 11
-1928.581932791684
 21
-450.2264092908008
 31
0.0
  0
LINE
  5
142D4
330
142D1
100
AcDbEntity
  8
DIM
 62
     6
370
    -2
100
AcDbLine
 10
-1932.129326405667
 20
-452.7264092920608
 30
0.0
 11
-1928.581932791684
 21
-452.7264092920608
 31
0.0
  0
LINE
  5
142D5
330
142D1
100
AcDbEntity
  8
DIM
 62
     1
370
    -2
100
AcDbLine
 10
-1928.881932791684
 20
-449.5264092908008
 30
0.0
 11
-1928.881932791684
 21
-448.8264092908009
 31
0.0
  0
LINE
  5
142D6
330
142D1
100
AcDbEntity
  8
DIM
 62
     1
370
    -2
100
AcDbLine
 10
-1928.881932791684
 20
-453.4264092920608
 30
0.0
 11
-1928.881932791684
 21
-454.1264092920608
 31
0.0
  0
SOLID
  5
142D7
330
142D1
100
AcDbEntity
  8
DIM
 62
     1
100
AcDbTrace
 10
-1928.99859945835
 20
-449.5264092908008
 30
0.0
 11
-1928.765266125017
 21
-449.5264092908008
 31
0.0
 12
-1928.881932791684
 22
-450.2264092908008
 32
0.0
 13
-1928.881932791684
 23
-450.2264092908008
 33
0.0
  0
SOLID
  5
142D8
330
142D1
100
AcDbEntity
  8
DIM
 62
     1
100
AcDbTrace
 10
-1928.99859945835
 20
-453.4264092920608
 30
0.0
 11
-1928.765266125017
 21
-453.4264092920608
 31
0.0
 12
-1928.881932791684
 22
-452.7264092920608
 32
0.0
 13
-1928.881932791684
 23
-452.7264092920608
 33
0.0
  0
MTEXT
  5
142D9
330
142D1
100
AcDbEntity
  8
DIM
 62
     4
100
AcDbMText
 10
-1928.881932791684
 20
-451.4764092914312
 30
0.0
 40
0.8
 41
0.0
 46
0.0
 71
     5
 72
     1
  1
{\Fromand,hztxt|c134;%%C}2.5
 11
0.0000000000000001
 21
1.0
 31
0.0
 73
     1
 44
1.0
  0
POINT
  5
142DA
330
142D1
100
AcDbEntity
  8
Defpoints
 62
     0
100
AcDbPoint
 10
-1932.129326405667
 20
-450.2264092908008
 30
0.0
  0
POINT
  5
142DB
330
142D1
100
AcDbEntity
  8
Defpoints
 62
     0
100
AcDbPoint
 10
-1932.129326405667
 20
-452.7264092920608
 30
0.0
  0
POINT
  5
142DC
330
142D1
100
AcDbEntity
  8
Defpoints
 62
     0
100
AcDbPoint
 10
-1928.881932791684
 20
-452.7264092920608
 30
0.0
  0
ENDBLK
  5
142DD
330
142D1
100
AcDbEntity
  8
0
100
AcDbBlockEnd
  0
BLOCK
  5
142DF
330
142DE
100
AcDbEntity
  8
0
100
AcDbBlockBegin
  2
*D12
 70
     1
 10
0.0
 20
0.0
 30
0.0
  3
*D12
  1

  0
LINE
  5
142E0
330
142DE
100
AcDbEntity
  8
DIM
 62
     6
370
    -2
100
AcDbLine
 10
-1953.679326405037
 20
-454.1794985772391
 30
0.0
 11
-1953.679326405037
 21
-455.3003651733381
 31
0.0
  0
LINE
  5
142E1
330
142DE
100
AcDbEntity
  8
DIM
 62
     6
370
    -2
100
AcDbLine
 10
-1946.179326405063
 20
-452.6014092912895
 30
0.0
 11
-1946.179326405063
 21
-455.3003651733381
 31
0.0
  0
LINE
  5
142E2
330
142DE
100
AcDbEntity
  8
DIM
 62
     1
370
    -2
100
AcDbLine
 10
-1952.979326405037
 20
-455.0003651733381
 30
0.0
 11
-1950.815040690765
 21
-455.0003651733381
 31
0.0
  0
LINE
  5
142E3
330
142DE
100
AcDbEntity
  8
DIM
 62
     1
370
    -2
100
AcDbLine
 10
-1946.879326405064
 20
-455.0003651733381
 30
0.0
 11
-1949.043612119336
 21
-455.0003651733381
 31
0.0
  0
SOLID
  5
142E4
330
142DE
100
AcDbEntity
  8
DIM
 62
     1
100
AcDbTrace
 10
-1952.979326405037
 20
-454.8836985066713
 30
0.0
 11
-1952.979326405037
 21
-455.1170318400048
 31
0.0
 12
-1953.679326405037
 22
-455.0003651733381
 32
0.0
 13
-1953.679326405037
 23
-455.0003651733381
 33
0.0
  0
SOLID
  5
142E5
330
142DE
100
AcDbEntity
  8
DIM
 62
     1
100
AcDbTrace
 10
-1946.879326405064
 20
-454.8836985066713
 30
0.0
 11
-1946.879326405064
 21
-455.1170318400048
 31
0.0
 12
-1946.179326405063
 22
-455.0003651733381
 32
0.0
 13
-1946.179326405063
 23
-455.0003651733381
 33
0.0
  0
MTEXT
  5
142E6
330
142DE
100
AcDbEntity
  8
DIM
 62
     4
100
AcDbMText
 10
-1949.92932640505
 20
-455.0003651733381
 30
0.0
 40
0.8
 41
0.0
 46
0.0
 71
     5
 72
     1
  1
7.5
 73
     1
 44
1.0
  0
POINT
  5
142E7
330
142DE
100
AcDbEntity
  8
Defpoints
 62
     0
100
AcDbPoint
 10
-1953.679326405037
 20
-454.1794985772391
 30
0.0
  0
POINT
  5
142E8
330
142DE
100
AcDbEntity
  8
Defpoints
 62
     0
100
AcDbPoint
 10
-1946.179326405063
 20
-452.6014092912895
 30
0.0
  0
POINT
  5
142E9
330
142DE
100
AcDbEntity
  8
Defpoints
 62
     0
100
AcDbPoint
 10
-1946.179326405063
 20
-455.0003651733381
 30
0.0
  0
ENDBLK
  5
142EA
330
142DE
100
AcDbEntity
  8
0
100
AcDbBlockEnd
  0
BLOCK
  5
142EC
330
142EB
100
AcDbEntity
  8
0
100
AcDbBlockBegin
  2
*D13
 70
     1
 10
0.0
 20
0.0
 30
0.0
  3
*D13
  1

  0
LINE
  5
142ED
330
142EB
100
AcDbEntity
  8
DIM
 62
     6
370
    -2
100
AcDbLine
 10
-1949.699700268854
 20
-453.2264092913592
 30
0.0
 11
-1950.462216819587
 21
-453.2264092913592
 31
0.0
  0
LINE
  5
142EE
330
142EB
100
AcDbEntity
  8
DIM
 62
     6
370
    -2
100
AcDbLine
 10
-1949.174700269274
 20
-449.7264092913476
 30
0.0
 11
-1950.462216819587
 21
-449.7264092913476
 31
0.0
  0
LINE
  5
142EF
330
142EB
100
AcDbEntity
  8
DIM
 62
     1
370
    -2
100
AcDbLine
 10
-1950.162216819587
 20
-452.5264092913592
 30
0.0
 11
-1950.162216819587
 21
-450.4264092913476
 31
0.0
  0
LINE
  5
142F0
330
142EB
100
AcDbEntity
  8
DIM
 62
     1
370
    -2
100
AcDbLine
 10
-1950.162216819587
 20
-449.7264092913476
 30
0.0
 11
-1950.162216819587
 21
-449.0264092913476
 31
0.0
  0
SOLID
  5
142F1
330
142EB
100
AcDbEntity
  8
DIM
 62
     1
100
AcDbTrace
 10
-1950.278883486254
 20
-452.5264092913592
 30
0.0
 11
-1950.045550152921
 21
-452.5264092913592
 31
0.0
 12
-1950.162216819587
 22
-453.2264092913592
 32
0.0
 13
-1950.162216819587
 23
-453.2264092913592
 33
0.0
  0
SOLID
  5
142F2
330
142EB
100
AcDbEntity
  8
DIM
 62
     1
100
AcDbTrace
 10
-1950.278883486254
 20
-450.4264092913476
 30
0.0
 11
-1950.045550152921
 21
-450.4264092913476
 31
0.0
 12
-1950.162216819587
 22
-449.7264092913476
 32
0.0
 13
-1950.162216819587
 23
-449.7264092913476
 33
0.0
  0
MTEXT
  5
142F3
330
142EB
100
AcDbEntity
  8
DIM
 62
     4
100
AcDbMText
 10
-1950.162216819587
 20
-448.2961235770622
 30
0.0
 40
0.8
 41
0.0
 46
0.0
 71
     5
 72
     1
  1
{\fISOCPEUR|b0|i0|c0|p34;%%C}D
 11
0.0000000000000001
 21
1.0
 31
0.0
 73
     1
 44
1.0
  0
POINT
  5
142F4
330
142EB
100
AcDbEntity
  8
Defpoints
 62
     0
100
AcDbPoint
 10
-1949.699700268854
 20
-453.2264092913592
 30
0.0
  0
POINT
  5
142F5
330
142EB
100
AcDbEntity
  8
Defpoints
 62
     0
100
AcDbPoint
 10
-1949.174700269274
 20
-449.7264092913476
 30
0.0
  0
POINT
  5
142F6
330
142EB
100
AcDbEntity
  8
Defpoints
 62
     0
100
AcDbPoint
 10
-1950.162216819587
 20
-449.7264092913476
 30
0.0
  0
ENDBLK
  5
142F7
330
142EB
100
AcDbEntity
  8
0
100
AcDbBlockEnd
  0
BLOCK
  5
1441D
330
1441C
100
AcDbEntity
  8
0
100
AcDbBlockBegin
  2
*D14
 70
     1
 10
0.0
 20
0.0
 30
0.0
  3
*D14
  1

  0
LINE
  5
145D6
330
1441C
100
AcDbEntity
  8
DIM
 62
     6
370
    -2
100
AcDbLine
 10
408.4401743396928
 20
239.1931840973382
 30
0.0
 11
402.2475629113091
 21
239.1931840973382
 31
0.0
  0
LINE
  5
145D7
330
1441C
100
AcDbEntity
  8
DIM
 62
     6
370
    -2
100
AcDbLine
 10
408.4401743396928
 20
234.693184096848
 30
0.0
 11
402.2475629113091
 21
234.693184096848
 31
0.0
  0
LINE
  5
145D8
330
1441C
100
AcDbEntity
  8
DIM
 62
     1
370
    -2
100
AcDbLine
 10
402.7475629113091
 20
238.1931840973382
 30
0.0
 11
402.7475629113091
 21
235.693184096848
 31
0.0
  0
SOLID
  5
145D9
330
1441C
100
AcDbEntity
  8
DIM
 62
     1
100
AcDbTrace
 10
402.5808962446424
 20
238.1931840973382
 30
0.0
 11
402.9142295779758
 21
238.1931840973382
 31
0.0
 12
402.7475629113091
 22
239.1931840973382
 32
0.0
 13
402.7475629113091
 23
239.1931840973382
 33
0.0
  0
SOLID
  5
145DA
330
1441C
100
AcDbEntity
  8
DIM
 62
     1
100
AcDbTrace
 10
402.5808962446424
 20
235.693184096848
 30
0.0
 11
402.9142295779758
 21
235.693184096848
 31
0.0
 12
402.7475629113091
 22
234.693184096848
 32
0.0
 13
402.7475629113091
 23
234.693184096848
 33
0.0
  0
MTEXT
  5
145DB
330
1441C
100
AcDbEntity
  8
DIM
 62
     4
100
AcDbMText
 10
401.497562911309
 20
236.6032263562149
 30
0.0
 40
1.5
 41
0.0
 46
0.0
 71
     5
 72
     1
  1
\A1;%%C4.5
  7
Romans字体
 11
0.0000000000000001
 21
1.0
 31
0.0
 73
     1
 44
1.0
  0
POINT
  5
145DC
330
1441C
100
AcDbEntity
  8
Defpoints
 62
     0
100
AcDbPoint
 10
408.6401743396928
 20
239.1931840973382
 30
0.0
  0
POINT
  5
145DD
330
1441C
100
AcDbEntity
  8
Defpoints
 62
     0
100
AcDbPoint
 10
408.6401743396928
 20
234.693184096848
 30
0.0
  0
POINT
  5
145DE
330
1441C
100
AcDbEntity
  8
Defpoints
 62
     0
100
AcDbPoint
 10
402.7475629113091
 20
234.693184096848
 30
0.0
  0
ENDBLK
  5
1441E
330
1441C
100
AcDbEntity
  8
0
100
AcDbBlockEnd
  0
BLOCK
  5
14429
330
14428
100
AcDbEntity
  8
0
100
AcDbBlockBegin
  2
*D15
 70
     1
 10
0.0
 20
0.0
 30
0.0
  3
*D15
  1

  0
LINE
  5
145E8
330
14428
100
AcDbEntity
  8
DIM
 62
     6
370
    -2
100
AcDbLine
 10
409.6959111738778
 20
238.0681840977389
 30
0.0
 11
405.132898016376
 21
238.0681840977389
 31
0.0
  0
LINE
  5
145E9
330
14428
100
AcDbEntity
  8
DIM
 62
     6
370
    -2
100
AcDbLine
 10
409.6959111739279
 20
235.8181840977389
 30
0.0
 11
405.132898016376
 21
235.8181840977389
 31
0.0
  0
LINE
  5
145EA
330
14428
100
AcDbEntity
  8
DIM
 62
     1
370
    -2
100
AcDbLine
 10
405.632898016376
 20
239.0681840977389
 30
0.0
 11
405.632898016376
 21
240.0681840977389
 31
0.0
  0
LINE
  5
145EB
330
14428
100
AcDbEntity
  8
DIM
 62
     1
370
    -2
100
AcDbLine
 10
405.632898016376
 20
234.8181840977388
 30
0.0
 11
405.632898016376
 21
233.8181840977389
 31
0.0
  0
SOLID
  5
145EC
330
14428
100
AcDbEntity
  8
DIM
 62
     1
100
AcDbTrace
 10
405.4662313497093
 20
239.0681840977389
 30
0.0
 11
405.7995646830426
 21
239.0681840977389
 31
0.0
 12
405.632898016376
 22
238.0681840977389
 32
0.0
 13
405.632898016376
 23
238.0681840977389
 33
0.0
  0
SOLID
  5
145ED
330
14428
100
AcDbEntity
  8
DIM
 62
     1
100
AcDbTrace
 10
405.4662313497093
 20
234.8181840977388
 30
0.0
 11
405.7995646830426
 21
234.8181840977388
 31
0.0
 12
405.632898016376
 22
235.8181840977389
 32
0.0
 13
405.632898016376
 23
235.8181840977389
 33
0.0
  0
MTEXT
  5
145EE
330
14428
100
AcDbEntity
  8
DIM
 62
     4
100
AcDbMText
 10
404.3828980163758
 20
236.943184097739
 30
0.0
 40
1.5
 41
0.0
 46
0.0
 71
     5
 72
     1
  1
\A1;%%Cd
  7
Romans字体
 11
0.0000000000000001
 21
1.0
 31
0.0
 73
     1
 44
1.0
  0
POINT
  5
145EF
330
14428
100
AcDbEntity
  8
Defpoints
 62
     0
100
AcDbPoint
 10
409.8959111738778
 20
238.0681840977389
 30
0.0
  0
POINT
  5
145F0
330
14428
100
AcDbEntity
  8
Defpoints
 62
     0
100
AcDbPoint
 10
409.8959111739278
 20
235.8181840977389
 30
0.0
  0
POINT
  5
145F1
330
14428
100
AcDbEntity
  8
Defpoints
 62
     0
100
AcDbPoint
 10
405.632898016376
 20
235.8181840977389
 30
0.0
  0
ENDBLK
  5
1442A
330
14428
100
AcDbEntity
  8
0
100
AcDbBlockEnd
  0
BLOCK
  5
14436
330
14435
100
AcDbEntity
  8
0
100
AcDbBlockBegin
  2
*D16
 70
     1
 10
0.0
 20
0.0
 30
0.0
  3
*D16
  1

  0
LINE
  5
145FC
330
14435
100
AcDbEntity
  8
DIM
 62
     6
370
    -2
100
AcDbLine
 10
408.6401743396928
 20
234.0400948119197
 30
0.0
 11
408.6401743396928
 21
231.3846573788369
 31
0.0
  0
LINE
  5
145FD
330
14435
100
AcDbEntity
  8
DIM
 62
     6
370
    -2
100
AcDbLine
 10
416.1401743396659
 20
235.6181840978693
 30
0.0
 11
416.1401743396659
 21
231.3846573788369
 31
0.0
  0
LINE
  5
145FE
330
14435
100
AcDbEntity
  8
DIM
 62
     1
370
    -2
100
AcDbLine
 10
409.6401743396929
 20
231.8846573788369
 30
0.0
 11
415.1401743396659
 21
231.8846573788369
 31
0.0
  0
SOLID
  5
145FF
330
14435
100
AcDbEntity
  8
DIM
 62
     1
100
AcDbTrace
 10
409.6401743396929
 20
232.0513240455035
 30
0.0
 11
409.6401743396929
 21
231.7179907121702
 31
0.0
 12
408.6401743396928
 22
231.8846573788369
 32
0.0
 13
408.6401743396928
 23
231.8846573788369
 33
0.0
  0
SOLID
  5
14600
330
14435
100
AcDbEntity
  8
DIM
 62
     1
100
AcDbTrace
 10
415.1401743396659
 20
232.0513240455035
 30
0.0
 11
415.1401743396659
 21
231.7179907121702
 31
0.0
 12
416.1401743396659
 22
231.8846573788369
 32
0.0
 13
416.1401743396659
 23
231.8846573788369
 33
0.0
  0
MTEXT
  5
14601
330
14435
100
AcDbEntity
  8
DIM
 62
     4
100
AcDbMText
 10
412.3901743396793
 20
233.1346573788369
 30
0.0
 40
1.5
 41
0.0
 46
0.0
 71
     5
 72
     1
  1
\A1;7.5
  7
Romans字体
 73
     1
 44
1.0
  0
POINT
  5
14602
330
14435
100
AcDbEntity
  8
Defpoints
 62
     0
100
AcDbPoint
 10
408.6401743396928
 20
234.2400948119197
 30
0.0
  0
POINT
  5
14603
330
14435
100
AcDbEntity
  8
Defpoints
 62
     0
100
AcDbPoint
 10
416.1401743396659
 20
235.8181840978693
 30
0.0
  0
POINT
  5
14604
330
14435
100
AcDbEntity
  8
Defpoints
 62
     0
100
AcDbPoint
 10
416.1401743396659
 20
231.8846573788369
 30
0.0
  0
ENDBLK
  5
14437
330
14435
100
AcDbEntity
  8
0
100
AcDbBlockEnd
  0
BLOCK
  5
1444B
330
1444A
100
AcDbEntity
  8
0
100
AcDbBlockBegin
  2
*D17
 70
     1
 10
0.0
 20
0.0
 30
0.0
  3
*D17
  1

  0
LINE
  5
1460F
330
1444A
100
AcDbEntity
  8
DIM
 62
     6
370
    -2
100
AcDbLine
 10
431.4401743396926
 20
236.743184097728
 30
0.0
 11
431.4401743396926
 21
228.5677894565221
 31
0.0
  0
LINE
  5
14610
330
1444A
100
AcDbEntity
  8
DIM
 62
     6
370
    -2
100
AcDbLine
 10
408.6401743396928
 20
234.493184096848
 30
0.0
 11
408.6401743396928
 21
228.5677894565221
 31
0.0
  0
LINE
  5
14611
330
1444A
100
AcDbEntity
  8
DIM
 62
     1
370
    -2
100
AcDbLine
 10
430.4401743396925
 20
229.0677894565221
 30
0.0
 11
409.6401743396929
 21
229.0677894565221
 31
0.0
  0
SOLID
  5
14612
330
1444A
100
AcDbEntity
  8
DIM
 62
     1
100
AcDbTrace
 10
430.4401743396925
 20
229.2344561231888
 30
0.0
 11
430.4401743396925
 21
228.9011227898555
 31
0.0
 12
431.4401743396926
 22
229.0677894565221
 32
0.0
 13
431.4401743396926
 23
229.0677894565221
 33
0.0
  0
SOLID
  5
14613
330
1444A
100
AcDbEntity
  8
DIM
 62
     1
100
AcDbTrace
 10
409.6401743396929
 20
229.2344561231888
 30
0.0
 11
409.6401743396929
 21
228.9011227898555
 31
0.0
 12
408.6401743396928
 22
229.0677894565221
 32
0.0
 13
408.6401743396928
 23
229.0677894565221
 33
0.0
  0
MTEXT
  5
14614
330
1444A
100
AcDbEntity
  8
DIM
 62
     4
100
AcDbMText
 10
420.0401743396926
 20
230.3177894565221
 30
0.0
 40
1.5
 41
0.0
 46
0.0
 71
     5
 72
     1
  1
\A1;22.8
  7
Romans字体
 73
     1
 44
1.0
  0
POINT
  5
14615
330
1444A
100
AcDbEntity
  8
Defpoints
 62
     0
100
AcDbPoint
 10
431.4401743396926
 20
236.9431840977279
 30
0.0
  0
POINT
  5
14616
330
1444A
100
AcDbEntity
  8
Defpoints
 62
     0
100
AcDbPoint
 10
408.6401743396928
 20
234.693184096848
 30
0.0
  0
POINT
  5
14617
330
1444A
100
AcDbEntity
  8
Defpoints
 62
     0
100
AcDbPoint
 10
408.6401743396928
 20
229.0677894565221
 30
0.0
  0
ENDBLK
  5
1444C
330
1444A
100
AcDbEntity
  8
0
100
AcDbBlockEnd
  0
BLOCK
  5
14461
330
14460
100
AcDbEntity
  8
0
100
AcDbBlockBegin
  2
*D18
 70
     1
 10
0.0
 20
0.0
 30
0.0
  3
*D18
  1

  0
LINE
  5
145F2
330
14460
100
AcDbEntity
  8
DIM
 62
     6
370
    -2
100
AcDbLine
 10
430.3901743390625
 20
238.1931840983579
 30
0.0
 11
435.979294843318
 21
238.1931840983579
 31
0.0
  0
LINE
  5
145F3
330
14460
100
AcDbEntity
  8
DIM
 62
     6
370
    -2
100
AcDbLine
 10
430.3901743390625
 20
235.6931840970979
 30
0.0
 11
435.979294843318
 21
235.6931840970979
 31
0.0
  0
LINE
  5
145F4
330
14460
100
AcDbEntity
  8
DIM
 62
     1
370
    -2
100
AcDbLine
 10
435.479294843318
 20
239.1931840983579
 30
0.0
 11
435.479294843318
 21
240.1931840983579
 31
0.0
  0
LINE
  5
145F5
330
14460
100
AcDbEntity
  8
DIM
 62
     1
370
    -2
100
AcDbLine
 10
435.479294843318
 20
234.693184097098
 30
0.0
 11
435.479294843318
 21
229.2646126685265
 31
0.0
  0
SOLID
  5
145F6
330
14460
100
AcDbEntity
  8
DIM
 62
     1
100
AcDbTrace
 10
435.3126281766512
 20
239.1931840983579
 30
0.0
 11
435.6459615099846
 21
239.1931840983579
 31
0.0
 12
435.479294843318
 22
238.1931840983579
 32
0.0
 13
435.479294843318
 23
238.1931840983579
 33
0.0
  0
SOLID
  5
145F7
330
14460
100
AcDbEntity
  8
DIM
 62
     1
100
AcDbTrace
 10
435.3126281766512
 20
234.693184097098
 30
0.0
 11
435.6459615099846
 21
234.693184097098
 31
0.0
 12
435.479294843318
 22
235.6931840970979
 32
0.0
 13
435.479294843318
 23
235.6931840970979
 33
0.0
  0
MTEXT
  5
145F8
330
14460
100
AcDbEntity
  8
DIM
 62
     4
100
AcDbMText
 10
434.229294843318
 20
231.4788983828123
 30
0.0
 40
1.5
 41
0.0
 46
0.0
 71
     5
 72
     1
  1
\A1;{\Fromand,hztxt|c134;%%C}2.5
  7
Romans字体
 11
0.0000000000000001
 21
1.0
 31
0.0
 73
     1
 44
1.0
  0
POINT
  5
145F9
330
14460
100
AcDbEntity
  8
Defpoints
 62
     0
100
AcDbPoint
 10
430.1901743390624
 20
238.1931840983579
 30
0.0
  0
POINT
  5
145FA
330
14460
100
AcDbEntity
  8
Defpoints
 62
     0
100
AcDbPoint
 10
430.1901743390624
 20
235.6931840970979
 30
0.0
  0
POINT
  5
145FB
330
14460
100
AcDbEntity
  8
Defpoints
 62
     0
100
AcDbPoint
 10
435.479294843318
 20
235.6931840970979
 30
0.0
  0
ENDBLK
  5
14462
330
14460
100
AcDbEntity
  8
0
100
AcDbBlockEnd
  0
BLOCK
  5
14477
330
14476
100
AcDbEntity
  8
0
100
AcDbBlockBegin
  2
*D19
 70
     1
 10
0.0
 20
0.0
 30
0.0
  3
*D19
  1

  0
LINE
  5
14605
330
14476
100
AcDbEntity
  8
DIM
 62
     6
370
    -2
100
AcDbLine
 10
412.4198004758755
 20
235.1931840977996
 30
0.0
 11
411.6572839251425
 21
235.1931840977996
 31
0.0
  0
LINE
  5
14606
330
14476
100
AcDbEntity
  8
DIM
 62
     6
370
    -2
100
AcDbLine
 10
412.944800475456
 20
238.6931840978111
 30
0.0
 11
411.6572839251425
 21
238.6931840978111
 31
0.0
  0
LINE
  5
14607
330
14476
100
AcDbEntity
  8
DIM
 62
     1
370
    -2
100
AcDbLine
 10
412.1572839251425
 20
236.1931840977996
 30
0.0
 11
412.1572839251425
 21
237.6931840978111
 31
0.0
  0
LINE
  5
14608
330
14476
100
AcDbEntity
  8
DIM
 62
     1
370
    -2
100
AcDbLine
 10
412.1572839251425
 20
238.6931840978111
 30
0.0
 11
412.1572839251425
 21
244.9217555263826
 31
0.0
  0
SOLID
  5
14609
330
14476
100
AcDbEntity
  8
DIM
 62
     1
100
AcDbTrace
 10
411.9906172584758
 20
236.1931840977996
 30
0.0
 11
412.3239505918091
 21
236.1931840977996
 31
0.0
 12
412.1572839251425
 22
235.1931840977996
 32
0.0
 13
412.1572839251425
 23
235.1931840977996
 33
0.0
  0
SOLID
  5
1460A
330
14476
100
AcDbEntity
  8
DIM
 62
     1
100
AcDbTrace
 10
411.9906172584758
 20
237.6931840978111
 30
0.0
 11
412.3239505918091
 21
237.6931840978111
 31
0.0
 12
412.1572839251425
 22
238.6931840978111
 32
0.0
 13
412.1572839251425
 23
238.6931840978111
 33
0.0
  0
MTEXT
  5
1460B
330
14476
100
AcDbEntity
  8
DIM
 62
     4
100
AcDbMText
 10
410.9072839251423
 20
243.5110412406683
 30
0.0
 40
1.5
 41
0.0
 46
0.0
 71
     5
 72
     1
  1
\A1;%%CD
  7
Romans字体
 11
0.0000000000000001
 21
1.0
 31
0.0
 73
     1
 44
1.0
  0
POINT
  5
1460C
330
14476
100
AcDbEntity
  8
Defpoints
 62
     0
100
AcDbPoint
 10
412.6198004758756
 20
235.1931840977996
 30
0.0
  0
POINT
  5
1460D
330
14476
100
AcDbEntity
  8
Defpoints
 62
     0
100
AcDbPoint
 10
413.144800475456
 20
238.6931840978111
 30
0.0
  0
POINT
  5
1460E
330
14476
100
AcDbEntity
  8
Defpoints
 62
     0
100
AcDbPoint
 10
412.1572839251425
 20
238.6931840978111
 30
0.0
  0
ENDBLK
  5
14478
330
14476
100
AcDbEntity
  8
0
100
AcDbBlockEnd
  0
ENDSEC
  0
SECTION
  2
ENTITIES
  0
HATCH
  5
28AE
330
1F
100
AcDbEntity
  8
图层 1
 62
     7
100
AcDbHatch
 10
0.0
 20
0.0
 30
0.0
210
0.0
220
0.0
230
1.0
  2
SOLID
 70
     1
 71
     0
 91
        1
 92
        1
 93
        2
 72
     4
 94
        3
 73
     0
 74
     0
 95
       17
 96
       13
 40
0.0
 40
0.0
 40
0.0
 40
0.0
 40
0.3527780104152769
 40
0.3527780104152769
 40
0.3527780104152769
 40
0.7055560208305538
 40
0.7055560208305538
 40
0.7055560208305538
 40
1.058334031245828
 40
1.058334031245828
 40
1.058334031245828
 40
1.411112041661104
 40
1.411112041661104
 40
1.411112041661104
 40
1.411112041661104
 10
11.07013262565829
 20
29.50312817963231
 10
11.07013262565829
 20
29.50312817963231
 10
10.9431807732774
 20
29.50312817963231
 10
10.9431807732774
 20
29.50312817963231
 10
10.9431807732774
 20
29.50312817963231
 10
10.85843136843155
 20
29.22786486877117
 10
10.85843136843155
 20
29.22786486877117
 10
10.85843136843155
 20
29.22786486877117
 10
10.90080607085448
 20
29.2068497724476
 10
10.90080607085448
 20
29.2068497724476
 10
10.94455881238059
 20
29.31571486159919
 10
11.00346998404173
 20
29.40907701083995
 10
11.07013262565829
 20
29.50312817963231
 72
     1
 10
11.07013262565829
 20
29.50312817963231
 11
11.07013262565829
 21
29.50312817963231
 97
        0
 75
     0
 76
     1
 98
        0
450
        0
451
        0
460
0.0
461
0.0
452
        0
462
0.0
453
        0
470

  0
HATCH
  5
2C65
330
1F
100
AcDbEntity
  8
图层 1
 62
     7
100
AcDbHatch
 10
0.0
 20
0.0
 30
0.0
210
0.0
220
0.0
230
1.0
  2
SOLID
 70
     1
 71
     0
 91
        1
 92
        1
 93
        2
 72
     4
 94
        3
 73
     0
 74
     0
 95
       47
 96
       43
 40
0.0
 40
0.0
 40
0.0
 40
0.0
 40
0.3527780104152769
 40
0.3527780104152769
 40
0.3527780104152769
 40
0.7055560208305538
 40
0.7055560208305538
 40
0.7055560208305538
 40
1.058334031245828
 40
1.058334031245828
 40
1.058334031245828
 40
1.411112041661104
 40
1.411112041661104
 40
1.411112041661104
 40
1.763890052076384
 40
1.763890052076384
 40
1.763890052076384
 40
2.116668062491659
 40
2.116668062491659
 40
2.116668062491659
 40
2.469446072906936
 40
2.469446072906936
 40
2.469446072906936
 40
2.822224083322215
 40
2.822224083322215
 40
2.822224083322215
 40
3.175002093737492
 40
3.175002093737492
 40
3.175002093737492
 40
3.527780104152768
 40
3.527780104152768
 40
3.527780104152768
 40
3.880558114568044
 40
3.880558114568044
 40
3.880558114568044
 40
4.233336124983321
 40
4.233336124983321
 40
4.233336124983321
 40
4.586114135398599
 40
4.586114135398599
 40
4.586114135398599
 40
4.938892145813873
 40
4.938892145813873
 40
4.938892145813873
 40
4.938892145813873
 10
162.8986914070121
 20
257.4895347631509
 10
162.8986914070121
 20
257.4895347631509
 10
162.9200510131114
 20
257.4471600607279
 10
162.9200510131114
 20
257.4471600607279
 10
162.9200510131114
 20
257.4471600607279
 10
162.9200510131114
 20
257.404785358305
 10
162.9200510131114
 20
257.404785358305
 10
162.9200510131114
 20
257.404785358305
 10
162.8986914070121
 20
257.36258291077
 10
162.8986914070121
 20
257.36258291077
 10
162.8986914070121
 20
257.36258291077
 10
162.8986914070121
 20
257.320208208347
 10
162.8986914070121
 20
257.320208208347
 10
162.8986914070121
 20
257.320208208347
 10
162.8563167045891
 20
257.2990208571356
 10
162.8563167045891
 20
257.2990208571356
 10
162.8563167045891
 20
257.2990208571356
 10
162.8139420021662
 20
257.2563016449369
 10
162.8139420021662
 20
257.2563016449369
 10
162.8139420021662
 20
257.2563016449369
 10
162.7295371070961
 20
257.2563016449369
 10
162.7295371070961
 20
257.2563016449369
 10
162.7295371070961
 20
257.2563016449369
 10
162.6658027985738
 20
257.2778335059241
 10
162.6658027985738
 20
257.2778335059241
 10
162.6658027985738
 20
257.2778335059241
 10
162.6237726059267
 20
257.2990208571356
 10
162.6237726059267
 20
257.2990208571356
 10
162.6237726059267
 20
257.2990208571356
 10
162.5813979035038
 20
257.3413955595585
 10
162.5813979035038
 20
257.3413955595585
 10
162.5813979035038
 20
257.3413955595585
 10
162.5813979035038
 20
257.4895347631509
 10
162.5813979035038
 20
257.4895347631509
 10
162.5813979035038
 20
257.4895347631509
 10
162.6447877022503
 20
257.5525800521216
 10
162.6447877022503
 20
257.5525800521216
 10
162.6447877022503
 20
257.5525800521216
 10
162.7081775009967
 20
257.5525800521216
 10
162.7081775009967
 20
257.5525800521216
 10
162.8749202324821
 20
257.5424170137356
 10
162.7918933765152
 20
257.5939212252171
 10
162.8986914070121
 20
257.4895347631509
 72
     1
 10
162.8986914070121
 20
257.4895347631509
 11
162.8986914070121
 21
257.4895347631509
 97
        0
 75
     0
 76
     1
 98
        0
450
        0
451
        0
460
0.0
461
0.0
452
        0
462
0.0
453
        0
470

  0
HATCH
  5
2EE7
330
1F
100
AcDbEntity
  8
图层 1
 62
     7
100
AcDbHatch
 10
0.0
 20
0.0
 30
0.0
210
0.0
220
0.0
230
1.0
  2
SOLID
 70
     1
 71
     0
 91
        1
 92
        1
 93
        2
 72
     4
 94
        3
 73
     0
 74
     0
 95
       56
 96
       52
 40
0.0
 40
0.0
 40
0.0
 40
0.0
 40
0.3527780104152769
 40
0.3527780104152769
 40
0.3527780104152769
 40
0.7055560208305538
 40
0.7055560208305538
 40
0.7055560208305538
 40
1.058334031245828
 40
1.058334031245828
 40
1.058334031245828
 40
1.411112041661104
 40
1.411112041661104
 40
1.411112041661104
 40
1.763890052076384
 40
1.763890052076384
 40
1.763890052076384
 40
2.116668062491659
 40
2.116668062491659
 40
2.116668062491659
 40
2.469446072906936
 40
2.469446072906936
 40
2.469446072906936
 40
2.822224083322215
 40
2.822224083322215
 40
2.822224083322215
 40
3.175002093737492
 40
3.175002093737492
 40
3.175002093737492
 40
3.527780104152768
 40
3.527780104152768
 40
3.527780104152768
 40
3.880558114568044
 40
3.880558114568044
 40
3.880558114568044
 40
4.233336124983321
 40
4.233336124983321
 40
4.233336124983321
 40
4.586114135398599
 40
4.586114135398599
 40
4.586114135398599
 40
4.938892145813873
 40
4.938892145813873
 40
4.938892145813873
 40
5.291670156229153
 40
5.291670156229153
 40
5.291670156229153
 40
5.64444816664443
 40
5.64444816664443
 40
5.64444816664443
 40
5.997226177059705
 40
5.997226177059705
 40
5.997226177059705
 40
5.997226177059705
 10
185.4837187788815
 20
241.4451977396596
 10
185.4837187788815
 20
241.4451977396596
 10
185.4837187788815
 20
241.4028230372367
 10
185.4837187788815
 20
241.4028230372367
 10
185.4837187788815
 20
241.4028230372367
 10
185.5047338752051
 20
241.3604483348137
 10
185.5047338752051
 20
241.3604483348137
 10
185.4520238795082
 20
241.2782827532863
 10
185.4671823096433
 20
241.1897437409066
 10
185.335579575289
 20
241.2119646214456
 10
185.335579575289
 20
241.2119646214456
 10
185.2932048728662
 20
241.2119646214456
 10
185.2932048728662
 20
241.2119646214456
 10
185.2932048728662
 20
241.2119646214456
 10
185.2294705643439
 20
241.2334964824328
 10
185.2294705643439
 20
241.2334964824328
 10
185.2294705643439
 20
241.2334964824328
 10
185.1660807655974
 20
241.2543393238685
 10
185.1660807655974
 20
241.2543393238685
 10
185.1660807655974
 20
241.2543393238685
 10
185.1450656692739
 20
241.2758711848558
 10
185.1450656692739
 20
241.2758711848558
 10
185.1450656692739
 20
241.2758711848558
 10
185.1450656692739
 20
241.2967140262914
 10
185.1450656692739
 20
241.2967140262914
 10
185.1450656692739
 20
241.2967140262914
 10
185.1237060631745
 20
241.3604483348137
 10
185.1237060631745
 20
241.3604483348137
 10
185.1237060631745
 20
241.3604483348137
 10
185.1237060631745
 20
241.4028230372367
 10
185.1237060631745
 20
241.4028230372367
 10
185.1237060631745
 20
241.4028230372367
 10
185.1660807655974
 20
241.4875724420825
 10
185.1660807655974
 20
241.4875724420825
 10
185.1660807655974
 20
241.4875724420825
 10
185.2084554680203
 20
241.5085875384061
 10
185.2084554680203
 20
241.5085875384061
 10
185.2084554680203
 20
241.5085875384061
 10
185.2718452667668
 20
241.5297748896175
 10
185.2718452667668
 20
241.5297748896175
 10
185.2718452667668
 20
241.5297748896175
 10
185.3565946716127
 20
241.5297748896175
 10
185.3565946716127
 20
241.5297748896175
 10
185.3565946716127
 20
241.5297748896175
 10
185.4199844703592
 20
241.5085875384061
 10
185.4199844703592
 20
241.5085875384061
 10
185.4199844703592
 20
241.5085875384061
 10
185.4623591727821
 20
241.4875724420825
 10
185.4623591727821
 20
241.4875724420825
 10
185.4623591727821
 20
241.4875724420825
 10
185.4837187788815
 20
241.4451977396596
 10
185.4837187788815
 20
241.4451977396596
 72
     1
 10
185.4837187788815
 20
241.4451977396596
 11
185.4837187788815
 21
241.4451977396596
 97
        0
 75
     0
 76
     1
 98
        0
450
        0
451
        0
460
0.0
461
0.0
452
        0
462
0.0
453
        0
470

  0
HATCH
  5
2F93
330
1F
100
AcDbEntity
  8
图层 1
 62
     7
100
AcDbHatch
 10
0.0
 20
0.0
 30
0.0
210
0.0
220
0.0
230
1.0
  2
SOLID
 70
     1
 71
     0
 91
        1
 92
        1
 93
        2
 72
     4
 94
        3
 73
     0
 74
     0
 95
       38
 96
       34
 40
0.0
 40
0.0
 40
0.0
 40
0.0
 40
0.3527780104152769
 40
0.3527780104152769
 40
0.3527780104152769
 40
0.7055560208305538
 40
0.7055560208305538
 40
0.7055560208305538
 40
1.058334031245828
 40
1.058334031245828
 40
1.058334031245828
 40
1.411112041661104
 40
1.411112041661104
 40
1.411112041661104
 40
1.763890052076384
 40
1.763890052076384
 40
1.763890052076384
 40
2.116668062491659
 40
2.116668062491659
 40
2.116668062491659
 40
2.469446072906936
 40
2.469446072906936
 40
2.469446072906936
 40
2.822224083322215
 40
2.822224083322215
 40
2.822224083322215
 40
3.175002093737492
 40
3.175002093737492
 40
3.175002093737492
 40
3.527780104152768
 40
3.527780104152768
 40
3.527780104152768
 40
3.880558114568044
 40
3.880558114568044
 40
3.880558114568044
 40
3.880558114568044
 10
185.907121293335
 20
220.1937677098971
 10
185.9005756075949
 20
220.0449394867532
 10
185.9329595265197
 20
220.1136691870245
 10
185.864746590912
 20
219.9817219428946
 10
185.864746590912
 20
219.9817219428946
 10
185.822371888489
 20
219.9605345916831
 10
185.822371888489
 20
219.9605345916831
 10
185.822371888489
 20
219.9605345916831
 10
185.6528730787974
 20
219.9605345916831
 10
185.6528730787974
 20
219.9605345916831
 10
185.6528730787974
 20
219.9605345916831
 10
185.5894832800509
 20
220.002909294106
 10
185.5894832800509
 20
220.002909294106
 10
185.5894832800509
 20
220.002909294106
 10
185.5681236739515
 20
220.0240966453175
 10
185.5681236739515
 20
220.0240966453175
 10
185.5681236739515
 20
220.0240966453175
 10
185.5681236739515
 20
220.045283996529
 10
185.5681236739515
 20
220.045283996529
 10
185.5681236739515
 20
220.045283996529
 10
185.547108577628
 20
220.0876586989519
 10
185.547108577628
 20
220.0876586989519
 10
185.547108577628
 20
220.0876586989519
 10
185.547108577628
 20
220.1513930074742
 10
185.547108577628
 20
220.1513930074742
 10
185.547108577628
 20
220.1513930074742
 10
185.5894832800509
 20
220.23614241232
 10
185.5894832800509
 20
220.23614241232
 10
185.5894832800509
 20
220.23614241232
 10
185.6318579824738
 20
220.2573297635315
 10
185.6318579824738
 20
220.2573297635315
 10
185.7055830744942
 20
220.2566407439799
 10
185.8416644359337
 20
220.3310548555519
 10
185.907121293335
 20
220.1937677098971
 72
     1
 10
185.907121293335
 20
220.1937677098971
 11
185.907121293335
 21
220.1937677098971
 97
        0
 75
     0
 76
     1
 98
        0
450
        0
451
        0
460
0.0
461
0.0
452
        0
462
0.0
453
        0
470

  0
HATCH
  5
2FDE
330
1F
100
AcDbEntity
  8
图层 1
 62
     7
100
AcDbHatch
 10
0.0
 20
0.0
 30
0.0
210
0.0
220
0.0
230
1.0
  2
SOLID
 70
     1
 71
     0
 91
        1
 92
        1
 93
        2
 72
     4
 94
        3
 73
     0
 74
     0
 95
       50
 96
       46
 40
0.0
 40
0.0
 40
0.0
 40
0.0
 40
0.3527780104152769
 40
0.3527780104152769
 40
0.3527780104152769
 40
0.7055560208305538
 40
0.7055560208305538
 40
0.7055560208305538
 40
1.058334031245828
 40
1.058334031245828
 40
1.058334031245828
 40
1.411112041661104
 40
1.411112041661104
 40
1.411112041661104
 40
1.763890052076384
 40
1.763890052076384
 40
1.763890052076384
 40
2.116668062491659
 40
2.116668062491659
 40
2.116668062491659
 40
2.469446072906936
 40
2.469446072906936
 40
2.469446072906936
 40
2.822224083322215
 40
2.822224083322215
 40
2.822224083322215
 40
3.175002093737492
 40
3.175002093737492
 40
3.175002093737492
 40
3.527780104152768
 40
3.527780104152768
 40
3.527780104152768
 40
3.880558114568044
 40
3.880558114568044
 40
3.880558114568044
 40
4.233336124983321
 40
4.233336124983321
 40
4.233336124983321
 40
4.586114135398599
 40
4.586114135398599
 40
4.586114135398599
 40
4.938892145813873
 40
4.938892145813873
 40
4.938892145813873
 40
5.291670156229153
 40
5.291670156229153
 40
5.291670156229153
 40
5.291670156229153
 10
180.9117295442905
 20
208.9327766684477
 10
180.9117295442905
 20
208.9327766684477
 10
180.9117295442905
 20
208.7637946234197
 10
180.9117295442905
 20
208.7637946234197
 10
181.2273004989198
 20
208.6749111012643
 10
181.3833634273555
 20
208.6776671794706
 10
181.6948002646751
 20
208.5097186637701
 10
181.9542161258496
 20
208.4294478860095
 10
182.1388733656765
 20
208.2134402565853
 10
182.3297317814676
 20
208.02292635057
 10
182.3297317814676
 20
208.02292635057
 10
182.435496282637
 20
208.065301052993
 10
182.435496282637
 20
208.065301052993
 10
182.288390608372
 20
208.2733849575739
 10
182.3752070718726
 20
208.2134402565853
 10
182.1605774815516
 20
208.3824223016133
 10
182.1605774815516
 20
208.3824223016133
 10
182.1182027791287
 20
208.4247970040363
 10
182.1182027791287
 20
208.4247970040363
 10
182.1182027791287
 20
208.4247970040363
 10
182.0968431730294
 20
208.467516216235
 10
182.0968431730294
 20
208.467516216235
 10
182.0968431730294
 20
208.467516216235
 10
182.0544684706064
 20
208.4883590576707
 10
182.0544684706064
 20
208.4883590576707
 10
182.0544684706064
 20
208.4883590576707
 10
181.9910786718599
 20
208.5305615052057
 10
181.9910786718599
 20
208.5305615052057
 10
181.9910786718599
 20
208.5305615052057
 10
181.948703969437
 20
208.552093366193
 10
181.948703969437
 20
208.552093366193
 10
181.948703969437
 20
208.552093366193
 10
181.9063292670141
 20
208.5729362076286
 10
181.9063292670141
 20
208.5729362076286
 10
181.9063292670141
 20
208.5729362076286
 10
181.8639545645911
 20
208.6156554198274
 10
181.8639545645911
 20
208.6156554198274
 10
181.8639545645911
 20
208.6156554198274
 10
181.821924371944
 20
208.6368427710388
 10
181.821924371944
 20
208.6368427710388
 10
181.6637943848536
 20
208.6742220817127
 10
181.5452830219797
 20
208.8092699138248
 10
181.3771622513911
 20
208.8061693258427
 10
181.2803550043924
 20
208.8573290275484
 10
181.0126709085988
 20
208.8971199066528
 10
180.9117295442905
 20
208.9327766684477
 72
     1
 10
180.9117295442905
 20
208.9327766684477
 11
180.9117295442905
 21
208.9327766684477
 97
        0
 75
     0
 76
     1
 98
        0
450
        0
451
        0
460
0.0
461
0.0
452
        0
462
0.0
453
        0
470

  0
HATCH
  5
35C8
330
1F
100
AcDbEntity
  8
图层 1
 62
     7
100
AcDbHatch
 10
0.0
 20
0.0
 30
0.0
210
0.0
220
0.0
230
1.0
  2
SOLID
 70
     1
 71
     0
 91
        1
 92
        1
 93
        2
 72
     4
 94
        3
 73
     0
 74
     0
 95
       38
 96
       34
 40
0.0
 40
0.0
 40
0.0
 40
0.0
 40
0.3527780104152769
 40
0.3527780104152769
 40
0.3527780104152769
 40
0.7055560208305538
 40
0.7055560208305538
 40
0.7055560208305538
 40
1.058334031245828
 40
1.058334031245828
 40
1.058334031245828
 40
1.411112041661104
 40
1.411112041661104
 40
1.411112041661104
 40
1.763890052076384
 40
1.763890052076384
 40
1.763890052076384
 40
2.116668062491659
 40
2.116668062491659
 40
2.116668062491659
 40
2.469446072906936
 40
2.469446072906936
 40
2.469446072906936
 40
2.822224083322215
 40
2.822224083322215
 40
2.822224083322215
 40
3.175002093737492
 40
3.175002093737492
 40
3.175002093737492
 40
3.527780104152768
 40
3.527780104152768
 40
3.527780104152768
 40
3.880558114568044
 40
3.880558114568044
 40
3.880558114568044
 40
3.880558114568044
 10
189.145513185819
 20
166.8326485368285
 10
189.207869455238
 20
166.740492171803
 10
189.1317327947871
 20
166.6833035490209
 10
189.103138483396
 20
166.6209472796017
 10
189.103138483396
 20
166.6209472796017
 10
189.0607637809731
 20
166.5997599283903
 10
189.0607637809731
 20
166.5997599283903
 10
189.0607637809731
 20
166.5997599283903
 10
188.9973739822266
 20
166.5785725771788
 10
188.9973739822266
 20
166.5785725771788
 10
188.9973739822266
 20
166.5785725771788
 10
188.9549992798037
 20
166.5997599283903
 10
188.9549992798037
 20
166.5997599283903
 10
188.9549992798037
 20
166.5997599283903
 10
188.8916094810572
 20
166.5997599283903
 10
188.8916094810572
 20
166.5997599283903
 10
188.8916094810572
 20
166.5997599283903
 10
188.8492347786343
 20
166.6209472796017
 10
188.8492347786343
 20
166.6209472796017
 10
188.8492347786343
 20
166.6209472796017
 10
188.8278751725349
 20
166.6633219820247
 10
188.8278751725349
 20
166.6633219820247
 10
188.8278751725349
 20
166.6633219820247
 10
188.8068600762114
 20
166.6845093332361
 10
188.8068600762114
 20
166.6845093332361
 10
188.8068600762114
 20
166.6845093332361
 10
188.8068600762114
 20
166.8326485368285
 10
188.8068600762114
 20
166.8326485368285
 10
188.8068600762114
 20
166.8326485368285
 10
188.8702498749578
 20
166.896038335575
 10
188.8702498749578
 20
166.896038335575
 10
189.0228677056355
 20
166.8819134347673
 10
189.0686875058164
 20
166.9411691162043
 10
189.145513185819
 20
166.8326485368285
 72
     1
 10
189.145513185819
 20
166.8326485368285
 11
189.145513185819
 21
166.8326485368285
 97
        0
 75
     0
 76
     1
 98
        0
450
        0
451
        0
460
0.0
461
0.0
452
        0
462
0.0
453
        0
470

  0
HATCH
  5
35D8
330
1F
100
AcDbEntity
  8
图层 1
 62
     7
100
AcDbHatch
 10
0.0
 20
0.0
 30
0.0
210
0.0
220
0.0
230
1.0
  2
SOLID
 70
     1
 71
     0
 91
        1
 92
        1
 93
        2
 72
     4
 94
        3
 73
     0
 74
     0
 95
       68
 96
       64
 40
0.0
 40
0.0
 40
0.0
 40
0.0
 40
0.3527780104152769
 40
0.3527780104152769
 40
0.3527780104152769
 40
0.7055560208305538
 40
0.7055560208305538
 40
0.7055560208305538
 40
1.058334031245828
 40
1.058334031245828
 40
1.058334031245828
 40
1.411112041661104
 40
1.411112041661104
 40
1.411112041661104
 40
1.763890052076384
 40
1.763890052076384
 40
1.763890052076384
 40
2.116668062491659
 40
2.116668062491659
 40
2.116668062491659
 40
2.469446072906936
 40
2.469446072906936
 40
2.469446072906936
 40
2.822224083322215
 40
2.822224083322215
 40
2.822224083322215
 40
3.175002093737492
 40
3.175002093737492
 40
3.175002093737492
 40
3.527780104152768
 40
3.527780104152768
 40
3.527780104152768
 40
3.880558114568044
 40
3.880558114568044
 40
3.880558114568044
 40
4.233336124983321
 40
4.233336124983321
 40
4.233336124983321
 40
4.586114135398599
 40
4.586114135398599
 40
4.586114135398599
 40
4.938892145813873
 40
4.938892145813873
 40
4.938892145813873
 40
5.291670156229153
 40
5.291670156229153
 40
5.291670156229153
 40
5.64444816664443
 40
5.64444816664443
 40
5.64444816664443
 40
5.997226177059705
 40
5.997226177059705
 40
5.997226177059705
 40
6.350004187474984
 40
6.350004187474984
 40
6.350004187474984
 40
6.702782197890257
 40
6.702782197890257
 40
6.702782197890257
 40
7.055560208305537
 40
7.055560208305537
 40
7.055560208305537
 40
7.408338218720808
 40
7.408338218720808
 40
7.408338218720808
 40
7.408338218720808
 10
174.7732543591544
 20
135.4846705078077
 10
174.7732543591544
 20
135.4846705078077
 10
174.7732543591544
 20
135.3789060066383
 10
174.7732543591544
 20
135.3789060066383
 10
174.7732543591544
 20
135.3789060066383
 10
174.8156290615773
 20
135.3789060066383
 10
174.8156290615773
 20
135.3789060066383
 10
174.8156290615773
 20
135.3789060066383
 10
174.8580037640002
 20
135.3578909103147
 10
174.8580037640002
 20
135.3578909103147
 10
174.8580037640002
 20
135.3578909103147
 10
174.9213935627468
 20
135.3578909103147
 10
174.9213935627468
 20
135.3578909103147
 10
174.9213935627468
 20
135.3578909103147
 10
174.9637682651697
 20
135.3365313042154
 10
174.9637682651697
 20
135.3365313042154
 10
174.9637682651697
 20
135.3365313042154
 10
174.9847833614933
 20
135.3365313042154
 10
174.9847833614933
 20
135.3365313042154
 10
174.9847833614933
 20
135.3365313042154
 10
175.0271580639162
 20
135.3155162078918
 10
175.0271580639162
 20
135.3155162078918
 10
175.0271580639162
 20
135.3155162078918
 10
175.0485176700155
 20
135.2941566017924
 10
175.0485176700155
 20
135.2941566017924
 10
175.0485176700155
 20
135.2941566017924
 10
175.0695327663391
 20
135.2941566017924
 10
175.0695327663391
 20
135.2941566017924
 10
175.0695327663391
 20
135.2941566017924
 10
175.0908923724385
 20
135.2731415054689
 10
175.0908923724385
 20
135.2731415054689
 10
175.0908923724385
 20
135.2731415054689
 10
175.1332670748614
 20
135.2731415054689
 10
175.1332670748614
 20
135.2731415054689
 10
175.1332670748614
 20
135.2731415054689
 10
175.154282171185
 20
135.2517818993695
 10
175.154282171185
 20
135.2517818993695
 10
175.154282171185
 20
135.2517818993695
 10
175.154282171185
 20
135.3578909103147
 10
175.154282171185
 20
135.3578909103147
 10
175.154282171185
 20
135.3578909103147
 10
175.1332670748614
 20
135.3789060066383
 10
175.1332670748614
 20
135.3789060066383
 10
175.1332670748614
 20
135.3789060066383
 10
175.0908923724385
 20
135.3789060066383
 10
175.0908923724385
 20
135.3789060066383
 10
175.0908923724385
 20
135.3789060066383
 10
175.0908923724385
 20
135.3999211029619
 10
175.0908923724385
 20
135.3999211029619
 10
175.0908923724385
 20
135.3999211029619
 10
175.0695327663391
 20
135.3999211029619
 10
175.0695327663391
 20
135.3999211029619
 10
175.0695327663391
 20
135.3999211029619
 10
175.0271580639162
 20
135.4212807090612
 10
175.0271580639162
 20
135.4212807090612
 10
175.0271580639162
 20
135.4212807090612
 10
175.0061429675926
 20
135.4212807090612
 10
175.0061429675926
 20
135.4212807090612
 10
175.0061429675926
 20
135.4212807090612
 10
174.9637682651697
 20
135.4422958053848
 10
174.9637682651697
 20
135.4422958053848
 10
174.8996894468716
 20
135.4498750204523
 10
174.8394002361073
 20
135.4860485469109
 10
174.7732543591544
 20
135.4846705078077
 72
     1
 10
174.7732543591544
 20
135.4846705078077
 11
174.7732543591544
 21
135.4846705078077
 97
        0
 75
     0
 76
     1
 98
        0
450
        0
451
        0
460
0.0
461
0.0
452
        0
462
0.0
453
        0
470

  0
HATCH
  5
3807
330
1F
100
AcDbEntity
  8
图层 1
 62
     7
100
AcDbHatch
 10
0.0
 20
0.0
 30
0.0
210
0.0
220
0.0
230
1.0
  2
SOLID
 70
     1
 71
     0
 91
        1
 92
        1
 93
        2
 72
     4
 94
        3
 73
     0
 74
     0
 95
       29
 96
       25
 40
0.0
 40
0.0
 40
0.0
 40
0.0
 40
0.3527780104152769
 40
0.3527780104152769
 40
0.3527780104152769
 40
0.7055560208305538
 40
0.7055560208305538
 40
0.7055560208305538
 40
1.058334031245828
 40
1.058334031245828
 40
1.058334031245828
 40
1.411112041661104
 40
1.411112041661104
 40
1.411112041661104
 40
1.763890052076384
 40
1.763890052076384
 40
1.763890052076384
 40
2.116668062491659
 40
2.116668062491659
 40
2.116668062491659
 40
2.469446072906936
 40
2.469446072906936
 40
2.469446072906936
 40
2.822224083322215
 40
2.822224083322215
 40
2.822224083322215
 40
2.822224083322215
 10
175.4929352807925
 20
164.0174869039101
 10
175.4929352807925
 20
164.0174869039101
 10
175.5139503771161
 20
163.9751122014871
 10
175.5139503771161
 20
163.9751122014871
 10
175.5139503771161
 20
163.9751122014871
 10
175.5139503771161
 20
163.9327374990642
 10
175.5139503771161
 20
163.9327374990642
 10
175.5139503771161
 20
163.9327374990642
 10
175.4929352807925
 20
163.8903627966413
 10
175.4929352807925
 20
163.8903627966413
 10
175.4929352807925
 20
163.8903627966413
 10
175.471920184469
 20
163.8691754454298
 10
175.471920184469
 20
163.8691754454298
 10
175.471920184469
 20
163.8691754454298
 10
175.4505605783696
 20
163.8269729978948
 10
175.4505605783696
 20
163.8269729978948
 10
175.3571984291289
 20
163.7715069239916
 10
175.272449024283
 20
163.8195660377152
 10
175.1966568736079
 20
163.8691754454298
 10
175.208370205985
 20
163.9930267098286
 10
175.1563492298397
 20
164.0216210212197
 10
175.2600466723544
 20
164.0596893514451
 10
175.3330827448232
 20
164.1094710140476
 10
175.4357466580104
 20
164.0753645462439
 10
175.4929352807925
 20
164.0174869039101
 72
     1
 10
175.4929352807925
 20
164.0174869039101
 11
175.4929352807925
 21
164.0174869039101
 97
        0
 75
     0
 76
     1
 98
        0
450
        0
451
        0
460
0.0
461
0.0
452
        0
462
0.0
453
        0
470

  0
HATCH
  5
3895
330
1F
100
AcDbEntity
  8
图层 1
 62
     7
100
AcDbHatch
 10
0.0
 20
0.0
 30
0.0
210
0.0
220
0.0
230
1.0
  2
SOLID
 70
     1
 71
     0
 91
        1
 92
        1
 93
        2
 72
     4
 94
        3
 73
     0
 74
     0
 95
       11
 96
        7
 40
0.0
 40
0.0
 40
0.0
 40
0.0
 40
0.3527780104152769
 40
0.3527780104152769
 40
0.3527780104152769
 40
0.7055560208305538
 40
0.7055560208305538
 40
0.7055560208305538
 40
0.7055560208305538
 10
174.9213935627468
 20
174.5369206529582
 10
174.9213935627468
 20
174.5369206529582
 10
174.9213935627468
 20
174.3043765542958
 10
174.9213935627468
 20
174.3043765542958
 10
174.9213935627468
 20
174.3043765542958
 10
174.9213935627468
 20
174.5369206529582
 10
174.9213935627468
 20
174.5369206529582
 72
     1
 10
174.9213935627468
 20
174.5369206529582
 11
174.9213935627468
 21
174.5369206529582
 97
        0
 75
     0
 76
     1
 98
        0
450
        0
451
        0
460
0.0
461
0.0
452
        0
462
0.0
453
        0
470

  0
HATCH
  5
3943
330
1F
100
AcDbEntity
  8
图层 1
 62
     7
100
AcDbHatch
 10
0.0
 20
0.0
 30
0.0
210
0.0
220
0.0
230
1.0
  2
SOLID
 70
     1
 71
     0
 91
        1
 92
        1
 93
        2
 72
     4
 94
        3
 73
     0
 74
     0
 95
      131
 96
      127
 40
0.0
 40
0.0
 40
0.0
 40
0.0
 40
0.3527780104152769
 40
0.3527780104152769
 40
0.3527780104152769
 40
0.7055560208305538
 40
0.7055560208305538
 40
0.7055560208305538
 40
1.058334031245828
 40
1.058334031245828
 40
1.058334031245828
 40
1.411112041661104
 40
1.411112041661104
 40
1.411112041661104
 40
1.763890052076384
 40
1.763890052076384
 40
1.763890052076384
 40
2.116668062491659
 40
2.116668062491659
 40
2.116668062491659
 40
2.469446072906936
 40
2.469446072906936
 40
2.469446072906936
 40
2.822224083322215
 40
2.822224083322215
 40
2.822224083322215
 40
3.175002093737492
 40
3.175002093737492
 40
3.175002093737492
 40
3.527780104152768
 40
3.527780104152768
 40
3.527780104152768
 40
3.880558114568044
 40
3.880558114568044
 40
3.880558114568044
 40
4.233336124983321
 40
4.233336124983321
 40
4.233336124983321
 40
4.586114135398599
 40
4.586114135398599
 40
4.586114135398599
 40
4.938892145813873
 40
4.938892145813873
 40
4.938892145813873
 40
5.291670156229153
 40
5.291670156229153
 40
5.291670156229153
 40
5.64444816664443
 40
5.64444816664443
 40
5.64444816664443
 40
5.997226177059705
 40
5.997226177059705
 40
5.997226177059705
 40
6.350004187474984
 40
6.350004187474984
 40
6.350004187474984
 40
6.702782197890257
 40
6.702782197890257
 40
6.702782197890257
 40
7.055560208305537
 40
7.055560208305537
 40
7.055560208305537
 40
7.408338218720808
 40
7.408338218720808
 40
7.408338218720808
 40
7.76111622913609
 40
7.76111622913609
 40
7.76111622913609
 40
8.113894239551369
 40
8.113894239551369
 40
8.113894239551369
 40
8.466672249966642
 40
8.466672249966642
 40
8.466672249966642
 40
8.819450260381922
 40
8.819450260381922
 40
8.819450260381922
 40
9.172228270797198
 40
9.172228270797198
 40
9.172228270797198
 40
9.525006281212476
 40
9.525006281212476
 40
9.525006281212476
 40
9.877784291627751
 40
9.877784291627751
 40
9.877784291627751
 40
10.23056230204303
 40
10.23056230204303
 40
10.23056230204303
 40
10.58334031245831
 40
10.58334031245831
 40
10.58334031245831
 40
10.93611832287358
 40
10.93611832287358
 40
10.93611832287358
 40
11.28889633328886
 40
11.28889633328886
 40
11.28889633328886
 40
11.64167434370414
 40
11.64167434370414
 40
11.64167434370414
 40
11.99445235411941
 40
11.99445235411941
 40
11.99445235411941
 40
12.34723036453469
 40
12.34723036453469
 40
12.34723036453469
 40
12.70000837494997
 40
12.70000837494997
 40
12.70000837494997
 40
13.05278638536524
 40
13.05278638536524
 40
13.05278638536524
 40
13.40556439578052
 40
13.40556439578052
 40
13.40556439578052
 40
13.7583424061958
 40
13.7583424061958
 40
13.7583424061958
 40
14.11112041661107
 40
14.11112041661107
 40
14.11112041661107
 40
14.46389842702635
 40
14.46389842702635
 40
14.46389842702635
 40
14.81667643744163
 40
14.81667643744163
 40
14.81667643744163
 40
14.81667643744163
 10
173.3972823146245
 20
126.8274843518258
 10
173.3972823146245
 20
126.8274843518258
 10
173.3972823146245
 20
126.7217198506564
 10
173.3972823146245
 20
126.7217198506564
 10
173.3972823146245
 20
126.7217198506564
 10
173.4186419207238
 20
126.7217198506564
 10
173.4186419207238
 20
126.7217198506564
 10
173.4186419207238
 20
126.7217198506564
 10
173.4820317194703
 20
126.7007047543328
 10
173.4820317194703
 20
126.7007047543328
 10
173.4820317194703
 20
126.7007047543328
 10
173.5244064218933
 20
126.6793451482334
 10
173.5244064218933
 20
126.6793451482334
 10
173.5244064218933
 20
126.6793451482334
 10
173.5877962206398
 20
126.6793451482334
 10
173.5877962206398
 20
126.6793451482334
 10
173.5877962206398
 20
126.6793451482334
 10
173.6301709230627
 20
126.6583300519099
 10
173.6301709230627
 20
126.6583300519099
 10
173.7955356154449
 20
126.5911506456296
 10
173.759706598762
 20
126.6380039751379
 10
173.9478089363468
 20
126.5525655507404
 10
173.9478089363468
 20
126.5525655507404
 10
173.9688240326703
 20
126.4464565397952
 10
173.9688240326703
 20
126.4464565397952
 10
173.9688240326703
 20
126.4464565397952
 10
174.0325583411926
 20
126.5101908483175
 10
174.0325583411926
 20
126.5101908483175
 10
174.0325583411926
 20
126.5101908483175
 10
174.0749330436156
 20
126.5101908483175
 10
174.0749330436156
 20
126.5101908483175
 10
174.0749330436156
 20
126.5101908483175
 10
174.1593379386856
 20
126.4678161458946
 10
174.1593379386856
 20
126.4678161458946
 10
174.1593379386856
 20
126.4678161458946
 10
174.180697544785
 20
126.4464565397952
 10
174.180697544785
 20
126.4464565397952
 10
174.2464989119621
 20
126.3982251711837
 10
174.3298702777047
 20
126.3716979184474
 10
174.3922265471239
 20
126.3196769423022
 10
174.608234176548
 20
126.2059887162895
 10
174.7749769080334
 20
126.0278771622029
 10
174.9637682651697
 20
125.8749148217494
 10
174.9637682651697
 20
125.8749148217494
 10
175.0061429675926
 20
125.9172895241723
 10
175.0061429675926
 20
125.9172895241723
 10
174.961356696739
 20
125.9631093243532
 10
174.782211613325
 20
126.1246844092016
 10
174.7308796567315
 20
126.1501781326105
 10
174.7308796567315
 20
126.1501781326105
 10
174.6885049543085
 20
126.1925528350335
 10
174.6885049543085
 20
126.1925528350335
 10
174.6885049543085
 20
126.1925528350335
 10
174.667489857985
 20
126.2349275374564
 10
174.667489857985
 20
126.2349275374564
 10
174.667489857985
 20
126.2349275374564
 10
174.625115155562
 20
126.2559426337799
 10
174.625115155562
 20
126.2559426337799
 10
174.625115155562
 20
126.2559426337799
 10
174.5827404531391
 20
126.2983173362029
 10
174.5827404531391
 20
126.2983173362029
 10
174.5827404531391
 20
126.2983173362029
 10
174.5403657507162
 20
126.3196769423022
 10
174.5403657507162
 20
126.3196769423022
 10
174.5403657507162
 20
126.3196769423022
 10
174.4979910482932
 20
126.3620516447252
 10
174.4979910482932
 20
126.3620516447252
 10
174.4735308542117
 20
126.3875453681341
 10
174.3247026310678
 20
126.4695386947736
 10
174.2864620459544
 20
126.4888312422181
 10
174.2864620459544
 20
126.4888312422181
 10
174.2654469496308
 20
126.5101908483175
 10
174.2654469496308
 20
126.5101908483175
 10
174.2654469496308
 20
126.5101908483175
 10
174.2230722472079
 20
126.5312059446411
 10
174.2230722472079
 20
126.5312059446411
 10
174.2230722472079
 20
126.5312059446411
 10
174.2017126411085
 20
126.5525655507404
 10
174.2017126411085
 20
126.5525655507404
 10
174.2017126411085
 20
126.5525655507404
 10
174.1383228423621
 20
126.573580647064
 10
174.1383228423621
 20
126.573580647064
 10
174.1383228423621
 20
126.573580647064
 10
174.1169632362627
 20
126.5945957433876
 10
174.1169632362627
 20
126.5945957433876
 10
174.1169632362627
 20
126.5945957433876
 10
174.0959481399391
 20
126.7007047543328
 10
174.0959481399391
 20
126.7007047543328
 10
174.0959481399391
 20
126.7007047543328
 10
174.0325583411926
 20
126.6369704458105
 10
174.0325583411926
 20
126.6369704458105
 10
174.0325583411926
 20
126.6369704458105
 10
173.9901836387697
 20
126.6369704458105
 10
173.9901836387697
 20
126.6369704458105
 10
173.9901836387697
 20
126.6369704458105
 10
173.9054342339239
 20
126.6793451482334
 10
173.9054342339239
 20
126.6793451482334
 10
173.9054342339239
 20
126.6793451482334
 10
173.8420444351773
 20
126.7007047543328
 10
173.8420444351773
 20
126.7007047543328
 10
173.8420444351773
 20
126.7007047543328
 10
173.7996697327544
 20
126.7217198506564
 10
173.7996697327544
 20
126.7217198506564
 10
173.7996697327544
 20
126.7217198506564
 10
173.7572950303315
 20
126.7217198506564
 10
173.7572950303315
 20
126.7217198506564
 10
173.7572950303315
 20
126.7217198506564
 10
173.6725456254856
 20
126.7640945530793
 10
173.6725456254856
 20
126.7640945530793
 10
173.6725456254856
 20
126.7640945530793
 10
173.6515305291621
 20
126.7640945530793
 10
173.6515305291621
 20
126.7640945530793
 10
173.6515305291621
 20
126.7640945530793
 10
173.5667811243162
 20
126.7851096494029
 10
173.5667811243162
 20
126.7851096494029
 10
173.5667811243162
 20
126.7851096494029
 10
173.5033913255697
 20
126.8064692555022
 10
173.5033913255697
 20
126.8064692555022
 10
173.5033913255697
 20
126.8064692555022
 10
173.4396570170474
 20
126.8064692555022
 10
173.4396570170474
 20
126.8064692555022
 10
173.4396570170474
 20
126.8064692555022
 10
173.4186419207238
 20
126.8274843518258
 10
173.4186419207238
 20
126.8274843518258
 10
173.4186419207238
 20
126.8274843518258
 10
173.3972823146245
 20
126.8274843518258
 10
173.3972823146245
 20
126.8274843518258
 72
     1
 10
173.3972823146245
 20
126.8274843518258
 11
173.3972823146245
 21
126.8274843518258
 97
        0
 75
     0
 76
     1
 98
        0
450
        0
451
        0
460
0.0
461
0.0
452
        0
462
0.0
453
        0
470

  0
HATCH
  5
4842
330
1F
100
AcDbEntity
  8
图层 1
 62
     7
100
AcDbHatch
 10
0.0
 20
0.0
 30
0.0
210
0.0
220
0.0
230
1.0
  2
SOLID
 70
     1
 71
     0
 91
        1
 92
        1
 93
        2
 72
     4
 94
        3
 73
     0
 74
     0
 95
       47
 96
       43
 40
0.0
 40
0.0
 40
0.0
 40
0.0
 40
0.3527780104152769
 40
0.3527780104152769
 40
0.3527780104152769
 40
0.7055560208305538
 40
0.7055560208305538
 40
0.7055560208305538
 40
1.058334031245828
 40
1.058334031245828
 40
1.058334031245828
 40
1.411112041661104
 40
1.411112041661104
 40
1.411112041661104
 40
1.763890052076384
 40
1.763890052076384
 40
1.763890052076384
 40
2.116668062491659
 40
2.116668062491659
 40
2.116668062491659
 40
2.469446072906936
 40
2.469446072906936
 40
2.469446072906936
 40
2.822224083322215
 40
2.822224083322215
 40
2.822224083322215
 40
3.175002093737492
 40
3.175002093737492
 40
3.175002093737492
 40
3.527780104152768
 40
3.527780104152768
 40
3.527780104152768
 40
3.880558114568044
 40
3.880558114568044
 40
3.880558114568044
 40
4.233336124983321
 40
4.233336124983321
 40
4.233336124983321
 40
4.586114135398599
 40
4.586114135398599
 40
4.586114135398599
 40
4.938892145813873
 40
4.938892145813873
 40
4.938892145813873
 40
4.938892145813873
 10
180.1920486226523
 20
255.6479577566324
 10
180.1920486226523
 20
255.6479577566324
 10
180.2130637189759
 20
255.6055830542095
 10
180.2130637189759
 20
255.6055830542095
 10
180.2130637189759
 20
255.6055830542095
 10
180.2130637189759
 20
255.5210059042515
 10
180.2130637189759
 20
255.5210059042515
 10
180.2130637189759
 20
255.5210059042515
 10
180.1920486226523
 20
255.4786312018286
 10
180.1920486226523
 20
255.4786312018286
 10
180.1920486226523
 20
255.4786312018286
 10
180.1496739202294
 20
255.4359119896299
 10
180.1496739202294
 20
255.4359119896299
 10
180.1496739202294
 20
255.4359119896299
 10
180.1283143141301
 20
255.4147246384184
 10
180.1283143141301
 20
255.4147246384184
 10
180.1283143141301
 20
255.4147246384184
 10
180.0225498129606
 20
255.4147246384184
 10
180.0225498129606
 20
255.4147246384184
 10
180.0225498129606
 20
255.4147246384184
 10
179.9591600142141
 20
255.4359119896299
 10
179.9591600142141
 20
255.4359119896299
 10
179.9591600142141
 20
255.4359119896299
 10
179.9167853117912
 20
255.4570993408414
 10
179.9167853117912
 20
255.4570993408414
 10
179.9167853117912
 20
255.4570993408414
 10
179.8957702154676
 20
255.4786312018286
 10
179.8957702154676
 20
255.4786312018286
 10
179.8957702154676
 20
255.4786312018286
 10
179.8744106093683
 20
255.4994740432643
 10
179.8744106093683
 20
255.4994740432643
 10
179.8744106093683
 20
255.4994740432643
 10
179.8744106093683
 20
255.6479577566324
 10
179.8744106093683
 20
255.6479577566324
 10
179.9608825630931
 20
255.7323626517025
 10
180.045631967939
 20
255.7085914771726
 10
180.1496739202294
 20
255.7115198102668
 10
180.1496739202294
 20
255.7115198102668
 10
180.170689016553
 20
255.6688005980681
 10
180.170689016553
 20
255.6688005980681
 10
180.170689016553
 20
255.6688005980681
 10
180.1920486226523
 20
255.6479577566324
 10
180.1920486226523
 20
255.6479577566324
 72
     1
 10
180.1920486226523
 20
255.6479577566324
 11
180.1920486226523
 21
255.6479577566324
 97
        0
 75
     0
 76
     1
 98
        0
450
        0
451
        0
460
0.0
461
0.0
452
        0
462
0.0
453
        0
470

  0
LINE
  5
12B16
330
1F
100
AcDbEntity
  8
图框
370
    -3
100
AcDbLine
 10
385.2092584876153
 20
279.3691361588869
 30
0.0
 11
406.7477128303826
 21
279.3691361588869
 31
0.0
  0
LINE
  5
12B17
330
1F
100
AcDbEntity
  8
图框
370
    -3
100
AcDbLine
 10
363.9652432364341
 20
276.6646917852563
 30
0.0
 11
428.1367332238747
 21
276.6646917852581
 31
0.0
  0
LINE
  5
12B18
330
1F
100
AcDbEntity
  8
图框
370
    -3
100
AcDbLine
 10
363.9652432364341
 20
273.9602474116243
 30
0.0
 11
428.1367332238747
 21
273.9602474116243
 31
0.0
  0
MTEXT
  5
12B19
330
1F
100
AcDbEntity
  8
图框
100
AcDbMText
 10
399.8882650501483
 20
280.721358345772
 30
0.0
 40
1.200004709114095
 41
13.71936813429339
 46
2.704444373770122
 71
     5
 72
     5
  1
{\f仿宋_GB2312|b0|i0|c134|p49;\C4;线径\Fromans|c134;/Wire Gauge}
  7
Romans字体
 73
     1
 44
1.0
1001
ACAD
1000
ACAD_MTEXT_DEFINED_HEIGHT_BEGIN
1070
    46
1040
2.704444373770122
1000
ACAD_MTEXT_DEFINED_HEIGHT_END
  0
LINE
  5
12B1A
330
1F
100
AcDbEntity
  8
图框
370
    -3
100
AcDbLine
 10
363.9652432364341
 20
271.2558030379941
 30
0.0
 11
428.1367332238747
 21
271.2558030379939
 31
0.0
  0
MTEXT
  5
12B1B
330
1F
100
AcDbEntity
  8
图框
100
AcDbMText
 10
403.797808152385
 20
278.0168439041535
 30
0.0
 40
1.200004709114095
 41
5.899809355995848
 46
2.704304237791748
 71
     5
 72
     5
  1
{\C4;AWG}
  7
Romans字体
 73
     1
 44
1.0
1001
ACAD
1000
ACAD_MTEXT_DEFINED_HEIGHT_BEGIN
1070
    46
1040
2.704304237791748
1000
ACAD_MTEXT_DEFINED_HEIGHT_END
  0
MTEXT
  5
12B1C
330
1F
100
AcDbEntity
  8
图框
100
AcDbMText
 10
396.9382422280273
 20
278.0169139720721
 30
0.0
 40
1.200004709114095
 41
7.819322492718732
 46
2.704444373629514
 71
     5
 72
     5
  1
\A1;{\C4;mm\H0.7x;\S2^  ;}
  7
Romans字体
 73
     1
 44
1.0
1001
ACAD
1000
ACAD_MTEXT_DEFINED_HEIGHT_BEGIN
1070
    46
1040
2.704444373629514
1000
ACAD_MTEXT_DEFINED_HEIGHT_END
  0
MTEXT
  5
12B21
330
1F
100
AcDbEntity
  8
图框
100
AcDbMText
 10
379.1424244894323
 20
279.3690560874694
 30
0.0
 40
1.200004709114095
 41
12.13366799636653
 46
5.408728604425681
 71
     5
 72
     5
  1
{\f仿宋_GB2312|b0|i0|c134|p49;\C4;产品料号\Fromans|c134;\PPart NO.}
  7
Romans字体
 73
     1
 44
1.0
1001
ACAD
1000
ACAD_MTEXT_DEFINED_HEIGHT_BEGIN
1070
    46
1040
5.408728604425681
1000
ACAD_MTEXT_DEFINED_HEIGHT_END
  0
MTEXT
  5
12B22
330
1F
100
AcDbEntity
  8
图框
100
AcDbMText
 10
409.1806165561122
 20
279.3690560874701
 30
0.0
 40
1.200004709114095
 41
4.86580745145943
 46
5.408728604424871
 71
     5
 72
     5
  1
{\C4;d}
  7
Romans字体
 73
     1
 44
1.0
1001
ACAD
1000
ACAD_MTEXT_DEFINED_HEIGHT_BEGIN
1070
    46
1040
5.408728604424871
1000
ACAD_MTEXT_DEFINED_HEIGHT_END
  0
MTEXT
  5
12B28
330
1F
100
AcDbEntity
  8
图框
100
AcDbMText
 10
414.0464240069045
 20
279.3690560874701
 30
0.0
 40
1.200004709114095
 41
4.865807450125148
 46
5.408728604424871
 71
     5
 72
     5
  1
{\C4;D}
  7
Romans字体
 73
     1
 44
1.0
1001
ACAD
1000
ACAD_MTEXT_DEFINED_HEIGHT_BEGIN
1070
    46
1040
5.408728604424871
1000
ACAD_MTEXT_DEFINED_HEIGHT_END
  0
MTEXT
  5
12B2A
330
1F
100
AcDbEntity
  8
图框
100
AcDbMText
 10
414.0464240069046
 20
269.9065155821
 30
0.0
 40
1.200004709114095
 41
4.865807450125076
 46
2.710313835473184
 71
     5
 72
     5
  1
{\C4;3.5}
  7
Romans字体
 73
     1
 44
1.0
1001
ACAD
1000
ACAD_MTEXT_DEFINED_HEIGHT_BEGIN
1070
    46
1040
2.710313835473184
1000
ACAD_MTEXT_DEFINED_HEIGHT_END
  0
MTEXT
  5
12B2B
330
1F
100
AcDbEntity
  8
图框
100
AcDbMText
 10
368.5204168641138
 20
269.906515582099
 30
0.0
 40
1.200004709114095
 41
9.110347256937489
 46
2.7103138354722
 71
     5
 72
     5
  1
{\C4;CESM-2.5R}
  7
Romans字体
 73
     1
 44
1.0
1001
ACAD
1000
ACAD_MTEXT_DEFINED_HEIGHT_BEGIN
1070
    46
1040
2.7103138354722
1000
ACAD_MTEXT_DEFINED_HEIGHT_END
  0
MTEXT
  5
12B31
330
1F
100
AcDbEntity
  8
图框
100
AcDbMText
 10
403.7978081537188
 20
269.9065155820999
 30
0.0
 40
1.200004709114095
 41
5.899809355997454
 46
2.710313835473137
 71
     5
 72
     5
  1
{\C4;14}
  7
Romans字体
 73
     1
 44
1.0
1001
ACAD
1000
ACAD_MTEXT_DEFINED_HEIGHT_BEGIN
1070
    46
1040
2.710313835473137
1000
ACAD_MTEXT_DEFINED_HEIGHT_END
  0
MTEXT
  5
12B32
330
1F
100
AcDbEntity
  8
图框
100
AcDbMText
 10
396.9382422286941
 20
269.9065155820996
 30
0.0
 40
1.200004709114095
 41
7.819322494052181
 46
2.710313835472669
 71
     5
 72
     5
  1
{\C4;2.5}
  7
Romans字体
 73
     1
 44
1.0
1001
ACAD
1000
ACAD_MTEXT_DEFINED_HEIGHT_BEGIN
1070
    46
1040
2.710313835472669
1000
ACAD_MTEXT_DEFINED_HEIGHT_END
  0
MTEXT
  5
12B33
330
1F
100
AcDbEntity
  8
图框
100
AcDbMText
 10
409.1806165561129
 20
269.9065155820999
 30
0.0
 40
1.200004709114095
 41
4.865807451457888
 46
2.710313835473069
 71
     5
 72
     5
  1
{\C4;2.25}
  7
Romans字体
 73
     1
 44
1.0
1001
ACAD
1000
ACAD_MTEXT_DEFINED_HEIGHT_BEGIN
1070
    46
1040
2.710313835473069
1000
ACAD_MTEXT_DEFINED_HEIGHT_END
  0
LINE
  5
12C15
330
1F
100
AcDbEntity
  8
图框
370
    35
380
     1
100
AcDbLine
 10
411.6135202818417
 20
282.073580532657
 30
0.0
 11
411.6135202818417
 21
268.5513586643634
 31
0.0
  0
LINE
  5
12C16
330
1F
100
AcDbEntity
  8
图框
370
    -3
100
AcDbLine
 10
406.7477128317158
 20
282.073580532657
 30
0.0
 11
406.7477128317169
 21
268.5513586643635
 31
0.0
  0
LINE
  5
12C17
330
1F
100
AcDbEntity
  8
图框
370
    -3
100
AcDbLine
 10
400.8479034757206
 20
279.3691561660238
 30
0.0
 11
400.8479034757202
 21
268.5513586643635
 31
0.0
  0
LINE
  5
12C18
330
1F
100
AcDbEntity
  8
图框
370
    -3
100
AcDbLine
 10
373.0755904925825
 20
268.5513586643635
 30
0.0
 11
373.0755904925825
 21
279.3691561660223
 31
0.0
  0
LINE
  5
12C19
330
1F
100
AcDbEntity
  8
图框
370
    -3
100
AcDbLine
 10
385.209258488949
 20
268.5513586643635
 30
0.0
 11
385.209258488949
 21
282.0735805326567
 31
0.0
  0
MTEXT
  5
12C1F
330
1F
100
AcDbEntity
  8
图框
100
AcDbMText
 10
368.5204168634471
 20
275.3242085221286
 30
0.0
 40
1.19999583169232
 41
9.110347258271113
 46
2.704444373630491
 71
     5
 72
     5
  1
{\C4;CESM-1.0R}
  7
Romans字体
 73
     1
 44
1.0
1001
ACAD
1000
ACAD_MTEXT_DEFINED_HEIGHT_BEGIN
1070
    46
1040
2.704444373630491
1000
ACAD_MTEXT_DEFINED_HEIGHT_END
  0
MTEXT
  5
12C20
330
1F
100
AcDbEntity
  8
图框
100
AcDbMText
 10
368.5204168641138
 20
272.6168294175743
 30
0.0
 40
1.19999583169232
 41
9.110347256937654
 46
2.710313835478121
 71
     5
 72
     5
  1
{\C4;CESM-1.5R}
  7
Romans字体
 73
     1
 44
1.0
1001
ACAD
1000
ACAD_MTEXT_DEFINED_HEIGHT_BEGIN
1070
    46
1040
2.710313835478121
1000
ACAD_MTEXT_DEFINED_HEIGHT_END
  0
MTEXT
  5
12C21
330
1F
100
AcDbEntity
  8
图框
100
AcDbMText
 10
396.9382422293612
 20
275.3198564758794
 30
0.0
 40
1.19999583169232
 41
7.819322492718757
 46
2.695740281131214
 71
     5
 72
     5
  1
{\C4;1.0}
  7
Romans字体
 73
     1
 44
1.0
1001
ACAD
1000
ACAD_MTEXT_DEFINED_HEIGHT_BEGIN
1070
    46
1040
2.695740281131214
1000
ACAD_MTEXT_DEFINED_HEIGHT_END
  0
MTEXT
  5
12C22
330
1F
100
AcDbEntity
  8
图框
100
AcDbMText
 10
396.9382422286941
 20
272.6168294175751
 30
0.0
 40
1.19999583169232
 41
7.819322494052218
 46
2.710313835477585
 71
     5
 72
     5
  1
{\C4;1.5}
  7
Romans字体
 73
     1
 44
1.0
1001
ACAD
1000
ACAD_MTEXT_DEFINED_HEIGHT_BEGIN
1070
    46
1040
2.710313835477585
1000
ACAD_MTEXT_DEFINED_HEIGHT_END
  0
MTEXT
  5
12C23
330
1F
100
AcDbEntity
  8
图框
100
AcDbMText
 10
403.7978081530519
 20
275.3197764043922
 30
0.0
 40
1.19999583169232
 41
5.899809354663361
 46
2.695580138156738
 71
     5
 72
     5
  1
{\C4;18}
  7
Romans字体
 73
     1
 44
1.0
1001
ACAD
1000
ACAD_MTEXT_DEFINED_HEIGHT_BEGIN
1070
    46
1040
2.695580138156738
1000
ACAD_MTEXT_DEFINED_HEIGHT_END
  0
MTEXT
  5
12C24
330
1F
100
AcDbEntity
  8
图框
100
AcDbMText
 10
403.7978081537188
 20
272.616829417575
 30
0.0
 40
1.19999583169232
 41
5.899809355997221
 46
2.710313835477518
 71
     5
 72
     5
  1
{\C4;16}
  7
Romans字体
 73
     1
 44
1.0
1001
ACAD
1000
ACAD_MTEXT_DEFINED_HEIGHT_BEGIN
1070
    46
1040
2.710313835477518
1000
ACAD_MTEXT_DEFINED_HEIGHT_END
  0
MTEXT
  5
12C26
330
1F
100
AcDbEntity
  8
图框
100
AcDbMText
 10
409.1806165561128
 20
275.3242085221289
 30
0.0
 40
1.19999583169232
 41
4.865807451458461
 46
2.704444373630491
 71
     5
 72
     5
  1
{\C4;1.45}
  7
Romans字体
 73
     1
 44
1.0
1001
ACAD
1000
ACAD_MTEXT_DEFINED_HEIGHT_BEGIN
1070
    46
1040
2.704444373630491
1000
ACAD_MTEXT_DEFINED_HEIGHT_END
  0
MTEXT
  5
12C27
330
1F
100
AcDbEntity
  8
图框
100
AcDbMText
 10
409.1806165561129
 20
272.6168294175751
 30
0.0
 40
1.19999583169232
 41
4.865807451458196
 46
2.710313835477184
 71
     5
 72
     5
  1
{\C4;1.75}
  7
Romans字体
 73
     1
 44
1.0
1001
ACAD
1000
ACAD_MTEXT_DEFINED_HEIGHT_BEGIN
1070
    46
1040
2.710313835477184
1000
ACAD_MTEXT_DEFINED_HEIGHT_END
  0
MTEXT
  5
12C28
330
1F
100
AcDbEntity
  8
图框
100
AcDbMText
 10
414.0464240069046
 20
275.324208522129
 30
0.0
 40
1.19999583169232
 41
4.865807450125188
 46
2.704444373630594
 71
     5
 72
     5
  1
{\C4;2.6}
  7
Romans字体
 73
     1
 44
1.0
1001
ACAD
1000
ACAD_MTEXT_DEFINED_HEIGHT_BEGIN
1070
    46
1040
2.704444373630594
1000
ACAD_MTEXT_DEFINED_HEIGHT_END
  0
MTEXT
  5
12C29
330
1F
100
AcDbEntity
  8
图框
100
AcDbMText
 10
414.0464240069043
 20
272.6168294175752
 30
0.0
 40
1.19999583169232
 41
4.865807450125188
 46
2.71031383547714
 71
     5
 72
     5
  1
{\C4;3.0}
  7
Romans字体
 73
     1
 44
1.0
1001
ACAD
1000
ACAD_MTEXT_DEFINED_HEIGHT_BEGIN
1070
    46
1040
2.71031383547714
1000
ACAD_MTEXT_DEFINED_HEIGHT_END
  0
LINE
  5
12C31
330
1F
100
AcDbEntity
  8
图框
370
    -3
100
AcDbLine
 10
406.7477128303825
 20
282.0734203896825
 30
0.0
 11
406.7477128303836
 21
268.5513586643634
 31
0.0
  0
LINE
  5
12C32
330
1F
100
AcDbEntity
  8
图框
370
    -3
100
AcDbLine
 10
400.8479034743869
 20
279.3689960230492
 30
0.0
 11
400.8479034743866
 21
268.5513586643635
 31
0.0
  0
LINE
  5
12C33
330
1F
100
AcDbEntity
  8
图框
370
    -3
100
AcDbLine
 10
373.0755904912489
 20
268.5513586643636
 30
0.0
 11
373.0755904912489
 21
282.0734203896823
 31
0.0
  0
LINE
  5
12C34
330
1F
100
AcDbEntity
  8
图框
370
    -3
100
AcDbLine
 10
385.2092584876152
 20
268.5513586643635
 30
0.0
 11
385.2092584876153
 21
282.0734203896824
 31
0.0
  0
LINE
  5
12C38
330
1F
100
AcDbEntity
  8
图框
370
    35
380
     1
100
AcDbLine
 10
428.1367332238747
 20
282.0734203896829
 30
0.0
 11
428.1367332238747
 21
268.5513586643633
 31
0.0
  0
LINE
  5
12C46
330
1F
100
AcDbEntity
  8
图框
370
    -3
100
AcDbLine
 10
363.9652432364341
 20
268.5513586643637
 30
0.0
 11
428.1367332238747
 21
268.5513586643633
 31
0.0
  0
MTEXT
  5
12C4B
102
{ACAD_XDICTIONARY
360
147C6
102
}
330
1F
100
AcDbEntity
  8
打标文字
 62
     3
100
AcDbMText
 10
465.1645875092611
 20
255.2657689232763
 30
0.0
 40
1.5
 41
43.12740902174065
 46
53.91180554791946
 71
     1
 72
     5
  3
\A1;{\f仿宋_GB2312|b0|i0|c134|p49;技术参数}:\P- {\f仿宋_GB2312|b0|i0|c134|p49;材料}: {\f仿宋_GB2312|b0|i0|c134|p49;铜合金}\P- {\f仿宋_GB2312|b0|i0|c134|p49;表面处理}: {\f仿宋_GB2312|b0|i0|c134|p49;镀银}\P- {\f仿宋_GB2312|b0|i0|c134|p49;额定电流}: 16A\P- {\f仿宋_GB2312|b0|i0|c134|p49
  3
;接触电阻}: ≤1mΩ\P- {\f仿宋_GB2312|b0|i0|c134|p49;线径范围}: 2.5mm{\H0.7x;\S2^ ;}(14 AWG)\P{\f仿宋_GB2312|b0|i0|c134|p49;延迟加长针较短，延迟接触，起保护电路避免电弧}\P\PTechnical specification:\P- Material: copper alloy\P- Surface: hard-silver plated\P- Rated current: 16A\P- Contact 
  1
resistance: ≤1mΩ\P- Wire gauge: 2.5mm{\H0.7x;\S2^ ;}(14 AWG)\PDelay pin is relatively short, delay contact, protect circuit to avoid electric arc.
  7
Romans字体
 73
     1
 44
1.0
1001
ACAD
1000
ACAD_MTEXT_DEFINED_HEIGHT_BEGIN
1070
    46
1040
53.91180554791946
1000
ACAD_MTEXT_DEFINED_HEIGHT_END
  0
MTEXT
  5
12C4D
330
1F
100
AcDbEntity
  8
图框
100
AcDbMText
 10
368.5204168638418
 20
279.3691461624544
 30
0.0
 40
1.200004709114095
 41
9.110347254814612
 46
5.408548454455798
 71
     5
 72
     5
  1
{\f仿宋_GB2312|b0|i0|c134|p49;\C4;产品代号\fFangSong_GB2312|b0|i0|c134|p49;\P\Fromans|c134;Part code}
  7
Romans字体
 73
     1
 44
1.0
1001
ACAD
1000
ACAD_MTEXT_DEFINED_HEIGHT_BEGIN
1070
    46
1040
5.408548454455798
1000
ACAD_MTEXT_DEFINED_HEIGHT_END
  0
MTEXT
  5
12C51
330
1F
100
AcDbEntity
  8
图框
100
AcDbMText
 10
379.1424244907657
 20
275.3242085221271
 30
0.0
 40
1.200004709114095
 41
12.13366799636653
 46
2.704444373632686
 71
     5
 72
     5
  1
{\C4;1010191100808}
  7
Romans字体
 73
     1
 44
1.0
1001
ACAD
1000
ACAD_MTEXT_DEFINED_HEIGHT_BEGIN
1070
    46
1040
2.704444373632686
1000
ACAD_MTEXT_DEFINED_HEIGHT_END
  0
MTEXT
  5
12C52
330
1F
100
AcDbEntity
  8
图框
100
AcDbMText
 10
379.1424244907657
 20
272.6197641484967
 30
0.0
 40
1.200004709114095
 41
12.13366799636653
 46
2.704444373632686
 71
     5
 72
     5
  1
{\C4;1010191100908}
  7
Romans字体
 73
     1
 44
1.0
1001
ACAD
1000
ACAD_MTEXT_DEFINED_HEIGHT_BEGIN
1070
    46
1040
2.704444373632686
1000
ACAD_MTEXT_DEFINED_HEIGHT_END
  0
MTEXT
  5
12C53
330
1F
100
AcDbEntity
  8
图框
100
AcDbMText
 10
379.1424244907663
 20
269.9094503130189
 30
0.0
 40
1.200004709114095
 41
12.13366799636653
 46
2.704444373632686
 71
     5
 72
     5
  1
{\C4;1010191101008}
  7
Romans字体
 73
     1
 44
1.0
1001
ACAD
1000
ACAD_MTEXT_DEFINED_HEIGHT_BEGIN
1070
    46
1040
2.704444373632686
1000
ACAD_MTEXT_DEFINED_HEIGHT_END
  0
MTEXT
  5
12C57
330
1F
100
AcDbEntity
  8
图框
100
AcDbMText
 10
389.1189197353085
 20
280.7212782742846
 30
0.0
 40
1.200004709114095
 41
7.819322492718882
 46
2.704284230795455
 71
     5
 72
     5
  1
{\f仿宋_GB2312|b0|i0|c134|p49;\C4;重量\Fromans|c134;/Weight}
  7
Romans字体
 73
     1
 44
1.0
1001
ACAD
1000
ACAD_MTEXT_DEFINED_HEIGHT_BEGIN
1070
    46
1040
2.704284230795455
1000
ACAD_MTEXT_DEFINED_HEIGHT_END
  0
MTEXT
  5
12C58
330
1F
100
AcDbEntity
  8
图框
100
AcDbMText
 10
389.1189197353085
 20
278.016913972072
 30
0.0
 40
1.200004709114095
 41
7.819322492718763
 46
2.704444373629943
 71
     5
 72
     5
  1
{\C4;g}
  7
Romans字体
 73
     1
 44
1.0
1001
ACAD
1000
ACAD_MTEXT_DEFINED_HEIGHT_BEGIN
1070
    46
1040
2.704444373629943
1000
ACAD_MTEXT_DEFINED_HEIGHT_END
  0
LINE
  5
12C59
330
1F
100
AcDbEntity
  8
图框
370
    -3
100
AcDbLine
 10
393.0285809816681
 20
282.0734203896823
 30
0.0
 11
393.0285809816678
 21
268.5513586643635
 31
0.0
  0
MTEXT
  5
12C5C
330
1F
100
AcDbEntity
  8
图框
100
AcDbMText
 10
389.1189197353085
 20
275.3242085221271
 30
0.0
 40
1.200004709114095
 41
7.819322492718905
 46
2.704444373633061
 71
     5
 72
     5
  1
{\C4;1.29}
  7
Romans字体
 73
     1
 44
1.0
1001
ACAD
1000
ACAD_MTEXT_DEFINED_HEIGHT_BEGIN
1070
    46
1040
2.704444373633061
1000
ACAD_MTEXT_DEFINED_HEIGHT_END
  0
MTEXT
  5
12C5D
330
1F
100
AcDbEntity
  8
图框
100
AcDbMText
 10
389.1189197353083
 20
272.6197641484967
 30
0.0
 40
1.200004709114095
 41
7.819322492718905
 46
2.704444373633061
 71
     5
 72
     5
  1
{\C4;1.33}
  7
Romans字体
 73
     1
 44
1.0
1001
ACAD
1000
ACAD_MTEXT_DEFINED_HEIGHT_BEGIN
1070
    46
1040
2.704444373633061
1000
ACAD_MTEXT_DEFINED_HEIGHT_END
  0
MTEXT
  5
12C5E
330
1F
100
AcDbEntity
  8
图框
100
AcDbMText
 10
389.1189197353087
 20
269.9094503130191
 30
0.0
 40
1.200004709114095
 41
7.819322492718905
 46
2.704444373633061
 71
     5
 72
     5
  1
{\C4;1.37}
  7
Romans字体
 73
     1
 44
1.0
1001
ACAD
1000
ACAD_MTEXT_DEFINED_HEIGHT_BEGIN
1070
    46
1040
2.704444373633061
1000
ACAD_MTEXT_DEFINED_HEIGHT_END
  0
MTEXT
  5
13003
330
1F
100
AcDbEntity
  8
图框
100
AcDbMText
 10
422.3080304779206
 20
279.3690560874701
 30
0.0
 40
1.200004709114095
 41
11.65740549190757
 46
5.408728604424518
 71
     5
 72
     5
  1
{\f仿宋_GB2312|b0|i0|c134|p49;\C4;剥线长度\Fromans|c134;\PStripping length}
  7
Romans字体
 73
     1
 44
1.0
1001
ACAD
1000
ACAD_MTEXT_DEFINED_HEIGHT_BEGIN
1070
    46
1040
5.408728604424518
1000
ACAD_MTEXT_DEFINED_HEIGHT_END
  0
LINE
  5
13093
330
1F
100
AcDbEntity
  8
图框
 62
     1
370
    18
100
AcDbLine
 10
362.2152432364329
 20
289.5734203896823
 30
0.0
 11
510.7146182042826
 21
289.5734203896823
 31
0.0
1001
AcDbBlockRepETag
1070
     1
1071
      143
1005
13093
  0
LINE
  5
1309A
330
1F
100
AcDbEntity
  8
图框
370
    35
380
     1
100
AcDbLine
 10
416.4793277319668
 20
282.0734203896825
 30
0.0
 11
416.4793277319667
 21
268.5513586643633
 31
0.0
  0
MTEXT
  5
1309E
330
1F
100
AcDbEntity
  8
图框
100
AcDbMText
 10
422.3080304779206
 20
275.3242085221274
 30
0.0
 40
1.200004709114095
 41
11.65740549190751
 46
2.704444373633358
 71
     5
 72
     5
  1
{\C4;7.5}
  7
Romans字体
 73
     1
 44
1.0
1001
ACAD
1000
ACAD_MTEXT_DEFINED_HEIGHT_BEGIN
1070
    46
1040
2.704444373633358
1000
ACAD_MTEXT_DEFINED_HEIGHT_END
  0
MTEXT
  5
1309F
330
1F
100
AcDbEntity
  8
图框
100
AcDbMText
 10
422.3080304779206
 20
272.6168294175753
 30
0.0
 40
1.200004709114095
 41
11.65740549190757
 46
2.71031383547689
 71
     5
 72
     5
  1
{\C4;7.5}
  7
Romans字体
 73
     1
 44
1.0
1001
ACAD
1000
ACAD_MTEXT_DEFINED_HEIGHT_BEGIN
1070
    46
1040
2.71031383547689
1000
ACAD_MTEXT_DEFINED_HEIGHT_END
  0
MTEXT
  5
130A0
330
1F
100
AcDbEntity
  8
图框
100
AcDbMText
 10
422.3080304779206
 20
269.9065155821001
 30
0.0
 40
1.200004709114095
 41
11.65740549190757
 46
2.710313835473252
 71
     5
 72
     5
  1
{\C4;7.5}
  7
Romans字体
 73
     1
 44
1.0
1001
ACAD
1000
ACAD_MTEXT_DEFINED_HEIGHT_BEGIN
1070
    46
1040
2.710313835473252
1000
ACAD_MTEXT_DEFINED_HEIGHT_END
  0
MTEXT
  5
13EBA
330
1F
100
AcDbEntity
  8
图框
 62
     3
100
AcDbMText
 10
500.5699706088269
 20
203.270449343129
 30
0.0
 40
1.492756789270166
 41
16.80619601594785
 46
4.343372757943781
 71
     5
 72
     5
  1
CESM-2.5R
  7
Romans字体
 73
     1
 44
1.0
1001
ACAD
1000
ACAD_MTEXT_DEFINED_HEIGHT_BEGIN
1070
    46
1040
4.343372757943781
1000
ACAD_MTEXT_DEFINED_HEIGHT_END
  0
MTEXT
  5
13EBB
330
1F
100
AcDbEntity
  8
图框
 62
     3
100
AcDbMText
 10
500.5699706088269
 20
198.8807240745606
 30
0.0
 40
1.492756789270166
 41
16.80619601594785
 46
4.436077779192771
 71
     5
 72
     5
  1
{\C4;1010191101008}
  7
Romans字体
 73
     1
 44
1.0
1001
ACAD
1000
ACAD_MTEXT_DEFINED_HEIGHT_BEGIN
1070
    46
1040
4.436077779192771
1000
ACAD_MTEXT_DEFINED_HEIGHT_END
  0
MTEXT
  5
13EBC
330
1F
100
AcDbEntity
  8
图框
 62
     3
100
AcDbMText
 10
466.5431381035733
 20
192.2269065273738
 30
0.0
 40
1.492756789270166
 41
5.414674223554219
 46
3.943047305235955
 71
     5
 72
     5
  1
2:1 
  7
Romans字体
 73
     1
 44
1.0
1001
ACAD
1000
ACAD_MTEXT_DEFINED_HEIGHT_BEGIN
1070
    46
1040
3.943047305235955
1000
ACAD_MTEXT_DEFINED_HEIGHT_END
  0
MTEXT
  5
13EBD
330
1F
100
AcDbEntity
  8
图框
 62
     3
100
AcDbMText
 10
477.3815302230609
 20
192.0642814378064
 30
0.0
 40
1.492756789270166
 41
5.414674223555065
 46
3.943047305235904
 71
     5
 72
     5
  1
1.33g 
  7
Romans字体
 73
     1
 44
1.0
1001
ACAD
1000
ACAD_MTEXT_DEFINED_HEIGHT_BEGIN
1070
    46
1040
3.943047305235904
1000
ACAD_MTEXT_DEFINED_HEIGHT_END
  0
INSERT
  5
13EBE
330
1F
100
AcDbEntity
  8
DIM
100
AcDbBlockReference
  2
A4图框-NEW
 10
-54.49118335011199
 20
-55.69396471345189
 30
0.0
 41
0.5000000005871926
 42
0.5000000005871926
 43
0.5000000005871991
  0
LINE
  5
1438E
330
1F
100
AcDbEntity
  8
0
100
AcDbLine
 10
382.7293483596408
 20
200.0076469588845
 30
0.0
 11
381.7297941497524
 21
197.9426907709808
 31
0.0
  0
LINE
  5
1438F
330
1F
100
AcDbEntity
  8
0
100
AcDbLine
 10
376.2813241911822
 20
195.2289699816329
 30
0.0
 11
375.6540585464219
 21
195.0012047319491
 31
0.0
  0
LINE
  5
14390
330
1F
100
AcDbEntity
  8
0
100
AcDbLine
 10
375.6540593038877
 20
195.0011685773237
 30
0.0
 11
375.6458276652945
 21
195.0010325210643
 31
0.0
  0
LINE
  5
14391
330
1F
100
AcDbEntity
  8
0
100
AcDbLine
 10
378.9268874591103
 20
193.9977102452789
 30
0.0
 11
379.1219453079215
 21
193.3166820806635
 31
0.0
  0
LINE
  5
14392
330
1F
100
AcDbEntity
  8
0
100
AcDbLine
 10
375.3832624705789
 20
194.8995090974716
 30
0.0
 11
374.9831045397342
 21
194.0736738013365
 31
0.0
  0
LINE
  5
14393
330
1F
100
AcDbEntity
  8
0
100
AcDbLine
 10
385.336126228252
 20
213.275748431727
 30
0.0
 11
379.9677516733634
 21
202.1966397991142
 31
0.0
  0
LINE
  5
14394
330
1F
100
AcDbEntity
  8
0
100
AcDbLine
 10
379.5288244371473
 20
202.2624253759162
 30
0.0
 11
379.3985839621778
 21
202.2460369344673
 31
0.0
  0
LINE
  5
14395
330
1F
100
AcDbEntity
  8
0
100
AcDbLine
 10
378.9490899439184
 20
202.0873771738135
 30
0.0
 11
378.7827965450105
 21
202.0664786111945
 31
0.0
  0
LINE
  5
14396
330
1F
100
AcDbEntity
  8
0
100
AcDbLine
 10
379.3986826293334
 20
202.2460700879928
 30
0.0
 11
378.7827965450105
 21
202.0664786111945
 31
0.0
  0
LINE
  5
14397
330
1F
100
AcDbEntity
  8
0
100
AcDbLine
 10
382.4823816051484
 20
200.7518658445067
 30
0.0
 11
382.7231043289702
 21
200.1572051550574
 31
0.0
  0
LINE
  5
14398
330
1F
100
AcDbEntity
  8
0
100
AcDbLine
 10
387.4593033392532
 20
212.2469644066387
 30
0.0
 11
382.0908538551422
 21
201.1677011334785
 31
0.0
  0
LINE
  5
14399
330
1F
100
AcDbEntity
  8
0
100
AcDbLine
 10
379.2049812699017
 20
193.0476978518325
 30
0.0
 11
378.8048233414552
 21
192.2218625580942
 31
0.0
  0
LWPOLYLINE
  5
1439A
330
1F
100
AcDbEntity
  8
0
100
AcDbPolyline
 90
       17
 70
     0
 43
0.0
 10
387.4593033392532
 20
212.2469644066387
 10
387.5476968640109
 20
212.4984674388541
 10
387.5773593961243
 20
212.7585293901655
 10
387.5551606788377
 20
212.9891466815534
 10
387.4997686304817
 20
213.1821256196434
 10
387.4225629285025
 20
213.3455273580163
 10
387.3347478585801
 20
213.477972368661
 10
387.241767852395
 20
213.5854582468737
 10
387.1502131697594
 20
213.669825230266
 10
387.0628628940034
 20
213.7355983783915
 10
386.9810076803045
 20
213.7867045563027
 10
386.8996191400552
 20
213.8289056794611
 10
386.8169664056022
 20
213.8639884882341
 10
386.7301594967419
 20
213.8931911760796
 10
386.6316758374891
 20
213.9175707726086
 10
386.5176768651279
 20
213.9348889078583
 10
386.3833314126964
 20
213.9409167298885
  0
LWPOLYLINE
  5
1439B
330
1F
100
AcDbEntity
  8
0
100
AcDbPolyline
 90
        7
 70
     0
 43
0.0
 10
386.3833314126964
 20
213.9409167298885
 10
386.2008267594898
 20
213.9244576667079
 10
386.0012783487578
 20
213.8723953747678
 10
385.7965027049682
 20
213.7763014636484
 10
385.6124524900504
 20
213.6416589430651
 10
385.4569580461477
 20
213.4730769872695
 10
385.336126228252
 20
213.2757484317271
  0
SPLINE
  5
1439C
330
1F
100
AcDbEntity
  8
0
100
AcDbSpline
210
0.0
220
0.0
230
1.0
 70
     8
 71
     3
 72
    21
 73
    17
 74
    15
 42
0.0000000001
 43
0.0000000001
 44
0.0000000001
 12
0.9999256644601537
 22
0.0121928484744085
 32
0.0
 13
0.3736847741914498
 23
-0.9275557608777409
 33
0.0
 40
0.0
 40
0.0
 40
0.0
 40
0.0
 40
0.1797528749123478
 40
0.410451475560531
 40
0.6888188528419603
 40
1.004834342893069
 40
1.344954355195547
 40
1.69506863109811
 40
2.043697516934056
 40
2.38075519589019
 40
2.69685687268493
 40
2.983421055307893
 40
3.232393585600298
 40
3.436991272408239
 40
3.592205093074429
 40
3.62611941197445
 40
3.62611941197445
 40
3.62611941197445
 40
3.62611941197445
 10
375.4361305482827
 20
194.0611593820895
 30
0.0
 10
375.4960437192445
 20
194.0618899486117
 30
0.0
 10
375.6329325223699
 20
194.0502843517832
 30
0.0
 10
375.8585043118589
 20
194.0063488572091
 30
0.0
 10
376.123917468933
 20
193.9333709032905
 30
0.0
 10
376.4188489167499
 20
193.8326749464079
 30
0.0
 10
376.7305643308956
 20
193.7084874508238
 30
0.0
 10
377.0462613296844
 20
193.565915979749
 30
0.0
 10
377.3546388240919
 20
193.4103984410149
 30
0.0
 10
377.646068693148
 20
193.247141032006
 30
0.0
 10
377.9118917432756
 20
193.0811824425951
 30
0.0
 10
378.1441948891353
 20
192.917718134578
 30
0.0
 10
378.3356173881621
 20
192.7616139151461
 30
0.0
 10
378.4803221892404
 20
192.6188584910214
 30
0.0
 10
378.5581903268544
 20
192.5116668218432
 30
0.0
 10
378.5852750496093
 20
192.4546207242578
 30
0.0
 10
378.5894994711426
 20
192.4441349169672
 30
0.0
 11
375.4361305482827
 21
194.0611593820895
 31
0.0
 11
375.615466902815
 21
194.0489295831414
 31
0.0
 11
375.8422880591755
 21
194.0068106162936
 31
0.0
 11
376.1110143204478
 21
193.9341842213871
 31
0.0
 11
376.4103551696654
 21
193.8328883876032
 31
0.0
 11
376.7264807661351
 21
193.7074044044608
 31
0.0
 11
377.0456306588163
 21
193.5634483271582
 31
0.0
 11
377.3568768094493
 21
193.4063880401492
 31
0.0
 11
377.6507672511538
 21
193.2413538400026
 31
0.0
 11
377.9185723017671
 21
193.0734231253062
 31
0.0
 11
378.1522806230928
 21
192.9075935401728
 31
0.0
 11
378.3442327463209
 21
192.7490321853967
 31
0.0
 11
378.487415944489
 21
192.6028857341585
 31
0.0
 11
378.5752295929629
 21
192.4749009957422
 31
0.0
 11
378.5894994711426
 21
192.4441349169672
 31
0.0
  0
SPLINE
  5
1439D
330
1F
100
AcDbEntity
  8
0
100
AcDbSpline
210
0.0
220
0.0
230
1.0
 70
     8
 71
     3
 72
    19
 73
    15
 74
    13
 42
0.0000000001
 43
0.0000000001
 44
0.0000000001
 12
0.9999256634178742
 22
0.0121929339506097
 32
0.0
 13
0.3551913703474105
 23
-0.9347936084669861
 33
0.0
 40
0.0
 40
0.0
 40
0.0
 40
0.0
 40
0.2045122576768796
 40
0.464689935353357
 40
0.7718208468878164
 40
1.114064053237879
 40
1.477592544155655
 40
1.847456730753965
 40
2.208381432491982
 40
2.545551905482793
 40
2.845416345056702
 40
3.096573922866762
 40
3.29101902384515
 40
3.393437138394993
 40
3.393437138394993
 40
3.393437138394993
 40
3.393437138394993
 10
379.5288244371473
 20
202.2624253759164
 30
0.0
 10
379.5969901221255
 20
202.2632565773997
 30
0.0
 10
379.7518905178291
 20
202.2472178379189
 30
0.0
 10
380.0034052309356
 20
202.1922405412654
 30
0.0
 10
380.2938552163493
 20
202.1042720242163
 30
0.0
 10
380.6105918201282
 20
201.9868896773221
 30
0.0
 10
380.9399943592075
 20
201.8449108481548
 30
0.0
 10
381.2677378833631
 20
201.684448309427
 30
0.0
 10
381.5795678656048
 20
201.5124477121561
 30
0.0
 10
381.8621568704492
 20
201.336504408078
 30
0.0
 10
382.1030090444515
 20
201.1641517485519
 30
0.0
 10
382.2936065120923
 20
201.0035619057374
 30
0.0
 10
382.4161123156825
 20
200.8679327952942
 30
0.0
 10
382.4712994504501
 20
200.7841300021905
 30
0.0
 10
382.4834254606019
 20
200.7522167358997
 30
0.0
 11
379.5288244371473
 21
202.2624253759164
 31
0.0
 11
379.7326626207115
 21
202.245834460892
 31
0.0
 11
379.987324269937
 21
202.1925440454792
 31
0.0
 11
380.2816794434857
 21
202.1048831726504
 31
0.0
 11
380.6028634131977
 21
201.9866830462004
 31
0.0
 11
380.9368388957325
 21
201.8431095779877
 31
0.0
 11
381.2690095593908
 21
201.6804376174879
 31
0.0
 11
381.5848579520203
 21
201.505776708301
 31
0.0
 11
381.8705799843784
 21
201.3267603736216
 31
0.0
 11
382.1136882327391
 21
201.1512124835746
 31
0.0
 11
382.303557700427
 21
200.9868053239637
 31
0.0
 11
382.431890180521
 21
200.8407242784875
 31
0.0
 11
382.4834254606019
 21
200.7522167358997
 31
0.0
  0
SPLINE
  5
1439E
330
1F
100
AcDbEntity
  8
0
100
AcDbSpline
210
0.0
220
0.0
230
1.0
 70
     8
 71
     3
 72
     9
 73
     5
 74
     3
 42
0.0000000001
 43
0.0000000001
 44
0.0000000001
 12
0.9566235494466818
 22
0.2913269377246668
 32
0.0
 13
0.9999256613236678
 23
0.012193105692364
 33
0.0
 40
0.0
 40
0.0
 40
0.0
 40
0.0
 40
0.0115445243150939
 40
0.1464621716214649
 40
0.1464621716214649
 40
0.1464621716214649
 40
0.1464621716214649
 10
375.2910537183303
 20
194.0420806438489
 30
0.0
 10
375.2947349729393
 20
194.0432017208209
 30
0.0
 10
375.3416969997464
 20
194.0565813903194
 30
0.0
 10
375.3911613423803
 20
194.060611027045
 30
0.0
 10
375.4361305482827
 20
194.0611593820895
 30
0.0
 11
375.2910537183303
 21
194.0420806438489
 31
0.0
 11
375.302153854816
 21
194.0452528688822
 31
0.0
 11
375.4361305482827
 21
194.0611593820895
 31
0.0
  0
SPLINE
  5
1439F
330
1F
100
AcDbEntity
  8
0
100
AcDbSpline
210
0.0
220
0.0
230
1.0
 70
     8
 71
     3
 72
    20
 73
    16
 74
    14
 42
0.0000000001
 43
0.0000000001
 44
0.0000000001
 12
-0.4114360454886254
 22
-0.9114386323130492
 32
0.0
 13
0.9999256634150441
 23
0.0121929341827179
 33
0.0
 40
0.0
 40
0.0
 40
0.0
 40
0.0
 40
0.1019463263447003
 40
0.2650519479354148
 40
0.4983860691529251
 40
0.7997751632003956
 40
1.159612488682804
 40
1.564217057490103
 40
1.997326699950579
 40
2.441163724719542
 40
2.877397912628694
 40
3.28808975946848
 40
3.656646853768902
 40
3.96886006697913
 40
4.214274777187281
 40
4.214274777187281
 40
4.214274777187281
 40
4.214274777187281
 10
374.9833091251062
 20
194.0736351250194
 30
0.0
 10
374.9693276606517
 20
194.0426625182684
 30
0.0
 10
374.9701639079719
 20
193.9469594968484
 30
0.0
 10
375.0601052140419
 20
193.8031860233574
 30
0.0
 10
375.216364282086
 20
193.6309840946752
 30
0.0
 10
375.4449776137603
 20
193.4380794536284
 30
0.0
 10
375.7340365301874
 20
193.2313252237116
 30
0.0
 10
376.0731316843455
 20
193.0201711281923
 30
0.0
 10
376.4473311412426
 20
192.8137770160336
 30
0.0
 10
376.8406223978384
 20
192.621220122746
 30
0.0
 10
377.2359056984367
 20
192.4508460097263
 30
0.0
 10
377.615989560293
 20
192.3099870759842
 30
0.0
 10
377.9645295570269
 20
192.2044248826774
 30
0.0
 10
378.2663472101928
 20
192.1384521211185
 30
0.0
 10
378.45222768584
 20
192.1192056340427
 30
0.0
 10
378.5340265081456
 20
192.1202030758457
 30
0.0
 11
374.9833091251062
 21
194.0736351250194
 31
0.0
 11
374.9769235225747
 21
193.971888982412
 31
0.0
 11
375.0503476156172
 21
193.826244393239
 31
0.0
 11
375.2043465912505
 21
193.6509471381885
 31
0.0
 11
375.4321899529549
 21
193.4536585461766
 31
0.0
 11
375.7239198495506
 21
193.243001079557
 31
0.0
 11
376.0667862898186
 21
193.0281814779429
 31
0.0
 11
376.4458043619324
 21
192.8185883878768
 31
0.0
 11
376.8444091588007
 21
192.623382034319
 31
0.0
 11
377.2451797359262
 21
192.451093871025
 31
0.0
 11
377.6306004991017
 21
192.3092537202428
 31
0.0
 11
377.9838267078393
 21
192.2040606728489
 31
0.0
 11
378.2894206869083
 21
192.1401121743535
 31
0.0
 11
378.5340265081456
 21
192.1202030758457
 31
0.0
  0
SPLINE
  5
143A0
330
1F
100
AcDbEntity
  8
0
100
AcDbSpline
210
0.0
220
0.0
230
1.0
 70
     8
 71
     3
 72
    10
 73
     6
 74
     4
 42
0.0000000001
 43
0.0000000001
 44
0.0000000001
 12
-0.9998571019693757
 22
-0.0169048999228341
 32
0.0
 13
-0.411012904106845
 23
-0.9116295259904966
 33
0.0
 40
0.0
 40
0.0
 40
0.0
 40
0.0
 40
0.1665641792567699
 40
0.2828130544796247
 40
0.2916876471466486
 40
0.2916876471466486
 40
0.2916876471466486
 40
0.2916876471466486
 10
375.6458273776497
 20
195.0010496024048
 30
0.0
 10
375.5903139184618
 20
195.0001110188111
 30
0.0
 10
375.4966182666387
 20
194.9929242872237
 30
0.0
 10
375.4035006777522
 20
194.9394910027413
 30
0.0
 10
375.3846628332736
 20
194.9021226906665
 30
0.0
 10
375.3834469759054
 20
194.8994259104311
 30
0.0
 11
375.6458273776497
 21
195.0010496024048
 31
0.0
 11
375.4811320860707
 21
194.9761681486054
 31
0.0
 11
375.3874412218869
 21
194.9073508327679
 31
0.0
 11
375.3834469759054
 21
194.8994259104311
 31
0.0
  0
SPLINE
  5
143A1
330
1F
100
AcDbEntity
  8
0
100
AcDbSpline
210
0.0
220
0.0
230
1.0
 70
     8
 71
     3
 72
     9
 73
     5
 74
     3
 42
0.0000000001
 43
0.0000000001
 44
0.0000000001
 12
0.3795996573556234
 22
-0.9251508526372838
 32
0.0
 13
-0.400986328427014
 23
-0.9160840378560381
 33
0.0
 40
0.0
 40
0.0
 40
0.0
 40
0.0
 40
0.0692317199697874
 40
0.1531492850301899
 40
0.1531492850301899
 40
0.1531492850301899
 40
0.1531492850301899
 10
382.7244967794485
 20
200.1577764930673
 30
0.0
 10
382.7332568918414
 20
200.1364265648141
 30
0.0
 10
382.7469563223953
 20
200.0866245047357
 30
0.0
 10
382.7405649584089
 20
200.0332721395003
 30
0.0
 10
382.7293483596408
 20
200.0076469588845
 30
0.0
 11
382.7244967794485
 21
200.1577764930673
 31
0.0
 11
382.7415370444786
 21
200.0906746270897
 31
0.0
 11
382.7293483596408
 21
200.0076469588845
 31
0.0
  0
SPLINE
  5
143A2
330
1F
100
AcDbEntity
  8
0
100
AcDbSpline
210
0.0
220
0.0
230
1.0
 70
     8
 71
     3
 72
    12
 73
     8
 74
     0
 42
0.0000000001
 43
0.0000000001
 40
0.0
 40
0.0
 40
0.0
 40
0.0
 40
0.0889856640041622
 40
0.2465144142572709
 40
0.4722187728986916
 40
0.7672091182016353
 40
0.9939334795552907
 40
0.9939334795552907
 40
0.9939334795552907
 40
0.9939334795552907
 10
377.6612102617942
 20
199.9142285859527
 30
0.0
 10
377.6499736328831
 20
199.8885904011769
 30
0.0
 10
377.6401393971016
 20
199.8072554016295
 30
0.0
 10
377.7113134125258
 20
199.6701741927369
 30
0.0
 10
377.8462170223345
 20
199.5060634847066
 30
0.0
 10
378.0208065833725
 20
199.3468786025905
 30
0.0
 10
378.1495436442917
 20
199.2450001644014
 30
0.0
 10
378.2064931968986
 20
199.202082577158
 30
0.0
  0
SPLINE
  5
143A3
330
1F
100
AcDbEntity
  8
0
100
AcDbSpline
210
0.0
220
0.0
230
1.0
 70
     8
 71
     3
 72
    10
 73
     6
 74
     0
 42
0.0000000001
 43
0.0000000001
 40
0.5054477850608489
 40
0.5054477850608489
 40
0.5054477850608489
 40
0.5054477850608489
 40
0.5788698856249633
 40
0.9029706754363131
 40
1.160304674357877
 40
1.160304674357877
 40
1.160304674357877
 40
1.160304674357877
 10
380.832179968851
 20
197.9298022591823
 30
0.0
 10
380.8545241747134
 20
197.9239426752631
 30
0.0
 10
380.9757360058949
 20
197.8931305287879
 30
0.0
 10
381.177553512176
 20
197.8510903391281
 30
0.0
 10
381.3604995275982
 20
197.8334545204494
 30
0.0
 10
381.441443786606
 20
197.8344415418867
 30
0.0
  0
SPLINE
  5
143A4
330
1F
100
AcDbEntity
  8
0
100
AcDbSpline
210
0.0
220
0.0
230
1.0
 70
     8
 71
     3
 72
    10
 73
     6
 74
     4
 42
0.0000000001
 43
0.0000000001
 44
0.0000000001
 12
-0.9582549145839381
 22
-0.285915229877195
 32
0.0
 13
-0.4009863309572776
 23
-0.9160840367484963
 33
0.0
 40
0.0
 40
0.0
 40
0.0
 40
0.0
 40
0.0091398979751985
 40
0.1292566750873233
 40
0.1525138822783974
 40
0.1525138822783974
 40
0.1525138822783974
 40
0.1525138822783974
 10
378.7827836105567
 20
202.0665219617486
 30
0.0
 10
378.7798641598389
 20
202.0656508830717
 30
0.0
 10
378.738870029036
 20
202.0529199985672
 30
0.0
 10
378.687865372838
 20
202.0282144354994
 30
0.0
 10
378.6646888029881
 20
201.985861843244
 30
0.0
 10
378.6615801955948
 20
201.9787599911617
 30
0.0
 11
378.7827836105567
 21
202.0665219617486
 31
0.0
 11
378.7740555056469
 21
202.0638094131903
 31
0.0
 11
378.6728597293044
 21
201.9990988654084
 31
0.0
 11
378.6615801955948
 21
201.9787599911617
 31
0.0
  0
SPLINE
  5
143A5
330
1F
100
AcDbEntity
  8
0
100
AcDbSpline
210
0.0
220
0.0
230
1.0
 70
     8
 71
     3
 72
    10
 73
     6
 74
     4
 42
0.0000000001
 43
0.0000000001
 44
0.0000000001
 12
-0.4014161361486598
 22
-0.9158957831759465
 32
0.0
 13
-0.9999256634349974
 23
-0.0121929325463704
 33
0.0
 40
0.0
 40
0.0
 40
0.0
 40
0.0
 40
0.0231954378784598
 40
0.1433122149898415
 40
0.3199261836378457
 40
0.3199261836378457
 40
0.3199261836378457
 40
0.3199261836378457
 10
381.7289286440161
 20
197.9430018954028
 30
0.0
 10
381.7258249696663
 20
197.9359203608222
 30
0.0
 10
381.7025403774482
 20
197.8935698635924
 30
0.0
 10
381.5982685781174
 20
197.8423655530183
 30
0.0
 10
381.5003107331967
 20
197.8351593559555
 30
0.0
 10
381.441443786606
 20
197.8344415418867
 30
0.0
 11
381.7289286440161
 21
197.9430018954028
 31
0.0
 11
381.7176740012186
 21
197.922719850292
 31
0.0
 11
381.6164782248768
 21
197.8580093025104
 31
0.0
 11
381.441443786606
 21
197.8344415418867
 31
0.0
  0
SPLINE
  5
143A6
330
1F
100
AcDbEntity
  8
0
100
AcDbSpline
210
0.0
220
0.0
230
1.0
 70
     8
 71
     3
 72
    10
 73
     6
 74
     4
 42
0.0000000001
 43
0.0000000001
 44
0.0000000001
 12
0.6107269561102271
 22
-0.791841262552247
 32
0.0
 13
-0.4110129020184428
 23
-0.9116295269320634
 33
0.0
 40
0.0
 40
0.0
 40
0.0
 40
0.0
 40
0.0267147323917525
 40
0.189820355061164
 40
0.2917210043350125
 40
0.2917210043350125
 40
0.2917210043350125
 40
0.2917210043350125
 10
379.1216547597327
 20
193.3164579905394
 30
0.0
 10
379.1270932287984
 20
193.3094067147307
 30
0.0
 10
379.165175754792
 20
193.2590075959085
 30
0.0
 10
379.2179393724611
 20
193.1743042821692
 30
0.0
 10
379.2187575917655
 20
193.0787462500402
 30
0.0
 10
379.2047967645736
 20
193.0477810364764
 30
0.0
 11
379.1216547597327
 21
193.3164579905394
 31
0.0
 11
379.1377381940187
 21
193.29512725993
 31
0.0
 11
379.2111622894578
 21
193.1494826707572
 31
0.0
 11
379.2047967645736
 21
193.0477810364764
 31
0.0
  0
SPLINE
  5
143A7
330
1F
100
AcDbEntity
  8
0
100
AcDbSpline
210
0.0
220
0.0
230
1.0
 70
     8
 71
     3
 72
    10
 73
     6
 74
     4
 42
0.0000000001
 43
0.0000000001
 44
0.0000000001
 12
-0.4114360484606886
 22
-0.9114386309714186
 32
0.0
 13
-0.9999256633886194
 23
-0.0121929363497686
 33
0.0
 40
0.0
 40
0.0
 40
0.0
 40
0.0
 40
0.0088258098705724
 40
0.1250746850934273
 40
0.2997997379565712
 40
0.2997997379565712
 40
0.2997997379565712
 40
0.2997997379565712
 10
378.8046187560841
 20
192.2219012344112
 30
0.0
 10
378.803408337305
 20
192.2192198397226
 30
0.0
 10
378.7845687322383
 20
192.1818717824129
 30
0.0
 10
378.6888947157532
 20
192.1269425297268
 30
0.0
 10
378.5922638629439
 20
192.1209132129951
 30
0.0
 10
378.5340265081456
 20
192.1202030758457
 30
0.0
 11
378.8046187560841
 21
192.2219012344112
 31
0.0
 11
378.8006445901464
 21
192.2140208204011
 31
0.0
 11
378.7069537259626
 21
192.1452035045636
 31
0.0
 11
378.5340265081456
 21
192.1202030758457
 31
0.0
  0
SPLINE
  5
143A8
330
1F
100
AcDbEntity
  8
0
100
AcDbSpline
210
0.0
220
0.0
230
1.0
 70
     8
 71
     3
 72
    20
 73
    16
 74
    14
 42
0.0000000001
 43
0.0000000001
 44
0.0000000001
 12
0.9999256634143659
 22
0.0121929342383116
 32
0.0
 13
0.3795996591407818
 23
-0.9251508519048135
 33
0.0
 40
0.0
 40
0.0
 40
0.0
 40
0.0
 40
0.2428508273372114
 40
0.5487107061369315
 40
0.9087803928919669
 40
1.310999708997184
 40
1.741173315261743
 40
2.183795678007549
 40
2.622796720714534
 40
3.042269558009532
 40
3.427202581093069
 40
3.764248112158528
 40
4.042635928843271
 40
4.255637283571669
 40
4.336178425294813
 40
4.336178425294813
 40
4.336178425294813
 40
4.336178425294813
 10
378.9490899439177
 20
202.0873771738135
 30
0.0
 10
379.0300342021296
 20
202.0883641952027
 30
0.0
 10
379.2129793557876
 20
202.0707286682302
 30
0.0
 10
379.5097604988159
 20
202.0089061428929
 30
0.0
 10
379.8519918958639
 20
201.9095044846439
 30
0.0
 10
380.2265886919953
 20
201.7760428334479
 30
0.0
 10
380.6193927420745
 20
201.6133241125862
 30
0.0
 10
381.015362975388
 20
201.4274821016576
 30
0.0
 10
381.3993878288471
 20
201.2256014880501
 30
0.0
 10
381.7567883856941
 20
201.0154015586044
 30
0.0
 10
382.0741736589637
 20
200.8051053724864
 30
0.0
 10
382.3393223235535
 20
200.6024997031699
 30
0.0
 10
382.5441566622834
 20
200.4163452829475
 30
0.0
 10
382.6651935633399
 20
200.2678878013422
 30
0.0
 10
382.7143056494668
 20
200.1826140616935
 30
0.0
 10
382.7244967794485
 20
200.1577764930673
 30
0.0
 11
378.9490899439177
 21
202.0873771738135
 31
0.0
 11
379.1912365674439
 21
202.0688964526904
 31
0.0
 11
379.4911898184454
 21
202.0090774534259
 31
0.0
 11
379.8374226635478
 21
201.9102189874651
 31
0.0
 11
380.2166295652558
 21
201.7761201286139
 31
0.0
 11
380.6142378147468
 21
201.6119342234231
 31
0.0
 11
381.0149675534212
 21
201.4239708425621
 31
0.0
 11
381.4034189601832
 21
201.2194533125495
 31
0.0
 11
381.7646640649978
 21
201.0062411283859
 31
0.0
 11
382.0848204240278
 21
200.7925279139306
 31
0.0
 11
382.3515846035096
 21
200.5865265485065
 31
0.0
 11
382.5547050064092
 21
200.3961535504095
 31
0.0
 11
382.6863758315306
 21
200.228724846395
 31
0.0
 11
382.7244967794485
 21
200.1577764930673
 31
0.0
  0
SPLINE
  5
143A9
330
1F
100
AcDbEntity
  8
0
100
AcDbSpline
210
0.0
220
0.0
230
1.0
 70
     8
 71
     3
 72
    11
 73
     7
 74
     5
 42
0.0000000001
 43
0.0000000001
 44
0.0000000001
 12
0.3736847752213957
 22
-0.9275557604628062
 32
0.0
 13
-0.9999256613984222
 23
-0.0121930995619666
 33
0.0
 40
0.0
 40
0.0
 40
0.0
 40
0.0
 40
0.0744997159449823
 40
0.1565287518440534
 40
0.2531890605703947
 40
0.3881067078759693
 40
0.3881067078759693
 40
0.3881067078759693
 40
0.3881067078759693
 10
378.5894994711426
 20
192.4441349169672
 30
0.0
 10
378.5987792743449
 20
192.421100703408
 30
0.0
 10
378.6119457001566
 20
192.3684797934912
 30
0.0
 10
378.5762165527311
 20
192.2827826015408
 30
0.0
 10
378.473321825919
 20
192.240772813033
 30
0.0
 10
378.3967665388129
 20
192.2349253321098
 30
0.0
 10
378.3517973329075
 20
192.234376977341
 30
0.0
 11
378.5894994711426
 21
192.4441349169672
 31
0.0
 11
378.6033260950007
 21
192.3709295063163
 31
0.0
 11
378.5712401434681
 21
192.2954360996851
 31
0.0
 11
378.4857740263734
 21
192.2502834905488
 31
0.0
 11
378.3517973329075
 21
192.234376977341
 31
0.0
  0
SPLINE
  5
143AA
330
1F
100
AcDbEntity
  8
0
100
AcDbSpline
210
0.0
220
0.0
230
1.0
 70
     8
 71
     3
 72
    10
 73
     6
 74
     4
 42
0.0000000001
 43
0.0000000001
 44
0.0000000001
 12
-0.9999256634349974
 22
-0.0121929325463704
 32
0.0
 13
-0.4014161361486598
 23
-0.9158957831759465
 33
0.0
 40
0.0
 40
0.0
 40
0.0
 40
0.0
 40
0.17661396864791
 40
0.296730744467393
 40
0.3199261823457694
 40
0.3199261823457694
 40
0.3199261823457694
 40
0.3199261823457694
 10
377.9486951192044
 20
200.0227889370711
 30
0.0
 10
377.8898281726136
 20
200.0220711230022
 30
0.0
 10
377.7918703288587
 20
200.0148649248568
 30
0.0
 10
377.6875985280621
 20
199.9636606175143
 30
0.0
 10
377.664313936144
 20
199.9213101205332
 30
0.0
 10
377.6612102617942
 20
199.9142285859527
 30
0.0
 11
377.9486951192044
 21
200.0227889370711
 31
0.0
 11
377.7736606809336
 21
199.9992211764476
 31
0.0
 11
377.6724649045925
 21
199.9345106310629
 31
0.0
 11
377.6612102617942
 21
199.9142285859527
 31
0.0
  0
SPLINE
  5
143AB
330
1F
100
AcDbEntity
  8
0
100
AcDbSpline
210
0.0
220
0.0
230
1.0
 70
     8
 71
     3
 72
     9
 73
     5
 74
     3
 42
0.0000000001
 43
0.0000000001
 44
0.0000000001
 12
-0.9999256633843131
 22
-0.0121929367029038
 32
0.0
 13
-0.4926331604757239
 23
-0.8702370764336
 33
0.0
 40
0.0
 40
0.0
 40
0.0
 40
0.0
 40
0.108562756592023
 40
0.1661705396985897
 40
0.1661705396985897
 40
0.1661705396985897
 40
0.1661705396985897
 10
385.4865689123584
 20
213.3322259218656
 30
0.0
 10
385.4503840168904
 20
213.3317846889258
 30
0.0
 10
385.3920742033795
 20
213.329981459326
 30
0.0
 10
385.3463020722525
 20
213.2920539154282
 30
0.0
 10
385.3368422374992
 20
213.2753431058447
 30
0.0
 11
385.4865689123584
 21
213.3322259218656
 31
0.0
 11
385.3795453713395
 21
213.3140096163502
 31
0.0
 11
385.3368422374992
 21
213.2753431058447
 31
0.0
  0
SPLINE
  5
143AC
330
1F
100
AcDbEntity
  8
0
100
AcDbSpline
210
0.0
220
0.0
230
1.0
 70
     8
 71
     3
 72
    23
 73
    19
 74
    17
 42
0.0000000001
 43
0.0000000001
 44
0.0000000001
 12
-0.9999256644602706
 22
-0.0121928484648233
 32
0.0
 13
0.9566235486271674
 23
0.2913269404156867
 33
0.0
 40
0.0
 40
0.0
 40
0.0
 40
0.0
 40
0.1797528749130303
 40
0.4104514755611927
 40
0.6888188528426963
 40
1.004834342893848
 40
1.344954355196334
 40
1.69506863109942
 40
2.043697516934313
 40
2.380755195891472
 40
2.696856872686251
 40
2.983421055308102
 40
3.23239358560123
 40
3.436991272408887
 40
3.592205093075548
 40
3.699905993908626
 40
3.781935029806974
 40
3.867332053885784
 40
3.867332053885784
 40
3.867332053885784
 40
3.867332053885784
 10
378.3517973329075
 20
192.234376977341
 30
0.0
 10
378.2918841619455
 20
192.2336464108194
 30
0.0
 10
378.154995358975
 20
192.2452520072901
 30
0.0
 10
377.9294235685569
 20
192.2891875040008
 30
0.0
 10
377.6640104159684
 20
192.3621654476018
 30
0.0
 10
377.3690789480908
 20
192.4628614506282
 30
0.0
 10
377.057363617007
 20
192.5870487551468
 30
0.0
 10
376.7416662955605
 20
192.7296209684334
 30
0.0
 10
376.4332899933622
 20
192.885135764711
 30
0.0
 10
376.1418559106609
 20
193.0484028664418
 30
0.0
 10
375.8760470908521
 20
193.214328721585
 30
0.0
 10
375.6436982826869
 20
193.3778980674604
 30
0.0
 10
375.4524133623676
 20
193.5336858120179
 30
0.0
 10
375.3073267427238
 20
193.6773195405262
 30
0.0
 10
375.2158178626377
 20
193.802409176676
 30
0.0
 10
375.1715659055395
 20
193.9154588719508
 30
0.0
 10
375.2097552490592
 20
194.0089323915632
 30
0.0
 10
375.2638227835915
 20
194.0337878259337
 30
0.0
 10
375.2910537183303
 20
194.0420806438489
 30
0.0
 11
378.3517973329075
 21
192.234376977341
 31
0.0
 11
378.1724609783745
 21
192.2466067762892
 31
0.0
 11
377.945639822014
 21
192.2887257431369
 31
0.0
 11
377.6769135607417
 21
192.3613521380436
 31
0.0
 11
377.377572711524
 21
192.4626479718272
 31
0.0
 11
377.0614471150544
 21
192.5881319549701
 31
0.0
 11
376.7422972223725
 21
192.7320880322724
 31
0.0
 11
376.4310510717408
 21
192.8891483192817
 31
0.0
 11
376.1371606300348
 21
193.0541825194277
 31
0.0
 11
375.8693555794216
 21
193.2221132341244
 31
0.0
 11
375.6356472580973
 21
193.3879428192578
 31
0.0
 11
375.4436951348684
 21
193.5465041740341
 31
0.0
 11
375.3005119367004
 21
193.6926506252719
 31
0.0
 11
375.2126982882259
 21
193.8206353636884
 31
0.0
 11
375.1846017861887
 21
193.9246068531147
 31
0.0
 11
375.2166877377207
 21
194.0001002597453
 31
0.0
 11
375.2910537183303
 21
194.0420806438489
 31
0.0
  0
SPLINE
  5
143AD
330
1F
100
AcDbEntity
  8
0
100
AcDbSpline
210
0.0
220
0.0
230
1.0
 70
     8
 71
     3
 72
    19
 73
    15
 74
    13
 42
0.0000000001
 43
0.0000000001
 44
0.0000000001
 12
0.9999256634135292
 22
0.0121929343069468
 32
0.0
 13
-0.4926331677632291
 23
-0.8702370723082108
 33
0.0
 40
0.0
 40
0.0
 40
0.0
 40
0.0
 40
0.1606740398106896
 40
0.3697193973987303
 40
0.6173892352824262
 40
0.8906951225094077
 40
1.174785946581826
 40
1.454066548401851
 40
1.713271286114131
 40
1.938554424051449
 40
2.118717713814787
 40
2.247158025940905
 40
2.327926087954518
 40
2.340679321088499
 40
2.340679321088499
 40
2.340679321088499
 40
2.340679321088499
 10
385.4865689123584
 20
213.3322259218656
 30
0.0
 10
385.5401229443087
 20
213.332878951203
 30
0.0
 10
385.6632872648546
 20
213.3179897275192
 30
0.0
 10
385.8634012021214
 20
213.2694980323196
 30
0.0
 10
386.0946386107218
 20
213.192824139217
 30
0.0
 10
386.3435628166033
 20
213.0922162491027
 30
0.0
 10
386.595954344717
 20
212.9731815911223
 30
0.0
 10
386.8372122393762
 20
212.8426738249079
 30
0.0
 10
387.0536307714584
 20
212.7079506706072
 30
0.0
 10
387.2327187207586
 20
212.5779198675876
 30
0.0
 10
387.3660151466119
 20
212.4572248515166
 30
0.0
 10
387.4464559161718
 20
212.358582081629
 30
0.0
 10
387.4735329497272
 20
212.2800016504729
 30
0.0
 10
387.4606815518847
 20
212.2510691779432
 30
0.0
 10
387.4585873300053
 20
212.2473697325215
 30
0.0
 11
385.4865689123584
 21
213.3322259218656
 31
0.0
 11
385.6465449382168
 21
213.3172653664071
 31
0.0
 11
385.850176225659
 21
213.2699974036443
 31
0.0
 11
386.0856284641461
 21
213.1931690756086
 31
0.0
 11
386.3392180255254
 21
213.0912453671184
 31
0.0
 11
386.5962072051897
 21
212.9701497113019
 31
0.0
 11
386.8416607269148
 21
212.8369197476088
 31
0.0
 11
387.0613137223434
 21
212.6992983188567
 31
0.0
 11
387.2424007608952
 21
212.5652834812177
 31
0.0
 11
387.374397720733
 21
212.4426636884764
 31
0.0
 11
387.4496334186876
 21
212.3385651604736
 31
0.0
 11
387.4637354294271
 21
212.2590377241102
 31
0.0
 11
387.4585873300053
 21
212.2473697325215
 31
0.0
  0
SPLINE
  5
143AE
330
1F
100
AcDbEntity
  8
0
100
AcDbSpline
210
0.0
220
0.0
230
1.0
 70
     8
 71
     3
 72
    20
 73
    16
 74
    14
 42
0.0000000001
 43
0.0000000001
 44
0.0000000001
 12
0.9999256634150441
 22
0.0121929341827179
 32
0.0
 13
-0.4114360454886254
 23
-0.9114386323130492
 33
0.0
 40
0.0
 40
0.0
 40
0.0
 40
0.0
 40
0.2454147102080392
 40
0.557627923418467
 40
0.9261850177189455
 40
1.336876864557875
 40
1.773111052467471
 40
2.216948077236683
 40
2.650057719696711
 40
3.05466228850457
 40
3.414499613986317
 40
3.715888708034371
 40
3.949222829251604
 40
4.112328450842344
 40
4.214274777187363
 40
4.214274777187363
 40
4.214274777187363
 40
4.214274777187363
 10
375.2539013730439
 20
194.1753332835853
 30
0.0
 10
375.3357001953494
 20
194.1763307253883
 30
0.0
 10
375.5215806709966
 20
194.1570842383124
 30
0.0
 10
375.8233983241626
 20
194.0911114767532
 30
0.0
 10
376.1719383208961
 20
193.985549283446
 30
0.0
 10
376.5520221827526
 20
193.8446903497045
 30
0.0
 10
376.9473054833509
 20
193.6743162366854
 30
0.0
 10
377.3405967399465
 20
193.4817593433971
 30
0.0
 10
377.7147961968434
 20
193.2753652312379
 30
0.0
 10
378.053891351002
 20
193.0642111357194
 30
0.0
 10
378.3429502674286
 20
192.8574569058016
 30
0.0
 10
378.571563599103
 20
192.6645522647556
 30
0.0
 10
378.7278226671479
 20
192.4923503360734
 30
0.0
 10
378.817763973217
 20
192.3485768625825
 30
0.0
 10
378.8186002205387
 20
192.2528738411623
 30
0.0
 10
378.8046187560841
 20
192.2219012344112
 30
0.0
 11
375.2539013730439
 21
194.1753332835853
 31
0.0
 11
375.498507194281
 21
194.1554241850774
 31
0.0
 11
375.8041011733502
 21
194.0914756865817
 31
0.0
 11
376.1573273820878
 21
193.9862826391875
 31
0.0
 11
376.5427481452625
 21
193.8444424884059
 31
0.0
 11
376.9435187223887
 21
193.6721543251122
 31
0.0
 11
377.342123519257
 21
193.4769479715538
 31
0.0
 11
377.7211415913702
 21
193.2673548814877
 31
0.0
 11
378.0640080316388
 21
193.0525352798735
 31
0.0
 11
378.3557379282338
 21
192.841877813254
 31
0.0
 11
378.5835812899389
 21
192.6445892212421
 31
0.0
 11
378.7375802655722
 21
192.469291966192
 31
0.0
 11
378.8110043586148
 21
192.323647377019
 31
0.0
 11
378.8046187560841
 21
192.2219012344112
 31
0.0
  0
SPLINE
  5
143AF
330
1F
100
AcDbEntity
  8
0
100
AcDbSpline
210
0.0
220
0.0
230
1.0
 70
     8
 71
     3
 72
    18
 73
    14
 74
    12
 42
0.0000000001
 43
0.0000000001
 44
0.0000000001
 12
0.999925663415844
 22
0.0121929341171191
 32
0.0
 13
0.6107269533955173
 23
-0.7918412646460334
 33
0.0
 40
0.0
 40
0.0
 40
0.0
 40
0.0
 40
0.2454147102072842
 40
0.5576279210716831
 40
0.9261850176692622
 40
1.336876864508994
 40
1.773111052418747
 40
2.216948077188309
 40
2.65005771848795
 40
3.05466228653784
 40
3.414499613961932
 40
3.715888706440603
 40
3.92259232825361
 40
3.92259232825361
 40
3.92259232825361
 40
3.92259232825361
 10
375.6540593038877
 20
195.0011685773233
 30
0.0
 10
375.7358581261931
 20
195.0021660191209
 30
0.0
 10
375.9217386015246
 20
194.982919529804
 30
0.0
 10
376.2235562519566
 20
194.9169467821088
 30
0.0
 10
376.5720962606109
 20
194.8113845200764
 30
0.0
 10
376.9521800727936
 20
194.6705258910107
 30
0.0
 10
377.3474635774672
 20
194.5001505387974
 30
0.0
 10
377.7407540570833
 20
194.3075983627754
 30
0.0
 10
378.114956290974
 20
194.1011873804694
 30
0.0
 10
378.4540421414937
 20
193.8900898368069
 30
0.0
 10
378.743130038108
 20
193.6831593742912
 30
0.0
 10
378.9648574483014
 20
193.4964854215282
 30
0.0
 10
379.0795749353308
 20
193.3710168096405
 30
0.0
 10
379.1216547597327
 20
193.3164579905394
 30
0.0
 11
375.6540593038877
 21
195.0011685773233
 31
0.0
 11
375.8986651251241
 21
194.9812594788156
 31
0.0
 11
376.2042591017965
 21
194.9173109803201
 31
0.0
 11
376.557485312931
 21
194.8121179329262
 31
0.0
 11
376.9429060761063
 21
194.6702777821439
 31
0.0
 11
377.3436766532327
 21
194.4979896188501
 31
0.0
 11
377.7422814501016
 21
194.3027832652924
 31
0.0
 11
378.121299522214
 21
194.0931901776226
 31
0.0
 11
378.4641659600867
 21
193.8783705736119
 31
0.0
 11
378.7558958590776
 21
193.6677131069926
 31
0.0
 11
378.983739220782
 21
193.4704245173774
 31
0.0
 11
379.1216547597327
 21
193.3164579905394
 31
0.0
  0
SPLINE
  5
143B0
330
1F
100
AcDbEntity
  8
0
100
AcDbSpline
210
0.0
220
0.0
230
1.0
 70
     8
 71
     3
 72
    10
 73
     6
 74
     4
 42
0.0000000001
 43
0.0000000001
 44
0.0000000001
 12
-0.9999256633886194
 22
-0.0121929363497686
 32
0.0
 13
-0.4114360484606886
 23
-0.9114386309714186
 33
0.0
 40
0.0
 40
0.0
 40
0.0
 40
0.0
 40
0.1747250528633419
 40
0.2909739280861219
 40
0.2997997379561074
 40
0.2997997379561074
 40
0.2997997379561074
 40
0.2997997379561074
 10
375.2539013730439
 20
194.1753332835853
 30
0.0
 10
375.1956640182455
 20
194.1746231464359
 30
0.0
 10
375.0990331654387
 20
194.168593829702
 30
0.0
 10
375.0033591489477
 20
194.1136645770196
 30
0.0
 10
374.9845195438853
 20
194.0763165197078
 30
0.0
 10
374.9833091251062
 20
194.0736351250194
 30
0.0
 11
375.2539013730439
 21
194.1753332835853
 31
0.0
 11
375.0809741552267
 21
194.1503328548668
 31
0.0
 11
374.987283291043
 21
194.0815155390293
 31
0.0
 11
374.9833091251062
 21
194.0736351250194
 31
0.0
  0
SPLINE
  5
143B1
330
1F
100
AcDbEntity
  8
0
100
AcDbSpline
210
0.0
220
0.0
230
1.0
 70
     8
 71
     3
 72
    21
 73
    17
 74
    15
 42
0.0000000001
 43
0.0000000001
 44
0.0000000001
 12
0.9999256634138628
 22
0.0121929342795779
 32
0.0
 13
-0.4014161346043978
 23
-0.915895783852761
 33
0.0
 40
0.0
 40
0.0
 40
0.0
 40
0.0
 40
0.2428508273393015
 40
0.5487107061377953
 40
0.9087803905873755
 40
1.310999706693923
 40
1.741173315173229
 40
2.183795677919652
 40
2.622796720625345
 40
3.042269557921089
 40
3.427202579011646
 40
3.764248108611472
 40
4.042635927045282
 40
4.255637283658164
 40
4.404300063800295
 40
4.488277469536404
 40
4.488277469536404
 40
4.488277469536404
 40
4.488277469536404
 10
377.9486951192044
 20
200.0227889370711
 30
0.0
 10
378.029639377417
 20
200.0237759584636
 30
0.0
 10
378.2125845313895
 20
200.0061404302438
 30
0.0
 10
378.5093656718342
 20
199.9443179123004
 30
0.0
 10
378.8515970767155
 20
199.8449162205723
 30
0.0
 10
379.2261938340483
 20
199.7114547123306
 30
0.0
 10
379.6189980442404
 20
199.5487354058024
 30
0.0
 10
380.0149676627078
 20
199.3628956670404
 30
0.0
 10
380.3989947726676
 20
199.1610067192279
 30
0.0
 10
380.7563875023999
 20
198.9508356976175
 30
0.0
 10
381.0737983366461
 20
198.7404450985281
 30
0.0
 10
381.3388691042682
 20
198.5381271235553
 30
0.0
 10
381.5439215080301
 20
198.3511673579576
 30
0.0
 10
381.6788255521351
 20
198.1870562271146
 30
0.0
 10
381.7499994965177
 20
198.0499750861163
 30
0.0
 10
381.740165272551
 20
197.9686400793536
 30
0.0
 10
381.7289286440161
 20
197.9430018954028
 30
0.0
 11
377.9486951192044
 21
200.0227889370711
 31
0.0
 11
378.1908417427326
 21
200.0043082159473
 31
0.0
 11
378.4907949937329
 21
199.9444892166828
 31
0.0
 11
378.8370278364378
 21
199.8456307507222
 31
0.0
 11
379.2162347381472
 21
199.711531891871
 31
0.0
 11
379.6138429900344
 21
199.5473459866803
 31
0.0
 11
380.0145727287094
 21
199.3593826058193
 31
0.0
 11
380.4030241354699
 21
199.1548650758066
 31
0.0
 11
380.7642692402851
 21
198.9416528916427
 31
0.0
 11
381.0844255969194
 21
198.7279396771879
 31
0.0
 11
381.3511897764005
 21
198.5219383141609
 31
0.0
 11
381.5543101816971
 21
198.3315653160638
 31
0.0
 11
381.6859810068189
 21
198.1641366096521
 31
0.0
 11
381.7411422173691
 21
198.0260863903469
 31
0.0
 11
381.7289286440161
 21
197.9430018954028
 31
0.0
  0
LINE
  5
143B2
330
1F
100
AcDbEntity
  8
0
100
AcDbLine
 10
380.9470409558871
 20
198.1668493097146
 30
0.0
 11
378.9268874591103
 21
193.9977102452789
 31
0.0
  0
LINE
  5
143B3
330
1F
100
AcDbEntity
  8
0
100
AcDbLine
 10
378.3213884905523
 20
199.4392004286453
 30
0.0
 11
376.2813241911822
 21
195.2289699816329
 31
0.0
  0
ARC
  5
143B4
330
1F
100
AcDbEntity
  8
0
100
AcDbCircle
 10
377.7222753148267
 20
194.8575464424834
 30
0.0
 40
4.753332662083166
100
AcDbArc
 50
47.98977559965572
 51
80.30149526875906
  0
ARC
  5
143B5
330
1F
100
AcDbEntity
  8
0
100
AcDbCircle
 10
374.7923140955233
 20
188.5717449103338
 30
0.0
 40
6.821715086025544
100
AcDbArc
 50
52.69268098438274
 51
77.39226235053109
  0
ARC
  5
143B6
330
1F
100
AcDbEntity
  8
0
100
AcDbCircle
 10
380.7771867869752
 20
198.2491520316829
 30
0.0
 40
0.1887436800000001
100
AcDbArc
 50
334.1475232371808
 51
47.98977559969105
  0
ARC
  5
143B7
330
1F
100
AcDbEntity
  8
0
100
AcDbCircle
 10
378.4912426594467
 20
199.3568977066399
 30
0.0
 40
0.1887436800000001
100
AcDbArc
 50
80.30149526875906
 51
154.147523224748
  0
SPLINE
  5
143B8
330
1F
100
AcDbEntity
  8
02___PRT_ALL_AXES
  6
Continuous
 62
     7
370
    25
100
AcDbSpline
210
0.0
220
0.0
230
1.0
 70
     8
 71
     3
 72
    17
 73
    13
 74
    11
 42
0.0000000001
 43
0.0000000001
 44
0.0000000001
 12
-0.8474111911896811
 22
0.5309371648759255
 32
0.0
 13
0.9999260326804325
 23
0.01216261353371
 33
0.0
 40
0.0
 40
0.0
 40
0.0
 40
0.0
 40
0.1263426546761119
 40
0.2627814256786159
 40
0.4027896168934392
 40
0.5427669028174114
 40
0.6782981843632199
 40
0.8048788857832196
 40
0.9223221407936893
 40
1.037148125697562
 40
1.153597393488554
 40
1.264793383294652
 40
1.264793383294652
 40
1.264793383294652
 40
1.264793383294652
 10
379.4526832943327
 20
197.8244541181874
 30
0.0
 10
379.4169952345002
 20
197.846814121813
 30
0.0
 10
379.3488122236762
 20
197.9034136595068
 30
0.0
 10
379.2671491934751
 20
198.0113416210414
 30
0.0
 10
379.2098560705071
 20
198.1391790882654
 30
0.0
 10
379.1854415192702
 20
198.2771495234762
 30
0.0
 10
379.1997288272507
 20
198.4124153548372
 30
0.0
 10
379.250496838779
 20
198.5303697172506
 30
0.0
 10
379.327831128382
 20
198.623526513581
 30
0.0
 10
379.4235257441081
 20
198.6916205537463
 30
0.0
 10
379.530811170387
 20
198.7337098225458
 30
0.0
 10
379.6068463470731
 20
198.744001986105
 30
0.0
 10
379.6439089353853
 20
198.7444527973885
 30
0.0
 11
379.4526832943327
 21
197.8244541181874
 31
0.0
 11
379.3548774260885
 21
197.9044321059567
 31
0.0
 11
379.2722606568942
 21
198.0130139077495
 31
0.0
 11
379.2153706027576
 21
198.1409428542298
 31
0.0
 11
379.1918859915412
 21
198.2789360193166
 31
0.0
 11
379.2069303668587
 21
198.4136297275911
 31
0.0
 11
379.2570867148348
 21
198.5298494106473
 31
0.0
 11
379.3318935565582
 21
198.6203858926799
 31
0.0
 11
379.4252951528138
 21
198.6871777232136
 31
0.0
 11
379.5336922349826
 21
198.72972774726
 31
0.0
 11
379.6439089353853
 21
198.7444527973885
 31
0.0
  0
SPLINE
  5
143B9
330
1F
100
AcDbEntity
  8
02___PRT_ALL_AXES
  6
Continuous
 62
     7
370
    25
100
AcDbSpline
210
0.0
220
0.0
230
1.0
 70
     8
 71
     3
 72
     8
 73
     4
 74
     2
 42
0.0000000001
 43
0.0000000001
 44
0.0000000001
 12
0.7643608278628531
 22
0.644788744340977
 32
0.0
 13
0.7291284637508995
 23
0.6843768576948328
 33
0.0
 40
0.0
 40
0.0
 40
0.0
 40
0.0
 40
0.015613831084567
 40
0.015613831084567
 40
0.015613831084567
 40
0.015613831084567
 10
379.4718302570207
 20
197.8145238632211
 30
0.0
 10
379.4758084573053
 20
197.8178797374009
 30
0.0
 10
379.4796959666418
 20
197.8213457601223
 30
0.0
 10
379.4834907961992
 20
197.8249076750071
 30
0.0
 11
379.4718302570207
 21
197.8145238632211
 31
0.0
 11
379.4834907961992
 21
197.8249076750071
 31
0.0
  0
SPLINE
  5
143BA
330
1F
100
AcDbEntity
  8
02___PRT_ALL_AXES
  6
Continuous
 62
     7
370
    25
100
AcDbSpline
210
0.0
220
0.0
230
1.0
 70
     8
 71
     3
 72
    17
 73
    13
 74
    11
 42
0.0000000001
 43
0.0000000001
 44
0.0000000001
 12
0.7291284902630569
 22
0.6843768294490362
 32
0.0
 13
-0.8474111924685562
 23
0.5309371628347549
 33
0.0
 40
0.0
 40
0.0
 40
0.0
 40
0.0
 40
0.0856068350726856
 40
0.1769684671854025
 40
0.2789543169419378
 40
0.3878526577097209
 40
0.4918244843710145
 40
0.5877273600724762
 40
0.6800085193214939
 40
0.7719547205141815
 40
0.865563576884115
 40
0.9622046091965575
 40
0.9622046091965575
 40
0.9622046091965575
 40
0.9622046091965575
 10
379.4834907961992
 20
197.8249076750071
 30
0.0
 10
379.50429692367
 20
197.8444367864625
 30
0.0
 10
379.5415579161284
 20
197.8908700788528
 30
0.0
 10
379.5884055241002
 20
197.9712877088634
 30
0.0
 10
379.6319743023663
 20
198.062237282754
 30
0.0
 10
379.6704548282888
 20
198.1600078102115
 30
0.0
 10
379.6981678844738
 20
198.2593981978694
 30
0.0
 10
379.7108969849901
 20
198.3563604742987
 30
0.0
 10
379.7060762330917
 20
198.4502571145086
 30
0.0
 10
379.6799182768424
 20
198.5401838164656
 30
0.0
 10
379.6288326178709
 20
198.6207850858551
 30
0.0
 10
379.5794696731824
 20
198.6623578887261
 30
0.0
 10
379.5521714423713
 20
198.6794613272293
 30
0.0
 11
379.4834907961992
 21
197.8249076750071
 31
0.0
 11
379.5385816273574
 21
197.8904327124619
 31
0.0
 11
379.5855942641068
 21
197.9687701863053
 31
0.0
 11
379.6298960551579
 21
198.0606313035434
 31
0.0
 11
379.6692483774222
 21
198.1621706720385
 31
0.0
 11
379.6963943217797
 21
198.2625361962199
 31
0.0
 11
379.7080842743747
 21
198.3577239400536
 31
0.0
 11
379.7025139640481
 21
198.449836827291
 31
0.0
 11
379.6761164554376
 21
198.5379122237018
 31
0.0
 11
379.6257689436231
 21
198.6168282933263
 31
0.0
 11
379.5521714423713
 21
198.6794613272293
 31
0.0
  0
SPLINE
  5
143BB
330
1F
100
AcDbEntity
  8
02___PRT_ALL_AXES
  6
Continuous
 62
     7
370
    25
100
AcDbSpline
210
0.0
220
0.0
230
1.0
 70
     8
 71
     3
 72
    10
 73
     6
 74
     4
 42
0.0000000001
 43
0.0000000001
 44
0.0000000001
 12
-0.9999145175592413
 22
-0.013075074541643
 32
0.0
 13
-0.8474111885854107
 23
0.5309371690325153
 33
0.0
 40
0.0
 40
0.0
 40
0.0
 40
0.0
 40
0.0071212694073525
 40
0.1086849486131341
 40
0.2144926434218524
 40
0.2144926434218524
 40
0.2144926434218524
 40
0.2144926434218524
 10
379.6558277542139
 20
197.7630638455508
 30
0.0
 10
379.6534542006593
 20
197.763032808508
 30
0.0
 10
379.6172271398975
 20
197.7629709542695
 30
0.0
 10
379.5455676560798
 20
197.7754191212167
 30
0.0
 10
379.4825708358057
 20
197.8057283722063
 30
0.0
 10
379.4526832943327
 20
197.8244541181874
 30
0.0
 11
379.6558277542139
 21
197.7630638455508
 31
0.0
 11
379.6487064945792
 21
197.7630520477767
 31
0.0
 11
379.5484927740424
 21
197.7795563244946
 31
0.0
 11
379.4526832943327
 21
197.8244541181874
 31
0.0
  0
SPLINE
  5
143BC
330
1F
100
AcDbEntity
  8
02___PRT_ALL_AXES
  6
Continuous
 62
     7
370
    25
100
AcDbSpline
210
0.0
220
0.0
230
1.0
 70
     8
 71
     3
 72
     8
 73
     4
 74
     2
 42
0.0000000001
 43
0.0000000001
 44
0.0000000001
 12
-0.8474111953547639
 22
0.5309371582281748
 32
0.0
 13
-0.9383748938965737
 23
0.3456190945312396
 33
0.0
 40
0.0
 40
0.0
 40
0.0
 40
0.0
 40
0.0768894922824776
 40
0.0768894922824776
 40
0.0768894922824776
 40
0.0768894922824776
 10
379.5521714423713
 20
198.6794613272293
 30
0.0
 10
379.5304524368495
 20
198.6930691567393
 30
0.0
 10
379.5070994673847
 20
198.7042794614846
 30
0.0
 10
379.4830490776639
 20
198.7131376203852
 30
0.0
 11
379.5521714423713
 21
198.6794613272293
 31
0.0
 11
379.4830490776639
 21
198.7131376203852
 31
0.0
  0
SPLINE
  5
143BD
330
1F
100
AcDbEntity
  8
02___PRT_ALL_AXES
  6
Continuous
 62
     7
370
    25
100
AcDbSpline
210
0.0
220
0.0
230
1.0
 70
     8
 71
     3
 72
    10
 73
     6
 74
     4
 42
0.0000000001
 43
0.0000000001
 44
0.0000000001
 12
0.9999260326762072
 22
0.0121626138810892
 32
0.0
 13
0.8474111908074243
 23
-0.5309371654860327
 33
0.0
 40
0.0
 40
0.0
 40
0.0
 40
0.0
 40
0.0076494663322814
 40
0.1245271302845107
 40
0.2355770380124048
 40
0.2355770380124048
 40
0.2355770380124048
 40
0.2355770380124048
 10
379.6439089353853
 20
198.7444527973885
 30
0.0
 10
379.6464585688926
 20
198.7444838098903
 30
0.0
 10
379.6879625175851
 20
198.7446386909163
 30
0.0
 10
379.7668607597833
 20
198.7340076794569
 30
0.0
 10
379.8374792321415
 20
198.7029763314207
 30
0.0
 10
379.8688475436571
 20
198.6833228236752
 30
0.0
 11
379.6439089353853
 21
198.7444527973885
 31
0.0
 11
379.6515583495489
 21
198.7444810484774
 31
0.0
 11
379.7673090663829
 21
198.7282896963617
 31
0.0
 11
379.8688475436571
 21
198.6833228236752
 31
0.0
  0
SPLINE
  5
143BE
330
1F
100
AcDbEntity
  8
0
  6
Continuous
 62
     7
370
    25
100
AcDbSpline
210
0.0
220
0.0
230
1.0
 70
     8
 71
     3
 72
    11
 73
     7
 74
     5
 42
0.0000000001
 43
0.0000000001
 44
0.0000000001
 12
0.9139583593343102
 22
-0.4058079809502713
 32
0.0
 13
0.9812985592242005
 23
-0.1924919158419602
 33
0.0
 40
0.0
 40
0.0
 40
0.0
 40
0.0
 40
0.0812196688768537
 40
0.2415052366138078
 40
0.3770124153944871
 40
0.378303518468337
 40
0.378303518468337
 40
0.378303518468337
 40
0.378303518468337
 10
379.3304029547678
 20
198.617961340897
 30
0.0
 10
379.3551467532053
 20
198.6069748109502
 30
0.0
 10
379.4292483435155
 20
198.5754850722992
 30
0.0
 10
379.547300996909
 20
198.5321005631701
 30
0.0
 10
379.6430988045023
 20
198.5060999304078
 30
0.0
 10
379.687839543396
 20
198.4972921540526
 30
0.0
 10
379.6882618625913
 20
198.4972093117511
 30
0.0
 11
379.3304029547678
 21
198.617961340897
 31
0.0
 11
379.4051603087817
 21
198.5862127561518
 31
0.0
 11
379.5558704716804
 21
198.5316425259543
 31
0.0
 11
379.6869950726283
 21
198.4974586916561
 31
0.0
 11
379.6882618625913
 21
198.4972093117511
 31
0.0
  0
SPLINE
  5
143BF
330
1F
100
AcDbEntity
  8
02___PRT_ALL_AXES
  6
Continuous
 62
     7
370
    25
100
AcDbSpline
210
0.0
220
0.0
230
1.0
 70
     8
 71
     3
 72
    17
 73
    13
 74
    11
 42
0.0000000001
 43
0.0000000001
 44
0.0000000001
 12
0.8474111913805582
 22
-0.5309371645712729
 32
0.0
 13
-0.9999145175536392
 23
-0.0130750749700659
 33
0.0
 40
0.0
 40
0.0
 40
0.0
 40
0.0
 40
0.1217136797917918
 40
0.2484797080983198
 40
0.3810374261095852
 40
0.5198204681526779
 40
0.6584991454915212
 40
0.7858653150312768
 40
0.8969041211252468
 40
0.997302288316758
 40
1.093301020959205
 40
1.183586919941776
 40
1.183586919941776
 40
1.183586919941776
 40
1.183586919941776
 10
379.8688475436571
 20
198.6833228236752
 30
0.0
 10
379.9032280551237
 20
198.6617820516624
 30
0.0
 10
379.9667556612704
 20
198.6060069100058
 30
0.0
 10
380.0314567695469
 20
198.494381387872
 30
0.0
 10
380.0624202059987
 20
198.3636597553882
 30
0.0
 10
380.0603415157506
 20
198.2258185510697
 30
0.0
 10
380.0298455915307
 20
198.0934266427537
 30
0.0
 10
379.9782309898146
 20
197.9779515501053
 30
0.0
 10
379.9123115867056
 20
197.8852751533347
 30
0.0
 10
379.8351244403919
 20
197.8163408657465
 30
0.0
 10
379.7483075679967
 20
197.7733027877187
 30
0.0
 10
379.6859204812549
 20
197.7634573438501
 30
0.0
 10
379.6558277542139
 20
197.7630638455508
 30
0.0
 11
379.8688475436571
 21
198.6833228236752
 31
0.0
 11
379.9603448681282
 21
198.6030578907151
 31
0.0
 11
380.0247707244194
 21
198.4938840157552
 31
0.0
 11
380.056571031157
 21
198.3651972289597
 31
0.0
 11
380.0554636451492
 21
198.2264186050475
 31
0.0
 11
380.0245442638577
 21
198.0912307083666
 31
0.0
 11
379.972070837278
 21
197.9751760632798
 31
0.0
 11
379.9069464536241
 21
197.8852403578427
 31
0.0
 11
379.8313631244968
 21
197.8191574377086
 31
0.0
 11
379.7449910170184
 21
197.7772573694665
 31
0.0
 11
379.6558277542139
 21
197.7630638455508
 31
0.0
  0
DIMENSION
  5
143C0
330
1F
100
AcDbEntity
  8
DIM
100
AcDbDimension
  2
*D14
 10
402.7475629113091
 20
234.693184096848
 30
0.0
 11
402.7475629113089
 21
236.6032263562149
 31
0.0
 70
   160
  1
%%C<>
 71
     5
 42
4.500000000490216
 73
     0
 74
     0
 75
     0
  3
01
100
AcDbAlignedDimension
 13
408.6401743396928
 23
239.1931840973382
 33
0.0
 14
408.6401743396928
 24
234.693184096848
 34
0.0
 50
270.0
100
AcDbRotatedDimension
1001
ACAD
1000
DSTYLE
1002
{
1070
    49
1040
0.2
1070
    50
1040
1.570796326794893
1002
}
  0
HATCH
  5
143C1
330
1F
100
AcDbEntity
  8
hat
100
AcDbHatch
 10
0.0
 20
0.0
 30
0.0
210
0.0
220
0.0
230
1.0
  2
ANSI31
 70
     0
 71
     0
 91
        3
 92
        5
 93
       12
 72
     1
 10
416.6141774339912
 20
236.9431840978887
 11
417.5260464992005
 21
236.9431840979089
 72
     4
 94
        3
 73
     0
 74
     0
 95
       10
 96
        6
 40
0.1097508009489303
 40
0.1097508009489303
 40
0.1097508009489303
 40
0.1097508009489303
 40
0.3423458948792133
 40
1.665329276349405
 40
2.528767557999892
 40
2.528767557999892
 40
2.528767557999892
 40
2.528767557999892
 10
417.5260464992005
 20
236.943184097909
 10
417.5164743713691
 20
237.0214111500638
 10
417.4665883757279
 20
237.5478407578883
 10
417.6379891356597
 20
238.3542602624774
 10
417.6882782971063
 20
238.9000235443651
 10
417.5541034344107
 20
239.193184097712
 72
     1
 10
417.5541034344106
 20
239.1931840977109
 11
417.5401743395756
 21
239.193184097711
 72
     1
 10
417.5401743395756
 20
239.193184097711
 11
415.640174339575
 21
239.1931840977215
 72
     1
 10
415.640174339575
 20
239.1931840977215
 11
415.6401743395996
 21
238.6931840978667
 72
     1
 10
415.6401743395996
 20
238.6931840978667
 11
410.6494266113132
 21
238.6931840977556
 72
     1
 10
410.6494266113132
 20
238.6931840977556
 11
410.3607514770017
 21
239.1931840977506
 72
     1
 10
410.3607514770017
 20
239.1931840977506
 11
408.6401743396928
 21
239.19318409776
 72
     1
 10
408.6401743396928
 20
239.19318409776
 11
408.6401743396928
 21
238.7931840968666
 72
     1
 10
408.6401743396928
 20
238.7931840968666
 11
409.8959111738778
 21
238.0681840977389
 72
     1
 10
409.8959111738778
 20
238.0681840977389
 11
416.1401743387888
 21
238.068184097878
 72
     1
 10
416.1401743387888
 20
238.068184097878
 11
416.6141774339912
 21
236.9431840978887
 97
        0
 92
        5
 93
        9
 72
     1
 10
416.1401743388361
 20
235.8181840978694
 11
415.4901743403861
 21
235.8181840978636
 72
     1
 10
415.4901743403861
 20
235.8181840978636
 11
415.4901743403867
 21
235.1931840978637
 72
     1
 10
415.4901743403867
 20
235.1931840978637
 11
415.6401743396777
 21
235.1931840978668
 72
     1
 10
415.6401743396777
 20
235.1931840978668
 11
415.6401743396765
 21
234.6931840977379
 72
     1
 10
415.6401743396765
 20
234.6931840977379
 11
417.6031544425327
 21
234.6931840977306
 72
     1
 10
417.6031544425327
 20
234.6931840977306
 11
417.6901743396686
 21
234.6931840977303
 72
     4
 94
        3
 73
     0
 74
     0
 95
       10
 96
        6
 40
2.528767557999892
 40
2.528767557999892
 40
2.528767557999892
 40
2.528767557999892
 40
3.32506679672342
 40
4.086592337140914
 40
5.05655629853523
 40
5.05655629853523
 40
5.05655629853523
 40
5.05655629853523
 10
417.6901743396689
 20
234.6931840977303
 10
417.5224388997982
 20
234.9607796762163
 10
417.5787796174642
 20
235.4842851659646
 10
417.7028169497836
 20
236.0497230159985
 10
417.565964017981
 20
236.6169630237056
 10
417.5260464992005
 20
236.943184097909
 72
     1
 10
417.5260464992005
 20
236.943184097909
 11
416.614177433991
 21
236.9431840978887
 72
     1
 10
416.614177433991
 20
236.9431840978887
 11
416.1401743388361
 21
235.8181840978694
 97
        0
 92
        7
 72
     0
 73
     1
 93
        7
 10
414.5901743403596
 20
235.1931840978435
 10
414.5901743403593
 20
235.8181840978435
 10
409.8959111739274
 20
235.8181840977388
 10
408.6401743396928
 20
235.0931840985076
 10
408.6401743396928
 20
234.693184096848
 10
410.3607514765823
 20
234.693184096848
 10
410.649426611391
 20
235.1931840977557
 97
        0
 75
     0
 76
     1
 52
0.0
 41
0.15
 77
     0
 78
     1
 53
45.0
 43
2464.429611742029
 44
692.0143079679851
 45
-0.3367596045400932
 46
0.3367596045400933
 79
     0
 47
0.0161694299631885
 98
        3
 10
416.8053676552467
 20
238.0696870734306
 10
416.8700976194591
 20
235.8221342932357
 10
413.4880639608779
 20
235.4178978940555
1001
ACAD
1010
0.0
1020
0.0
1030
0.0
  0
LINE
  5
143C2
330
1F
100
AcDbEntity
  8
0
100
AcDbLine
 10
408.6401743396928
 20
239.1931840973382
 30
0.0
 11
408.6401743396928
 21
234.693184096848
 31
0.0
  0
LINE
  5
143C3
330
1F
100
AcDbEntity
  8
0
100
AcDbLine
 10
418.5443195283574
 20
238.1931840970883
 30
0.0
 11
430.1902306812357
 21
238.1931840970882
 31
0.0
  0
LINE
  5
143C4
330
1F
100
AcDbEntity
  8
0
100
AcDbLine
 10
418.5443195277263
 20
235.6931840970981
 30
0.0
 11
430.1901743390621
 21
235.6931840970981
 31
0.0
  0
LINE
  5
143C5
330
1F
100
AcDbEntity
  8
0
100
AcDbLine
 10
430.1901743390624
 20
235.6931840970981
 30
0.0
 11
430.1901743390624
 21
238.1931840970881
 31
0.0
  0
ARC
  5
143C6
102
{ACAD_REACTORS
330
143D6
330
143E7
102
}
330
1F
100
AcDbEntity
  8
0
100
AcDbCircle
 10
430.1901743390624
 20
236.9431840977279
 30
0.0
 40
1.250000000629998
100
AcDbArc
 50
270.0
 51
90.0
  0
LINE
  5
143C7
330
1F
100
AcDbEntity
  8
0
100
AcDbLine
 10
408.6401743396928
 20
234.693184096848
 30
0.0
 11
410.3607514765817
 21
234.693184096848
 31
0.0
  0
LINE
  5
143C8
330
1F
100
AcDbEntity
  8
0
100
AcDbLine
 10
417.8401743396908
 20
239.1931840977079
 30
0.0
 11
417.8401743396547
 21
234.6931840977125
 31
0.0
  0
LINE
  5
143C9
330
1F
100
AcDbEntity
  8
0
100
AcDbLine
 10
418.1401743396888
 20
238.8931840973819
 30
0.0
 11
418.1401743396572
 21
234.9931840977279
 31
0.0
  0
LINE
  5
143CA
330
1F
100
AcDbEntity
  8
0
100
AcDbLine
 10
408.6401743396928
 20
239.1931840977601
 30
0.0
 11
410.3607514770017
 21
239.1931840977506
 31
0.0
  0
LINE
  5
143CB
330
1F
100
AcDbEntity
  8
0
100
AcDbLine
 10
415.6401743395758
 20
239.1931840977215
 30
0.0
 11
417.5541034344113
 21
239.1931840977109
 31
0.0
  0
LINE
  5
143CC
330
1F
100
AcDbEntity
  8
0
100
AcDbLine
 10
417.5401743395756
 20
239.193184097711
 30
0.0
 11
417.8401743396949
 21
239.1931840977093
 31
0.0
  0
LINE
  5
143CD
330
1F
100
AcDbEntity
  8
0
100
AcDbLine
 10
415.6401743396746
 20
234.6931840977379
 30
0.0
 11
417.6031544425327
 21
234.6931840977306
 31
0.0
  0
LINE
  5
143CE
330
1F
100
AcDbEntity
  8
0
100
AcDbLine
 10
417.5401743396759
 20
234.6931840977308
 30
0.0
 11
417.8401743396621
 21
234.6931840977298
 31
0.0
  0
LINE
  5
143CF
330
1F
100
AcDbEntity
  8
CEN
 48
2.0
100
AcDbLine
 10
432.0892978749576
 20
236.9431840982334
 30
0.0
 11
407.9543659221623
 21
236.9431840976957
 31
0.0
  0
LINE
  5
143D0
330
1F
100
AcDbEntity
  8
0
100
AcDbLine
 10
415.6401743396777
 20
235.1931840978669
 30
0.0
 11
415.4901743403871
 21
235.1931840978636
 31
0.0
  0
LINE
  5
143D1
102
{ACAD_REACTORS
330
143F8
102
}
330
1F
100
AcDbEntity
  8
0
100
AcDbLine
 10
414.5901743403596
 20
235.1931840978435
 30
0.0
 11
410.6494266113915
 21
235.1931840977557
 31
0.0
  0
LINE
  5
143D2
330
1F
100
AcDbEntity
  8
0
100
AcDbLine
 10
414.5901743403406
 20
235.8181840978435
 30
0.0
 11
409.8959111739278
 21
235.8181840977389
 31
0.0
  0
LINE
  5
143D3
330
1F
100
AcDbEntity
  8
0
100
AcDbLine
 10
415.6401743396777
 20
235.1931840978668
 30
0.0
 11
415.6401743396759
 21
234.6931840977379
 31
0.0
  0
DIMENSION
  5
143D4
102
{ACAD_XDICTIONARY
360
143D5
102
}
102
{ACAD_REACTORS
330
143D6
102
}
330
1F
100
AcDbEntity
  8
DIM
100
AcDbDimension
  2
*D17
 10
408.6401743396928
 20
229.0677894565221
 30
0.0
 11
420.0401743396926
 21
230.3177894565221
 31
0.0
 70
    32
 71
     5
 42
22.79999999999973
 73
     0
 74
     0
 75
     0
  3
01
100
AcDbAlignedDimension
 13
431.4401743396926
 23
236.9431840977279
 33
0.0
 14
408.6401743396928
 24
234.693184096848
 34
0.0
100
AcDbRotatedDimension
1001
ACAD
1000
DSTYLE
1002
{
1070
    49
1040
0.2
1070
    50
1040
1.570796326794893
1002
}
  0
LINE
  5
143D7
330
1F
100
AcDbEntity
  8
0
100
AcDbLine
 10
418.1401743396572
 20
234.9931840977279
 30
0.0
 11
418.5443195277263
 21
235.6931840970983
 31
0.0
  0
LINE
  5
143D8
330
1F
100
AcDbEntity
  8
0
100
AcDbLine
 10
418.1401743396572
 20
234.9931840977276
 30
0.0
 11
417.8401743396547
 21
234.6931840977298
 31
0.0
  0
LINE
  5
143D9
330
1F
100
AcDbEntity
  8
0
100
AcDbLine
 10
418.1401743395176
 20
238.8931840976773
 30
0.0
 11
418.5443195276372
 21
238.1931840983357
 31
0.0
  0
LINE
  5
143DA
330
1F
100
AcDbEntity
  8
0
100
AcDbLine
 10
418.1401743395176
 20
238.8931840976773
 30
0.0
 11
417.8401743394938
 21
239.1931840976538
 31
0.0
  0
LINE
  5
143DB
330
1F
100
AcDbEntity
  8
0
100
AcDbLine
 10
418.5443195277263
 20
235.6931840970981
 30
0.0
 11
418.5443195276372
 21
238.1931840983357
 31
0.0
  0
LINE
  5
143DC
330
1F
100
AcDbEntity
  8
0
100
AcDbLine
 10
410.649426611391
 20
235.1931840977557
 30
0.0
 11
410.3607514765817
 21
234.693184096848
 31
0.0
  0
SPLINE
  5
143DD
330
1F
100
AcDbEntity
  8
DIM
100
AcDbSpline
210
0.0
220
0.0
230
1.0
 70
     8
 71
     3
 72
    12
 73
     8
 74
     0
 42
0.0000000001
 43
0.0000000001
 40
0.1097508009489301
 40
0.1097508009489301
 40
0.1097508009489301
 40
0.1097508009489301
 40
0.9731890825994163
 40
2.296172464069608
 40
3.498731519394208
 40
4.260257059811703
 40
5.05655629853523
 40
5.05655629853523
 40
5.05655629853523
 40
5.05655629853523
 10
417.5541034344107
 20
239.193184097712
 30
0.0
 10
417.6882782971063
 20
238.9000235443651
 30
0.0
 10
417.6379891356597
 20
238.3542602624774
 30
0.0
 10
417.3978610469053
 20
237.2244871246664
 30
0.0
 10
417.7142302749948
 20
236.1017519168838
 30
0.0
 10
417.5787796174642
 20
235.4842851659646
 30
0.0
 10
417.5224388997982
 20
234.9607796762163
 30
0.0
 10
417.6901743396689
 20
234.6931840977303
 30
0.0
  0
LINE
  5
143DE
330
1F
100
AcDbEntity
  8
0
100
AcDbLine
 10
416.1401743388355
 20
236.9431840978781
 30
0.0
 11
416.1401743388355
 21
235.8181840978693
 31
0.0
  0
LINE
  5
143DF
330
1F
100
AcDbEntity
  8
CEN
 48
0.03
100
AcDbLine
 10
415.0335160564138
 20
236.1885182699975
 30
0.0
 11
415.0335160564138
 21
235.0456836153978
 31
0.0
  0
LINE
  5
143E0
330
1F
100
AcDbEntity
  8
0
100
AcDbLine
 10
414.5901743403593
 20
235.8181840978435
 30
0.0
 11
414.5901743403596
 21
235.1931840978435
 31
0.0
  0
LINE
  5
143E1
330
1F
100
AcDbEntity
  8
0
100
AcDbLine
 10
415.4901743403861
 20
235.8181840978636
 30
0.0
 11
415.4901743403867
 21
235.1931840978636
 31
0.0
  0
ARC
  5
143E2
330
1F
100
AcDbEntity
  8
0
100
AcDbCircle
 10
415.0401743403913
 20
234.7853502034826
 30
0.0
 40
1.126608118817877
100
AcDbArc
 50
66.45751010221984
 51
113.5424899034358
  0
ARC
  5
143E3
330
1F
100
AcDbEntity
  8
0
100
AcDbCircle
 10
415.0401743404033
 20
234.1603502034584
 30
0.0
 40
1.126608118817877
100
AcDbArc
 50
66.45751010221984
 51
113.5424899034358
  0
DIMENSION
  5
143E4
330
1F
100
AcDbEntity
  8
DIM
100
AcDbDimension
  2
*D15
 10
405.632898016376
 20
235.8181840977389
 30
0.0
 11
405.6328980163758
 21
236.943184097739
 31
0.0
 70
   160
  1
%%Cd
 71
     5
 42
2.250000000000055
 73
     0
 74
     0
 75
     0
  3
01
100
AcDbAlignedDimension
 13
409.8959111738778
 23
238.0681840977389
 33
0.0
 14
409.8959111739278
 24
235.8181840977389
 34
0.0
 50
90.0
100
AcDbRotatedDimension
1001
ACAD
1000
DSTYLE
1002
{
1070
    49
1040
0.18
1070
    50
1040
1.570796326794896
1002
}
  0
DIMENSION
  5
143E5
102
{ACAD_XDICTIONARY
360
143E6
102
}
102
{ACAD_REACTORS
330
143E7
102
}
330
1F
100
AcDbEntity
  8
DIM
100
AcDbDimension
  2
*D18
 10
435.479294843318
 20
235.6931840970979
 30
0.0
 11
435.479294843318
 21
231.4788983828123
 31
0.0
 70
   160
  1
{\Fromand,hztxt|c134;%%C}<>
 71
     5
 42
2.50000000125999
 73
     0
 74
     0
 75
     0
  3
01
100
AcDbAlignedDimension
 13
430.1901743390624
 23
238.1931840983579
 33
0.0
 14
430.1901743390624
 24
235.6931840970979
 34
0.0
 50
90.0
100
AcDbRotatedDimension
1001
ACAD
1000
DSTYLE
1002
{
1070
    49
1040
0.2
1070
    50
1040
1.570796326794893
1002
}
  0
LINE
  5
143E8
330
1F
100
AcDbEntity
  8
0
100
AcDbLine
 10
409.8959111739274
 20
235.8181840977389
 30
0.0
 11
408.6401743387878
 21
235.0931840979851
 31
0.0
  0
LINE
  5
143E9
330
1F
100
AcDbEntity
  8
0
100
AcDbLine
 10
416.1401743388711
 20
235.8181840978693
 30
0.0
 11
415.4901743403958
 21
235.8181840978636
 31
0.0
  0
LINE
  5
143EA
330
1F
100
AcDbEntity
  8
0
100
AcDbLine
 10
416.1401743388355
 20
235.8181840978693
 30
0.0
 11
416.6141774339916
 21
236.9431840978887
 31
0.0
  0
DIMENSION
  5
143EB
330
1F
100
AcDbEntity
  8
DIM
100
AcDbDimension
  2
*D16
 10
416.1401743396659
 20
231.8846573788369
 30
0.0
 11
412.3901743396793
 21
233.1346573788369
 31
0.0
 70
    32
 71
     5
 42
7.499999999973168
 73
     0
 74
     0
 75
     0
  3
01
100
AcDbAlignedDimension
 13
408.6401743396928
 23
234.2400948119197
 33
0.0
 14
416.1401743396659
 24
235.8181840978693
 34
0.0
100
AcDbRotatedDimension
  0
LINE
  5
143EC
330
1F
100
AcDbEntity
  8
0
100
AcDbLine
 10
409.8959111739274
 20
235.8181840977389
 30
0.0
 11
409.8959111739023
 21
236.9431840977389
 31
0.0
  0
LINE
  5
143ED
330
1F
100
AcDbEntity
  8
0
100
AcDbLine
 10
416.1401743387856
 20
238.0681840978781
 30
0.0
 11
409.8959111738778
 21
238.0681840977389
 31
0.0
  0
LINE
  5
143EE
330
1F
100
AcDbEntity
  8
0
100
AcDbLine
 10
416.1401743388355
 20
236.943184097878
 30
0.0
 11
416.1401743387856
 21
238.0681840978869
 31
0.0
  0
LINE
  5
143EF
330
1F
100
AcDbEntity
  8
0
100
AcDbLine
 10
409.8959111738773
 20
238.0681840977389
 30
0.0
 11
408.6401743387056
 21
238.7931840974367
 31
0.0
  0
LINE
  5
143F0
330
1F
100
AcDbEntity
  8
0
100
AcDbLine
 10
409.8959111738773
 20
238.0681840977389
 30
0.0
 11
409.8959111739023
 21
236.9431840977389
 31
0.0
  0
LINE
  5
143F1
330
1F
100
AcDbEntity
  8
0
100
AcDbLine
 10
416.1401743387852
 20
238.0681840978871
 30
0.0
 11
416.6141774339912
 21
236.9431840978888
 31
0.0
  0
LINE
  5
143F2
330
1F
100
AcDbEntity
  8
0
100
AcDbLine
 10
378.6628593482415
 20
201.9837207591685
 30
0.0
 11
377.6633051383545
 21
199.9187645712647
 31
0.0
  0
LINE
  5
143F3
102
{ACAD_REACTORS
330
143F8
102
}
330
1F
100
AcDbEntity
  8
0
100
AcDbLine
 10
415.6401743395991
 20
238.6931840978666
 30
0.0
 11
410.6494266113136
 21
238.6931840977556
 31
0.0
  0
LINE
  5
143F4
330
1F
100
AcDbEntity
  8
0
100
AcDbLine
 10
410.6494266113132
 20
238.6931840977556
 30
0.0
 11
410.3607514764817
 21
239.1931840986504
 31
0.0
  0
LINE
  5
143F5
330
1F
100
AcDbEntity
  8
0
100
AcDbLine
 10
415.6401743395996
 20
238.6931840978669
 30
0.0
 11
415.6401743395754
 21
239.1931840979959
 31
0.0
  0
DIMENSION
  5
143F6
102
{ACAD_XDICTIONARY
360
143F7
102
}
102
{ACAD_REACTORS
330
143F8
102
}
330
1F
100
AcDbEntity
  8
DIM
100
AcDbDimension
  2
*D19
 10
412.1572839251425
 20
238.6931840978111
 30
0.0
 11
412.1572839251423
 21
243.5110412406683
 31
0.0
 70
   160
  1
%%CD
 71
     5
 42
3.500000000011481
 73
     0
 74
     0
 75
     0
  3
01
100
AcDbAlignedDimension
 13
412.6198004758756
 23
235.1931840977996
 33
0.0
 14
413.144800475456
 24
238.6931840978111
 34
0.0
 50
90.0
100
AcDbRotatedDimension
1001
ACAD
1000
DSTYLE
1002
{
1070
    49
1040
0.2
1070
    50
1040
1.570796326794893
1002
}
  0
ENDSEC
  0
SECTION
  2
OBJECTS
  0
DICTIONARY
  5
C
330
0
100
AcDbDictionary
281
     1
  3
ACAD_COLOR
350
4FFE
  3
ACAD_GROUP
350
D
  3
ACAD_LAYOUT
350
1A
  3
ACAD_MATERIAL
350
4FE5
  3
ACAD_MLEADERSTYLE
350
5022
  3
ACAD_MLINESTYLE
350
17
  3
ACAD_PLOTSETTINGS
350
19
  3
ACAD_PLOTSTYLENAME
350
E
  3
ACAD_RENDER_PLOT_SETTINGS
350
6537
  3
ACAD_SCALELIST
350
5000
  3
ACAD_TABLESTYLE
350
4FE3
  3
ACAD_VISUALSTYLE
350
2A
  3
ACDB_RECOMPOSE_DATA
350
50EC
  3
AcDbVariableDictionary
350
5108
  3
ASE_INDEX_DICTIONARY
350
14143
  0
DICTIONARY
  5
50EE
330
8
100
AcDbDictionary
280
     1
281
     1
  0
DICTIONARY
  5
50B8
330
2
100
AcDbDictionary
280
     1
281
     1
  3
ACAD_LAYERFILTERS
360
67BE
  3
ACAD_LAYERSTATES
360
50B9
  3
ACLYDICTIONARY
360
67BD
  0
DICTIONARY
  5
50D0
330
10
100
AcDbDictionary
280
     1
281
     1
  3
ADSK_XREC_LAYER_RECONCILED
360
50D1
  0
DICTIONARY
  5
50D2
330
3B
100
AcDbDictionary
280
     1
281
     1
  3
ADSK_XREC_LAYER_RECONCILED
360
50D3
  0
DICTIONARY
  5
50AF
330
50AE
100
AcDbDictionary
280
     1
281
     1
  3
ADSK_XREC_LAYER_RECONCILED
360
50D4
  0
DICTIONARY
  5
67C0
330
1F
100
AcDbDictionary
280
     1
281
     1
  3
ACAD_SORTENTS
360
67C1
  0
DICTIONARY
  5
147BF
330
13E17
100
AcDbDictionary
280
     1
281
     1
  0
DICTIONARY
  5
147C9
330
1472A
100
AcDbDictionary
280
     1
281
     1
  3
ACAD_MTEXT_2008_RT
360
147CA
  0
DICTIONARY
  5
147CB
330
1476E
100
AcDbDictionary
280
     1
281
     1
  3
ACAD_MTEXT_2008_RT
360
147CC
  0
DICTIONARY
  5
147CD
330
1476F
100
AcDbDictionary
280
     1
281
     1
  3
ACAD_MTEXT_2008_RT
360
147CE
  0
DICTIONARY
  5
147CF
330
14794
100
AcDbDictionary
280
     1
281
     1
  3
ACAD_MTEXT_2008_RT
360
147D0
  0
DICTIONARY
  5
147D1
330
14797
100
AcDbDictionary
280
     1
281
     1
  3
ACAD_MTEXT_2008_RT
360
147D2
  0
DICTIONARY
  5
147D3
330
14798
100
AcDbDictionary
280
     1
281
     1
  3
ACAD_MTEXT_2008_RT
360
147D4
  0
DICTIONARY
  5
147D5
330
147A2
100
AcDbDictionary
280
     1
281
     1
  3
ACAD_MTEXT_2008_RT
360
147D6
  0
DICTIONARY
  5
147D7
330
147A3
100
AcDbDictionary
280
     1
281
     1
  3
ACAD_MTEXT_2008_RT
360
147D8
  0
DICTIONARY
  5
147D9
330
147A4
100
AcDbDictionary
280
     1
281
     1
  3
ACAD_MTEXT_2008_RT
360
147DA
  0
DICTIONARY
  5
147DB
330
147B2
100
AcDbDictionary
280
     1
281
     1
  3
ACAD_MTEXT_2008_RT
360
147DC
  0
DICTIONARY
  5
147DD
330
147B3
100
AcDbDictionary
280
     1
281
     1
  3
ACAD_MTEXT_2008_RT
360
147DE
  0
DICTIONARY
  5
147DF
330
147B4
100
AcDbDictionary
280
     1
281
     1
  3
ACAD_MTEXT_2008_RT
360
147E0
  0
DICTIONARY
  5
147C6
330
12C4B
100
AcDbDictionary
280
     1
281
     1
  3
ACAD_MTEXT_2008_RT
360
147C7
  0
DICTIONARY
  5
143D5
330
143D4
100
AcDbDictionary
280
     1
281
     1
  3
ACAD_DIMASSOC
360
143D6
  0
DICTIONARY
  5
143E6
330
143E5
100
AcDbDictionary
280
     1
281
     1
  3
ACAD_DIMASSOC
360
143E7
  0
DICTIONARY
  5
143F7
330
143F6
100
AcDbDictionary
280
     1
281
     1
  3
ACAD_DIMASSOC
360
143F8
  0
DICTIONARY
  5
4FFE
102
{ACAD_REACTORS
330
C
102
}
330
C
100
AcDbDictionary
281
     1
  0
DICTIONARY
  5
D
102
{ACAD_REACTORS
330
C
102
}
330
C
100
AcDbDictionary
281
     1
  0
DICTIONARY
  5
1A
102
{ACAD_REACTORS
330
C
102
}
330
C
100
AcDbDictionary
281
     1
  3
Layout1
350
1E
  3
Layout2
350
26
  3
Model
350
22
  0
DICTIONARY
  5
4FE5
102
{ACAD_REACTORS
330
C
102
}
330
C
100
AcDbDictionary
281
     1
  3
ByBlock
350
4FEE
  3
ByLayer
350
4FE6
  3
Global
350
4FF6
  0
DICTIONARY
  5
5022
102
{ACAD_REACTORS
330
C
102
}
330
C
100
AcDbDictionary
281
     1
  3
Standard
350
5023
  0
DICTIONARY
  5
17
102
{ACAD_REACTORS
330
C
102
}
330
C
100
AcDbDictionary
281
     1
  3
Standard
350
18
  0
DICTIONARY
  5
19
102
{ACAD_REACTORS
330
C
102
}
330
C
100
AcDbDictionary
281
     1
  0
ACDBDICTIONARYWDFLT
  5
E
102
{ACAD_REACTORS
330
C
102
}
330
C
100
AcDbDictionary
281
     1
  3
Normal
350
F
  3
Style 1
350
11B6F
100
AcDbDictionaryWithDefault
340
F
  0
DICTIONARY
  5
6537
102
{ACAD_REACTORS
330
C
102
}
330
C
100
AcDbDictionary
281
     1
  3
{1DC63513-1B1A-422F-9880-65CFD2B8D533}
350
6538
  0
DICTIONARY
  5
5000
102
{ACAD_REACTORS
330
C
102
}
330
C
100
AcDbDictionary
281
     1
  3
A0
350
5001
  3
A1
350
5002
  3
A2
350
5003
  3
A3
350
5004
  3
A4
350
5005
  3
A5
350
5006
  3
A6
350
5007
  3
A7
350
5008
  3
A8
350
5009
  3
A9
350
500A
  3
B0
350
500B
  3
B1
350
500C
  3
B2
350
500D
  3
B3
350
500E
  3
B4
350
500F
  3
B5
350
5010
  3
B6
350
5011
  3
B7
350
5012
  3
B8
350
5013
  3
B9
350
5014
  3
C0
350
5015
  3
C1
350
5016
  3
C2
350
5017
  3
C3
350
5018
  3
C4
350
5019
  3
C5
350
501A
  3
C6
350
501B
  3
C7
350
501C
  3
C8
350
501D
  3
C9
350
501E
  3
D0
350
501F
  3
D1
350
5020
  3
D2
350
5021
  0
DICTIONARY
  5
4FE3
102
{ACAD_REACTORS
330
C
102
}
330
C
100
AcDbDictionary
281
     1
  3
Standard
350
4FFF
  0
DICTIONARY
  5
2A
102
{ACAD_REACTORS
330
C
102
}
330
C
100
AcDbDictionary
281
     1
  3
2dWireframe
350
2F
  3
3D Hidden
350
31
  3
3dWireframe
350
30
  3
Basic
350
32
  3
Brighten
350
36
  3
ColorChange
350
3A
  3
Conceptual
350
34
  3
Dim
350
35
  3
Facepattern
350
39
  3
Flat
350
2B
  3
FlatWithEdges
350
2C
  3
Gouraud
350
2D
  3
GouraudWithEdges
350
2E
  3
Linepattern
350
38
  3
Realistic
350
33
  3
Thicken
350
37
  0
XRECORD
  5
50EC
102
{ACAD_REACTORS
330
C
102
}
330
C
100
AcDbXrecord
280
     1
 90
        1
330
4FFF
330
12C4B
330
1472A
330
1476E
330
1476F
330
14794
330
14797
330
14798
330
147A2
330
147A3
330
147A4
330
147B2
330
147B3
330
147B4
  0
DICTIONARY
  5
5108
102
{ACAD_REACTORS
330
C
102
}
330
C
100
AcDbDictionary
281
     1
  3
CANNOSCALE
350
510B
  3
CMLEADERSTYLE
350
510A
  3
CTABLESTYLE
350
5109
  3
DIMASSOC
350
510E
  3
INDEXCTL
350
510D
  3
LIGHTINGUNITS
350
147C4
  3
MSLTSCALE
350
147C3
  3
SORTENTS
350
510C
  0
DICTIONARY
  5
14143
102
{ACAD_REACTORS
330
C
102
}
330
C
100
AcDbDictionary
281
     1
  3
ASEBlockHierarchyIndexRecord
350
14144
1001
DCO15
1040
1903428632.093
  0
DICTIONARY
  5
67BE
102
{ACAD_REACTORS
330
50B8
102
}
330
50B8
100
AcDbDictionary
281
     1
  0
DICTIONARY
  5
50B9
102
{ACAD_REACTORS
330
50B8
102
}
330
50B8
100
AcDbDictionary
281
     1
  0
DICTIONARY
  5
67BD
102
{ACAD_REACTORS
330
50B8
102
}
330
50B8
100
AcDbDictionary
281
     1
1001
ACAD
1000
<All
  0
XRECORD
  5
50D1
102
{ACAD_REACTORS
330
50D0
102
}
330
50D0
100
AcDbXrecord
280
     1
290
     1
  0
XRECORD
  5
50D3
102
{ACAD_REACTORS
330
50D2
102
}
330
50D2
100
AcDbXrecord
280
     1
290
     1
  0
XRECORD
  5
50D4
102
{ACAD_REACTORS
330
50AF
102
}
330
50AF
100
AcDbXrecord
280
     1
290
     1
  0
SORTENTSTABLE
  5
67C1
102
{ACAD_REACTORS
330
67C0
102
}
330
67C0
100
AcDbSortentsTable
330
1F
331
28AE
  5
2A38
331
12C52
  5
13086
331
12C34
  5
1306A
331
12B28
  5
12BBD
331
12B19
  5
12BAE
331
4842
  5
4E94
331
12C4B
  5
1307F
331
12C17
  5
1304D
331
3943
  5
4842
331
12B21
  5
12BB6
331
12C26
  5
1305C
331
12B1A
  5
12BAF
331
2FDE
  5
35C8
331
12C1F
  5
13055
331
12C53
  5
13087
331
12C18
  5
1304E
331
12B31
  5
12BC6
331
12B22
  5
12BB7
331
13003
  5
13098
331
12C27
  5
1305D
331
12B1B
  5
12BB0
331
2EE7
  5
2F93
331
12B2A
  5
12BBF
331
3895
  5
3943
331
12C20
  5
13056
331
13093
  5
12B2B
331
12C4D
  5
13081
331
12C5C
  5
13090
331
12C19
  5
1304F
331
12B32
  5
12BC7
331
12C28
  5
1305E
331
12B1C
  5
12BB1
331
12B2B
  5
12BC0
331
35C8
  5
35D8
331
12C46
  5
1307C
331
12C21
  5
13057
331
12B33
  5
12BC8
331
3807
  5
3895
331
12C5D
  5
13091
331
35D8
  5
3807
331
12C38
  5
1306E
331
12C29
  5
1305F
331
12B16
  5
12BAA
331
12C5E
  5
13092
331
12C31
  5
13067
331
12C22
  5
13058
331
2F93
  5
2FDE
331
12C57
  5
1308B
331
12C23
  5
13059
331
12C32
  5
13068
331
12B17
  5
12BAC
331
12C58
  5
1308C
331
12C15
  5
1304B
331
12B18
  5
12BAD
331
12C51
  5
13085
331
12C33
  5
13069
331
12C24
  5
1305A
331
2C65
  5
2EE7
331
12C59
  5
1308D
331
12C16
  5
1304C
  0
XRECORD
  5
147CA
102
{ACAD_REACTORS
330
147C9
102
}
330
147C9
100
AcDbXrecord
280
     1
 40
1527.0
  1
\pxqc;BQ LUO
  0
XRECORD
  5
147CC
102
{ACAD_REACTORS
330
147CB
102
}
330
147CB
100
AcDbXrecord
280
     1
 40
3624820.0
  1
\pxqc;档案员{\H0.7x;\P\Fromans|c134;Filing Clerk\fFangSong_GB2312|b0|i0|c134|p49; }
  0
XRECORD
  5
147CE
102
{ACAD_REACTORS
330
147CD
102
}
330
147CD
100
AcDbXrecord
280
     1
 40
2054623.0
  1
\pxqc;日期{\Fromans|c134;/Date}
  0
XRECORD
  5
147D0
102
{ACAD_REACTORS
330
147CF
102
}
330
147CF
100
AcDbXrecord
280
     1
 40
1836818.0
  1
\pxsm0.7;{\fFangSong_GB2312|b0|i0|c134|p49;标准化}\PStand.
  0
XRECORD
  5
147D2
102
{ACAD_REACTORS
330
147D1
102
}
330
147D1
100
AcDbXrecord
280
     1
 40
1476476.0
  1
\pxsm0.7;签名\P{\Fromans|c134;Signature} 
  0
XRECORD
  5
147D4
102
{ACAD_REACTORS
330
147D3
102
}
330
147D3
100
AcDbXrecord
280
     1
 40
1354713.0
  1
\pxsm0.7,qc;处数\P{\Fromans|c134;Number }
  0
XRECORD
  5
147D6
102
{ACAD_REACTORS
330
147D5
102
}
330
147D5
100
AcDbXrecord
280
     1
 40
1692934.0
  1
\pxsm0.7;标记\P{\Fromans|c134;Mark}
  0
XRECORD
  5
147D8
102
{ACAD_REACTORS
330
147D7
102
}
330
147D7
100
AcDbXrecord
280
     1
 40
1391581.0
  1
\pxsm0.7;审核\P{\Fromans|c134;Checked}
  0
XRECORD
  5
147DA
102
{ACAD_REACTORS
330
147D9
102
}
330
147D9
100
AcDbXrecord
280
     1
 40
1546703.0
  1
\pxsm0.7;绘图\P{\Fromans|c134;Drawn\Ftxt|c134; }
  0
XRECORD
  5
147DC
102
{ACAD_REACTORS
330
147DB
102
}
330
147DB
100
AcDbXrecord
280
     1
 40
1293614.0
  1
\pxsm0.7;批准\P{\Fromans|c134;Approved}
  0
XRECORD
  5
147DE
102
{ACAD_REACTORS
330
147DD
102
}
330
147DD
100
AcDbXrecord
280
     1
 40
1583427.0
  1
\pxsm0.7;工艺\P{\Fromans|c134;Process}
  0
XRECORD
  5
147E0
102
{ACAD_REACTORS
330
147DF
102
}
330
147DF
100
AcDbXrecord
280
     1
 40
1435325.0
  1
\pxsm0.7;日期\P{\Fromans|c134;Date}
  0
XRECORD
  5
147C7
102
{ACAD_REACTORS
330
147C6
102
}
330
147C6
100
AcDbXrecord
280
     1
 40
498911313.0
  1
\A1;\pxql;{\f仿宋_GB2312|b0|i0|c134|p49;技术参数}:\P\pq*;- {\f仿宋_GB2312|b0|i0|c134|p49;材料}: {\f仿宋_GB2312|b0|i0|c134|p49;铜合金}\P- {\f仿宋_GB2312|b0|i0|c134|p49;表面处理}: {\f仿宋_GB2312|b0|i0|c134|p49;镀银}\P\pql;- {\f仿宋_GB2312|b0|i0|c134|p49;额定电流}: 16A\P- {\f仿宋_GB231
  1
2|b0|i0|c134|p49;接触电阻}: ≤1mΩ\P- {\f仿宋_GB2312|b0|i0|c134|p49;线径范围}: 2.5mm{\H0.7x;\S2^ ;}(14 AWG)\P{\f仿宋_GB2312|b0|i0|c134|p49;延迟加长针较短，延迟接触，起保护电路避免电弧}\P\pq*;\P\pql;Technical specification:\P- Material: copper alloy\P- Surface: hard-silver plated\P- Rate
  1
d current: 16A\P- Contact resistance: ≤1mΩ\P- Wire gauge: 2.5mm{\H0.7x;\S2^ ;}(14 AWG)\PDelay pin is relatively short, delay contact, protect circuit to avoid electric arc.
  0
DIMASSOC
  5
143D6
102
{ACAD_REACTORS
330
143D5
102
}
330
143D5
100
AcDbDimAssoc
330
143D4
 90
        1
 70
     0
 71
     0
  1
AcDbOsnapPointRef
 72
     2
331
143C6
 73
     2
 91
        0
 40
1.570796326794896
 10
0.0
 20
0.0
 30
0.0
 75
     0
  0
DIMASSOC
  5
143E7
102
{ACAD_REACTORS
330
143E6
102
}
330
143E6
100
AcDbDimAssoc
330
143E5
 90
        3
 70
     0
 71
     0
  1
AcDbOsnapPointRef
 72
     1
331
143C6
 73
     2
 91
        0
 40
7.853981633974482
 10
0.0
 20
0.0
 30
2.000000000000000E+50
 75
     0
  1
AcDbOsnapPointRef
 72
    13
331
143C6
 73
     2
 91
        0
 40
4.712388980384688
 10
0.0
 20
0.0
 30
2.000000000000000E+50
 75
     0
  0
DIMASSOC
  5
143F8
102
{ACAD_REACTORS
330
143F7
102
}
330
143F7
100
AcDbDimAssoc
330
143F6
 90
        3
 70
     0
 71
     0
  1
AcDbOsnapPointRef
 72
     2
331
143D1
 73
     2
 91
        0
 40
0.4999999999999424
 10
0.0
 20
0.0
 30
0.0
 75
     0
  1
AcDbOsnapPointRef
 72
     2
331
143F3
 73
     2
 91
        0
 40
0.5000000000000455
 10
0.0
 20
0.0
 30
0.0
 75
     0
  0
LAYOUT
  5
1E
102
{ACAD_REACTORS
330
1A
102
}
330
1A
100
AcDbPlotSettings
  1

  2
none_device
  4

  6

 40
0.0
 41
0.0
 42
0.0
 43
0.0
 44
0.0
 45
0.0
 46
0.0
 47
0.0
 48
0.0
 49
0.0
140
0.0
141
0.0
142
1.0
143
1.0
 70
   688
 72
     0
 73
     0
 74
     5
  7

 75
    16
147
1.0
 76
     0
 77
     2
 78
   300
148
0.0
149
0.0
100
AcDbLayout
  1
Layout1
 70
     1
 71
     1
 10
0.0
 20
0.0
 11
12.0
 21
9.0
 12
0.0
 22
0.0
 32
0.0
 14
1.000000000000000E+20
 24
1.000000000000000E+20
 34
1.000000000000000E+20
 15
-1.000000000000000E+20
 25
-1.000000000000000E+20
 35
-1.000000000000000E+20
146
0.0
 13
0.0
 23
0.0
 33
0.0
 16
1.0
 26
0.0
 36
0.0
 17
0.0
 27
1.0
 37
0.0
 76
     0
330
1B
  0
LAYOUT
  5
26
102
{ACAD_REACTORS
330
1A
102
}
330
1A
100
AcDbPlotSettings
  1

  2
none_device
  4

  6

 40
0.0
 41
0.0
 42
0.0
 43
0.0
 44
0.0
 45
0.0
 46
0.0
 47
0.0
 48
0.0
 49
0.0
140
0.0
141
0.0
142
1.0
143
1.0
 70
   688
 72
     0
 73
     0
 74
     5
  7

 75
    16
147
1.0
 76
     0
 77
     2
 78
   300
148
0.0
149
0.0
100
AcDbLayout
  1
Layout2
 70
     1
 71
     2
 10
0.0
 20
0.0
 11
0.0
 21
0.0
 12
0.0
 22
0.0
 32
0.0
 14
0.0
 24
0.0
 34
0.0
 15
0.0
 25
0.0
 35
0.0
146
0.0
 13
0.0
 23
0.0
 33
0.0
 16
1.0
 26
0.0
 36
0.0
 17
0.0
 27
1.0
 37
0.0
 76
     0
330
23
  0
LAYOUT
  5
22
102
{ACAD_REACTORS
330
1A
102
}
330
1A
100
AcDbPlotSettings
  1

  2
Adobe PDF Converter.pc3
  4
A4
  6

 40
3.174999952316281
 41
3.174999952316281
 42
3.17498779296875
 43
3.175003051757812
 44
297.0318298339844
 45
209.9733276367186
 46
0.0000000000000076
 47
1.630241740247063
 48
246.9897427644609
 49
39.36804549891383
140
544.952097801264
141
244.7492402188181
142
1.0
143
1.025046328645055
 70
  3764
 72
     1
 73
     0
 74
     4
  7
monochrome.ctb
 75
     0
147
0.9755656618192436
 76
     1
 77
     2
 78
   300
148
-246.9897427644609
149
-39.36804549891383
100
AcDbLayout
  1
Model
 70
     1
 71
     0
 10
0.0
 20
0.0
 11
12.0
 21
9.0
 12
0.0
 22
0.0
 32
0.0
 14
1.000000000000000E+20
 24
1.000000000000000E+20
 34
1.000000000000000E+20
 15
-1.000000000000000E+20
 25
-1.000000000000000E+20
 35
-1.000000000000000E+20
146
0.0
 13
0.0
 23
0.0
 33
0.0
 16
1.0
 26
0.0
 36
0.0
 17
0.0
 27
1.0
 37
0.0
 76
     0
330
1F
331
29
1001
ACAD_PSEXT
1000
Adobe PDF Converter.pc3
1000
Adobe PDF Converter
1000
桌面\*.pdf
1000

1070
     0
  0
MATERIAL
  5
4FEE
102
{ACAD_XDICTIONARY
360
4FEF
102
}
102
{ACAD_REACTORS
330
4FE5
102
}
330
4FE5
100
AcDbMaterial
  1
ByBlock
 72
     0
 43
0.0208333333333333
 43
0.0
 43
0.0
 43
0.0
 43
0.0
 43
0.0208333333333333
 43
0.0
 43
0.0
 43
0.0
 43
0.0
 43
1.0
 43
0.0
 43
0.0
 43
0.0
 43
0.0
 43
1.0
 77
     0
 47
0.0208333333333333
 47
0.0
 47
0.0
 47
0.0
 47
0.0
 47
0.0208333333333333
 47
0.0
 47
0.0
 47
0.0
 47
0.0
 47
1.0
 47
0.0
 47
0.0
 47
0.0
 47
0.0
 47
1.0
171
     0
 49
0.0208333333333333
 49
0.0
 49
0.0
 49
0.0
 49
0.0
 49
0.0208333333333333
 49
0.0
 49
0.0
 49
0.0
 49
0.0
 49
1.0
 49
0.0
 49
0.0
 49
0.0
 49
0.0
 49
1.0
175
     0
142
0.0208333333333333
142
0.0
142
0.0
142
0.0
142
0.0
142
0.0208333333333333
142
0.0
142
0.0
142
0.0
142
0.0
142
1.0
142
0.0
142
0.0
142
0.0
142
0.0
142
1.0
179
     0
144
0.0208333333333333
144
0.0
144
0.0
144
0.0
144
0.0
144
0.0208333333333333
144
0.0
144
0.0
144
0.0
144
0.0
144
1.0
144
0.0
144
0.0
144
0.0
144
0.0
144
1.0
147
0.0208333333333333
147
0.0
147
0.0
147
0.0
147
0.0
147
0.0208333333333333
147
0.0
147
0.0
147
0.0
147
0.0
147
1.0
147
0.0
147
0.0
147
0.0
147
0.0
147
1.0
  0
MATERIAL
  5
4FE6
102
{ACAD_XDICTIONARY
360
4FE7
102
}
102
{ACAD_REACTORS
330
4FE5
102
}
330
4FE5
100
AcDbMaterial
  1
ByLayer
 72
     0
 43
0.0208333333333333
 43
0.0
 43
0.0
 43
0.0
 43
0.0
 43
0.0208333333333333
 43
0.0
 43
0.0
 43
0.0
 43
0.0
 43
1.0
 43
0.0
 43
0.0
 43
0.0
 43
0.0
 43
1.0
 77
     0
 47
0.0208333333333333
 47
0.0
 47
0.0
 47
0.0
 47
0.0
 47
0.0208333333333333
 47
0.0
 47
0.0
 47
0.0
 47
0.0
 47
1.0
 47
0.0
 47
0.0
 47
0.0
 47
0.0
 47
1.0
171
     0
 49
0.0208333333333333
 49
0.0
 49
0.0
 49
0.0
 49
0.0
 49
0.0208333333333333
 49
0.0
 49
0.0
 49
0.0
 49
0.0
 49
1.0
 49
0.0
 49
0.0
 49
0.0
 49
0.0
 49
1.0
175
     0
142
0.0208333333333333
142
0.0
142
0.0
142
0.0
142
0.0
142
0.0208333333333333
142
0.0
142
0.0
142
0.0
142
0.0
142
1.0
142
0.0
142
0.0
142
0.0
142
0.0
142
1.0
179
     0
144
0.0208333333333333
144
0.0
144
0.0
144
0.0
144
0.0
144
0.0208333333333333
144
0.0
144
0.0
144
0.0
144
0.0
144
1.0
144
0.0
144
0.0
144
0.0
144
0.0
144
1.0
147
0.0208333333333333
147
0.0
147
0.0
147
0.0
147
0.0
147
0.0208333333333333
147
0.0
147
0.0
147
0.0
147
0.0
147
1.0
147
0.0
147
0.0
147
0.0
147
0.0
147
1.0
  0
MATERIAL
  5
4FF6
102
{ACAD_XDICTIONARY
360
4FF7
102
}
102
{ACAD_REACTORS
330
4FE5
102
}
330
4FE5
100
AcDbMaterial
  1
Global
 72
     0
 43
0.0208333333333333
 43
0.0
 43
0.0
 43
0.0
 43
0.0
 43
0.0208333333333333
 43
0.0
 43
0.0
 43
0.0
 43
0.0
 43
1.0
 43
0.0
 43
0.0
 43
0.0
 43
0.0
 43
1.0
 77
     0
 47
0.0208333333333333
 47
0.0
 47
0.0
 47
0.0
 47
0.0
 47
0.0208333333333333
 47
0.0
 47
0.0
 47
0.0
 47
0.0
 47
1.0
 47
0.0
 47
0.0
 47
0.0
 47
0.0
 47
1.0
171
     0
 49
0.0208333333333333
 49
0.0
 49
0.0
 49
0.0
 49
0.0
 49
0.0208333333333333
 49
0.0
 49
0.0
 49
0.0
 49
0.0
 49
1.0
 49
0.0
 49
0.0
 49
0.0
 49
0.0
 49
1.0
175
     0
142
0.0208333333333333
142
0.0
142
0.0
142
0.0
142
0.0
142
0.0208333333333333
142
0.0
142
0.0
142
0.0
142
0.0
142
1.0
142
0.0
142
0.0
142
0.0
142
0.0
142
1.0
179
     0
144
0.0208333333333333
144
0.0
144
0.0
144
0.0
144
0.0
144
0.0208333333333333
144
0.0
144
0.0
144
0.0
144
0.0
144
1.0
144
0.0
144
0.0
144
0.0
144
0.0
144
1.0
147
0.0208333333333333
147
0.0
147
0.0
147
0.0
147
0.0
147
0.0208333333333333
147
0.0
147
0.0
147
0.0
147
0.0
147
1.0
147
0.0
147
0.0
147
0.0
147
0.0
147
1.0
  0
MLEADERSTYLE
  5
5023
102
{ACAD_REACTORS
330
5022
102
}
330
5022
100
AcDbMLeaderStyle
170
     2
171
     1
172
     0
 90
        2
 40
0.0
 41
0.0
173
     1
 91
-1056964608
340
14
 92
       -2
290
     1
 42
0.09
291
     1
 43
0.36
  3
Standard
 44
0.18
300

342
11
174
     1
178
     6
175
     1
176
     0
 93
-1056964608
 45
0.18
292
     0
297
     0
 46
0.18
 94
-1056964608
 47
1.0
 49
1.0
140
1.0
293
     1
141
0.0
294
     1
177
     0
142
1.0
295
     0
296
     0
143
0.125
1001
ACAD_MLEADERVER
1070
     2
  0
MLINESTYLE
  5
18
102
{ACAD_REACTORS
330
17
102
}
330
17
100
AcDbMlineStyle
  2
STANDARD
 70
     0
  3

 62
   256
 51
90.0
 52
90.0
 71
     2
 49
0.5
 62
   256
  6
BYLAYER
 49
-0.5
 62
   256
  6
BYLAYER
  0
ACDBPLACEHOLDER
  5
F
102
{ACAD_REACTORS
330
E
102
}
330
E
  0
ACDBPLACEHOLDER
  5
11B6F
102
{ACAD_REACTORS
330
E
102
}
330
E
  0
MENTALRAYRENDERSETTINGS
  5
6538
102
{ACAD_REACTORS
330
6537
102
}
330
6537
100
AcDbRenderSettings
 90
        2
  1
中
290
     1
290
     1
290
     1
290
     1
  1

  1
渲染质量好于“低级”。包括纹理过滤并且强制双面处于激活状态。处理中等级反锯齿和 5 反射/折射的光线跟踪深度。
 90
        0
100
AcDbMentalRayRenderSettings
 90
        2
 90
        0
 90
        1
 70
     2
 40
3.0
 40
3.0
 40
0.0500000007450581
 40
0.0500000007450581
 40
0.0500000007450581
 40
0.0500000007450581
 70
     0
290
     0
290
     1
 90
        5
 90
        5
 90
        5
290
     0
 90
      500
290
     0
 40
1.0
 90
    10000
 90
        5
 90
        5
 90
        5
290
     0
 90
      200
290
     0
290
     0
290
     0
 40
0.1
 40
1.0
 40
1500.0
 70
     0
 70
     0
 40
10.0
 70
     0
 70
     0
290
     0
  1

 90
       32
 70
     0
 90
     1048
290
     0
 40
1.0
  0
SCALE
  5
5001
102
{ACAD_REACTORS
330
5000
102
}
330
5000
100
AcDbScale
 70
     0
300
1:1
140
1.0
141
1.0
290
     1
  0
SCALE
  5
5002
102
{ACAD_REACTORS
330
5000
102
}
330
5000
100
AcDbScale
 70
     0
300
1:2
140
1.0
141
2.0
290
     0
  0
SCALE
  5
5003
102
{ACAD_REACTORS
330
5000
102
}
330
5000
100
AcDbScale
 70
     0
300
1:4
140
1.0
141
4.0
290
     0
  0
SCALE
  5
5004
102
{ACAD_REACTORS
330
5000
102
}
330
5000
100
AcDbScale
 70
     0
300
1:5
140
1.0
141
5.0
290
     0
  0
SCALE
  5
5005
102
{ACAD_REACTORS
330
5000
102
}
330
5000
100
AcDbScale
 70
     0
300
1:8
140
1.0
141
8.0
290
     0
  0
SCALE
  5
5006
102
{ACAD_REACTORS
330
5000
102
}
330
5000
100
AcDbScale
 70
     0
300
1:10
140
1.0
141
10.0
290
     0
  0
SCALE
  5
5007
102
{ACAD_REACTORS
330
5000
102
}
330
5000
100
AcDbScale
 70
     0
300
1:16
140
1.0
141
16.0
290
     0
  0
SCALE
  5
5008
102
{ACAD_REACTORS
330
5000
102
}
330
5000
100
AcDbScale
 70
     0
300
1:20
140
1.0
141
20.0
290
     0
  0
SCALE
  5
5009
102
{ACAD_REACTORS
330
5000
102
}
330
5000
100
AcDbScale
 70
     0
300
1:30
140
1.0
141
30.0
290
     0
  0
SCALE
  5
500A
102
{ACAD_REACTORS
330
5000
102
}
330
5000
100
AcDbScale
 70
     0
300
1:40
140
1.0
141
40.0
290
     0
  0
SCALE
  5
500B
102
{ACAD_REACTORS
330
5000
102
}
330
5000
100
AcDbScale
 70
     0
300
1:50
140
1.0
141
50.0
290
     0
  0
SCALE
  5
500C
102
{ACAD_REACTORS
330
5000
102
}
330
5000
100
AcDbScale
 70
     0
300
1:100
140
1.0
141
100.0
290
     0
  0
SCALE
  5
500D
102
{ACAD_REACTORS
330
5000
102
}
330
5000
100
AcDbScale
 70
     0
300
2:1
140
2.0
141
1.0
290
     0
  0
SCALE
  5
500E
102
{ACAD_REACTORS
330
5000
102
}
330
5000
100
AcDbScale
 70
     0
300
4:1
140
4.0
141
1.0
290
     0
  0
SCALE
  5
500F
102
{ACAD_REACTORS
330
5000
102
}
330
5000
100
AcDbScale
 70
     0
300
8:1
140
8.0
141
1.0
290
     0
  0
SCALE
  5
5010
102
{ACAD_REACTORS
330
5000
102
}
330
5000
100
AcDbScale
 70
     0
300
10:1
140
10.0
141
1.0
290
     0
  0
SCALE
  5
5011
102
{ACAD_REACTORS
330
5000
102
}
330
5000
100
AcDbScale
 70
     0
300
100:1
140
100.0
141
1.0
290
     0
  0
SCALE
  5
5012
102
{ACAD_REACTORS
330
5000
102
}
330
5000
100
AcDbScale
 70
     0
300
1/128" = 1'-0"
140
0.0078125
141
12.0
290
     0
  0
SCALE
  5
5013
102
{ACAD_REACTORS
330
5000
102
}
330
5000
100
AcDbScale
 70
     0
300
1/64" = 1'-0"
140
0.015625
141
12.0
290
     0
  0
SCALE
  5
5014
102
{ACAD_REACTORS
330
5000
102
}
330
5000
100
AcDbScale
 70
     0
300
1/32" = 1'-0"
140
0.03125
141
12.0
290
     0
  0
SCALE
  5
5015
102
{ACAD_REACTORS
330
5000
102
}
330
5000
100
AcDbScale
 70
     0
300
1/16" = 1'-0"
140
0.0625
141
12.0
290
     0
  0
SCALE
  5
5016
102
{ACAD_REACTORS
330
5000
102
}
330
5000
100
AcDbScale
 70
     0
300
3/32" = 1'-0"
140
0.09375
141
12.0
290
     0
  0
SCALE
  5
5017
102
{ACAD_REACTORS
330
5000
102
}
330
5000
100
AcDbScale
 70
     0
300
1/8" = 1'-0"
140
0.125
141
12.0
290
     0
  0
SCALE
  5
5018
102
{ACAD_REACTORS
330
5000
102
}
330
5000
100
AcDbScale
 70
     0
300
3/16" = 1'-0"
140
0.1875
141
12.0
290
     0
  0
SCALE
  5
5019
102
{ACAD_REACTORS
330
5000
102
}
330
5000
100
AcDbScale
 70
     0
300
1/4" = 1'-0"
140
0.25
141
12.0
290
     0
  0
SCALE
  5
501A
102
{ACAD_REACTORS
330
5000
102
}
330
5000
100
AcDbScale
 70
     0
300
3/8" = 1'-0"
140
0.375
141
12.0
290
     0
  0
SCALE
  5
501B
102
{ACAD_REACTORS
330
5000
102
}
330
5000
100
AcDbScale
 70
     0
300
1/2" = 1'-0"
140
0.5
141
12.0
290
     0
  0
SCALE
  5
501C
102
{ACAD_REACTORS
330
5000
102
}
330
5000
100
AcDbScale
 70
     0
300
3/4" = 1'-0"
140
0.75
141
12.0
290
     0
  0
SCALE
  5
501D
102
{ACAD_REACTORS
330
5000
102
}
330
5000
100
AcDbScale
 70
     0
300
1" = 1'-0"
140
1.0
141
12.0
290
     0
  0
SCALE
  5
501E
102
{ACAD_REACTORS
330
5000
102
}
330
5000
100
AcDbScale
 70
     0
300
1-1/2" = 1'-0"
140
1.5
141
12.0
290
     0
  0
SCALE
  5
501F
102
{ACAD_REACTORS
330
5000
102
}
330
5000
100
AcDbScale
 70
     0
300
3" = 1'-0"
140
3.0
141
12.0
290
     0
  0
SCALE
  5
5020
102
{ACAD_REACTORS
330
5000
102
}
330
5000
100
AcDbScale
 70
     0
300
6" = 1'-0"
140
6.0
141
12.0
290
     0
  0
SCALE
  5
5021
102
{ACAD_REACTORS
330
5000
102
}
330
5000
100
AcDbScale
 70
     0
300
1'-0" = 1'-0"
140
12.0
141
12.0
290
     0
  0
TABLESTYLE
  5
4FFF
102
{ACAD_XDICTIONARY
360
50D6
102
}
102
{ACAD_REACTORS
330
4FE3
102
}
330
4FE3
100
AcDbTableStyle
  3
Standard
 70
     0
 71
     0
 40
0.06
 41
0.06
280
     0
281
     0
  7
Standard
140
0.18
170
     2
 62
     0
 63
     7
283
     0
 90
      512
 91
        0
  1

274
    -2
284
     1
 64
     0
275
    -2
285
     1
 65
     0
276
    -2
286
     1
 66
     0
277
    -2
287
     1
 67
     0
278
    -2
288
     1
 68
     0
279
    -2
289
     1
 69
     0
  7
Standard
140
0.25
170
     5
 62
     0
 63
     7
283
     0
 90
      512
 91
        0
  1

274
    -2
284
     1
 64
     0
275
    -2
285
     1
 65
     0
276
    -2
286
     1
 66
     0
277
    -2
287
     1
 67
     0
278
    -2
288
     1
 68
     0
279
    -2
289
     1
 69
     0
  7
Standard
140
0.18
170
     5
 62
     0
 63
     7
283
     0
 90
      512
 91
        0
  1

274
    -2
284
     1
 64
     0
275
    -2
285
     1
 65
     0
276
    -2
286
     1
 66
     0
277
    -2
287
     1
 67
     0
278
    -2
288
     1
 68
     0
279
    -2
289
     1
 69
     0
  0
VISUALSTYLE
  5
2F
102
{ACAD_REACTORS
330
2A
102
}
330
2A
100
AcDbVisualStyle
  2
2dWireframe
 70
     4
 71
     0
 72
     2
 73
     0
 90
        0
 40
-0.6
 41
-30.0
 62
     5
 63
     7
 74
     1
 91
        4
 64
     7
 65
   257
 75
     1
175
     1
 42
1.0
 92
        0
 66
   257
 43
1.0
 76
     1
 77
     6
 78
     2
 67
     7
 79
     5
170
     0
171
     0
290
     0
174
     0
 93
        1
 44
0.0
173
     0
291
     0
 45
0.0
1001
ACAD
1000
AcDbSavedByObjectVersion
1070
     0
1000
AcDbSavedByObjectVersion
1070
     0
1000
AcDbSavedByObjectVersion
1070
     0
1000
AcDbSavedByObjectVersion
1070
     0
1000
AcDbSavedByObjectVersion
1070
     0
1000
AcDbSavedByObjectVersion
1070
     0
1000
AcDbSavedByObjectVersion
1070
     0
1000
AcDbSavedByObjectVersion
1070
     0
1000
AcDbSavedByObjectVersion
1070
     0
1000
AcDbSavedByObjectVersion
1070
     0
1000
AcDbSavedByObjectVersion
1070
     0
1000
AcDbSavedByObjectVersion
1070
     0
1000
AcDbSavedByObjectVersion
1070
     0
1000
AcDbSavedByObjectVersion
1070
     0
1000
AcDbSavedByObjectVersion
1070
     0
1000
AcDbSavedByObjectVersion
1070
     0
1000
AcDbSavedByObjectVersion
1070
     0
1000
AcDbSavedByObjectVersion
1070
     0
1000
AcDbSavedByObjectVersion
1070
     0
1000
AcDbSavedByObjectVersion
1070
     0
1000
AcDbSavedByObjectVersion
1070
     0
1000
AcDbSavedByObjectVersion
1070
     0
1000
AcDbSavedByObjectVersion
1070
     0
1000
AcDbSavedByObjectVersion
1070
     0
1000
AcDbSavedByObjectVersion
1070
     0
1000
AcDbSavedByObjectVersion
1070
     0
1000
AcDbSavedByObjectVersion
1070
     0
1000
AcDbSavedByObjectVersion
1070
     0
1000
AcDbSavedByObjectVersion
1070
     0
1000
AcDbSavedByObjectVersion
1070
     0
1000
AcDbSavedByObjectVersion
1070
     0
1000
AcDbSavedByObjectVersion
1070
     0
1000
AcDbSavedByObjectVersion
1070
     0
1000
AcDbSavedByObjectVersion
1070
     0
1000
AcDbSavedByObjectVersion
1070
     0
1000
AcDbSavedByObjectVersion
1070
     0
1000
AcDbSavedByObjectVersion
1070
     0
1000
AcDbSavedByObjectVersion
1070
     0
1000
AcDbSavedByObjectVersion
1070
     0
1000
AcDbSavedByObjectVersion
1070
     0
1000
AcDbSavedByObjectVersion
1070
     0
1000
AcDbSavedByObjectVersion
1070
     0
1000
AcDbSavedByObjectVersion
1070
     0
1000
AcDbSavedByObjectVersion
1070
     0
1000
AcDbSavedByObjectVersion
1070
     0
1000
AcDbSavedByObjectVersion
1070
     0
1000
AcDbSavedByObjectVersion
1070
     0
1000
AcDbSavedByObjectVersion
1070
     0
1000
AcDbSavedByObjectVersion
1070
     0
1000
AcDbSavedByObjectVersion
1070
     0
1000
AcDbSavedByObjectVersion
1070
     0
1000
AcDbSavedByObjectVersion
1070
     0
1000
AcDbSavedByObjectVersion
1070
     0
1000
AcDbSavedByObjectVersion
1070
     0
  0
VISUALSTYLE
  5
31
102
{ACAD_REACTORS
330
2A
102
}
330
2A
100
AcDbVisualStyle
  2
3D Hidden
 70
     6
 71
     1
 72
     2
 73
     2
 90
        0
 40
-0.6
 41
-30.0
 62
     5
 63
     7
 74
     2
 91
        2
 64
     7
 65
   257
 75
     2
175
     1
 42
40.0
 92
        0
 66
   257
 43
1.0
 76
     1
 77
     6
 78
     2
 67
     7
 79
     3
170
     0
171
     0
290
     0
174
     0
 93
        1
 44
0.0
173
     0
291
     0
 45
0.0
1001
ACAD
1000
AcDbSavedByObjectVersion
1070
     0
1000
AcDbSavedByObjectVersion
1070
     0
1000
AcDbSavedByObjectVersion
1070
     0
1000
AcDbSavedByObjectVersion
1070
     0
1000
AcDbSavedByObjectVersion
1070
     0
1000
AcDbSavedByObjectVersion
1070
     0
1000
AcDbSavedByObjectVersion
1070
     0
1000
AcDbSavedByObjectVersion
1070
     0
1000
AcDbSavedByObjectVersion
1070
     0
1000
AcDbSavedByObjectVersion
1070
     0
1000
AcDbSavedByObjectVersion
1070
     0
1000
AcDbSavedByObjectVersion
1070
     0
1000
AcDbSavedByObjectVersion
1070
     0
1000
AcDbSavedByObjectVersion
1070
     0
1000
AcDbSavedByObjectVersion
1070
     0
1000
AcDbSavedByObjectVersion
1070
     0
1000
AcDbSavedByObjectVersion
1070
     0
1000
AcDbSavedByObjectVersion
1070
     0
1000
AcDbSavedByObjectVersion
1070
     0
1000
AcDbSavedByObjectVersion
1070
     0
1000
AcDbSavedByObjectVersion
1070
     0
1000
AcDbSavedByObjectVersion
1070
     0
1000
AcDbSavedByObjectVersion
1070
     0
1000
AcDbSavedByObjectVersion
1070
     0
1000
AcDbSavedByObjectVersion
1070
     0
1000
AcDbSavedByObjectVersion
1070
     0
1000
AcDbSavedByObjectVersion
1070
     0
1000
AcDbSavedByObjectVersion
1070
     0
1000
AcDbSavedByObjectVersion
1070
     0
1000
AcDbSavedByObjectVersion
1070
     0
1000
AcDbSavedByObjectVersion
1070
     0
1000
AcDbSavedByObjectVersion
1070
     0
1000
AcDbSavedByObjectVersion
1070
     0
1000
AcDbSavedByObjectVersion
1070
     0
1000
AcDbSavedByObjectVersion
1070
     0
1000
AcDbSavedByObjectVersion
1070
     0
1000
AcDbSavedByObjectVersion
1070
     0
1000
AcDbSavedByObjectVersion
1070
     0
1000
AcDbSavedByObjectVersion
1070
     0
1000
AcDbSavedByObjectVersion
1070
     0
1000
AcDbSavedByObjectVersion
1070
     0
1000
AcDbSavedByObjectVersion
1070
     0
1000
AcDbSavedByObjectVersion
1070
     0
1000
AcDbSavedByObjectVersion
1070
     0
1000
AcDbSavedByObjectVersion
1070
     0
1000
AcDbSavedByObjectVersion
1070
     0
1000
AcDbSavedByObjectVersion
1070
     0
1000
AcDbSavedByObjectVersion
1070
     0
1000
AcDbSavedByObjectVersion
1070
     0
1000
AcDbSavedByObjectVersion
1070
     0
1000
AcDbSavedByObjectVersion
1070
     0
1000
AcDbSavedByObjectVersion
1070
     0
1000
AcDbSavedByObjectVersion
1070
     0
1000
AcDbSavedByObjectVersion
1070
     0
  0
VISUALSTYLE
  5
30
102
{ACAD_REACTORS
330
2A
102
}
330
2A
100
AcDbVisualStyle
  2
3dWireframe
 70
     5
 71
     0
 72
     2
 73
     0
 90
        0
 40
-0.6
 41
-30.0
 62
     5
 63
     7
 74
     1
 91
        4
 64
     7
 65
   257
 75
     1
175
     1
 42
1.0
 92
        0
 66
   257
 43
1.0
 76
     1
 77
     6
 78
     2
 67
     7
 79
     5
170
     0
171
     0
290
     0
174
     0
 93
        1
 44
0.0
173
     0
291
     0
 45
0.0
1001
ACAD
1000
AcDbSavedByObjectVersion
1070
     0
1000
AcDbSavedByObjectVersion
1070
     0
1000
AcDbSavedByObjectVersion
1070
     0
1000
AcDbSavedByObjectVersion
1070
     0
1000
AcDbSavedByObjectVersion
1070
     0
1000
AcDbSavedByObjectVersion
1070
     0
1000
AcDbSavedByObjectVersion
1070
     0
1000
AcDbSavedByObjectVersion
1070
     0
1000
AcDbSavedByObjectVersion
1070
     0
1000
AcDbSavedByObjectVersion
1070
     0
1000
AcDbSavedByObjectVersion
1070
     0
1000
AcDbSavedByObjectVersion
1070
     0
1000
AcDbSavedByObjectVersion
1070
     0
1000
AcDbSavedByObjectVersion
1070
     0
1000
AcDbSavedByObjectVersion
1070
     0
1000
AcDbSavedByObjectVersion
1070
     0
1000
AcDbSavedByObjectVersion
1070
     0
1000
AcDbSavedByObjectVersion
1070
     0
1000
AcDbSavedByObjectVersion
1070
     0
1000
AcDbSavedByObjectVersion
1070
     0
1000
AcDbSavedByObjectVersion
1070
     0
1000
AcDbSavedByObjectVersion
1070
     0
1000
AcDbSavedByObjectVersion
1070
     0
1000
AcDbSavedByObjectVersion
1070
     0
1000
AcDbSavedByObjectVersion
1070
     0
1000
AcDbSavedByObjectVersion
1070
     0
1000
AcDbSavedByObjectVersion
1070
     0
1000
AcDbSavedByObjectVersion
1070
     0
1000
AcDbSavedByObjectVersion
1070
     0
1000
AcDbSavedByObjectVersion
1070
     0
1000
AcDbSavedByObjectVersion
1070
     0
1000
AcDbSavedByObjectVersion
1070
     0
1000
AcDbSavedByObjectVersion
1070
     0
1000
AcDbSavedByObjectVersion
1070
     0
1000
AcDbSavedByObjectVersion
1070
     0
1000
AcDbSavedByObjectVersion
1070
     0
1000
AcDbSavedByObjectVersion
1070
     0
1000
AcDbSavedByObjectVersion
1070
     0
1000
AcDbSavedByObjectVersion
1070
     0
1000
AcDbSavedByObjectVersion
1070
     0
1000
AcDbSavedByObjectVersion
1070
     0
1000
AcDbSavedByObjectVersion
1070
     0
1000
AcDbSavedByObjectVersion
1070
     0
1000
AcDbSavedByObjectVersion
1070
     0
1000
AcDbSavedByObjectVersion
1070
     0
1000
AcDbSavedByObjectVersion
1070
     0
1000
AcDbSavedByObjectVersion
1070
     0
1000
AcDbSavedByObjectVersion
1070
     0
1000
AcDbSavedByObjectVersion
1070
     0
1000
AcDbSavedByObjectVersion
1070
     0
1000
AcDbSavedByObjectVersion
1070
     0
1000
AcDbSavedByObjectVersion
1070
     0
1000
AcDbSavedByObjectVersion
1070
     0
1000
AcDbSavedByObjectVersion
1070
     0
  0
VISUALSTYLE
  5
32
102
{ACAD_REACTORS
330
2A
102
}
330
2A
100
AcDbVisualStyle
  2
Basic
 70
     7
 71
     1
 72
     0
 73
     1
 90
        0
 40
-0.6
 41
-30.0
 62
     5
 63
     7
 74
     0
 91
        4
 64
     7
 65
   257
 75
     1
175
     1
 42
1.0
 92
        8
 66
     7
 43
1.0
 76
     1
 77
     6
 78
     2
 67
     7
 79
     5
170
     0
171
     0
290
     0
174
     0
 93
        1
 44
0.0
173
     0
291
     1
 45
0.0
1001
ACAD
1000
AcDbSavedByObjectVersion
1070
     0
1000
AcDbSavedByObjectVersion
1070
     0
1000
AcDbSavedByObjectVersion
1070
     0
1000
AcDbSavedByObjectVersion
1070
     0
1000
AcDbSavedByObjectVersion
1070
     0
1000
AcDbSavedByObjectVersion
1070
     0
1000
AcDbSavedByObjectVersion
1070
     0
1000
AcDbSavedByObjectVersion
1070
     0
1000
AcDbSavedByObjectVersion
1070
     0
1000
AcDbSavedByObjectVersion
1070
     0
1000
AcDbSavedByObjectVersion
1070
     0
1000
AcDbSavedByObjectVersion
1070
     0
1000
AcDbSavedByObjectVersion
1070
     0
1000
AcDbSavedByObjectVersion
1070
     0
1000
AcDbSavedByObjectVersion
1070
     0
1000
AcDbSavedByObjectVersion
1070
     0
1000
AcDbSavedByObjectVersion
1070
     0
1000
AcDbSavedByObjectVersion
1070
     0
1000
AcDbSavedByObjectVersion
1070
     0
1000
AcDbSavedByObjectVersion
1070
     0
1000
AcDbSavedByObjectVersion
1070
     0
1000
AcDbSavedByObjectVersion
1070
     0
1000
AcDbSavedByObjectVersion
1070
     0
1000
AcDbSavedByObjectVersion
1070
     0
1000
AcDbSavedByObjectVersion
1070
     0
1000
AcDbSavedByObjectVersion
1070
     0
1000
AcDbSavedByObjectVersion
1070
     0
1000
AcDbSavedByObjectVersion
1070
     0
1000
AcDbSavedByObjectVersion
1070
     0
1000
AcDbSavedByObjectVersion
1070
     0
1000
AcDbSavedByObjectVersion
1070
     0
1000
AcDbSavedByObjectVersion
1070
     0
1000
AcDbSavedByObjectVersion
1070
     0
1000
AcDbSavedByObjectVersion
1070
     0
1000
AcDbSavedByObjectVersion
1070
     0
1000
AcDbSavedByObjectVersion
1070
     0
1000
AcDbSavedByObjectVersion
1070
     0
1000
AcDbSavedByObjectVersion
1070
     0
1000
AcDbSavedByObjectVersion
1070
     0
1000
AcDbSavedByObjectVersion
1070
     0
1000
AcDbSavedByObjectVersion
1070
     0
1000
AcDbSavedByObjectVersion
1070
     0
1000
AcDbSavedByObjectVersion
1070
     0
1000
AcDbSavedByObjectVersion
1070
     0
1000
AcDbSavedByObjectVersion
1070
     0
1000
AcDbSavedByObjectVersion
1070
     0
1000
AcDbSavedByObjectVersion
1070
     0
1000
AcDbSavedByObjectVersion
1070
     0
1000
AcDbSavedByObjectVersion
1070
     0
1000
AcDbSavedByObjectVersion
1070
     0
1000
AcDbSavedByObjectVersion
1070
     0
1000
AcDbSavedByObjectVersion
1070
     0
1000
AcDbSavedByObjectVersion
1070
     0
1000
AcDbSavedByObjectVersion
1070
     0
  0
VISUALSTYLE
  5
36
102
{ACAD_REACTORS
330
2A
102
}
330
2A
100
AcDbVisualStyle
  2
Brighten
 70
    12
 71
     2
 72
     2
 73
     0
 90
        0
 40
-0.6
 41
-30.0
 62
     5
 63
     7
 74
     1
 91
        4
 64
     7
 65
   257
 75
     1
175
     1
 42
1.0
 92
        8
 66
     7
 43
1.0
 76
     1
 77
     6
 78
     2
 67
     7
 79
     5
170
     0
171
     0
290
     0
174
     0
 93
        1
 44
50.0
173
     0
291
     1
 45
0.0
1001
ACAD
1000
AcDbSavedByObjectVersion
1070
     0
1000
AcDbSavedByObjectVersion
1070
     0
1000
AcDbSavedByObjectVersion
1070
     0
1000
AcDbSavedByObjectVersion
1070
     0
1000
AcDbSavedByObjectVersion
1070
     0
1000
AcDbSavedByObjectVersion
1070
     0
1000
AcDbSavedByObjectVersion
1070
     0
1000
AcDbSavedByObjectVersion
1070
     0
1000
AcDbSavedByObjectVersion
1070
     0
1000
AcDbSavedByObjectVersion
1070
     0
1000
AcDbSavedByObjectVersion
1070
     0
1000
AcDbSavedByObjectVersion
1070
     0
1000
AcDbSavedByObjectVersion
1070
     0
1000
AcDbSavedByObjectVersion
1070
     0
1000
AcDbSavedByObjectVersion
1070
     0
1000
AcDbSavedByObjectVersion
1070
     0
1000
AcDbSavedByObjectVersion
1070
     0
1000
AcDbSavedByObjectVersion
1070
     0
1000
AcDbSavedByObjectVersion
1070
     0
1000
AcDbSavedByObjectVersion
1070
     0
1000
AcDbSavedByObjectVersion
1070
     0
1000
AcDbSavedByObjectVersion
1070
     0
1000
AcDbSavedByObjectVersion
1070
     0
1000
AcDbSavedByObjectVersion
1070
     0
1000
AcDbSavedByObjectVersion
1070
     0
1000
AcDbSavedByObjectVersion
1070
     0
1000
AcDbSavedByObjectVersion
1070
     0
1000
AcDbSavedByObjectVersion
1070
     0
1000
AcDbSavedByObjectVersion
1070
     0
1000
AcDbSavedByObjectVersion
1070
     0
1000
AcDbSavedByObjectVersion
1070
     0
1000
AcDbSavedByObjectVersion
1070
     0
1000
AcDbSavedByObjectVersion
1070
     0
1000
AcDbSavedByObjectVersion
1070
     0
1000
AcDbSavedByObjectVersion
1070
     0
1000
AcDbSavedByObjectVersion
1070
     0
1000
AcDbSavedByObjectVersion
1070
     0
1000
AcDbSavedByObjectVersion
1070
     0
1000
AcDbSavedByObjectVersion
1070
     0
1000
AcDbSavedByObjectVersion
1070
     0
1000
AcDbSavedByObjectVersion
1070
     0
1000
AcDbSavedByObjectVersion
1070
     0
1000
AcDbSavedByObjectVersion
1070
     0
1000
AcDbSavedByObjectVersion
1070
     0
1000
AcDbSavedByObjectVersion
1070
     0
1000
AcDbSavedByObjectVersion
1070
     0
1000
AcDbSavedByObjectVersion
1070
     0
1000
AcDbSavedByObjectVersion
1070
     0
1000
AcDbSavedByObjectVersion
1070
     0
1000
AcDbSavedByObjectVersion
1070
     0
1000
AcDbSavedByObjectVersion
1070
     0
1000
AcDbSavedByObjectVersion
1070
     0
1000
AcDbSavedByObjectVersion
1070
     0
1000
AcDbSavedByObjectVersion
1070
     0
  0
VISUALSTYLE
  5
3A
102
{ACAD_REACTORS
330
2A
102
}
330
2A
100
AcDbVisualStyle
  2
ColorChange
 70
    16
 71
     2
 72
     2
 73
     3
 90
        0
 40
-0.6
 41
-30.0
 62
     5
 63
     8
 74
     1
 91
        4
 64
     7
 65
   257
 75
     1
175
     1
 42
1.0
 92
        8
 66
     8
 43
1.0
 76
     1
 77
     6
 78
     2
 67
     7
 79
     5
170
     0
171
     0
290
     0
174
     0
 93
        1
 44
0.0
173
     0
291
     1
 45
0.0
1001
ACAD
1000
AcDbSavedByObjectVersion
1070
     0
1000
AcDbSavedByObjectVersion
1070
     0
1000
AcDbSavedByObjectVersion
1070
     0
1000
AcDbSavedByObjectVersion
1070
     0
1000
AcDbSavedByObjectVersion
1070
     0
1000
AcDbSavedByObjectVersion
1070
     0
1000
AcDbSavedByObjectVersion
1070
     0
1000
AcDbSavedByObjectVersion
1070
     0
1000
AcDbSavedByObjectVersion
1070
     0
1000
AcDbSavedByObjectVersion
1070
     0
1000
AcDbSavedByObjectVersion
1070
     0
1000
AcDbSavedByObjectVersion
1070
     0
1000
AcDbSavedByObjectVersion
1070
     0
1000
AcDbSavedByObjectVersion
1070
     0
1000
AcDbSavedByObjectVersion
1070
     0
1000
AcDbSavedByObjectVersion
1070
     0
1000
AcDbSavedByObjectVersion
1070
     0
1000
AcDbSavedByObjectVersion
1070
     0
1000
AcDbSavedByObjectVersion
1070
     0
1000
AcDbSavedByObjectVersion
1070
     0
1000
AcDbSavedByObjectVersion
1070
     0
1000
AcDbSavedByObjectVersion
1070
     0
1000
AcDbSavedByObjectVersion
1070
     0
1000
AcDbSavedByObjectVersion
1070
     0
1000
AcDbSavedByObjectVersion
1070
     0
1000
AcDbSavedByObjectVersion
1070
     0
1000
AcDbSavedByObjectVersion
1070
     0
1000
AcDbSavedByObjectVersion
1070
     0
1000
AcDbSavedByObjectVersion
1070
     0
1000
AcDbSavedByObjectVersion
1070
     0
1000
AcDbSavedByObjectVersion
1070
     0
1000
AcDbSavedByObjectVersion
1070
     0
1000
AcDbSavedByObjectVersion
1070
     0
1000
AcDbSavedByObjectVersion
1070
     0
1000
AcDbSavedByObjectVersion
1070
     0
1000
AcDbSavedByObjectVersion
1070
     0
1000
AcDbSavedByObjectVersion
1070
     0
1000
AcDbSavedByObjectVersion
1070
     0
1000
AcDbSavedByObjectVersion
1070
     0
1000
AcDbSavedByObjectVersion
1070
     0
1000
AcDbSavedByObjectVersion
1070
     0
1000
AcDbSavedByObjectVersion
1070
     0
1000
AcDbSavedByObjectVersion
1070
     0
1000
AcDbSavedByObjectVersion
1070
     0
1000
AcDbSavedByObjectVersion
1070
     0
1000
AcDbSavedByObjectVersion
1070
     0
1000
AcDbSavedByObjectVersion
1070
     0
1000
AcDbSavedByObjectVersion
1070
     0
1000
AcDbSavedByObjectVersion
1070
     0
1000
AcDbSavedByObjectVersion
1070
     0
1000
AcDbSavedByObjectVersion
1070
     0
1000
AcDbSavedByObjectVersion
1070
     0
1000
AcDbSavedByObjectVersion
1070
     0
1000
AcDbSavedByObjectVersion
1070
     0
  0
VISUALSTYLE
  5
34
102
{ACAD_REACTORS
330
2A
102
}
330
2A
100
AcDbVisualStyle
  2
Conceptual
 70
     9
 71
     3
 72
     2
 73
     0
 90
        0
 40
-0.6
 41
-30.0
 62
     5
 63
     7
 74
     2
 91
        2
 64
     7
 65
   257
 75
     1
175
     1
 42
40.0
 92
        8
 66
     7
 43
1.0
 76
     1
 77
     6
 78
     2
 67
     7
 79
     3
170
     0
171
     0
290
     0
174
     0
 93
        1
 44
0.0
173
     0
291
     0
 45
0.0
1001
ACAD
1000
AcDbSavedByObjectVersion
1070
     0
1000
AcDbSavedByObjectVersion
1070
     0
1000
AcDbSavedByObjectVersion
1070
     0
1000
AcDbSavedByObjectVersion
1070
     0
1000
AcDbSavedByObjectVersion
1070
     0
1000
AcDbSavedByObjectVersion
1070
     0
1000
AcDbSavedByObjectVersion
1070
     0
1000
AcDbSavedByObjectVersion
1070
     0
1000
AcDbSavedByObjectVersion
1070
     0
1000
AcDbSavedByObjectVersion
1070
     0
1000
AcDbSavedByObjectVersion
1070
     0
1000
AcDbSavedByObjectVersion
1070
     0
1000
AcDbSavedByObjectVersion
1070
     0
1000
AcDbSavedByObjectVersion
1070
     0
1000
AcDbSavedByObjectVersion
1070
     0
1000
AcDbSavedByObjectVersion
1070
     0
1000
AcDbSavedByObjectVersion
1070
     0
1000
AcDbSavedByObjectVersion
1070
     0
1000
AcDbSavedByObjectVersion
1070
     0
1000
AcDbSavedByObjectVersion
1070
     0
1000
AcDbSavedByObjectVersion
1070
     0
1000
AcDbSavedByObjectVersion
1070
     0
1000
AcDbSavedByObjectVersion
1070
     0
1000
AcDbSavedByObjectVersion
1070
     0
1000
AcDbSavedByObjectVersion
1070
     0
1000
AcDbSavedByObjectVersion
1070
     0
1000
AcDbSavedByObjectVersion
1070
     0
1000
AcDbSavedByObjectVersion
1070
     0
1000
AcDbSavedByObjectVersion
1070
     0
1000
AcDbSavedByObjectVersion
1070
     0
1000
AcDbSavedByObjectVersion
1070
     0
1000
AcDbSavedByObjectVersion
1070
     0
1000
AcDbSavedByObjectVersion
1070
     0
1000
AcDbSavedByObjectVersion
1070
     0
1000
AcDbSavedByObjectVersion
1070
     0
1000
AcDbSavedByObjectVersion
1070
     0
1000
AcDbSavedByObjectVersion
1070
     0
1000
AcDbSavedByObjectVersion
1070
     0
1000
AcDbSavedByObjectVersion
1070
     0
1000
AcDbSavedByObjectVersion
1070
     0
1000
AcDbSavedByObjectVersion
1070
     0
1000
AcDbSavedByObjectVersion
1070
     0
1000
AcDbSavedByObjectVersion
1070
     0
1000
AcDbSavedByObjectVersion
1070
     0
1000
AcDbSavedByObjectVersion
1070
     0
1000
AcDbSavedByObjectVersion
1070
     0
1000
AcDbSavedByObjectVersion
1070
     0
1000
AcDbSavedByObjectVersion
1070
     0
1000
AcDbSavedByObjectVersion
1070
     0
1000
AcDbSavedByObjectVersion
1070
     0
1000
AcDbSavedByObjectVersion
1070
     0
1000
AcDbSavedByObjectVersion
1070
     0
1000
AcDbSavedByObjectVersion
1070
     0
1000
AcDbSavedByObjectVersion
1070
     0
  0
VISUALSTYLE
  5
35
102
{ACAD_REACTORS
330
2A
102
}
330
2A
100
AcDbVisualStyle
  2
Dim
 70
    11
 71
     2
 72
     2
 73
     0
 90
        0
 40
-0.6
 41
-30.0
 62
     5
 63
     7
 74
     1
 91
        4
 64
     7
 65
   257
 75
     1
175
     1
 42
1.0
 92
        8
 66
     7
 43
1.0
 76
     1
 77
     6
 78
     2
 67
     7
 79
     5
170
     0
171
     0
290
     0
174
     0
 93
        1
 44
-50.0
173
     0
291
     1
 45
0.0
1001
ACAD
1000
AcDbSavedByObjectVersion
1070
     0
1000
AcDbSavedByObjectVersion
1070
     0
1000
AcDbSavedByObjectVersion
1070
     0
1000
AcDbSavedByObjectVersion
1070
     0
1000
AcDbSavedByObjectVersion
1070
     0
1000
AcDbSavedByObjectVersion
1070
     0
1000
AcDbSavedByObjectVersion
1070
     0
1000
AcDbSavedByObjectVersion
1070
     0
1000
AcDbSavedByObjectVersion
1070
     0
1000
AcDbSavedByObjectVersion
1070
     0
1000
AcDbSavedByObjectVersion
1070
     0
1000
AcDbSavedByObjectVersion
1070
     0
1000
AcDbSavedByObjectVersion
1070
     0
1000
AcDbSavedByObjectVersion
1070
     0
1000
AcDbSavedByObjectVersion
1070
     0
1000
AcDbSavedByObjectVersion
1070
     0
1000
AcDbSavedByObjectVersion
1070
     0
1000
AcDbSavedByObjectVersion
1070
     0
1000
AcDbSavedByObjectVersion
1070
     0
1000
AcDbSavedByObjectVersion
1070
     0
1000
AcDbSavedByObjectVersion
1070
     0
1000
AcDbSavedByObjectVersion
1070
     0
1000
AcDbSavedByObjectVersion
1070
     0
1000
AcDbSavedByObjectVersion
1070
     0
1000
AcDbSavedByObjectVersion
1070
     0
1000
AcDbSavedByObjectVersion
1070
     0
1000
AcDbSavedByObjectVersion
1070
     0
1000
AcDbSavedByObjectVersion
1070
     0
1000
AcDbSavedByObjectVersion
1070
     0
1000
AcDbSavedByObjectVersion
1070
     0
1000
AcDbSavedByObjectVersion
1070
     0
1000
AcDbSavedByObjectVersion
1070
     0
1000
AcDbSavedByObjectVersion
1070
     0
1000
AcDbSavedByObjectVersion
1070
     0
1000
AcDbSavedByObjectVersion
1070
     0
1000
AcDbSavedByObjectVersion
1070
     0
1000
AcDbSavedByObjectVersion
1070
     0
1000
AcDbSavedByObjectVersion
1070
     0
1000
AcDbSavedByObjectVersion
1070
     0
1000
AcDbSavedByObjectVersion
1070
     0
1000
AcDbSavedByObjectVersion
1070
     0
1000
AcDbSavedByObjectVersion
1070
     0
1000
AcDbSavedByObjectVersion
1070
     0
1000
AcDbSavedByObjectVersion
1070
     0
1000
AcDbSavedByObjectVersion
1070
     0
1000
AcDbSavedByObjectVersion
1070
     0
1000
AcDbSavedByObjectVersion
1070
     0
1000
AcDbSavedByObjectVersion
1070
     0
1000
AcDbSavedByObjectVersion
1070
     0
1000
AcDbSavedByObjectVersion
1070
     0
1000
AcDbSavedByObjectVersion
1070
     0
1000
AcDbSavedByObjectVersion
1070
     0
1000
AcDbSavedByObjectVersion
1070
     0
1000
AcDbSavedByObjectVersion
1070
     0
  0
VISUALSTYLE
  5
39
102
{ACAD_REACTORS
330
2A
102
}
330
2A
100
AcDbVisualStyle
  2
Facepattern
 70
    15
 71
     2
 72
     2
 73
     0
 90
        0
 40
-0.6
 41
-30.0
 62
     5
 63
     7
 74
     1
 91
        4
 64
     7
 65
   257
 75
     1
175
     1
 42
1.0
 92
        8
 66
     7
 43
1.0
 76
     1
 77
     6
 78
     2
 67
     7
 79
     5
170
     0
171
     0
290
     0
174
     0
 93
        1
 44
0.0
173
     0
291
     1
 45
0.0
1001
ACAD
1000
AcDbSavedByObjectVersion
1070
     0
1000
AcDbSavedByObjectVersion
1070
     0
1000
AcDbSavedByObjectVersion
1070
     0
1000
AcDbSavedByObjectVersion
1070
     0
1000
AcDbSavedByObjectVersion
1070
     0
1000
AcDbSavedByObjectVersion
1070
     0
1000
AcDbSavedByObjectVersion
1070
     0
1000
AcDbSavedByObjectVersion
1070
     0
1000
AcDbSavedByObjectVersion
1070
     0
1000
AcDbSavedByObjectVersion
1070
     0
1000
AcDbSavedByObjectVersion
1070
     0
1000
AcDbSavedByObjectVersion
1070
     0
1000
AcDbSavedByObjectVersion
1070
     0
1000
AcDbSavedByObjectVersion
1070
     0
1000
AcDbSavedByObjectVersion
1070
     0
1000
AcDbSavedByObjectVersion
1070
     0
1000
AcDbSavedByObjectVersion
1070
     0
1000
AcDbSavedByObjectVersion
1070
     0
1000
AcDbSavedByObjectVersion
1070
     0
1000
AcDbSavedByObjectVersion
1070
     0
1000
AcDbSavedByObjectVersion
1070
     0
1000
AcDbSavedByObjectVersion
1070
     0
1000
AcDbSavedByObjectVersion
1070
     0
1000
AcDbSavedByObjectVersion
1070
     0
1000
AcDbSavedByObjectVersion
1070
     0
1000
AcDbSavedByObjectVersion
1070
     0
1000
AcDbSavedByObjectVersion
1070
     0
1000
AcDbSavedByObjectVersion
1070
     0
1000
AcDbSavedByObjectVersion
1070
     0
1000
AcDbSavedByObjectVersion
1070
     0
1000
AcDbSavedByObjectVersion
1070
     0
1000
AcDbSavedByObjectVersion
1070
     0
1000
AcDbSavedByObjectVersion
1070
     0
1000
AcDbSavedByObjectVersion
1070
     0
1000
AcDbSavedByObjectVersion
1070
     0
1000
AcDbSavedByObjectVersion
1070
     0
1000
AcDbSavedByObjectVersion
1070
     0
1000
AcDbSavedByObjectVersion
1070
     0
1000
AcDbSavedByObjectVersion
1070
     0
1000
AcDbSavedByObjectVersion
1070
     0
1000
AcDbSavedByObjectVersion
1070
     0
1000
AcDbSavedByObjectVersion
1070
     0
1000
AcDbSavedByObjectVersion
1070
     0
1000
AcDbSavedByObjectVersion
1070
     0
1000
AcDbSavedByObjectVersion
1070
     0
1000
AcDbSavedByObjectVersion
1070
     0
1000
AcDbSavedByObjectVersion
1070
     0
1000
AcDbSavedByObjectVersion
1070
     0
1000
AcDbSavedByObjectVersion
1070
     0
1000
AcDbSavedByObjectVersion
1070
     0
1000
AcDbSavedByObjectVersion
1070
     0
1000
AcDbSavedByObjectVersion
1070
     0
1000
AcDbSavedByObjectVersion
1070
     0
1000
AcDbSavedByObjectVersion
1070
     0
  0
VISUALSTYLE
  5
2B
102
{ACAD_REACTORS
330
2A
102
}
330
2A
100
AcDbVisualStyle
  2
Flat
 70
     0
 71
     2
 72
     1
 73
     1
 90
        2
 40
-0.6
 41
30.0
 62
     5
 63
     7
 74
     0
 91
        4
 64
     7
 65
   257
 75
     1
175
     1
 42
1.0
 92
        8
 66
     7
 43
1.0
 76
     1
 77
     6
 78
     2
 67
     7
 79
     5
170
     0
171
     0
290
     0
174
     0
 93
       13
 44
0.0
173
     0
291
     1
 45
0.0
1001
ACAD
1000
AcDbSavedByObjectVersion
1070
     0
1000
AcDbSavedByObjectVersion
1070
     0
1000
AcDbSavedByObjectVersion
1070
     0
1000
AcDbSavedByObjectVersion
1070
     0
1000
AcDbSavedByObjectVersion
1070
     0
1000
AcDbSavedByObjectVersion
1070
     0
1000
AcDbSavedByObjectVersion
1070
     0
1000
AcDbSavedByObjectVersion
1070
     0
1000
AcDbSavedByObjectVersion
1070
     0
1000
AcDbSavedByObjectVersion
1070
     0
1000
AcDbSavedByObjectVersion
1070
     0
1000
AcDbSavedByObjectVersion
1070
     0
1000
AcDbSavedByObjectVersion
1070
     0
1000
AcDbSavedByObjectVersion
1070
     0
1000
AcDbSavedByObjectVersion
1070
     0
1000
AcDbSavedByObjectVersion
1070
     0
1000
AcDbSavedByObjectVersion
1070
     0
1000
AcDbSavedByObjectVersion
1070
     0
1000
AcDbSavedByObjectVersion
1070
     0
1000
AcDbSavedByObjectVersion
1070
     0
1000
AcDbSavedByObjectVersion
1070
     0
1000
AcDbSavedByObjectVersion
1070
     0
1000
AcDbSavedByObjectVersion
1070
     0
1000
AcDbSavedByObjectVersion
1070
     0
1000
AcDbSavedByObjectVersion
1070
     0
1000
AcDbSavedByObjectVersion
1070
     0
1000
AcDbSavedByObjectVersion
1070
     0
1000
AcDbSavedByObjectVersion
1070
     0
1000
AcDbSavedByObjectVersion
1070
     0
1000
AcDbSavedByObjectVersion
1070
     0
1000
AcDbSavedByObjectVersion
1070
     0
1000
AcDbSavedByObjectVersion
1070
     0
1000
AcDbSavedByObjectVersion
1070
     0
1000
AcDbSavedByObjectVersion
1070
     0
1000
AcDbSavedByObjectVersion
1070
     0
1000
AcDbSavedByObjectVersion
1070
     0
1000
AcDbSavedByObjectVersion
1070
     0
1000
AcDbSavedByObjectVersion
1070
     0
1000
AcDbSavedByObjectVersion
1070
     0
1000
AcDbSavedByObjectVersion
1070
     0
1000
AcDbSavedByObjectVersion
1070
     0
1000
AcDbSavedByObjectVersion
1070
     0
1000
AcDbSavedByObjectVersion
1070
     0
1000
AcDbSavedByObjectVersion
1070
     0
1000
AcDbSavedByObjectVersion
1070
     0
1000
AcDbSavedByObjectVersion
1070
     0
1000
AcDbSavedByObjectVersion
1070
     0
1000
AcDbSavedByObjectVersion
1070
     0
1000
AcDbSavedByObjectVersion
1070
     0
1000
AcDbSavedByObjectVersion
1070
     0
1000
AcDbSavedByObjectVersion
1070
     0
1000
AcDbSavedByObjectVersion
1070
     0
1000
AcDbSavedByObjectVersion
1070
     0
1000
AcDbSavedByObjectVersion
1070
     0
  0
VISUALSTYLE
  5
2C
102
{ACAD_REACTORS
330
2A
102
}
330
2A
100
AcDbVisualStyle
  2
FlatWithEdges
 70
     1
 71
     2
 72
     1
 73
     1
 90
        2
 40
-0.6
 41
30.0
 62
     5
 63
     7
 74
     1
 91
        4
 64
     7
 65
   257
 75
     1
175
     1
 42
1.0
 92
        0
 66
   257
 43
1.0
 76
     1
 77
     6
 78
     2
 67
     7
 79
     5
170
     0
171
     0
290
     0
174
     0
 93
       13
 44
0.0
173
     0
291
     1
 45
0.0
1001
ACAD
1000
AcDbSavedByObjectVersion
1070
     0
1000
AcDbSavedByObjectVersion
1070
     0
1000
AcDbSavedByObjectVersion
1070
     0
1000
AcDbSavedByObjectVersion
1070
     0
1000
AcDbSavedByObjectVersion
1070
     0
1000
AcDbSavedByObjectVersion
1070
     0
1000
AcDbSavedByObjectVersion
1070
     0
1000
AcDbSavedByObjectVersion
1070
     0
1000
AcDbSavedByObjectVersion
1070
     0
1000
AcDbSavedByObjectVersion
1070
     0
1000
AcDbSavedByObjectVersion
1070
     0
1000
AcDbSavedByObjectVersion
1070
     0
1000
AcDbSavedByObjectVersion
1070
     0
1000
AcDbSavedByObjectVersion
1070
     0
1000
AcDbSavedByObjectVersion
1070
     0
1000
AcDbSavedByObjectVersion
1070
     0
1000
AcDbSavedByObjectVersion
1070
     0
1000
AcDbSavedByObjectVersion
1070
     0
1000
AcDbSavedByObjectVersion
1070
     0
1000
AcDbSavedByObjectVersion
1070
     0
1000
AcDbSavedByObjectVersion
1070
     0
1000
AcDbSavedByObjectVersion
1070
     0
1000
AcDbSavedByObjectVersion
1070
     0
1000
AcDbSavedByObjectVersion
1070
     0
1000
AcDbSavedByObjectVersion
1070
     0
1000
AcDbSavedByObjectVersion
1070
     0
1000
AcDbSavedByObjectVersion
1070
     0
1000
AcDbSavedByObjectVersion
1070
     0
1000
AcDbSavedByObjectVersion
1070
     0
1000
AcDbSavedByObjectVersion
1070
     0
1000
AcDbSavedByObjectVersion
1070
     0
1000
AcDbSavedByObjectVersion
1070
     0
1000
AcDbSavedByObjectVersion
1070
     0
1000
AcDbSavedByObjectVersion
1070
     0
1000
AcDbSavedByObjectVersion
1070
     0
1000
AcDbSavedByObjectVersion
1070
     0
1000
AcDbSavedByObjectVersion
1070
     0
1000
AcDbSavedByObjectVersion
1070
     0
1000
AcDbSavedByObjectVersion
1070
     0
1000
AcDbSavedByObjectVersion
1070
     0
1000
AcDbSavedByObjectVersion
1070
     0
1000
AcDbSavedByObjectVersion
1070
     0
1000
AcDbSavedByObjectVersion
1070
     0
1000
AcDbSavedByObjectVersion
1070
     0
1000
AcDbSavedByObjectVersion
1070
     0
1000
AcDbSavedByObjectVersion
1070
     0
1000
AcDbSavedByObjectVersion
1070
     0
1000
AcDbSavedByObjectVersion
1070
     0
1000
AcDbSavedByObjectVersion
1070
     0
1000
AcDbSavedByObjectVersion
1070
     0
1000
AcDbSavedByObjectVersion
1070
     0
1000
AcDbSavedByObjectVersion
1070
     0
1000
AcDbSavedByObjectVersion
1070
     0
1000
AcDbSavedByObjectVersion
1070
     0
  0
VISUALSTYLE
  5
2D
102
{ACAD_REACTORS
330
2A
102
}
330
2A
100
AcDbVisualStyle
  2
Gouraud
 70
     2
 71
     2
 72
     2
 73
     1
 90
        2
 40
-0.6
 41
30.0
 62
     5
 63
     7
 74
     0
 91
        4
 64
     7
 65
   257
 75
     1
175
     1
 42
1.0
 92
        0
 66
     7
 43
1.0
 76
     1
 77
     6
 78
     2
 67
     7
 79
     5
170
     0
171
     0
290
     0
174
     0
 93
       13
 44
0.0
173
     0
291
     1
 45
0.0
1001
ACAD
1000
AcDbSavedByObjectVersion
1070
     0
1000
AcDbSavedByObjectVersion
1070
     0
1000
AcDbSavedByObjectVersion
1070
     0
1000
AcDbSavedByObjectVersion
1070
     0
1000
AcDbSavedByObjectVersion
1070
     0
1000
AcDbSavedByObjectVersion
1070
     0
1000
AcDbSavedByObjectVersion
1070
     0
1000
AcDbSavedByObjectVersion
1070
     0
1000
AcDbSavedByObjectVersion
1070
     0
1000
AcDbSavedByObjectVersion
1070
     0
1000
AcDbSavedByObjectVersion
1070
     0
1000
AcDbSavedByObjectVersion
1070
     0
1000
AcDbSavedByObjectVersion
1070
     0
1000
AcDbSavedByObjectVersion
1070
     0
1000
AcDbSavedByObjectVersion
1070
     0
1000
AcDbSavedByObjectVersion
1070
     0
1000
AcDbSavedByObjectVersion
1070
     0
1000
AcDbSavedByObjectVersion
1070
     0
1000
AcDbSavedByObjectVersion
1070
     0
1000
AcDbSavedByObjectVersion
1070
     0
1000
AcDbSavedByObjectVersion
1070
     0
1000
AcDbSavedByObjectVersion
1070
     0
1000
AcDbSavedByObjectVersion
1070
     0
1000
AcDbSavedByObjectVersion
1070
     0
1000
AcDbSavedByObjectVersion
1070
     0
1000
AcDbSavedByObjectVersion
1070
     0
1000
AcDbSavedByObjectVersion
1070
     0
1000
AcDbSavedByObjectVersion
1070
     0
1000
AcDbSavedByObjectVersion
1070
     0
1000
AcDbSavedByObjectVersion
1070
     0
1000
AcDbSavedByObjectVersion
1070
     0
1000
AcDbSavedByObjectVersion
1070
     0
1000
AcDbSavedByObjectVersion
1070
     0
1000
AcDbSavedByObjectVersion
1070
     0
1000
AcDbSavedByObjectVersion
1070
     0
1000
AcDbSavedByObjectVersion
1070
     0
1000
AcDbSavedByObjectVersion
1070
     0
1000
AcDbSavedByObjectVersion
1070
     0
1000
AcDbSavedByObjectVersion
1070
     0
1000
AcDbSavedByObjectVersion
1070
     0
1000
AcDbSavedByObjectVersion
1070
     0
1000
AcDbSavedByObjectVersion
1070
     0
1000
AcDbSavedByObjectVersion
1070
     0
1000
AcDbSavedByObjectVersion
1070
     0
1000
AcDbSavedByObjectVersion
1070
     0
1000
AcDbSavedByObjectVersion
1070
     0
1000
AcDbSavedByObjectVersion
1070
     0
1000
AcDbSavedByObjectVersion
1070
     0
1000
AcDbSavedByObjectVersion
1070
     0
1000
AcDbSavedByObjectVersion
1070
     0
1000
AcDbSavedByObjectVersion
1070
     0
1000
AcDbSavedByObjectVersion
1070
     0
1000
AcDbSavedByObjectVersion
1070
     0
1000
AcDbSavedByObjectVersion
1070
     0
  0
VISUALSTYLE
  5
2E
102
{ACAD_REACTORS
330
2A
102
}
330
2A
100
AcDbVisualStyle
  2
GouraudWithEdges
 70
     3
 71
     2
 72
     2
 73
     1
 90
        2
 40
-0.6
 41
30.0
 62
     5
 63
     7
 74
     1
 91
        4
 64
     7
 65
   257
 75
     1
175
     1
 42
1.0
 92
        0
 66
   257
 43
1.0
 76
     1
 77
     6
 78
     2
 67
     7
 79
     5
170
     0
171
     0
290
     0
174
     0
 93
       13
 44
0.0
173
     0
291
     1
 45
0.0
1001
ACAD
1000
AcDbSavedByObjectVersion
1070
     0
1000
AcDbSavedByObjectVersion
1070
     0
1000
AcDbSavedByObjectVersion
1070
     0
1000
AcDbSavedByObjectVersion
1070
     0
1000
AcDbSavedByObjectVersion
1070
     0
1000
AcDbSavedByObjectVersion
1070
     0
1000
AcDbSavedByObjectVersion
1070
     0
1000
AcDbSavedByObjectVersion
1070
     0
1000
AcDbSavedByObjectVersion
1070
     0
1000
AcDbSavedByObjectVersion
1070
     0
1000
AcDbSavedByObjectVersion
1070
     0
1000
AcDbSavedByObjectVersion
1070
     0
1000
AcDbSavedByObjectVersion
1070
     0
1000
AcDbSavedByObjectVersion
1070
     0
1000
AcDbSavedByObjectVersion
1070
     0
1000
AcDbSavedByObjectVersion
1070
     0
1000
AcDbSavedByObjectVersion
1070
     0
1000
AcDbSavedByObjectVersion
1070
     0
1000
AcDbSavedByObjectVersion
1070
     0
1000
AcDbSavedByObjectVersion
1070
     0
1000
AcDbSavedByObjectVersion
1070
     0
1000
AcDbSavedByObjectVersion
1070
     0
1000
AcDbSavedByObjectVersion
1070
     0
1000
AcDbSavedByObjectVersion
1070
     0
1000
AcDbSavedByObjectVersion
1070
     0
1000
AcDbSavedByObjectVersion
1070
     0
1000
AcDbSavedByObjectVersion
1070
     0
1000
AcDbSavedByObjectVersion
1070
     0
1000
AcDbSavedByObjectVersion
1070
     0
1000
AcDbSavedByObjectVersion
1070
     0
1000
AcDbSavedByObjectVersion
1070
     0
1000
AcDbSavedByObjectVersion
1070
     0
1000
AcDbSavedByObjectVersion
1070
     0
1000
AcDbSavedByObjectVersion
1070
     0
1000
AcDbSavedByObjectVersion
1070
     0
1000
AcDbSavedByObjectVersion
1070
     0
1000
AcDbSavedByObjectVersion
1070
     0
1000
AcDbSavedByObjectVersion
1070
     0
1000
AcDbSavedByObjectVersion
1070
     0
1000
AcDbSavedByObjectVersion
1070
     0
1000
AcDbSavedByObjectVersion
1070
     0
1000
AcDbSavedByObjectVersion
1070
     0
1000
AcDbSavedByObjectVersion
1070
     0
1000
AcDbSavedByObjectVersion
1070
     0
1000
AcDbSavedByObjectVersion
1070
     0
1000
AcDbSavedByObjectVersion
1070
     0
1000
AcDbSavedByObjectVersion
1070
     0
1000
AcDbSavedByObjectVersion
1070
     0
1000
AcDbSavedByObjectVersion
1070
     0
1000
AcDbSavedByObjectVersion
1070
     0
1000
AcDbSavedByObjectVersion
1070
     0
1000
AcDbSavedByObjectVersion
1070
     0
1000
AcDbSavedByObjectVersion
1070
     0
1000
AcDbSavedByObjectVersion
1070
     0
  0
VISUALSTYLE
  5
38
102
{ACAD_REACTORS
330
2A
102
}
330
2A
100
AcDbVisualStyle
  2
Linepattern
 70
    14
 71
     2
 72
     2
 73
     0
 90
        0
 40
-0.6
 41
-30.0
 62
     5
 63
     7
 74
     1
 91
        4
 64
     7
 65
   257
 75
     7
175
     7
 42
1.0
 92
        8
 66
     7
 43
1.0
 76
     1
 77
     6
 78
     2
 67
     7
 79
     5
170
     0
171
     0
290
     0
174
     0
 93
        1
 44
0.0
173
     0
291
     1
 45
0.0
1001
ACAD
1000
AcDbSavedByObjectVersion
1070
     0
1000
AcDbSavedByObjectVersion
1070
     0
1000
AcDbSavedByObjectVersion
1070
     0
1000
AcDbSavedByObjectVersion
1070
     0
1000
AcDbSavedByObjectVersion
1070
     0
1000
AcDbSavedByObjectVersion
1070
     0
1000
AcDbSavedByObjectVersion
1070
     0
1000
AcDbSavedByObjectVersion
1070
     0
1000
AcDbSavedByObjectVersion
1070
     0
1000
AcDbSavedByObjectVersion
1070
     0
1000
AcDbSavedByObjectVersion
1070
     0
1000
AcDbSavedByObjectVersion
1070
     0
1000
AcDbSavedByObjectVersion
1070
     0
1000
AcDbSavedByObjectVersion
1070
     0
1000
AcDbSavedByObjectVersion
1070
     0
1000
AcDbSavedByObjectVersion
1070
     0
1000
AcDbSavedByObjectVersion
1070
     0
1000
AcDbSavedByObjectVersion
1070
     0
1000
AcDbSavedByObjectVersion
1070
     0
1000
AcDbSavedByObjectVersion
1070
     0
1000
AcDbSavedByObjectVersion
1070
     0
1000
AcDbSavedByObjectVersion
1070
     0
1000
AcDbSavedByObjectVersion
1070
     0
1000
AcDbSavedByObjectVersion
1070
     0
1000
AcDbSavedByObjectVersion
1070
     0
1000
AcDbSavedByObjectVersion
1070
     0
1000
AcDbSavedByObjectVersion
1070
     0
1000
AcDbSavedByObjectVersion
1070
     0
1000
AcDbSavedByObjectVersion
1070
     0
1000
AcDbSavedByObjectVersion
1070
     0
1000
AcDbSavedByObjectVersion
1070
     0
1000
AcDbSavedByObjectVersion
1070
     0
1000
AcDbSavedByObjectVersion
1070
     0
1000
AcDbSavedByObjectVersion
1070
     0
1000
AcDbSavedByObjectVersion
1070
     0
1000
AcDbSavedByObjectVersion
1070
     0
1000
AcDbSavedByObjectVersion
1070
     0
1000
AcDbSavedByObjectVersion
1070
     0
1000
AcDbSavedByObjectVersion
1070
     0
1000
AcDbSavedByObjectVersion
1070
     0
1000
AcDbSavedByObjectVersion
1070
     0
1000
AcDbSavedByObjectVersion
1070
     0
1000
AcDbSavedByObjectVersion
1070
     0
1000
AcDbSavedByObjectVersion
1070
     0
1000
AcDbSavedByObjectVersion
1070
     0
1000
AcDbSavedByObjectVersion
1070
     0
1000
AcDbSavedByObjectVersion
1070
     0
1000
AcDbSavedByObjectVersion
1070
     0
1000
AcDbSavedByObjectVersion
1070
     0
1000
AcDbSavedByObjectVersion
1070
     0
1000
AcDbSavedByObjectVersion
1070
     0
1000
AcDbSavedByObjectVersion
1070
     0
1000
AcDbSavedByObjectVersion
1070
     0
1000
AcDbSavedByObjectVersion
1070
     0
  0
VISUALSTYLE
  5
33
102
{ACAD_REACTORS
330
2A
102
}
330
2A
100
AcDbVisualStyle
  2
Realistic
 70
     8
 71
     2
 72
     2
 73
     0
 90
        0
 40
-0.6
 41
-30.0
 62
     5
 63
     7
 74
     1
 91
        0
 64
     7
 65
   257
 75
     1
175
     1
 42
1.0
 92
        8
 66
     8
 43
1.0
 76
     1
 77
     6
 78
     2
 67
     7
 79
     5
170
     0
171
     0
290
     0
174
     0
 93
       13
 44
0.0
173
     0
291
     0
 45
0.0
1001
ACAD
1000
AcDbSavedByObjectVersion
1070
     0
1000
AcDbSavedByObjectVersion
1070
     0
1000
AcDbSavedByObjectVersion
1070
     0
1000
AcDbSavedByObjectVersion
1070
     0
1000
AcDbSavedByObjectVersion
1070
     0
1000
AcDbSavedByObjectVersion
1070
     0
1000
AcDbSavedByObjectVersion
1070
     0
1000
AcDbSavedByObjectVersion
1070
     0
1000
AcDbSavedByObjectVersion
1070
     0
1000
AcDbSavedByObjectVersion
1070
     0
1000
AcDbSavedByObjectVersion
1070
     0
1000
AcDbSavedByObjectVersion
1070
     0
1000
AcDbSavedByObjectVersion
1070
     0
1000
AcDbSavedByObjectVersion
1070
     0
1000
AcDbSavedByObjectVersion
1070
     0
1000
AcDbSavedByObjectVersion
1070
     0
1000
AcDbSavedByObjectVersion
1070
     0
1000
AcDbSavedByObjectVersion
1070
     0
1000
AcDbSavedByObjectVersion
1070
     0
1000
AcDbSavedByObjectVersion
1070
     0
1000
AcDbSavedByObjectVersion
1070
     0
1000
AcDbSavedByObjectVersion
1070
     0
1000
AcDbSavedByObjectVersion
1070
     0
1000
AcDbSavedByObjectVersion
1070
     0
1000
AcDbSavedByObjectVersion
1070
     0
1000
AcDbSavedByObjectVersion
1070
     0
1000
AcDbSavedByObjectVersion
1070
     0
1000
AcDbSavedByObjectVersion
1070
     0
1000
AcDbSavedByObjectVersion
1070
     0
1000
AcDbSavedByObjectVersion
1070
     0
1000
AcDbSavedByObjectVersion
1070
     0
1000
AcDbSavedByObjectVersion
1070
     0
1000
AcDbSavedByObjectVersion
1070
     0
1000
AcDbSavedByObjectVersion
1070
     0
1000
AcDbSavedByObjectVersion
1070
     0
1000
AcDbSavedByObjectVersion
1070
     0
1000
AcDbSavedByObjectVersion
1070
     0
1000
AcDbSavedByObjectVersion
1070
     0
1000
AcDbSavedByObjectVersion
1070
     0
1000
AcDbSavedByObjectVersion
1070
     0
1000
AcDbSavedByObjectVersion
1070
     0
1000
AcDbSavedByObjectVersion
1070
     0
1000
AcDbSavedByObjectVersion
1070
     0
1000
AcDbSavedByObjectVersion
1070
     0
1000
AcDbSavedByObjectVersion
1070
     0
1000
AcDbSavedByObjectVersion
1070
     0
1000
AcDbSavedByObjectVersion
1070
     0
1000
AcDbSavedByObjectVersion
1070
     0
1000
AcDbSavedByObjectVersion
1070
     0
1000
AcDbSavedByObjectVersion
1070
     0
1000
AcDbSavedByObjectVersion
1070
     0
1000
AcDbSavedByObjectVersion
1070
     0
1000
AcDbSavedByObjectVersion
1070
     0
1000
AcDbSavedByObjectVersion
1070
     0
  0
VISUALSTYLE
  5
37
102
{ACAD_REACTORS
330
2A
102
}
330
2A
100
AcDbVisualStyle
  2
Thicken
 70
    13
 71
     2
 72
     2
 73
     0
 90
        0
 40
-0.6
 41
-30.0
 62
     5
 63
     7
 74
     1
 91
        4
 64
     7
 65
   257
 75
     1
175
     1
 42
1.0
 92
       12
 66
     7
 43
1.0
 76
     1
 77
     6
 78
     2
 67
     7
 79
     5
170
     0
171
     0
290
     0
174
     0
 93
        1
 44
0.0
173
     0
291
     1
 45
0.0
1001
ACAD
1000
AcDbSavedByObjectVersion
1070
     0
1000
AcDbSavedByObjectVersion
1070
     0
1000
AcDbSavedByObjectVersion
1070
     0
1000
AcDbSavedByObjectVersion
1070
     0
1000
AcDbSavedByObjectVersion
1070
     0
1000
AcDbSavedByObjectVersion
1070
     0
1000
AcDbSavedByObjectVersion
1070
     0
1000
AcDbSavedByObjectVersion
1070
     0
1000
AcDbSavedByObjectVersion
1070
     0
1000
AcDbSavedByObjectVersion
1070
     0
1000
AcDbSavedByObjectVersion
1070
     0
1000
AcDbSavedByObjectVersion
1070
     0
1000
AcDbSavedByObjectVersion
1070
     0
1000
AcDbSavedByObjectVersion
1070
     0
1000
AcDbSavedByObjectVersion
1070
     0
1000
AcDbSavedByObjectVersion
1070
     0
1000
AcDbSavedByObjectVersion
1070
     0
1000
AcDbSavedByObjectVersion
1070
     0
1000
AcDbSavedByObjectVersion
1070
     0
1000
AcDbSavedByObjectVersion
1070
     0
1000
AcDbSavedByObjectVersion
1070
     0
1000
AcDbSavedByObjectVersion
1070
     0
1000
AcDbSavedByObjectVersion
1070
     0
1000
AcDbSavedByObjectVersion
1070
     0
1000
AcDbSavedByObjectVersion
1070
     0
1000
AcDbSavedByObjectVersion
1070
     0
1000
AcDbSavedByObjectVersion
1070
     0
1000
AcDbSavedByObjectVersion
1070
     0
1000
AcDbSavedByObjectVersion
1070
     0
1000
AcDbSavedByObjectVersion
1070
     0
1000
AcDbSavedByObjectVersion
1070
     0
1000
AcDbSavedByObjectVersion
1070
     0
1000
AcDbSavedByObjectVersion
1070
     0
1000
AcDbSavedByObjectVersion
1070
     0
1000
AcDbSavedByObjectVersion
1070
     0
1000
AcDbSavedByObjectVersion
1070
     0
1000
AcDbSavedByObjectVersion
1070
     0
1000
AcDbSavedByObjectVersion
1070
     0
1000
AcDbSavedByObjectVersion
1070
     0
1000
AcDbSavedByObjectVersion
1070
     0
1000
AcDbSavedByObjectVersion
1070
     0
1000
AcDbSavedByObjectVersion
1070
     0
1000
AcDbSavedByObjectVersion
1070
     0
1000
AcDbSavedByObjectVersion
1070
     0
1000
AcDbSavedByObjectVersion
1070
     0
1000
AcDbSavedByObjectVersion
1070
     0
1000
AcDbSavedByObjectVersion
1070
     0
1000
AcDbSavedByObjectVersion
1070
     0
1000
AcDbSavedByObjectVersion
1070
     0
1000
AcDbSavedByObjectVersion
1070
     0
1000
AcDbSavedByObjectVersion
1070
     0
1000
AcDbSavedByObjectVersion
1070
     0
1000
AcDbSavedByObjectVersion
1070
     0
1000
AcDbSavedByObjectVersion
1070
     0
  0
DICTIONARYVAR
  5
510B
102
{ACAD_REACTORS
330
5108
102
}
330
5108
100
DictionaryVariables
280
     0
  1
1:1
  0
DICTIONARYVAR
  5
510A
102
{ACAD_REACTORS
330
5108
102
}
330
5108
100
DictionaryVariables
280
     0
  1
STANDARD
  0
DICTIONARYVAR
  5
5109
102
{ACAD_REACTORS
330
5108
102
}
330
5108
100
DictionaryVariables
280
     0
  1
STANDARD
  0
DICTIONARYVAR
  5
510E
102
{ACAD_REACTORS
330
5108
102
}
330
5108
100
DictionaryVariables
280
     0
  1
1
  0
DICTIONARYVAR
  5
510D
102
{ACAD_REACTORS
330
5108
102
}
330
5108
100
DictionaryVariables
280
     0
  1
0
  0
DICTIONARYVAR
  5
147C4
102
{ACAD_REACTORS
330
5108
102
}
330
5108
100
DictionaryVariables
280
     0
  1
0
  0
DICTIONARYVAR
  5
147C3
102
{ACAD_REACTORS
330
5108
102
}
330
5108
100
DictionaryVariables
280
     0
  1
0
  0
DICTIONARYVAR
  5
510C
102
{ACAD_REACTORS
330
5108
102
}
330
5108
100
DictionaryVariables
280
     0
  1
127
  0
XRECORD
  5
14144
102
{ACAD_REACTORS
330
14143
102
}
330
14143
100
AcDbXrecord
280
     1
330
13EBE
  0
DICTIONARY
  5
4FEF
330
4FEE
100
AcDbDictionary
280
     1
281
     1
  3
ACAD_XREC_ROUNDTRIP
360
7C2C
  3
BUMPTILE
360
4FF1
  3
DIFFUSETILE
360
4FF0
  3
OPACITYTILE
360
4FF4
  3
REFLECTIONTILE
360
4FF3
  3
REFRACTIONTILE
360
4FF5
  3
SPECULARTILE
360
4FF2
  0
DICTIONARY
  5
4FE7
330
4FE6
100
AcDbDictionary
280
     1
281
     1
  3
ACAD_XREC_ROUNDTRIP
360
7C2B
  3
BUMPTILE
360
4FE9
  3
DIFFUSETILE
360
4FE8
  3
OPACITYTILE
360
4FEC
  3
REFLECTIONTILE
360
4FEB
  3
REFRACTIONTILE
360
4FED
  3
SPECULARTILE
360
4FEA
  0
DICTIONARY
  5
4FF7
330
4FF6
100
AcDbDictionary
280
     1
281
     1
  3
ACAD_XREC_ROUNDTRIP
360
7C2D
  3
BUMPTILE
360
4FF9
  3
DIFFUSETILE
360
4FF8
  3
OPACITYTILE
360
4FFC
  3
REFLECTIONTILE
360
4FFB
  3
REFRACTIONTILE
360
4FFD
  3
SPECULARTILE
360
4FFA
  0
DICTIONARY
  5
50D6
330
4FFF
100
AcDbDictionary
280
     1
281
     1
  3
ACAD_ROUNDTRIP_2008_TABLESTYLE_CELLSTYLEMAP
360
147C5
  0
XRECORD
  5
7C2C
102
{ACAD_REACTORS
330
4FEF
102
}
330
4FEF
100
AcDbXrecord
280
     1
102
MATERIAL
148
0.0
149
0.0
149
0.0
 93
        0
 94
      127
282
     0
 72
     0
 77
     0
171
     0
175
     0
179
     0
273
     0
  0
XRECORD
  5
4FF1
102
{ACAD_REACTORS
330
4FEF
102
}
330
4FEF
100
AcDbXrecord
280
     1
270
     1
271
     1
  0
XRECORD
  5
4FF0
102
{ACAD_REACTORS
330
4FEF
102
}
330
4FEF
100
AcDbXrecord
280
     1
270
     1
271
     1
  0
XRECORD
  5
4FF4
102
{ACAD_REACTORS
330
4FEF
102
}
330
4FEF
100
AcDbXrecord
280
     1
270
     1
271
     1
  0
XRECORD
  5
4FF3
102
{ACAD_REACTORS
330
4FEF
102
}
330
4FEF
100
AcDbXrecord
280
     1
270
     1
271
     1
  0
XRECORD
  5
4FF5
102
{ACAD_REACTORS
330
4FEF
102
}
330
4FEF
100
AcDbXrecord
280
     1
270
     1
271
     1
  0
XRECORD
  5
4FF2
102
{ACAD_REACTORS
330
4FEF
102
}
330
4FEF
100
AcDbXrecord
280
     1
270
     1
271
     1
  0
XRECORD
  5
7C2B
102
{ACAD_REACTORS
330
4FE7
102
}
330
4FE7
100
AcDbXrecord
280
     1
102
MATERIAL
148
0.0
149
0.0
149
0.0
 93
        0
 94
      127
282
     0
 72
     0
 77
     0
171
     0
175
     0
179
     0
273
     0
  0
XRECORD
  5
4FE9
102
{ACAD_REACTORS
330
4FE7
102
}
330
4FE7
100
AcDbXrecord
280
     1
270
     1
271
     1
  0
XRECORD
  5
4FE8
102
{ACAD_REACTORS
330
4FE7
102
}
330
4FE7
100
AcDbXrecord
280
     1
270
     1
271
     1
  0
XRECORD
  5
4FEC
102
{ACAD_REACTORS
330
4FE7
102
}
330
4FE7
100
AcDbXrecord
280
     1
270
     1
271
     1
  0
XRECORD
  5
4FEB
102
{ACAD_REACTORS
330
4FE7
102
}
330
4FE7
100
AcDbXrecord
280
     1
270
     1
271
     1
  0
XRECORD
  5
4FED
102
{ACAD_REACTORS
330
4FE7
102
}
330
4FE7
100
AcDbXrecord
280
     1
270
     1
271
     1
  0
XRECORD
  5
4FEA
102
{ACAD_REACTORS
330
4FE7
102
}
330
4FE7
100
AcDbXrecord
280
     1
270
     1
271
     1
  0
XRECORD
  5
7C2D
102
{ACAD_REACTORS
330
4FF7
102
}
330
4FF7
100
AcDbXrecord
280
     1
102
MATERIAL
148
0.0
149
0.0
149
0.0
 93
        0
 94
      127
282
     0
 72
     0
 77
     0
171
     0
175
     0
179
     0
273
     0
  0
XRECORD
  5
4FF9
102
{ACAD_REACTORS
330
4FF7
102
}
330
4FF7
100
AcDbXrecord
280
     1
270
     1
271
     1
  0
XRECORD
  5
4FF8
102
{ACAD_REACTORS
330
4FF7
102
}
330
4FF7
100
AcDbXrecord
280
     1
270
     1
271
     1
  0
XRECORD
  5
4FFC
102
{ACAD_REACTORS
330
4FF7
102
}
330
4FF7
100
AcDbXrecord
280
     1
270
     1
271
     1
  0
XRECORD
  5
4FFB
102
{ACAD_REACTORS
330
4FF7
102
}
330
4FF7
100
AcDbXrecord
280
     1
270
     1
271
     1
  0
XRECORD
  5
4FFD
102
{ACAD_REACTORS
330
4FF7
102
}
330
4FF7
100
AcDbXrecord
280
     1
270
     1
271
     1
  0
XRECORD
  5
4FFA
102
{ACAD_REACTORS
330
4FF7
102
}
330
4FF7
100
AcDbXrecord
280
     1
270
     1
271
     1
  0
CELLSTYLEMAP
  5
147C5
102
{ACAD_REACTORS
330
50D6
102
}
330
50D6
100
AcDbCellStyleMap
 90
        3
300
CELLSTYLE
  1
TABLEFORMAT_BEGIN
 90
        5
170
     1
 91
        0
 92
    32768
 62
   257
 93
        1
300
CONTENTFORMAT
  1
CONTENTFORMAT_BEGIN
 90
        0
 91
        0
 92
      512
 93
        0
300

 40
0.0
140
1.0
 94
        5
 62
     0
340
11
144
0.25
309
CONTENTFORMAT_END
171
     1
301
MARGIN
  1
CELLMARGIN_BEGIN
 40
0.06
 40
0.06
 40
0.06
 40
0.06
 40
0.18
 40
0.18
309
CELLMARGIN_END
 94
        6
 95
        1
302
GRIDFORMAT
  1
GRIDFORMAT_BEGIN
 90
        0
 91
        1
 62
     0
 92
       -2
340
0
 93
        0
 40
0.045
309
GRIDFORMAT_END
 95
        2
302
GRIDFORMAT
  1
GRIDFORMAT_BEGIN
 90
        0
 91
        1
 62
     0
 92
       -2
340
0
 93
        0
 40
0.045
309
GRIDFORMAT_END
 95
        4
302
GRIDFORMAT
  1
GRIDFORMAT_BEGIN
 90
        0
 91
        1
 62
     0
 92
       -2
340
0
 93
        0
 40
0.045
309
GRIDFORMAT_END
 95
        8
302
GRIDFORMAT
  1
GRIDFORMAT_BEGIN
 90
        0
 91
        1
 62
     0
 92
       -2
340
0
 93
        0
 40
0.045
309
GRIDFORMAT_END
 95
       16
302
GRIDFORMAT
  1
GRIDFORMAT_BEGIN
 90
        0
 91
        1
 62
     0
 92
       -2
340
0
 93
        0
 40
0.045
309
GRIDFORMAT_END
 95
       32
302
GRIDFORMAT
  1
GRIDFORMAT_BEGIN
 90
        0
 91
        1
 62
     0
 92
       -2
340
0
 93
        0
 40
0.045
309
GRIDFORMAT_END
309
TABLEFORMAT_END
  1
CELLSTYLE_BEGIN
 90
        1
 91
        1
300
_TITLE
309
CELLSTYLE_END
300
CELLSTYLE
  1
TABLEFORMAT_BEGIN
 90
        5
170
     1
 91
        0
 92
        0
 62
   257
 93
        1
300
CONTENTFORMAT
  1
CONTENTFORMAT_BEGIN
 90
        0
 91
        0
 92
      512
 93
        0
300

 40
0.0
140
1.0
 94
        5
 62
     0
340
11
144
0.18
309
CONTENTFORMAT_END
171
     1
301
MARGIN
  1
CELLMARGIN_BEGIN
 40
0.06
 40
0.06
 40
0.06
 40
0.06
 40
0.18
 40
0.18
309
CELLMARGIN_END
 94
        6
 95
        1
302
GRIDFORMAT
  1
GRIDFORMAT_BEGIN
 90
        0
 91
        1
 62
     0
 92
       -2
340
0
 93
        0
 40
0.045
309
GRIDFORMAT_END
 95
        2
302
GRIDFORMAT
  1
GRIDFORMAT_BEGIN
 90
        0
 91
        1
 62
     0
 92
       -2
340
0
 93
        0
 40
0.045
309
GRIDFORMAT_END
 95
        4
302
GRIDFORMAT
  1
GRIDFORMAT_BEGIN
 90
        0
 91
        1
 62
     0
 92
       -2
340
0
 93
        0
 40
0.045
309
GRIDFORMAT_END
 95
        8
302
GRIDFORMAT
  1
GRIDFORMAT_BEGIN
 90
        0
 91
        1
 62
     0
 92
       -2
340
0
 93
        0
 40
0.045
309
GRIDFORMAT_END
 95
       16
302
GRIDFORMAT
  1
GRIDFORMAT_BEGIN
 90
        0
 91
        1
 62
     0
 92
       -2
340
0
 93
        0
 40
0.045
309
GRIDFORMAT_END
 95
       32
302
GRIDFORMAT
  1
GRIDFORMAT_BEGIN
 90
        0
 91
        1
 62
     0
 92
       -2
340
0
 93
        0
 40
0.045
309
GRIDFORMAT_END
309
TABLEFORMAT_END
  1
CELLSTYLE_BEGIN
 90
        2
 91
        1
300
_HEADER
309
CELLSTYLE_END
300
CELLSTYLE
  1
TABLEFORMAT_BEGIN
 90
        5
170
     1
 91
        0
 92
        0
 62
   257
 93
        1
300
CONTENTFORMAT
  1
CONTENTFORMAT_BEGIN
 90
        0
 91
        0
 92
      512
 93
        0
300

 40
0.0
140
1.0
 94
        2
 62
     0
340
11
144
0.18
309
CONTENTFORMAT_END
171
     1
301
MARGIN
  1
CELLMARGIN_BEGIN
 40
0.06
 40
0.06
 40
0.06
 40
0.06
 40
0.18
 40
0.18
309
CELLMARGIN_END
 94
        6
 95
        1
302
GRIDFORMAT
  1
GRIDFORMAT_BEGIN
 90
        0
 91
        1
 62
     0
 92
       -2
340
0
 93
        0
 40
0.045
309
GRIDFORMAT_END
 95
        2
302
GRIDFORMAT
  1
GRIDFORMAT_BEGIN
 90
        0
 91
        1
 62
     0
 92
       -2
340
0
 93
        0
 40
0.045
309
GRIDFORMAT_END
 95
        4
302
GRIDFORMAT
  1
GRIDFORMAT_BEGIN
 90
        0
 91
        1
 62
     0
 92
       -2
340
0
 93
        0
 40
0.045
309
GRIDFORMAT_END
 95
        8
302
GRIDFORMAT
  1
GRIDFORMAT_BEGIN
 90
        0
 91
        1
 62
     0
 92
       -2
340
0
 93
        0
 40
0.045
309
GRIDFORMAT_END
 95
       16
302
GRIDFORMAT
  1
GRIDFORMAT_BEGIN
 90
        0
 91
        1
 62
     0
 92
       -2
340
0
 93
        0
 40
0.045
309
GRIDFORMAT_END
 95
       32
302
GRIDFORMAT
  1
GRIDFORMAT_BEGIN
 90
        0
 91
        1
 62
     0
 92
       -2
340
0
 93
        0
 40
0.045
309
GRIDFORMAT_END
309
TABLEFORMAT_END
  1
CELLSTYLE_BEGIN
 90
        3
 91
        2
300
_DATA
309
CELLSTYLE_END
  0
ENDSEC
  0
EOF
