  0
SECTION
  2
HEADER
  9
$ACADVER
  1
AC1021
  9
$ACADMAINTVER
 70
    25
  9
$DWGCODEPAGE
  3
ANSI_936
  9
$LASTSAVEDBY
  1
zb.ye
  9
$INSBASE
 10
0.0
 20
0.0
 30
0.0
  9
$EXTMIN
 10
760.5731076046526
 20
183.5841837711475
 30
-0.0000000349181948
  9
$EXTMAX
 10
834.8313154580532
 20
236.1632490864626
 30
0.0000000814935746
  9
$LIMMIN
 10
0.0
 20
0.0
  9
$LIMMAX
 10
12.0
 20
9.0
  9
$ORTHOMODE
 70
     0
  9
$REGENMODE
 70
     1
  9
$FILLMODE
 70
     1
  9
$QTEXTMODE
 70
     0
  9
$MIRRTEXT
 70
     1
  9
$LTSCALE
 40
1.0
  9
$ATTMODE
 70
     1
  9
$TEXTSIZE
 40
0.2
  9
$TRACEWID
 40
0.05
  9
$TEXTSTYLE
  7
Standard
  9
$CLAYER
  8
0
  9
$CELTYPE
  6
ByLayer
  9
$CECOLOR
 62
   256
  9
$CELTSCALE
 40
1.0
  9
$DISPSILH
 70
     0
  9
$DIMSCALE
 40
1.0
  9
$DIMASZ
 40
1.5
  9
$DIMEXO
 40
0.2
  9
$DIMDLI
 40
0.2
  9
$DIMRND
 40
0.0
  9
$DIMDLE
 40
0.0
  9
$DIMEXE
 40
0.5
  9
$DIMTP
 40
0.0
  9
$DIMTM
 40
0.0
  9
$DIMTXT
 40
2.0
  9
$DIMCEN
 40
0.0
  9
$DIMTSZ
 40
0.0
  9
$DIMTOL
 70
     0
  9
$DIMLIM
 70
     0
  9
$DIMTIH
 70
     0
  9
$DIMTOH
 70
     0
  9
$DIMSE1
 70
     0
  9
$DIMSE2
 70
     0
  9
$DIMTAD
 70
     1
  9
$DIMZIN
 70
     8
  9
$DIMBLK
  1

  9
$DIMASO
 70
     1
  9
$DIMSHO
 70
     1
  9
$DIMPOST
  1

  9
$DIMAPOST
  1

  9
$DIMALT
 70
     0
  9
$DIMALTD
 70
     2
  9
$DIMALTF
 40
25.4
  9
$DIMLFAC
 40
1.0
  9
$DIMTOFL
 70
     0
  9
$DIMTVP
 40
0.0
  9
$DIMTIX
 70
     0
  9
$DIMSOXD
 70
     0
  9
$DIMSAH
 70
     0
  9
$DIMBLK1
  1

  9
$DIMBLK2
  1

  9
$DIMSTYLE
  2
01
  9
$DIMCLRD
 70
     1
  9
$DIMCLRE
 70
     6
  9
$DIMCLRT
 70
     4
  9
$DIMTFAC
 40
1.0
  9
$DIMGAP
 40
0.5
  9
$DIMJUST
 70
     0
  9
$DIMSD1
 70
     0
  9
$DIMSD2
 70
     0
  9
$DIMTOLJ
 70
     1
  9
$DIMTZIN
 70
     0
  9
$DIMALTZ
 70
     0
  9
$DIMALTTZ
 70
     0
  9
$DIMUPT
 70
     0
  9
$DIMDEC
 70
     1
  9
$DIMTDEC
 70
     1
  9
$DIMALTU
 70
     2
  9
$DIMALTTD
 70
     2
  9
$DIMTXSTY
  7
Romans字体
  9
$DIMAUNIT
 70
     0
  9
$DIMADEC
 70
     2
  9
$DIMALTRND
 40
0.0
  9
$DIMAZIN
 70
     2
  9
$DIMDSEP
 70
    46
  9
$DIMATFIT
 70
     3
  9
$DIMFRAC
 70
     0
  9
$DIMLDRBLK
  1

  9
$DIMLUNIT
 70
     2
  9
$DIMLWD
 70
    -2
  9
$DIMLWE
 70
    -2
  9
$DIMTMOVE
 70
     0
  9
$DIMFXL
 40
1.0
  9
$DIMFXLON
 70
     0
  9
$DIMJOGANG
 40
0.7853981633974483
  9
$DIMTFILL
 70
     0
  9
$DIMTFILLCLR
 70
     0
  9
$DIMARCSYM
 70
     0
  9
$DIMLTYPE
  6

  9
$DIMLTEX1
  6

  9
$DIMLTEX2
  6

  9
$LUNITS
 70
     2
  9
$LUPREC
 70
     4
  9
$SKETCHINC
 40
0.1
  9
$FILLETRAD
 40
0.5
  9
$AUNITS
 70
     0
  9
$AUPREC
 70
     0
  9
$MENU
  1
.
  9
$ELEVATION
 40
0.0
  9
$PELEVATION
 40
0.0
  9
$THICKNESS
 40
0.0
  9
$LIMCHECK
 70
     0
  9
$CHAMFERA
 40
0.5
  9
$CHAMFERB
 40
0.5
  9
$CHAMFERC
 40
1.0
  9
$CHAMFERD
 40
0.0
  9
$SKPOLY
 70
     0
  9
$TDCREATE
 40
2456524.383632987
  9
$TDUCREATE
 40
2456524.050299653
  9
$TDUPDATE
 40
2460291.572122419
  9
$TDUUPDATE
 40
2460291.238789086
  9
$TDINDWG
 40
1.3109069444
  9
$TDUSRTIMER
 40
1.3108877199
  9
$USRTIMER
 70
     1
  9
$ANGBASE
 50
0.0
  9
$ANGDIR
 70
     0
  9
$PDMODE
 70
     0
  9
$PDSIZE
 40
0.0
  9
$PLINEWID
 40
0.0
  9
$SPLFRAME
 70
     0
  9
$SPLINETYPE
 70
     6
  9
$SPLINESEGS
 70
     8
  9
$HANDSEED
  5
B5C
  9
$SURFTAB1
 70
     6
  9
$SURFTAB2
 70
     6
  9
$SURFTYPE
 70
     6
  9
$SURFU
 70
     6
  9
$SURFV
 70
     6
  9
$UCSBASE
  2

  9
$UCSNAME
  2

  9
$UCSORG
 10
0.0
 20
0.0
 30
0.0
  9
$UCSXDIR
 10
1.0
 20
0.0
 30
0.0
  9
$UCSYDIR
 10
0.0
 20
1.0
 30
0.0
  9
$UCSORTHOREF
  2

  9
$UCSORTHOVIEW
 70
     0
  9
$UCSORGTOP
 10
0.0
 20
0.0
 30
0.0
  9
$UCSORGBOTTOM
 10
0.0
 20
0.0
 30
0.0
  9
$UCSORGLEFT
 10
0.0
 20
0.0
 30
0.0
  9
$UCSORGRIGHT
 10
0.0
 20
0.0
 30
0.0
  9
$UCSORGFRONT
 10
0.0
 20
0.0
 30
0.0
  9
$UCSORGBACK
 10
0.0
 20
0.0
 30
0.0
  9
$PUCSBASE
  2

  9
$PUCSNAME
  2

  9
$PUCSORG
 10
0.0
 20
0.0
 30
0.0
  9
$PUCSXDIR
 10
1.0
 20
0.0
 30
0.0
  9
$PUCSYDIR
 10
0.0
 20
1.0
 30
0.0
  9
$PUCSORTHOREF
  2

  9
$PUCSORTHOVIEW
 70
     0
  9
$PUCSORGTOP
 10
0.0
 20
0.0
 30
0.0
  9
$PUCSORGBOTTOM
 10
0.0
 20
0.0
 30
0.0
  9
$PUCSORGLEFT
 10
0.0
 20
0.0
 30
0.0
  9
$PUCSORGRIGHT
 10
0.0
 20
0.0
 30
0.0
  9
$PUCSORGFRONT
 10
0.0
 20
0.0
 30
0.0
  9
$PUCSORGBACK
 10
0.0
 20
0.0
 30
0.0
  9
$USERI1
 70
     0
  9
$USERI2
 70
     0
  9
$USERI3
 70
     0
  9
$USERI4
 70
     0
  9
$USERI5
 70
     0
  9
$USERR1
 40
0.0
  9
$USERR2
 40
0.0
  9
$USERR3
 40
0.0
  9
$USERR4
 40
0.0
  9
$USERR5
 40
0.0
  9
$WORLDVIEW
 70
     1
  9
$SHADEDGE
 70
     3
  9
$SHADEDIF
 70
    70
  9
$TILEMODE
 70
     1
  9
$MAXACTVP
 70
    64
  9
$PINSBASE
 10
0.0
 20
0.0
 30
0.0
  9
$PLIMCHECK
 70
     0
  9
$PEXTMIN
 10
1.000000000000000E+20
 20
1.000000000000000E+20
 30
1.000000000000000E+20
  9
$PEXTMAX
 10
-1.000000000000000E+20
 20
-1.000000000000000E+20
 30
-1.000000000000000E+20
  9
$PLIMMIN
 10
0.0
 20
0.0
  9
$PLIMMAX
 10
12.0
 20
9.0
  9
$UNITMODE
 70
     0
  9
$VISRETAIN
 70
     1
  9
$PLINEGEN
 70
     0
  9
$PSLTSCALE
 70
     1
  9
$TREEDEPTH
 70
  3020
  9
$CMLSTYLE
  2
Standard
  9
$CMLJUST
 70
     0
  9
$CMLSCALE
 40
1.0
  9
$PROXYGRAPHICS
 70
     1
  9
$MEASUREMENT
 70
     0
  9
$CELWEIGHT
370
    -1
  9
$ENDCAPS
280
     0
  9
$JOINSTYLE
280
     0
  9
$LWDISPLAY
290
     0
  9
$INSUNITS
 70
     4
  9
$HYPERLINKBASE
  1

  9
$STYLESHEET
  1
MONOCHROME.CTB
  9
$XEDIT
290
     1
  9
$CEPSNTYPE
380
     0
  9
$PSTYLEMODE
290
     1
  9
$FINGERPRINTGUID
  2
{3EE5EBA8-66FF-4889-8AD7-81E433333527}
  9
$VERSIONGUID
  2
{8C272306-1ABD-46BB-B766-E886E3FC84DA}
  9
$EXTNAMES
290
     1
  9
$PSVPSCALE
 40
0.0
  9
$OLESTARTUP
290
     0
  9
$SORTENTS
280
   127
  9
$INDEXCTL
280
     0
  9
$HIDETEXT
280
     1
  9
$XCLIPFRAME
290
     0
  9
$HALOGAP
280
     0
  9
$OBSCOLOR
 70
   257
  9
$OBSLTYPE
280
     0
  9
$INTERSECTIONDISPLAY
280
     0
  9
$INTERSECTIONCOLOR
 70
   257
  9
$DIMASSOC
280
     1
  9
$PROJECTNAME
  1

  9
$CAMERADISPLAY
290
     0
  9
$LENSLENGTH
 40
50.0
  9
$CAMERAHEIGHT
 40
0.0
  9
$STEPSPERSEC
 40
2.0
  9
$STEPSIZE
 40
6.0
  9
$3DDWFPREC
 40
2.0
  9
$PSOLWIDTH
 40
0.25
  9
$PSOLHEIGHT
 40
4.0
  9
$LOFTANG1
 40
1.570795999999999
  9
$LOFTANG2
 40
1.570795999999999
  9
$LOFTMAG1
 40
0.0
  9
$LOFTMAG2
 40
0.0
  9
$LOFTPARAM
 70
     7
  9
$LOFTNORMALS
280
     1
  9
$LATITUDE
 40
37.795
  9
$LONGITUDE
 40
-122.394
  9
$NORTHDIRECTION
 40
0.0
  9
$TIMEZONE
 70
 -8000
  9
$LIGHTGLYPHDISPLAY
280
     1
  9
$TILEMODELIGHTSYNCH
280
     1
  9
$CMATERIAL
347
234
  9
$SOLIDHIST
280
     1
  9
$SHOWHIST
280
     1
  9
$DWFFRAME
280
     2
  9
$DGNFRAME
280
     0
  9
$REALWORLDSCALE
290
     1
  9
$INTERFERECOLOR
 62
     1
  9
$INTERFEREOBJVS
345
24A
  9
$INTERFEREVPVS
346
24B
  9
$CSHADOW
280
     0
  9
$SHADOWPLANELOCATION
 40
0.0
  0
ENDSEC
  0
SECTION
  2
CLASSES
  0
CLASS
  1
ACDBDICTIONARYWDFLT
  2
AcDbDictionaryWithDefault
  3
ObjectDBX Classes
 90
        0
 91
        1
280
     0
281
     0
  0
CLASS
  1
VISUALSTYLE
  2
AcDbVisualStyle
  3
ObjectDBX Classes
 90
     4095
 91
       16
280
     0
281
     0
  0
CLASS
  1
MATERIAL
  2
AcDbMaterial
  3
ObjectDBX Classes
 90
     1153
 91
        3
280
     0
281
     0
  0
CLASS
  1
TABLESTYLE
  2
AcDbTableStyle
  3
ObjectDBX Classes
 90
     4095
 91
        1
280
     0
281
     0
  0
CLASS
  1
SCALE
  2
AcDbScale
  3
ObjectDBX Classes
 90
     1153
 91
       33
280
     0
281
     0
  0
CLASS
  1
MLEADERSTYLE
  2
AcDbMLeaderStyle
  3
ACDB_MLEADERSTYLE_CLASS
 90
     4095
 91
        1
280
     0
281
     0
  0
CLASS
  1
CELLSTYLEMAP
  2
AcDbCellStyleMap
  3
ObjectDBX Classes
 90
     1152
 91
        2
280
     0
281
     0
  0
CLASS
  1
DICTIONARYVAR
  2
AcDbDictionaryVar
  3
ObjectDBX Classes
 90
        0
 91
       11
280
     0
281
     0
  0
CLASS
  1
SORTENTSTABLE
  2
AcDbSortentsTable
  3
ObjectDBX Classes
 90
        0
 91
        1
280
     0
281
     0
  0
CLASS
  1
ACAD_EVALUATION_GRAPH
  2
AcDbEvalGraph
  3
ObjectDBX Classes
 90
     1153
 91
        1
280
     0
281
     0
  0
CLASS
  1
ACAECUSTOBJ
  2
AcAeEditorObj
  3
AcAeEditorObj
 90
     1024
 91
        1
280
     1
281
     0
  0
CLASS
  1
ACDB_DYNAMICBLOCKPURGEPREVENTER_VERSION
  2
AcDbDynamicBlockPurgePreventer
  3
ObjectDBX Classes
 90
     1153
 91
        1
280
     0
281
     0
  0
CLASS
  1
MENTALRAYRENDERSETTINGS
  2
AcDbMentalRayRenderSettings
  3
SCENEOE
 90
     1024
 91
        0
280
     0
281
     0
  0
CLASS
  1
ACDB_BLOCKREPRESENTATION_DATA
  2
AcDbBlockRepresentationData
  3
ObjectDBX Classes
 90
     1153
 91
        0
280
     0
281
     0
  0
CLASS
  1
DIMASSOC
  2
AcDbDimAssoc
  3
"AcDbDimAssoc|Product Desc:     AcDim ARX App For Dimension|Company:          Autodesk, Inc.|WEB Address:      www.autodesk.com"
 90
        0
 91
        1
280
     0
281
     0
  0
ENDSEC
  0
SECTION
  2
TABLES
  0
TABLE
  2
VPORT
  5
228
102
{ACAD_XDICTIONARY
360
22C
102
}
330
0
100
AcDbSymbolTable
 70
     1
  0
VPORT
  5
229
330
228
100
AcDbSymbolTableRecord
100
AcDbViewportTableRecord
  2
*Active
 70
     0
 10
0.0
 20
0.0
 11
1.0
 21
1.0
 12
692.7367146594443
 22
61.37148566020727
 13
0.0
 23
0.0
 14
0.5
 24
0.5
 15
0.5
 25
0.5
 16
0.0
 26
0.0
 36
1.0
 17
104.9654968719086
 27
148.5022307685978
 37
0.0
 40
53.11196124756494
 41
2.426395939086293
 42
50.0
 43
0.0
 44
0.0
 50
0.0
 51
0.0
 71
     0
 72
   100
 73
     1
 74
     3
 75
     0
 76
     0
 77
     0
 78
     0
281
     0
 65
     1
110
0.0
120
0.0
130
0.0
111
1.0
121
0.0
131
0.0
112
0.0
122
1.0
132
0.0
 79
     0
146
0.0
348
22A
 60
     3
 61
     5
292
     1
282
     1
141
0.0
142
0.0
 63
   250
421
  3355443
  0
ENDTAB
  0
TABLE
  2
LTYPE
  5
223
330
0
100
AcDbSymbolTable
 70
     2
  0
LTYPE
  5
224
330
223
100
AcDbSymbolTableRecord
100
AcDbLinetypeTableRecord
  2
ByBlock
 70
     0
  3

 72
    65
 73
     0
 40
0.0
  0
LTYPE
  5
225
330
223
100
AcDbSymbolTableRecord
100
AcDbLinetypeTableRecord
  2
ByLayer
 70
     0
  3

 72
    65
 73
     0
 40
0.0
  0
LTYPE
  5
15
330
223
100
AcDbSymbolTableRecord
100
AcDbLinetypeTableRecord
  2
Continuous
 70
     0
  3
Solid line
 72
    65
 73
     0
 40
0.0
  0
LTYPE
  5
161
330
223
100
AcDbSymbolTableRecord
100
AcDbLinetypeTableRecord
  2
CENTER
 70
     0
  3
Center ____ _ ____ _ ____ _ ____ _ ____ _ ____
 72
    65
 73
     4
 40
2.0
 49
1.25
 74
     0
 49
-0.25
 74
     0
 49
0.25
 74
     0
 49
-0.25
 74
     0
  0
ENDTAB
  0
TABLE
  2
LAYER
  5
21C
102
{ACAD_XDICTIONARY
360
21D
102
}
330
0
100
AcDbSymbolTable
 70
     8
  0
LAYER
  5
6
102
{ACAD_XDICTIONARY
360
7
102
}
330
21C
100
AcDbSymbolTableRecord
100
AcDbLayerTableRecord
  2
0
 70
     0
 62
     7
  6
Continuous
370
    30
390
9
347
C
  0
LAYER
  5
17
102
{ACAD_XDICTIONARY
360
18
102
}
330
21C
100
AcDbSymbolTableRecord
100
AcDbLayerTableRecord
  2
图层 1
 70
     0
 62
     7
  6
Continuous
370
    -3
390
9
347
C
  0
LAYER
  5
25
102
{ACAD_XDICTIONARY
360
26
102
}
330
21C
100
AcDbSymbolTableRecord
100
AcDbLayerTableRecord
  2
图框
 70
     0
 62
     7
  6
Continuous
370
    20
390
9
347
C
  0
LAYER
  5
111
330
21C
100
AcDbSymbolTableRecord
100
AcDbLayerTableRecord
  2
Defpoints
 70
     0
 62
     7
  6
Continuous
290
     0
370
    -3
390
9
347
C
  0
LAYER
  5
105
330
21C
100
AcDbSymbolTableRecord
100
AcDbLayerTableRecord
  2
DIM
 70
     0
 62
     3
  6
Continuous
370
    15
390
9
347
C
1001
AcAecLayerStandard
1000

1000

  0
LAYER
  5
DA
330
21C
100
AcDbSymbolTableRecord
100
AcDbLayerTableRecord
  2
打标文字
 70
     0
 62
     3
  6
Continuous
370
    20
390
9
347
C
  0
LAYER
  5
182
330
21C
100
AcDbSymbolTableRecord
100
AcDbLayerTableRecord
  2
CEN
 70
     0
 62
     1
  6
CENTER
370
    15
390
9
347
C
1001
AcAecLayerStandard
1000

1000

  0
LAYER
  5
128
330
21C
100
AcDbSymbolTableRecord
100
AcDbLayerTableRecord
  2
hat
 70
     0
 62
     6
  6
Continuous
370
    15
390
9
347
C
1001
AcAecLayerStandard
1000

1000

  0
ENDTAB
  0
TABLE
  2
STYLE
  5
221
330
0
100
AcDbSymbolTable
 70
     4
  0
STYLE
  5
40
330
221
100
AcDbSymbolTableRecord
100
AcDbTextStyleTableRecord
  2
Standard
 70
     0
 40
0.0
 41
0.75
 50
0.0
 71
     0
 42
0.2
  3
SIMFANG.TTF
  4

1001
ACAD
1000
FangSong_GB2312
1071
    34353
  0
STYLE
  5
28
330
221
100
AcDbSymbolTableRecord
100
AcDbTextStyleTableRecord
  2
Romans字体
 70
     0
 40
0.0
 41
0.75
 50
0.0
 71
     0
 42
0.2
  3
romans.shx
  4

  0
STYLE
  5
42
330
221
100
AcDbSymbolTableRecord
100
AcDbTextStyleTableRecord
  2
工程字
 70
     0
 40
0.0
 41
1.0
 50
0.0
 71
     0
 42
3.5
  3
gbenor.shx
  4
gbcbig.shx
  0
STYLE
  5
44
330
221
100
AcDbSymbolTableRecord
100
AcDbTextStyleTableRecord
  2
Chinese
 70
     0
 40
0.0
 41
1.0
 50
0.0
 71
     0
 42
2.5
  3
PMingLiU.ttf
  4

1001
ACAD
1000
PMingLiU
1071
    34834
  0
ENDTAB
  0
TABLE
  2
VIEW
  5
226
330
0
100
AcDbSymbolTable
 70
     0
  0
ENDTAB
  0
TABLE
  2
UCS
  5
227
330
0
100
AcDbSymbolTable
 70
     0
  0
ENDTAB
  0
TABLE
  2
APPID
  5
22D
330
0
100
AcDbSymbolTable
 70
    10
  0
APPID
  5
29
330
22D
100
AcDbSymbolTableRecord
100
AcDbRegAppTableRecord
  2
ACAD
 70
     0
  0
APPID
  5
2F
330
22D
100
AcDbSymbolTableRecord
100
AcDbRegAppTableRecord
  2
AcDbBlockRepETag
 70
     0
  0
APPID
  5
213
330
22D
100
AcDbSymbolTableRecord
100
AcDbRegAppTableRecord
  2
ACAD_PSEXT
 70
     0
  0
APPID
  5
106
330
22D
100
AcDbSymbolTableRecord
100
AcDbRegAppTableRecord
  2
AcAecLayerStandard
 70
     0
  0
APPID
  5
116
330
22D
100
AcDbSymbolTableRecord
100
AcDbRegAppTableRecord
  2
ACAD_DSTYLE_DIMJAG
 70
     0
  0
APPID
  5
117
330
22D
100
AcDbSymbolTableRecord
100
AcDbRegAppTableRecord
  2
ACAD_DSTYLE_DIMTALN
 70
     0
  0
APPID
  5
2A9
330
22D
100
AcDbSymbolTableRecord
100
AcDbRegAppTableRecord
  2
ACAD_MLEADERVER
 70
     0
  0
APPID
  5
391
330
22D
100
AcDbSymbolTableRecord
100
AcDbRegAppTableRecord
  2
AcDbDynamicBlockGUID
 70
     0
  0
APPID
  5
B3C
330
22D
100
AcDbSymbolTableRecord
100
AcDbRegAppTableRecord
  2
ACAUTHENVIRON
 70
     0
  0
APPID
  5
B3F
330
22D
100
AcDbSymbolTableRecord
100
AcDbRegAppTableRecord
  2
AcDbDynamicBlockTrueName
 70
     0
  0
ENDTAB
  0
TABLE
  2
DIMSTYLE
  5
22E
330
0
100
AcDbSymbolTable
 70
     2
100
AcDbDimStyleTable
 71
     2
340
115
340
22F
  0
DIMSTYLE
105
22F
330
22E
100
AcDbSymbolTableRecord
100
AcDbDimStyleTableRecord
  2
Standard
 70
     0
340
40
  0
DIMSTYLE
105
115
102
{ACAD_REACTORS
330
783
330
79F
330
7A0
330
7C2
330
7CE
330
82F
102
}
330
22E
100
AcDbSymbolTableRecord
100
AcDbDimStyleTableRecord
  2
01
 70
     0
 41
1.5
 42
0.2
 43
0.2
 44
0.5
 73
     0
 74
     0
 77
     1
 78
     8
 79
     2
140
2.0
141
0.0
147
0.5
176
     1
177
     6
178
     4
179
     2
271
     1
272
     1
340
28
1001
ACAD_DSTYLE_DIMJAG
1070
   388
1040
1.5
1001
ACAD_DSTYLE_DIMTALN
1070
   392
1070
     0
  0
ENDTAB
  0
TABLE
  2
BLOCK_RECORD
  5
1
330
0
100
AcDbSymbolTable
 70
     9
  0
BLOCK_RECORD
  5
2
102
{ACAD_XDICTIONARY
360
3
102
}
330
1
100
AcDbSymbolTableRecord
100
AcDbBlockTableRecord
  2
*Model_Space
340
211
 70
     0
280
     1
281
     0
  0
BLOCK_RECORD
  5
214
330
1
100
AcDbSymbolTableRecord
100
AcDbBlockTableRecord
  2
*Paper_Space
340
217
 70
     0
280
     1
281
     0
  0
BLOCK_RECORD
  5
218
330
1
100
AcDbSymbolTableRecord
100
AcDbBlockTableRecord
  2
*Paper_Space0
340
21B
 70
     0
280
     1
281
     0
  0
BLOCK_RECORD
  5
2B8
102
{ACAD_XDICTIONARY
360
B3B
102
}
330
1
100
AcDbSymbolTableRecord
100
AcDbBlockTableRecord
  2
A4图框-NEW
340
0
310
2800000020000000200000000100080000000000000400000000000000000000000000000000000000000000000080000080000000808000800000008000800080800000C0C0C000C0DCC000F0CAA6000020400000206000002080000020A0000020C0000020E00000400000004020000040400000406000004080000040A0
310
000040C0000040E00000600000006020000060400000606000006080000060A0000060C0000060E00000800000008020000080400000806000008080000080A0000080C0000080E00000A0000000A0200000A0400000A0600000A0800000A0A00000A0C00000A0E00000C0000000C0200000C0400000C0600000C0800000C0
310
A00000C0C00000C0E00000E0000000E0200000E0400000E0600000E0800000E0A00000E0C00000E0E00040000000400020004000400040006000400080004000A0004000C0004000E00040200000402020004020400040206000402080004020A0004020C0004020E000404000004040200040404000404060004040800040
310
40A0004040C0004040E00040600000406020004060400040606000406080004060A0004060C0004060E00040800000408020004080400040806000408080004080A0004080C0004080E00040A0000040A0200040A0400040A0600040A0800040A0A00040A0C00040A0E00040C0000040C0200040C0400040C0600040C08000
310
40C0A00040C0C00040C0E00040E0000040E0200040E0400040E0600040E0800040E0A00040E0C00040E0E00080000000800020008000400080006000800080008000A0008000C0008000E00080200000802020008020400080206000802080008020A0008020C0008020E00080400000804020008040400080406000804080
310
008040A0008040C0008040E00080600000806020008060400080606000806080008060A0008060C0008060E00080800000808020008080400080806000808080008080A0008080C0008080E00080A0000080A0200080A0400080A0600080A0800080A0A00080A0C00080A0E00080C0000080C0200080C0400080C0600080C0
310
800080C0A00080C0C00080C0E00080E0000080E0200080E0400080E0600080E0800080E0A00080E0C00080E0E000C0000000C0002000C0004000C0006000C0008000C000A000C000C000C000E000C0200000C0202000C0204000C0206000C0208000C020A000C020C000C020E000C0400000C0402000C0404000C0406000C0
310
408000C040A000C040C000C040E000C0600000C0602000C0604000C0606000C0608000C060A000C060C000C060E000C0800000C0802000C0804000C0806000C0808000C080A000C080C000C080E000C0A00000C0A02000C0A04000C0A06000C0A08000C0A0A000C0A0C000C0A0E000C0C00000C0C02000C0C04000C0C06000
310
C0C08000C0C0A000F0FBFF00A4A0A000808080000000FF0000FF000000FFFF00FF000000FF00FF00FFFF0000FFFFFF0000000000000000000000000000000000000000000000000000000000000000000000000000000000000000000000000000000000000000000000000000000000000000000000000000000000000000
310
000000000000000000000000000000000000000000000000000000000000000000000000000000000000000000000000000000000000000000000000000000000000000000000000000000000000000000000000000000000000000000000000000000000000000000000000000000000000F9F9F9F9F9F9F9F9F9F9F9F9F9
310
F9F9F9F9F9F9F9F9F9F9F9F9F9F9FF00000000F9FF000000000000000000FFFFFFFFFFFFFFFFFFFFFFFFF9FAFAFAFF00000000F9FF000000000000000000FFFFFFFFFFFFFFFFFFFFFFFFFFFFFFFFFF00000000F9FD000000000000000000FFFFFFFFFFFFFFFFFFFFFFFFFFFFFFFFFF00000000F9FF000000000000000000FF
310
FFFFFFFFFFFFFFFFFFFFFFFFFFFFFFFF00000000F9FD000000000000000000FFFFFFFFFFFFFFFFFFFFFFFFFFFFFFFFFF00000000F9FF00000000000000000000000000000000000000000000000000FF00000000F9FD00000000000000000000000000000000000000000000000000FF00000000F9FF000000000000000000
310
00000000000000000000000000000000FF00000000F9FD00000000000000000000000000000000000000000000000000FF00000000F9FF00000000000000000000000000000000000000000000000000FF00000000F9FD00000000000000000000000000000000000000000000000000FF00000000F9FD0000000000000000
310
0000000000000000000000000000000000FF00000000F9FF00000000000000000000000000000000000000000000000000FF00000000F9FD00000000000000000000000000000000000000000000000000FF00000000F9FF00000000000000000000000000000000000000000000000000FF00000000F9FD00000000000000
310
000000000000000000000000000000000000FF00000000F9FF00000000000000000000000000000000000000000000000000FF00000000F9FFFFFFFFFFFFFFFFFFFFFFFFFFFFFFFFFFFFFFFFFFFFFFFFFFFFFF00000000F9FFFFFFF9F9F9F9F9F9F9F9F9F9F9F9F9F9F9F9F9F9F9F9F9F9F9F9000000000000000000000000
310
00000000000000000000000000000000000000000000000000000000000000000000000000000000000000000000000000000000000000000000000000000000000000000000000000000000000000000000000000000000000000000000000000000000000000000000000000000000000000000000000000000000000000
310
0000000000000000000000000000000000000000000000000000000000000000000000000000000000000000000000000000000000000000
102
{BLKREFS
331
82B
102
}
 70
     4
280
     1
281
     0
1001
AcDbDynamicBlockGUID
1000
{89CAD6CB-3BD4-45EA-9582-19315382D056}
1001
AcDbBlockRepETag
1070
     1
1071
      149
  0
BLOCK_RECORD
  5
830
330
1
100
AcDbSymbolTableRecord
100
AcDbBlockTableRecord
  2
*D2
340
0
 70
     0
280
     1
281
     0
  0
BLOCK_RECORD
  5
83D
330
1
100
AcDbSymbolTableRecord
100
AcDbBlockTableRecord
  2
*D3
340
0
 70
     0
280
     1
281
     0
  0
BLOCK_RECORD
  5
84A
330
1
100
AcDbSymbolTableRecord
100
AcDbBlockTableRecord
  2
*D4
340
0
 70
     0
280
     1
281
     0
  0
BLOCK_RECORD
  5
857
330
1
100
AcDbSymbolTableRecord
100
AcDbBlockTableRecord
  2
*D5
340
0
 70
     0
280
     1
281
     0
  0
BLOCK_RECORD
  5
864
330
1
100
AcDbSymbolTableRecord
100
AcDbBlockTableRecord
  2
*D6
340
0
 70
     0
280
     1
281
     0
  0
BLOCK_RECORD
  5
898
330
1
100
AcDbSymbolTableRecord
100
AcDbBlockTableRecord
  2
*D7
340
0
 70
     0
280
     1
281
     0
  0
ENDTAB
  0
ENDSEC
  0
SECTION
  2
BLOCKS
  0
BLOCK
  5
5
330
2
100
AcDbEntity
  8
0
100
AcDbBlockBegin
  2
*Model_Space
 70
     0
 10
0.0
 20
0.0
 30
0.0
  3
*Model_Space
  1

  0
ENDBLK
  5
210
330
2
100
AcDbEntity
  8
0
100
AcDbBlockEnd
  0
BLOCK
  5
215
330
214
100
AcDbEntity
 67
     1
  8
0
100
AcDbBlockBegin
  2
*Paper_Space
 70
     0
 10
0.0
 20
0.0
 30
0.0
  3
*Paper_Space
  1

  0
ENDBLK
  5
216
330
214
100
AcDbEntity
 67
     1
  8
0
100
AcDbBlockEnd
  0
BLOCK
  5
219
330
218
100
AcDbEntity
 67
     1
  8
0
100
AcDbBlockBegin
  2
*Paper_Space0
 70
     0
 10
0.0
 20
0.0
 30
0.0
  3
*Paper_Space0
  1

  0
ENDBLK
  5
21A
330
218
100
AcDbEntity
 67
     1
  8
0
100
AcDbBlockEnd
  0
BLOCK
  5
2BA
330
2B8
100
AcDbEntity
  8
0
100
AcDbBlockBegin
  2
A4图框-NEW
 70
     0
 10
0.0
 20
0.0
 30
0.0
  3
A4图框-NEW
  1

  0
MTEXT
  5
AA6
102
{ACAD_XDICTIONARY
360
B44
102
}
330
2B8
100
AcDbEntity
  8
图框
 62
     3
100
AcDbMText
 10
967.6594956750133
 20
499.7664151964293
 30
0.0
 40
2.985513575034151
 41
15.50176341157864
 46
6.292658374511018
 71
     5
 72
     5
  1
BQ LUO
  7
Romans字体
 73
     1
 44
1.0
1001
AcDbBlockRepETag
1070
     1
1071
        0
1005
AA6
1001
ACAD
1000
ACAD_MTEXT_DEFINED_HEIGHT_BEGIN
1070
    46
1040
6.292658374511018
1000
ACAD_MTEXT_DEFINED_HEIGHT_END
  0
MTEXT
  5
AA7
330
2B8
100
AcDbEntity
  8
图框
 62
     3
100
AcDbMText
 10
983.041569333247
 20
499.7664151964293
 30
0.0
 40
2.487927979195124
 41
15.26238390489062
 46
6.292658374511042
 71
     5
 72
     5
  1
{\W0.7;18.10.2010}
  7
Romans字体
 73
     1
 44
1.0
1001
AcDbBlockRepETag
1070
     1
1071
        1
1005
AA7
1001
ACAD
1000
ACAD_MTEXT_DEFINED_HEIGHT_BEGIN
1070
    46
1040
6.292658374511042
1000
ACAD_MTEXT_DEFINED_HEIGHT_END
  0
MTEXT
  5
AA8
330
2B8
100
AcDbEntity
  8
图框
 62
     3
100
AcDbMText
 10
1012.477254728976
 20
487.1810984474071
 30
0.0
 40
2.985513575034151
 41
17.64876416884615
 46
6.292658374511455
 71
     5
 72
     5
  1
YY LIN
  7
Romans字体
 73
     1
 44
1.0
1001
AcDbBlockRepETag
1070
     1
1071
        2
1005
AA8
1001
ACAD
1000
ACAD_MTEXT_DEFINED_HEIGHT_BEGIN
1070
    46
1040
6.292658374511455
1000
ACAD_MTEXT_DEFINED_HEIGHT_END
  0
MTEXT
  5
AA9
330
2B8
100
AcDbEntity
  8
图框
 62
     3
100
AcDbMText
 10
1028.977802139886
 20
487.1810984474071
 30
0.0
 40
2.487927979195124
 41
15.35233065297276
 46
6.292658374511495
 71
     5
 72
     5
  1
{\W0.7;18.10.2010}
  7
Romans字体
 73
     1
 44
1.0
1001
AcDbBlockRepETag
1070
     1
1071
        3
1005
AA9
1001
ACAD
1000
ACAD_MTEXT_DEFINED_HEIGHT_BEGIN
1070
    46
1040
6.292658374511495
1000
ACAD_MTEXT_DEFINED_HEIGHT_END
  0
MTEXT
  5
AAA
330
2B8
100
AcDbEntity
  8
图框
 62
     3
100
AcDbMText
 10
1063.722665487208
 20
525.4145966538831
 30
0.0
 40
2.985513575034151
 41
32.4973914334545
 46
11.82914190181707
 71
     5
 72
     5
  1
-
  7
Romans字体
 73
     1
 44
1.0
1001
AcDbBlockRepETag
1070
     1
1071
        4
1005
AAA
1001
ACAD
1000
ACAD_MTEXT_DEFINED_HEIGHT_BEGIN
1070
    46
1040
11.82914190181707
1000
ACAD_MTEXT_DEFINED_HEIGHT_END
  0
MTEXT
  5
AAB
330
2B8
100
AcDbEntity
  8
图框
 62
     3
100
AcDbMText
 10
1063.727338552349
 20
513.5854547520641
 30
0.0
 40
2.985513575034151
 41
32.48804530317308
 46
11.82914190182139
 71
     5
 72
     5
  1
-
  7
Romans字体
 73
     1
 44
1.0
1001
AcDbBlockRepETag
1070
     1
1071
        5
1005
AAB
1001
ACAD
1000
ACAD_MTEXT_DEFINED_HEIGHT_BEGIN
1070
    46
1040
11.82914190182139
1000
ACAD_MTEXT_DEFINED_HEIGHT_END
  0
MTEXT
  5
AAC
330
2B8
100
AcDbEntity
  8
图框
 62
     3
100
AcDbMText
 10
1110.122306614152
 20
526.8006839312707
 30
0.0
 40
2.985513575034151
 41
33.61239199242139
 46
9.05696734704178
 71
     5
 72
     5
  1
-
  7
Romans字体
 73
     1
 44
1.0
1001
AcDbBlockRepETag
1070
     1
1071
        6
1005
AAC
1001
ACAD
1000
ACAD_MTEXT_DEFINED_HEIGHT_BEGIN
1070
    46
1040
9.05696734704178
1000
ACAD_MTEXT_DEFINED_HEIGHT_END
  0
MTEXT
  5
AAD
330
2B8
100
AcDbEntity
  8
图框
 62
     3
100
AcDbMText
 10
1110.122306614152
 20
500.2775205517162
 30
0.0
 40
2.985513575034151
 41
33.61239199242139
 46
8.871557304763419
 71
     5
 72
     5
  1
-
  7
Romans字体
 73
     1
 44
1.0
1001
AcDbBlockRepETag
1070
     1
1071
        7
1005
AAD
1001
ACAD
1000
ACAD_MTEXT_DEFINED_HEIGHT_BEGIN
1070
    46
1040
8.871557304763419
1000
ACAD_MTEXT_DEFINED_HEIGHT_END
  0
MTEXT
  5
AAE
330
2B8
100
AcDbEntity
  8
图框
 62
     3
100
AcDbMText
 10
967.6594956750133
 20
493.4737568219182
 30
0.0
 40
2.985513575034151
 41
15.50176341157864
 46
6.292658374510335
 71
     5
 72
     5
  1
P RAO
  7
Romans字体
 73
     1
 44
1.0
1001
AcDbBlockRepETag
1070
     1
1071
        8
1005
AAE
1001
ACAD
1000
ACAD_MTEXT_DEFINED_HEIGHT_BEGIN
1070
    46
1040
6.292658374510335
1000
ACAD_MTEXT_DEFINED_HEIGHT_END
  0
MTEXT
  5
AAF
330
2B8
100
AcDbEntity
  8
图框
 62
     3
100
AcDbMText
 10
983.041569333247
 20
493.2441970450405
 30
0.0
 40
2.487927979195124
 41
15.26238390489051
 46
6.751777928266487
 71
     5
 72
     5
  1
{\W0.7;18.10.2010}
  7
Romans字体
 73
     1
 44
1.0
1001
AcDbBlockRepETag
1070
     1
1071
        9
1005
AAF
1001
ACAD
1000
ACAD_MTEXT_DEFINED_HEIGHT_BEGIN
1070
    46
1040
6.751777928266487
1000
ACAD_MTEXT_DEFINED_HEIGHT_END
  0
MTEXT
  5
AB0
330
2B8
100
AcDbEntity
  8
图框
 62
     3
100
AcDbMText
 10
1012.477254728976
 20
499.7664151964291
 30
0.0
 40
2.985513575034151
 41
17.64876416884615
 46
6.292658374511397
 71
     5
 72
     5
  1
-
  7
Romans字体
 73
     1
 44
1.0
1001
AcDbBlockRepETag
1070
     1
1071
       10
1005
AB0
1001
ACAD
1000
ACAD_MTEXT_DEFINED_HEIGHT_BEGIN
1070
    46
1040
6.292658374511397
1000
ACAD_MTEXT_DEFINED_HEIGHT_END
  0
MTEXT
  5
AB1
330
2B8
100
AcDbEntity
  8
图框
 62
     3
100
AcDbMText
 10
1028.977802139886
 20
499.7664151964289
 30
0.0
 40
2.487927979195124
 41
15.35233065297265
 46
6.292658374511382
 71
     5
 72
     5
  1
-
  7
Romans字体
 73
     1
 44
1.0
1001
AcDbBlockRepETag
1070
     1
1071
       11
1005
AB1
1001
ACAD
1000
ACAD_MTEXT_DEFINED_HEIGHT_BEGIN
1070
    46
1040
6.292658374511382
1000
ACAD_MTEXT_DEFINED_HEIGHT_END
  0
MTEXT
  5
AB2
330
2B8
100
AcDbEntity
  8
图框
 62
     3
100
AcDbMText
 10
967.6594956750133
 20
487.1810984474071
 30
0.0
 40
2.985513575034151
 41
15.50176341157863
 46
6.292658374511478
 71
     5
 72
     5
  1
-
  7
Romans字体
 73
     1
 44
1.0
1001
AcDbBlockRepETag
1070
     1
1071
       12
1005
AB2
1001
ACAD
1000
ACAD_MTEXT_DEFINED_HEIGHT_BEGIN
1070
    46
1040
6.292658374511478
1000
ACAD_MTEXT_DEFINED_HEIGHT_END
  0
MTEXT
  5
AB3
330
2B8
100
AcDbEntity
  8
图框
 62
     3
100
AcDbMText
 10
983.041569333247
 20
487.1810984474071
 30
0.0
 40
2.487927979195124
 41
15.26238390489062
 46
6.292658374511495
 71
     5
 72
     5
  1
-
  7
Romans字体
 73
     1
 44
1.0
1001
AcDbBlockRepETag
1070
     1
1071
       13
1005
AB3
1001
ACAD
1000
ACAD_MTEXT_DEFINED_HEIGHT_BEGIN
1070
    46
1040
6.292658374511495
1000
ACAD_MTEXT_DEFINED_HEIGHT_END
  0
MTEXT
  5
AB4
330
2B8
100
AcDbEntity
  8
图框
 62
     3
100
AcDbMText
 10
1074.556686986741
 20
495.8417418993361
 30
0.0
 40
2.985513575034151
 41
10.82934843438978
 46
7.886094601210427
 71
     5
 72
     5
  1
-
  7
Romans字体
 73
     1
 44
1.0
1001
AcDbBlockRepETag
1070
     1
1071
       14
1005
AB4
1001
ACAD
1000
ACAD_MTEXT_DEFINED_HEIGHT_BEGIN
1070
    46
1040
7.886094601210427
1000
ACAD_MTEXT_DEFINED_HEIGHT_END
  0
LINE
  5
AB5
330
2B8
100
AcDbEntity
  8
图框
370
    -3
100
AcDbLine
 10
1036.653967466372
 20
499.7847891999413
 30
0.0
 11
1079.971361203936
 21
499.7847891999413
 31
0.0
1001
AcDbBlockRepETag
1070
     1
1071
       15
1005
AB5
  0
MTEXT
  5
AB6
330
2B8
100
AcDbEntity
  8
图框
 62
     1
370
    20
100
AcDbMText
 10
1108.26336443907
 20
491.5162596080882
 30
0.0
 40
2.699054613030988
 41
82.30831305643079
 46
0.0
 71
     5
 72
     5
  1
{\fSimHei|b0|i0|c134|p2;厦门唯恩电气有限公司}
 73
     1
 44
1.0
1001
AcDbBlockRepETag
1070
     1
1071
       16
1005
AB6
  0
MTEXT
  5
AB7
330
2B8
100
AcDbEntity
  8
图框
 62
     3
370
    20
100
AcDbMText
 10
1108.435451459908
 20
487.298967726064
 30
0.0
 40
1.652482416141417
 41
68.08558693693567
 46
0.0
 71
     5
 72
     5
  1
{\fArial Narrow|b0|i0|c0|p34;XIAMEN WAIN ELECTRICAL CO.LTD}
  7
工程字
 73
     1
 44
1.0
1001
AcDbBlockRepETag
1070
     1
1071
       17
1005
AB7
  0
MTEXT
  5
AB8
330
2B8
100
AcDbEntity
  8
图框
 62
     1
370
    20
100
AcDbMText
 10
1085.711816899387
 20
491.0944802995856
 30
0.0
 40
2.005930044038334
 41
5.047240019334847
 46
0.0
 71
     1
 72
     5
  1
{\fArial|b0|i0|c0|p34;A}
  7
Chinese
 73
     1
 44
1.0
1001
AcDbBlockRepETag
1070
     1
1071
       18
1005
AB8
  0
MTEXT
  5
AB9
330
2B8
100
AcDbEntity
  8
图框
 62
     1
370
    20
100
AcDbMText
 10
1088.213485935716
 20
491.0944802995856
 30
0.0
 40
2.005930044038334
 41
5.047240019334847
 46
0.0
 71
     1
 72
     5
  1
{\fArial|b0|i0|c0|p34;I}
  7
Chinese
 73
     1
 44
1.0
1001
AcDbBlockRepETag
1070
     1
1071
       19
1005
AB9
  0
MTEXT
  5
ABA
330
2B8
100
AcDbEntity
  8
图框
 62
     1
370
    20
100
AcDbMText
 10
1089.142375222864
 20
491.0822866326808
 30
0.0
 40
2.005930044038334
 41
5.047240019334847
 46
0.0
 71
     1
 72
     5
  1
{\fArial|b0|i0|c0|p34;N}
  7
Chinese
 73
     1
 44
1.0
1001
AcDbBlockRepETag
1070
     1
1071
       20
1005
ABA
  0
MTEXT
  5
ABB
330
2B8
100
AcDbEntity
  8
图框
100
AcDbMText
 10
1069.142012769545
 20
487.9667319294409
 30
0.0
 40
2.252848170144607
 41
21.65869686878327
 46
7.863925338579296
 71
     5
 72
     5
  1
{\W0.5;\C1;All Dimensions in mm\POriginal Size DIN A 4}
  7
Romans字体
 73
     1
 44
1.0
1001
AcDbBlockRepETag
1070
     1
1071
       21
1005
ABB
1001
ACAD
1000
ACAD_MTEXT_DEFINED_HEIGHT_BEGIN
1070
    46
1040
7.863925338579296
1000
ACAD_MTEXT_DEFINED_HEIGHT_END
  0
MTEXT
  5
ABC
330
2B8
100
AcDbEntity
  8
图框
  6
ByBlock
 62
     6
370
    18
100
AcDbMText
 10
1127.40434942308
 20
508.7896535755975
 30
0.0
 40
2.651776162684904
 41
2.557913877927211
 46
0.0
 71
     1
 72
     5
  1
A
  7
Romans字体
 11
0.0000000000000001
 21
1.0
 31
0.0
 73
     1
 44
1.0
1001
AcDbBlockRepETag
1070
     1
1071
       22
1005
ABC
  0
MTEXT
  5
ABD
330
2B8
100
AcDbEntity
  8
图框
 62
     6
100
AcDbMText
 10
1127.40434942308
 20
556.3746573232886
 30
0.0
 40
2.651776162684904
 41
2.557913877927211
 46
0.0
 71
     1
 72
     5
  1
B
  7
Romans字体
 11
0.0000000000000001
 21
1.0
 31
0.0
 73
     1
 44
1.0
1001
AcDbBlockRepETag
1070
     1
1071
       23
1005
ABD
  0
MTEXT
  5
ABE
330
2B8
100
AcDbEntity
  8
图框
 62
     6
100
AcDbMText
 10
1127.40434942308
 20
607.5539372630998
 30
0.0
 40
2.651776162684904
 41
2.557913877927211
 46
0.0
 71
     1
 72
     5
  1
C
  7
Romans字体
 11
0.0000000000000001
 21
1.0
 31
0.0
 73
     1
 44
1.0
1001
AcDbBlockRepETag
1070
     1
1071
       24
1005
ABE
  0
MTEXT
  5
ABF
330
2B8
100
AcDbEntity
  8
图框
 62
     6
100
AcDbMText
 10
1127.40434942308
 20
658.7332172029115
 30
0.0
 40
2.651776162684904
 41
2.557913877927211
 46
0.0
 71
     1
 72
     5
  1
D
  7
Romans字体
 11
0.0000000000000001
 21
1.0
 31
0.0
 73
     1
 44
1.0
1001
AcDbBlockRepETag
1070
     1
1071
       25
1005
ABF
  0
LINE
  5
AC0
330
2B8
100
AcDbEntity
  8
图框
 62
     6
100
AcDbLine
 10
1130.411601781241
 20
634.0726090796082
 30
0.0
 11
1126.928502610363
 21
634.0726090796082
 31
0.0
1001
AcDbBlockRepETag
1070
     1
1071
       26
1005
AC0
  0
LINE
  5
AC1
330
2B8
100
AcDbEntity
  8
图框
 62
     6
100
AcDbLine
 10
1130.411601781241
 20
582.89332913979
 30
0.0
 11
1126.928502610363
 21
582.89332913979
 31
0.0
1001
AcDbBlockRepETag
1070
     1
1071
       27
1005
AC1
  0
MTEXT
  5
AC2
330
2B8
100
AcDbEntity
  8
图框
 62
     6
100
AcDbMText
 10
1105.329704038389
 20
483.6164543011163
 30
0.0
 40
2.651776162684904
 41
2.557913877927211
 46
0.0
 71
     1
 72
     5
  1
6
  7
Romans字体
 73
     1
 44
1.0
1001
AcDbBlockRepETag
1070
     1
1071
       28
1005
AC2
  0
LINE
  5
AC3
330
2B8
100
AcDbEntity
  8
图框
 62
     6
100
AcDbLine
 10
1081.088565155284
 20
484.0347692601515
 30
0.0
 11
1081.088565155284
 21
480.5347692601475
 31
0.0
1001
AcDbBlockRepETag
1070
     1
1071
       29
1005
AC3
  0
MTEXT
  5
AC4
330
2B8
100
AcDbEntity
  8
图框
 62
     6
100
AcDbMText
 10
1055.900596365941
 20
483.520053108993
 30
0.0
 40
2.651776162684904
 41
2.557913877927211
 46
0.0
 71
     1
 72
     5
  1
5
  7
Romans字体
 73
     1
 44
1.0
1001
AcDbBlockRepETag
1070
     1
1071
       30
1005
AC4
  0
LINE
  5
AC5
330
2B8
100
AcDbEntity
  8
图框
 62
     6
100
AcDbLine
 10
1031.553386436349
 20
484.0347692601515
 30
0.0
 11
1031.553386436349
 21
480.5347692601475
 31
0.0
1001
AcDbBlockRepETag
1070
     1
1071
       31
1005
AC5
  0
MTEXT
  5
AC6
330
2B8
100
AcDbEntity
  8
图框
 62
     6
100
AcDbMText
 10
1006.383180575197
 20
483.5687958215896
 30
0.0
 40
2.651776162684904
 41
2.557913877927211
 46
0.0
 71
     1
 72
     5
  1
4
  7
Romans字体
 73
     1
 44
1.0
1001
AcDbBlockRepETag
1070
     1
1071
       32
1005
AC6
  0
LINE
  5
AC7
330
2B8
100
AcDbEntity
  8
图框
 62
     6
100
AcDbLine
 10
982.0182077173887
 20
484.0347692601515
 30
0.0
 11
982.0182077173887
 21
480.5347692601475
 31
0.0
1001
AcDbBlockRepETag
1070
     1
1071
       33
1005
AC7
  0
MTEXT
  5
AC8
330
2B8
100
AcDbEntity
  8
图框
 62
     6
100
AcDbMText
 10
956.8302389280352
 20
483.5989680297948
 30
0.0
 40
2.651776162684904
 41
2.557913877927211
 46
0.0
 71
     1
 72
     5
  1
3
  7
Romans字体
 73
     1
 44
1.0
1001
AcDbBlockRepETag
1070
     1
1071
       34
1005
AC8
  0
LINE
  5
AC9
330
2B8
100
AcDbEntity
  8
图框
 62
     6
100
AcDbLine
 10
932.4830289984245
 20
484.0347692601515
 30
0.0
 11
932.4830289984245
 21
480.5347692601475
 31
0.0
1001
AcDbBlockRepETag
1070
     1
1071
       35
1005
AC9
  0
MTEXT
  5
ACA
330
2B8
100
AcDbEntity
  8
图框
 62
     6
100
AcDbMText
 10
906.0252349826365
 20
483.6475250013156
 30
0.0
 40
2.651776162684904
 41
2.557913877927211
 46
0.0
 71
     1
 72
     5
  1
2
  7
Romans字体
 73
     1
 44
1.0
1001
AcDbBlockRepETag
1070
     1
1071
       36
1005
ACA
  0
LINE
  5
ACB
330
2B8
100
AcDbEntity
  8
图框
 62
     6
100
AcDbLine
 10
882.9478502794648
 20
484.0347692601515
 30
0.0
 11
882.9478502794648
 21
480.5347692601475
 31
0.0
1001
AcDbBlockRepETag
1070
     1
1071
       37
1005
ACB
  0
MTEXT
  5
ACC
330
2B8
100
AcDbEntity
  8
图框
 62
     6
100
AcDbMText
 10
857.7598814901191
 20
483.651829494754
 30
0.0
 40
2.651776162684904
 41
2.557913877927211
 46
0.0
 71
     1
 72
     5
  1
1
  7
Romans字体
 73
     1
 44
1.0
1001
AcDbBlockRepETag
1070
     1
1071
       38
1005
ACC
  0
LINE
  5
ACD
330
2B8
100
AcDbEntity
  8
图框
370
    50
100
AcDbLine
 10
836.8548209370597
 20
484.0347692601515
 30
0.0
 11
1126.928502610363
 21
484.0347692601515
 31
0.0
1001
AcDbBlockRepETag
1070
     1
1071
       39
1005
ACD
  0
LINE
  5
ACE
330
2B8
100
AcDbEntity
  8
图框
370
    50
100
AcDbLine
 10
836.9128518455362
 20
484.0178684310246
 30
0.0
 11
836.9128518455394
 21
675.0207195125422
 31
0.0
1001
AcDbBlockRepETag
1070
     1
1071
       40
1005
ACE
  0
MTEXT
  5
ACF
330
2B8
100
AcDbEntity
  8
图框
 62
     6
100
AcDbMText
 10
833.8475685789031
 20
658.7332172029115
 30
0.0
 40
2.651776162684904
 41
2.557913877927211
 46
0.0
 71
     1
 72
     5
  1
D
  7
Romans字体
 11
0.0000000000000001
 21
1.0
 31
0.0
 73
     1
 44
1.0
1001
AcDbBlockRepETag
1070
     1
1071
       41
1005
ACF
  0
LINE
  5
AD0
330
2B8
100
AcDbEntity
  8
图框
 62
     6
100
AcDbLine
 10
836.9128518455386
 20
634.0726090796082
 30
0.0
 11
833.4128518455365
 21
634.0726090796082
 31
0.0
1001
AcDbBlockRepETag
1070
     1
1071
       42
1005
AD0
  0
MTEXT
  5
AD1
330
2B8
100
AcDbEntity
  8
图框
 62
     6
100
AcDbMText
 10
833.9039177480142
 20
607.5539372630998
 30
0.0
 40
2.651776162684904
 41
2.557913877927211
 46
0.0
 71
     1
 72
     5
  1
C
  7
Romans字体
 11
0.0000000000000001
 21
1.0
 31
0.0
 73
     1
 44
1.0
1001
AcDbBlockRepETag
1070
     1
1071
       43
1005
AD1
  0
LINE
  5
AD2
330
2B8
100
AcDbEntity
  8
图框
 62
     6
100
AcDbLine
 10
836.9128518455378
 20
582.89332913979
 30
0.0
 11
833.4128518455365
 21
582.89332913979
 31
0.0
1001
AcDbBlockRepETag
1070
     1
1071
       44
1005
AD2
  0
MTEXT
  5
AD3
330
2B8
100
AcDbEntity
  8
图框
 62
     6
100
AcDbMText
 10
833.9039177480142
 20
556.3746573232886
 30
0.0
 40
2.651776162684904
 41
2.557913877927211
 46
0.0
 71
     1
 72
     5
  1
B
  7
Romans字体
 11
0.0000000000000001
 21
1.0
 31
0.0
 73
     1
 44
1.0
1001
AcDbBlockRepETag
1070
     1
1071
       45
1005
AD3
  0
LINE
  5
AD4
330
2B8
100
AcDbEntity
  8
图框
 62
     6
100
AcDbLine
 10
836.9128518455367
 20
531.714049199969
 30
0.0
 11
833.4128518455365
 21
531.714049199969
 31
0.0
1001
AcDbBlockRepETag
1070
     1
1071
       46
1005
AD4
  0
MTEXT
  5
AD5
330
2B8
100
AcDbEntity
  8
图框
 62
     6
100
AcDbMText
 10
833.9039177480142
 20
508.7896535755975
 30
0.0
 40
2.651776162684904
 41
2.557913877927211
 46
0.0
 71
     1
 72
     5
  1
A
  7
Romans字体
 11
0.0000000000000001
 21
1.0
 31
0.0
 73
     1
 44
1.0
1001
AcDbBlockRepETag
1070
     1
1071
       47
1005
AD5
  0
LINE
  5
AD6
330
2B8
100
AcDbEntity
  8
图框
370
    -3
100
AcDbLine
 10
836.9128518455394
 20
675.0207195125422
 30
0.0
 11
836.9128518455394
 21
684.5021384922564
 31
0.0
1001
AcDbBlockRepETag
1070
     1
1071
       48
1005
AD6
  0
LINE
  5
AD7
330
2B8
100
AcDbEntity
  8
图框
370
    -3
100
AcDbLine
 10
842.6237321475781
 20
675.5347692601515
 30
0.0
 11
842.6237321475781
 21
685.0161882398658
 31
0.0
1001
AcDbBlockRepETag
1070
     1
1071
       49
1005
AD7
  0
LINE
  5
AD8
330
2B8
100
AcDbEntity
  8
图框
370
    -3
100
AcDbLine
 10
848.3346124496179
 20
675.5347692601515
 30
0.0
 11
848.3346124496179
 21
685.0161882398658
 31
0.0
1001
AcDbBlockRepETag
1070
     1
1071
       50
1005
AD8
  0
LINE
  5
AD9
330
2B8
100
AcDbEntity
  8
图框
370
    -3
100
AcDbLine
 10
854.0454927516588
 20
675.5347692601515
 30
0.0
 11
854.0454927516588
 21
685.0161882398658
 31
0.0
1001
AcDbBlockRepETag
1070
     1
1071
       51
1005
AD9
  0
LINE
  5
ADA
330
2B8
100
AcDbEntity
  8
图框
370
    -3
100
AcDbLine
 10
861.5351874539182
 20
675.5347692601515
 30
0.0
 11
861.5351874539182
 21
686.7901958362482
 31
0.0
1001
AcDbBlockRepETag
1070
     1
1071
       52
1005
ADA
  0
MTEXT
  5
ADB
330
2B8
100
AcDbEntity
  8
图框
 62
     6
100
AcDbMText
 10
1105.329704038389
 20
678.859919059449
 30
0.0
 40
2.651776162684904
 41
2.557913877927211
 46
0.0
 71
     1
 72
     5
  1
6
  7
Romans字体
 73
     1
 44
1.0
1001
AcDbBlockRepETag
1070
     1
1071
       53
1005
ADB
  0
LINE
  5
ADC
330
2B8
100
AcDbEntity
  8
图框
 62
     6
100
AcDbLine
 10
1081.088565155284
 20
679.0347692601516
 30
0.0
 11
1081.088565155284
 21
675.5347692601515
 31
0.0
1001
AcDbBlockRepETag
1070
     1
1071
       54
1005
ADC
  0
MTEXT
  5
ADD
330
2B8
100
AcDbEntity
  8
图框
 62
     6
100
AcDbMText
 10
1055.900596365941
 20
678.859919059449
 30
0.0
 40
2.651776162684904
 41
2.557913877927211
 46
0.0
 71
     1
 72
     5
  1
5
  7
Romans字体
 73
     1
 44
1.0
1001
AcDbBlockRepETag
1070
     1
1071
       55
1005
ADD
  0
LINE
  5
ADE
330
2B8
100
AcDbEntity
  8
图框
 62
     6
100
AcDbLine
 10
1031.553386436349
 20
679.0347692601516
 30
0.0
 11
1031.553386436349
 21
675.5347692601515
 31
0.0
1001
AcDbBlockRepETag
1070
     1
1071
       56
1005
ADE
  0
MTEXT
  5
ADF
330
2B8
100
AcDbEntity
  8
图框
 62
     6
100
AcDbMText
 10
1006.36541764698
 20
678.7312083656147
 30
0.0
 40
2.651776162684904
 41
2.557913877927211
 46
0.0
 71
     1
 72
     5
  1
4
  7
Romans字体
 73
     1
 44
1.0
1001
AcDbBlockRepETag
1070
     1
1071
       57
1005
ADF
  0
LINE
  5
AE0
330
2B8
100
AcDbEntity
  8
图框
 62
     6
100
AcDbLine
 10
982.0182077173887
 20
679.0347692601516
 30
0.0
 11
982.0182077173887
 21
675.5347692601515
 31
0.0
1001
AcDbBlockRepETag
1070
     1
1071
       58
1005
AE0
  0
MTEXT
  5
AE1
330
2B8
100
AcDbEntity
  8
图框
 62
     6
100
AcDbMText
 10
956.8302389280352
 20
678.859919059449
 30
0.0
 40
2.651776162684904
 41
2.557913877927211
 46
0.0
 71
     1
 72
     5
  1
3
  7
Romans字体
 73
     1
 44
1.0
1001
AcDbBlockRepETag
1070
     1
1071
       59
1005
AE1
  0
LINE
  5
AE2
330
2B8
100
AcDbEntity
  8
图框
 62
     6
100
AcDbLine
 10
932.4830289984245
 20
679.0347692601516
 30
0.0
 11
932.4830289984245
 21
675.5347692601515
 31
0.0
1001
AcDbBlockRepETag
1070
     1
1071
       60
1005
AE2
  0
MTEXT
  5
AE3
330
2B8
100
AcDbEntity
  8
图框
 62
     6
100
AcDbMText
 10
907.295060209082
 20
678.859919059449
 30
0.0
 40
2.651776162684904
 41
2.557913877927211
 46
0.0
 71
     1
 72
     5
  1
2
  7
Romans字体
 73
     1
 44
1.0
1001
AcDbBlockRepETag
1070
     1
1071
       61
1005
AE3
  0
LINE
  5
AE4
330
2B8
100
AcDbEntity
  8
图框
 62
     6
100
AcDbLine
 10
882.9478502794648
 20
678.7962435131815
 30
0.0
 11
882.9478502794648
 21
675.5347692601515
 31
0.0
1001
AcDbBlockRepETag
1070
     1
1071
       62
1005
AE4
  0
MTEXT
  5
AE5
330
2B8
100
AcDbEntity
  8
图框
 62
     6
100
AcDbMText
 10
862.6286629643733
 20
678.859919059449
 30
0.0
 40
2.651776162684904
 41
2.557913877927211
 46
0.0
 71
     1
 72
     5
  1
1
  7
Romans字体
 73
     1
 44
1.0
1001
AcDbBlockRepETag
1070
     1
1071
       63
1005
AE5
  0
LINE
  5
AE6
330
2B8
100
AcDbEntity
  8
图框
370
    -3
100
AcDbLine
 10
836.9128518455394
 20
675.0207195125422
 30
0.0
 11
836.9128518455394
 21
686.7901958362482
 31
0.0
1001
AcDbBlockRepETag
1070
     1
1071
       64
1005
AE6
  0
LINE
  5
AE7
330
2B8
100
AcDbEntity
  8
图框
370
    50
100
AcDbLine
 10
836.9128518455394
 20
675.5347692601515
 30
0.0
 11
1126.928502610363
 21
675.5347692601515
 31
0.0
1001
AcDbBlockRepETag
1070
     1
1071
       65
1005
AE7
  0
LINE
  5
AE8
330
2B8
100
AcDbEntity
  8
图框
370
    -3
100
AcDbLine
 10
842.6237321475781
 20
675.5347692601515
 30
0.0
 11
842.6237321475781
 21
686.7901958362482
 31
0.0
1001
AcDbBlockRepETag
1070
     1
1071
       66
1005
AE8
  0
LINE
  5
AE9
330
2B8
100
AcDbEntity
  8
图框
370
    -3
100
AcDbLine
 10
848.3346124496179
 20
675.5347692601515
 30
0.0
 11
848.3346124496179
 21
686.7901958362482
 31
0.0
1001
AcDbBlockRepETag
1070
     1
1071
       67
1005
AE9
  0
MTEXT
  5
AEA
102
{ACAD_XDICTIONARY
360
B46
102
}
330
2B8
100
AcDbEntity
  8
图框
100
AcDbMText
 10
857.7903401027889
 20
686.7901958362482
 30
0.0
 40
1.958998408821398
 41
11.25542657609672
 46
7.489694702258906
 71
     4
 72
     5
  1
\pi2.6646;{\fSimSun|b0|i0|c134|p2;档案员\fFangSong_GB2312|b0|i0|c134|p49;\H0.7x;\P\pi1.4159;\Fromans|c134;Filing Clerk\fFangSong_GB2312|b0|i0|c134|p49; }
 11
-0.0000000000000002
 21
-1.0
 31
0.0
 73
     1
 44
1.0
1001
AcDbBlockRepETag
1070
     1
1071
       68
1005
AEA
1001
ACAD
1000
ACAD_MTEXT_DEFINED_HEIGHT_BEGIN
1070
    46
1040
7.489694702258906
1000
ACAD_MTEXT_DEFINED_HEIGHT_END
  0
MTEXT
  5
AEB
102
{ACAD_XDICTIONARY
360
B48
102
}
330
2B8
100
AcDbEntity
  8
图框
100
AcDbMText
 10
845.479172298598
 20
686.7901958362482
 30
0.0
 40
1.958998408821398
 41
11.25542657609672
 46
5.710880302039671
 71
     4
 72
     5
  1
\pi0.63465;{\fSimSun|b0|i0|c134|p2;日期\Fromans|c134;/Date}
 11
-0.0000000000000002
 21
-1.0
 31
0.0
 73
     1
 44
1.0
1001
AcDbBlockRepETag
1070
     1
1071
       69
1005
AEB
1001
ACAD
1000
ACAD_MTEXT_DEFINED_HEIGHT_BEGIN
1070
    46
1040
5.710880302039671
1000
ACAD_MTEXT_DEFINED_HEIGHT_END
  0
LINE
  5
AEC
330
2B8
100
AcDbEntity
  8
图框
370
    -3
100
AcDbLine
 10
854.0454927516588
 20
675.5347692601515
 30
0.0
 11
854.0454927516588
 21
686.7901958362482
 31
0.0
1001
AcDbBlockRepETag
1070
     1
1071
       70
1005
AEC
  0
LINE
  5
AED
330
2B8
100
AcDbEntity
  8
图框
370
    -3
100
AcDbLine
 10
1036.653967466372
 20
531.3291676047914
 30
0.0
 11
1036.653967466372
 21
484.0126019753161
 31
0.0
1001
AcDbBlockRepETag
1070
     1
1071
       71
1005
AED
  0
LINE
  5
AEE
330
2B8
100
AcDbEntity
  8
图框
370
    -3
100
AcDbLine
 10
1047.483315900763
 20
507.6708838011533
 30
0.0
 11
1047.483315900763
 21
491.8986945987308
 31
0.0
1001
AcDbBlockRepETag
1070
     1
1071
       72
1005
AEE
  0
LINE
  5
AEF
330
2B8
100
AcDbEntity
  8
图框
370
    -3
100
AcDbLine
 10
1058.312664335153
 20
507.6708838011533
 30
0.0
 11
1058.312664335153
 21
484.0347692601515
 31
0.0
1001
AcDbBlockRepETag
1070
     1
1071
       73
1005
AEF
  0
LINE
  5
AF0
330
2B8
100
AcDbEntity
  8
图框
370
    25
100
AcDbLine
 10
1048.474135214456
 20
488.1095628329926
 30
0.0
 11
1054.946420288459
 21
488.1095628329926
 31
0.0
1001
AcDbBlockRepETag
1070
     1
1071
       74
1005
AF0
  0
LINE
  5
AF1
330
2B8
100
AcDbEntity
  8
图框
370
    25
100
AcDbLine
 10
1054.232527365989
 20
487.0761716842634
 30
0.0
 11
1049.156490914508
 21
486.4576273751
 31
0.0
1001
AcDbBlockRepETag
1070
     1
1071
       75
1005
AF1
  0
LINE
  5
AF2
330
2B8
100
AcDbEntity
  8
图框
370
    25
100
AcDbLine
 10
1054.232527365989
 20
489.1429539817209
 30
0.0
 11
1049.156490914508
 21
489.7614982908846
 31
0.0
1001
AcDbBlockRepETag
1070
     1
1071
       76
1005
AF2
  0
LINE
  5
AF3
330
2B8
100
AcDbEntity
  8
图框
370
    25
100
AcDbLine
 10
1049.156490914508
 20
489.7614982908846
 30
0.0
 11
1049.156490914508
 21
486.4576273751
 31
0.0
1001
AcDbBlockRepETag
1070
     1
1071
       77
1005
AF3
  0
LINE
  5
AF4
330
2B8
100
AcDbEntity
  8
图框
370
    25
100
AcDbLine
 10
1054.232527365989
 20
489.1429539817209
 30
0.0
 11
1054.232527365989
 21
487.0761716842634
 31
0.0
1001
AcDbBlockRepETag
1070
     1
1071
       78
1005
AF4
  0
CIRCLE
  5
AF5
330
2B8
100
AcDbEntity
  8
图框
370
    25
100
AcDbCircle
 10
1042.502700458579
 20
488.1095628329926
 30
0.0
 40
1.651935457891863
1001
AcDbBlockRepETag
1070
     1
1071
       79
1005
AF5
  0
CIRCLE
  5
AF6
330
2B8
100
AcDbEntity
  8
图框
370
    25
100
AcDbCircle
 10
1042.502700458579
 20
488.1095628329926
 30
0.0
 40
1.033391148728775
1001
AcDbBlockRepETag
1070
     1
1071
       80
1005
AF6
  0
LINE
  5
AF7
330
2B8
100
AcDbEntity
  8
图框
370
    25
100
AcDbLine
 10
1040.136872078216
 20
488.1095628329926
 30
0.0
 11
1044.868528838943
 21
488.1095628329926
 31
0.0
1001
AcDbBlockRepETag
1070
     1
1071
       81
1005
AF7
  0
LINE
  5
AF8
330
2B8
100
AcDbEntity
  8
图框
370
    25
100
AcDbLine
 10
1042.502700458579
 20
490.475391213355
 30
0.0
 11
1042.502700458579
 21
485.743734452629
 31
0.0
1001
AcDbBlockRepETag
1070
     1
1071
       82
1005
AF8
  0
LINE
  5
AF9
330
2B8
100
AcDbEntity
  8
图框
370
    -3
100
AcDbLine
 10
1069.142012769546
 20
507.6708838011533
 30
0.0
 11
1069.142012769546
 21
491.8986945987308
 31
0.0
1001
AcDbBlockRepETag
1070
     1
1071
       83
1005
AF9
  0
MTEXT
  5
AFA
330
2B8
100
AcDbEntity
  8
图框
100
AcDbMText
 10
1086.643735910939
 20
526.8006839312707
 30
0.0
 40
2.154898249703542
 41
13.34474941400573
 46
9.056967347041775
 71
     5
 72
     5
  1
图号{\Ftxt|c134;\P\Fromans|c134;\W0.65;Drawing No.}
 73
     1
 44
1.0
1001
AcDbBlockRepETag
1070
     1
1071
       84
1005
AFA
1001
ACAD
1000
ACAD_MTEXT_DEFINED_HEIGHT_BEGIN
1070
    46
1040
9.056967347041775
1000
ACAD_MTEXT_DEFINED_HEIGHT_END
  0
LINE
  5
AFB
330
2B8
100
AcDbEntity
  8
图框
370
    -3
100
AcDbLine
 10
1093.316110617942
 20
531.3291676047914
 30
0.0
 11
1093.316110617942
 21
495.8417418993347
 31
0.0
1001
AcDbBlockRepETag
1070
     1
1071
       85
1005
AFB
  0
LINE
  5
AFC
330
2B8
100
AcDbEntity
  8
图框
370
    -3
100
AcDbLine
 10
1047.473969770481
 20
531.3291676047914
 30
0.0
 11
1047.473969770481
 21
507.6708838011533
 31
0.0
1001
AcDbBlockRepETag
1070
     1
1071
       86
1005
AFC
  0
MTEXT
  5
AFD
330
2B8
100
AcDbEntity
  8
图框
100
AcDbMText
 10
1063.72733855235
 20
503.7278365005473
 30
0.0
 40
2.252848170144607
 41
10.82934843439208
 46
7.886094601212128
 71
     5
 72
     5
  1
重量\P{\Fromans|c134;Weight}
 73
     1
 44
1.0
1001
AcDbBlockRepETag
1070
     1
1071
       87
1005
AFD
1001
ACAD
1000
ACAD_MTEXT_DEFINED_HEIGHT_BEGIN
1070
    46
1040
7.886094601212128
1000
ACAD_MTEXT_DEFINED_HEIGHT_END
  0
LINE
  5
AFE
330
2B8
100
AcDbEntity
  8
图框
370
    -3
100
AcDbLine
 10
1036.653967466372
 20
519.5000257029746
 30
0.0
 11
1079.971361203936
 21
519.5000257029746
 31
0.0
1001
AcDbBlockRepETag
1070
     1
1071
       88
1005
AFE
  0
MTEXT
  5
AFF
330
2B8
100
AcDbEntity
  8
图框
100
AcDbMText
 10
1074.556686986741
 20
503.7278365005473
 30
0.0
 40
2.252848170144607
 41
10.82934843438984
 46
7.886094601212141
 71
     5
 72
     5
  1
数量\P{\Fromans|c134;Qty.}
 73
     1
 44
1.0
1001
AcDbBlockRepETag
1070
     1
1071
       89
1005
AFF
1001
ACAD
1000
ACAD_MTEXT_DEFINED_HEIGHT_BEGIN
1070
    46
1040
7.886094601212141
1000
ACAD_MTEXT_DEFINED_HEIGHT_END
  0
LINE
  5
B00
330
2B8
100
AcDbEntity
  8
图框
370
    -3
100
AcDbLine
 10
1079.971361203936
 20
495.8417418993347
 30
0.0
 11
1126.928502610363
 21
495.8417418993342
 31
0.0
1001
AcDbBlockRepETag
1070
     1
1071
       90
1005
B00
  0
LINE
  5
B01
330
2B8
100
AcDbEntity
  8
图框
370
    -3
100
AcDbLine
 10
1079.971361203936
 20
504.7132992040975
 30
0.0
 11
1126.928502610363
 21
504.7132992040975
 31
0.0
1001
AcDbBlockRepETag
1070
     1
1071
       91
1005
B01
  0
MTEXT
  5
B02
330
2B8
100
AcDbEntity
  8
图框
100
AcDbMText
 10
1052.893317052817
 20
503.7278365005473
 30
0.0
 40
2.252848170144607
 41
10.83869456467139
 46
7.886094601212101
 71
     5
 72
     5
  1
版本\P{\Fromans|c134;REV.}
 73
     1
 44
1.0
1001
AcDbBlockRepETag
1070
     1
1071
       92
1005
B02
1001
ACAD
1000
ACAD_MTEXT_DEFINED_HEIGHT_BEGIN
1070
    46
1040
7.886094601212101
1000
ACAD_MTEXT_DEFINED_HEIGHT_END
  0
MTEXT
  5
B03
330
2B8
100
AcDbEntity
  8
图框
100
AcDbMText
 10
1042.068641683568
 20
503.7278365005473
 30
0.0
 40
2.252848170144607
 41
10.8293484343908
 46
7.886094601212136
 71
     5
 72
     5
  1
比例\P{\Fromans|c134;Scale}
 73
     1
 44
1.0
1001
AcDbBlockRepETag
1070
     1
1071
       93
1005
B03
1001
ACAD
1000
ACAD_MTEXT_DEFINED_HEIGHT_BEGIN
1070
    46
1040
7.886094601212136
1000
ACAD_MTEXT_DEFINED_HEIGHT_END
  0
LINE
  5
B04
330
2B8
100
AcDbEntity
  8
图框
370
    -3
100
AcDbLine
 10
1036.653967466372
 20
507.6708838011533
 30
0.0
 11
1079.971361203936
 21
507.6708838011533
 31
0.0
1001
AcDbBlockRepETag
1070
     1
1071
       94
1005
B04
  0
LINE
  5
B05
330
2B8
100
AcDbEntity
  8
图框
370
    -3
100
AcDbLine
 10
1036.653967466372
 20
491.8986945987308
 30
0.0
 11
1079.971361203936
 21
491.8986945987308
 31
0.0
1001
AcDbBlockRepETag
1070
     1
1071
       95
1005
B05
  0
LINE
  5
B06
330
2B8
100
AcDbEntity
  8
图框
370
    -3
100
AcDbLine
 10
1079.971361203936
 20
531.3291676047914
 30
0.0
 11
1079.971361203936
 21
484.0125999975168
 31
0.0
1001
AcDbBlockRepETag
1070
     1
1071
       96
1005
B06
  0
MTEXT
  5
B07
330
2B8
100
AcDbEntity
  8
图框
100
AcDbMText
 10
1042.063968618426
 20
525.4145966538832
 30
0.0
 40
2.252848170144607
 41
10.82000230410933
 46
11.82914190181708
 71
     5
 72
     5
  1
表面处理\P{\Fromans|c134;Finish}
 73
     1
 44
1.0
1001
AcDbBlockRepETag
1070
     1
1071
       97
1005
B07
1001
ACAD
1000
ACAD_MTEXT_DEFINED_HEIGHT_BEGIN
1070
    46
1040
11.82914190181708
1000
ACAD_MTEXT_DEFINED_HEIGHT_END
  0
MTEXT
  5
B08
330
2B8
100
AcDbEntity
  8
图框
100
AcDbMText
 10
1042.063968618426
 20
513.5854547520639
 30
0.0
 40
2.252848170144607
 41
10.82000230410933
 46
11.8291419018212
 71
     5
 72
     5
  1
材料\P{\Fromans|c134;Material}
 73
     1
 44
1.0
1001
AcDbBlockRepETag
1070
     1
1071
       98
1005
B08
1001
ACAD
1000
ACAD_MTEXT_DEFINED_HEIGHT_BEGIN
1070
    46
1040
11.8291419018212
1000
ACAD_MTEXT_DEFINED_HEIGHT_END
  0
LINE
  5
B09
330
2B8
100
AcDbEntity
  8
图框
370
    -3
100
AcDbLine
 10
1079.971361203936
 20
522.27220025775
 30
0.0
 11
1126.928502610363
 21
522.27220025775
 31
0.0
1001
AcDbBlockRepETag
1070
     1
1071
       99
1005
B09
  0
LINE
  5
B0A
330
2B8
100
AcDbEntity
  8
图框
370
    -3
100
AcDbLine
 10
1079.971361203936
 20
513.5854547520641
 30
0.0
 11
1126.928502610363
 21
513.5854547520639
 31
0.0
1001
AcDbBlockRepETag
1070
     1
1071
      100
1005
B0A
  0
MTEXT
  5
B0B
330
2B8
100
AcDbEntity
  8
图框
100
AcDbMText
 10
1086.643735910939
 20
517.9288275049072
 30
0.0
 40
1.958998408821398
 41
13.34474941400573
 46
8.686745505685811
 71
     5
 72
     5
  1
产品代号\P{\Fromans|c134;Part Code}
 73
     1
 44
1.0
1001
AcDbBlockRepETag
1070
     1
1071
      101
1005
B0B
1001
ACAD
1000
ACAD_MTEXT_DEFINED_HEIGHT_BEGIN
1070
    46
1040
8.686745505685811
1000
ACAD_MTEXT_DEFINED_HEIGHT_END
  0
LINE
  5
B0C
330
2B8
100
AcDbEntity
  8
图框
370
    -3
100
AcDbLine
 10
946.9285026103634
 20
525.7982263931411
 30
0.0
 11
1036.653967466372
 21
525.7982263931411
 31
0.0
1001
AcDbBlockRepETag
1070
     1
1071
      102
1005
B0C
  0
LINE
  5
B0D
330
2B8
100
AcDbEntity
  8
图框
370
    -3
100
AcDbLine
 10
946.9285026103634
 20
520.2672851814959
 30
0.0
 11
1036.653967466372
 21
520.2672851814959
 31
0.0
1001
AcDbBlockRepETag
1070
     1
1071
      103
1005
B0D
  0
LINE
  5
B0E
330
2B8
100
AcDbEntity
  8
图框
370
    35
100
AcDbLine
 10
946.9285026103634
 20
531.3291676047914
 30
0.0
 11
1126.928502610363
 21
531.3291676047914
 31
0.0
1001
AcDbBlockRepETag
1070
     1
1071
      104
1005
B0E
  0
LINE
  5
B0F
330
2B8
100
AcDbEntity
  8
图框
370
    -3
100
AcDbLine
 10
990.6727612856927
 20
509.2054027581959
 30
0.0
 11
990.6727612856927
 21
484.0347692601515
 31
0.0
1001
AcDbBlockRepETag
1070
     1
1071
      105
1005
B0F
  0
MTEXT
  5
B10
102
{ACAD_XDICTIONARY
360
B4A
102
}
330
2B8
100
AcDbEntity
  8
图框
100
AcDbMText
 10
997.1628169651232
 20
499.816589978722
 30
0.0
 40
2.252848170144607
 41
12.98011135886052
 46
6.19230880992475
 71
     5
 72
     5
  1
{\fSimSun|b0|i0|c134|p2;标准化}\PStand.
  7
Romans字体
 73
     1
 44
1.0
1001
AcDbBlockRepETag
1070
     1
1071
      106
1005
B10
1001
ACAD
1000
ACAD_MTEXT_DEFINED_HEIGHT_BEGIN
1070
    46
1040
6.19230880992475
1000
ACAD_MTEXT_DEFINED_HEIGHT_END
  0
LINE
  5
B11
330
2B8
100
AcDbEntity
  8
图框
370
    -3
100
AcDbLine
 10
975.4103773808022
 20
509.2054027581959
 30
0.0
 11
975.4103773808022
 21
484.0347692601515
 31
0.0
1001
AcDbBlockRepETag
1070
     1
1071
      107
1005
B11
  0
MTEXT
  5
B12
330
2B8
100
AcDbEntity
  8
图框
100
AcDbMText
 10
984.5089229802068
 20
511.9708733640202
 30
0.0
 40
2.448748011026752
 41
38.287899328693
 46
5.530941211648832
 71
     5
 72
     5
  1
  变更描述{\Fromans|c134;/Description}
 73
     1
 44
1.0
1001
AcDbBlockRepETag
1070
     1
1071
      108
1005
B12
1001
ACAD
1000
ACAD_MTEXT_DEFINED_HEIGHT_BEGIN
1070
    46
1040
5.530941211648832
1000
ACAD_MTEXT_DEFINED_HEIGHT_END
  0
MTEXT
  5
B13
102
{ACAD_XDICTIONARY
360
B4C
102
}
330
2B8
100
AcDbEntity
  8
图框
100
AcDbMText
 10
1012.466086049227
 20
511.9708733640202
 30
0.0
 40
1.958998408821398
 41
17.6264268093469
 46
5.530941211648825
 71
     5
 72
     5
  1
{\fSimSun|b0|i0|c134|p2;签名\P\Fromans|c134;Signature} 
 73
     1
 44
1.0
1001
AcDbBlockRepETag
1070
     1
1071
      109
1005
B13
1001
ACAD
1000
ACAD_MTEXT_DEFINED_HEIGHT_BEGIN
1070
    46
1040
5.530941211648825
1000
ACAD_MTEXT_DEFINED_HEIGHT_END
  0
MTEXT
  5
B14
102
{ACAD_XDICTIONARY
360
B4E
102
}
330
2B8
100
AcDbEntity
  8
图框
100
AcDbMText
 10
960.7558556394856
 20
511.9708733640202
 30
0.0
 40
1.958998408821398
 41
9.218235352749283
 46
5.530941211648841
 71
     5
 72
     5
  1
{\fSimSun|b0|i0|c134|p2;处数\P\Fromans|c134;Number }
 73
     1
 44
1.0
1001
AcDbBlockRepETag
1070
     1
1071
      110
1005
B14
1001
ACAD
1000
ACAD_MTEXT_DEFINED_HEIGHT_BEGIN
1070
    46
1040
5.530941211648841
1000
ACAD_MTEXT_DEFINED_HEIGHT_END
  0
LINE
  5
B15
330
2B8
100
AcDbEntity
  8
图框
370
    -3
100
AcDbLine
 10
946.9285026103634
 20
514.7363439698449
 30
0.0
 11
1036.653967466372
 21
514.7363439698449
 31
0.0
1001
AcDbBlockRepETag
1070
     1
1071
      111
1005
B15
  0
LINE
  5
B16
330
2B8
100
AcDbEntity
  8
图框
370
    -3
100
AcDbLine
 10
946.9285026103634
 20
509.2054027581959
 30
0.0
 11
1036.653967466372
 21
509.2054027581959
 31
0.0
1001
AcDbBlockRepETag
1070
     1
1071
      112
1005
B16
  0
LINE
  5
B17
330
2B8
100
AcDbEntity
  8
图框
370
    -3
100
AcDbLine
 10
946.9285026103634
 20
502.9127443836848
 30
0.0
 11
1036.653967466372
 21
502.9127443836848
 31
0.0
1001
AcDbBlockRepETag
1070
     1
1071
      113
1005
B17
  0
LINE
  5
B18
330
2B8
100
AcDbEntity
  8
图框
370
    -3
100
AcDbLine
 10
946.9285026103634
 20
496.620086009173
 30
0.0
 11
1036.653967466372
 21
496.620086009173
 31
0.0
1001
AcDbBlockRepETag
1070
     1
1071
      114
1005
B18
  0
LINE
  5
B19
330
2B8
100
AcDbEntity
  8
图框
370
    35
380
     1
100
AcDbLine
 10
946.9285026103634
 20
531.3291676047914
 30
0.0
 11
946.9285026103634
 21
484.0347692601515
 31
0.0
1001
AcDbBlockRepETag
1070
     1
1071
      115
1005
B19
  0
LINE
  5
B1A
330
2B8
100
AcDbEntity
  8
图框
370
    -3
100
AcDbLine
 10
1021.301636813399
 20
531.3291676047914
 30
0.0
 11
1021.301636813399
 21
484.0347692601515
 31
0.0
1001
AcDbBlockRepETag
1070
     1
1071
      116
1005
B1A
  0
LINE
  5
B1B
330
2B8
100
AcDbEntity
  8
图框
370
    -3
100
AcDbLine
 10
1003.652872644553
 20
531.3291676047914
 30
0.0
 11
1003.652872644553
 21
484.0347692601515
 31
0.0
1001
AcDbBlockRepETag
1070
     1
1071
      117
1005
B1B
  0
LINE
  5
B1C
330
2B8
100
AcDbEntity
  8
图框
370
    -3
100
AcDbLine
 10
965.3649733158603
 20
531.3291676047914
 30
0.0
 11
965.3649733158603
 21
509.2054027581959
 31
0.0
1001
AcDbBlockRepETag
1070
     1
1071
      118
1005
B1C
  0
LINE
  5
B1D
330
2B8
100
AcDbEntity
  8
图框
370
    -3
100
AcDbLine
 10
956.1467379631109
 20
531.3291676047914
 30
0.0
 11
956.1467379631109
 21
509.2054027581959
 31
0.0
1001
AcDbBlockRepETag
1070
     1
1071
      119
1005
B1D
  0
MTEXT
  5
B1E
102
{ACAD_XDICTIONARY
360
B50
102
}
330
2B8
100
AcDbEntity
  8
图框
100
AcDbMText
 10
951.537620286737
 20
511.9708733640202
 30
0.0
 40
1.958998408821398
 41
9.218235352747692
 46
5.530941211648832
 71
     5
 72
     5
  1
{\fSimSun|b0|i0|c134|p2;标记\P\Fromans|c134;Mark}
 73
     1
 44
1.0
1001
AcDbBlockRepETag
1070
     1
1071
      120
1005
B1E
1001
ACAD
1000
ACAD_MTEXT_DEFINED_HEIGHT_BEGIN
1070
    46
1040
5.530941211648832
1000
ACAD_MTEXT_DEFINED_HEIGHT_END
  0
MTEXT
  5
B1F
102
{ACAD_XDICTIONARY
360
B52
102
}
330
2B8
100
AcDbEntity
  8
图框
100
AcDbMText
 10
953.4185582897936
 20
493.4737568219182
 30
0.0
 40
2.252848170144607
 41
12.98011135886041
 46
6.292658374510382
 71
     5
 72
     5
  1
{\fSimSun|b0|i0|c134|p2;审核\P\Fromans|c134;Checked}
 73
     1
 44
1.0
1001
AcDbBlockRepETag
1070
     1
1071
      121
1005
B1F
1001
ACAD
1000
ACAD_MTEXT_DEFINED_HEIGHT_BEGIN
1070
    46
1040
6.292658374510382
1000
ACAD_MTEXT_DEFINED_HEIGHT_END
  0
MTEXT
  5
B20
102
{ACAD_XDICTIONARY
360
B54
102
}
330
2B8
100
AcDbEntity
  8
图框
100
AcDbMText
 10
953.4185582897936
 20
499.8775635376777
 30
0.0
 40
2.252848170144607
 41
12.98011135886041
 46
6.070361692014189
 71
     5
 72
     5
  1
{\fSimSun|b0|i0|c134|p2;绘图\P\Fromans|c134;Drawn\Ftxt|c134; }
 73
     1
 44
1.0
1001
AcDbBlockRepETag
1070
     1
1071
      122
1005
B20
1001
ACAD
1000
ACAD_MTEXT_DEFINED_HEIGHT_BEGIN
1070
    46
1040
6.070361692014189
1000
ACAD_MTEXT_DEFINED_HEIGHT_END
  0
ARC
  5
B21
330
2B8
100
AcDbEntity
  8
图框
 62
     4
370
    35
100
AcDbCircle
 10
1086.900627017421
 20
490.0179944151195
 30
0.0
 40
4.063310408393665
100
AcDbArc
 50
18.95237904564806
 51
161.0476209543519
1001
AcDbBlockRepETag
1070
     1
1071
      123
1005
B21
  0
ARC
  5
B22
330
2B8
100
AcDbEntity
  8
图框
 62
     4
370
    35
100
AcDbCircle
 10
1086.900627017421
 20
490.0179944151195
 30
0.0
 40
4.063310408393665
100
AcDbArc
 50
198.952379045648
 51
341.0476209543519
1001
AcDbBlockRepETag
1070
     1
1071
      124
1005
B22
  0
LINE
  5
B23
330
2B8
100
AcDbEntity
  8
图框
 62
     4
370
    35
100
AcDbLine
 10
1083.057593369548
 20
488.6983035966752
 30
0.0
 11
1090.74366066529
 21
488.6983035966752
 31
0.0
1001
AcDbBlockRepETag
1070
     1
1071
      125
1005
B23
  0
LINE
  5
B24
330
2B8
100
AcDbEntity
  8
图框
 62
     4
370
    35
100
AcDbLine
 10
1083.057593369548
 20
491.3376852335652
 30
0.0
 11
1090.74366066529
 21
491.3376852335652
 31
0.0
1001
AcDbBlockRepETag
1070
     1
1071
      126
1005
B24
  0
MTEXT
  5
B25
330
2B8
100
AcDbEntity
  8
图框
 62
     1
370
    20
100
AcDbMText
 10
1083.034582879669
 20
491.0506288081688
 30
0.0
 40
2.005930044038334
 41
5.047240019334847
 46
0.0
 71
     1
 72
     5
  1
{\fArial|b0|i0|c0|p34;W}
  7
Chinese
 73
     1
 44
1.0
1001
AcDbBlockRepETag
1070
     1
1071
      127
1005
B25
  0
LINE
  5
B26
330
2B8
100
AcDbEntity
  8
图框
370
    -3
100
AcDbLine
 10
946.9285026103634
 20
490.327427634663
 30
0.0
 11
1036.653967466372
 21
490.327427634663
 31
0.0
1001
AcDbBlockRepETag
1070
     1
1071
      128
1005
B26
  0
LINE
  5
B27
330
2B8
100
AcDbEntity
  8
图框
370
    -3
100
AcDbLine
 10
959.9086139692238
 20
509.2054027581959
 30
0.0
 11
959.9086139692238
 21
484.0347692601515
 31
0.0
1001
AcDbBlockRepETag
1070
     1
1071
      129
1005
B27
  0
MTEXT
  5
B28
330
2B8
100
AcDbEntity
  8
图框
100
AcDbMText
 10
967.6594956750129
 20
506.0590735709403
 30
0.0
 40
2.252848170144607
 41
15.50176341157869
 46
6.292658374511246
 71
     5
 72
     5
  1
姓名{\Fromans|c134;/Name\Ftxt|c134; }
 73
     1
 44
1.0
1001
AcDbBlockRepETag
1070
     1
1071
      130
1005
B28
1001
ACAD
1000
ACAD_MTEXT_DEFINED_HEIGHT_BEGIN
1070
    46
1040
6.292658374511246
1000
ACAD_MTEXT_DEFINED_HEIGHT_END
  0
MTEXT
  5
B29
330
2B8
100
AcDbEntity
  8
图框
100
AcDbMText
 10
983.0415693332477
 20
506.0590735709403
 30
0.0
 40
2.252848170144607
 41
15.26238390489042
 46
6.2926583745112
 71
     5
 72
     5
  1
日期{\Fromans|c134;/Date}
 73
     1
 44
1.0
1001
AcDbBlockRepETag
1070
     1
1071
      131
1005
B29
1001
ACAD
1000
ACAD_MTEXT_DEFINED_HEIGHT_BEGIN
1070
    46
1040
6.2926583745112
1000
ACAD_MTEXT_DEFINED_HEIGHT_END
  0
LINE
  5
B2A
330
2B8
100
AcDbEntity
  8
图框
370
    -3
100
AcDbLine
 10
946.9285026103634
 20
509.2054027581959
 30
0.0
 11
959.9086139692238
 21
502.9127443836848
 31
0.0
1001
AcDbBlockRepETag
1070
     1
1071
      132
1005
B2A
  0
MTEXT
  5
B2B
330
2B8
100
AcDbEntity
  8
图框
100
AcDbMText
 10
1012.931405110086
 20
506.0185715840725
 30
0.0
 40
2.252848170144607
 41
16.93492221063566
 46
0.0
 71
     5
 72
     5
  1
姓名{\Fromans|c134;/Name}
 73
     1
 44
1.0
1001
AcDbBlockRepETag
1070
     1
1071
      133
1005
B2B
  0
MTEXT
  5
B2C
330
2B8
100
AcDbEntity
  8
图框
100
AcDbMText
 10
1028.977802139886
 20
506.0590735709403
 30
0.0
 40
2.252848170144607
 41
15.35233065297283
 46
6.292658374511256
 71
     5
 72
     5
  1
日期{\Fromans|c134;/Date}
 73
     1
 44
1.0
1001
AcDbBlockRepETag
1070
     1
1071
      134
1005
B2C
1001
ACAD
1000
ACAD_MTEXT_DEFINED_HEIGHT_BEGIN
1070
    46
1040
6.292658374511256
1000
ACAD_MTEXT_DEFINED_HEIGHT_END
  0
LINE
  5
B2D
330
2B8
100
AcDbEntity
  8
图框
370
    -3
100
AcDbLine
 10
1003.652872644553
 20
502.9127443836848
 30
0.0
 11
990.6727612856927
 21
509.2054027581959
 31
0.0
1001
AcDbBlockRepETag
1070
     1
1071
      135
1005
B2D
  0
MTEXT
  5
B2E
102
{ACAD_XDICTIONARY
360
B56
102
}
330
2B8
100
AcDbEntity
  8
图框
100
AcDbMText
 10
997.1628169651232
 20
487.1810984474071
 30
0.0
 40
2.252848170144607
 41
12.98011135886052
 46
6.292658374511517
 71
     5
 72
     5
  1
{\fSimSun|b0|i0|c134|p2;批准\P\Fromans|c134;Approved}
 73
     1
 44
1.0
1001
AcDbBlockRepETag
1070
     1
1071
      136
1005
B2E
1001
ACAD
1000
ACAD_MTEXT_DEFINED_HEIGHT_BEGIN
1070
    46
1040
6.292658374511517
1000
ACAD_MTEXT_DEFINED_HEIGHT_END
  0
MTEXT
  5
B2F
102
{ACAD_XDICTIONARY
360
B58
102
}
330
2B8
100
AcDbEntity
  8
图框
100
AcDbMText
 10
953.4185582897936
 20
487.1810984474071
 30
0.0
 40
2.252848170144607
 41
12.98011135886041
 46
6.292658374511495
 71
     5
 72
     5
  1
{\fSimSun|b0|i0|c134|p2;工艺\P\Fromans|c134;Process}
 73
     1
 44
1.0
1001
AcDbBlockRepETag
1070
     1
1071
      137
1005
B2F
1001
ACAD
1000
ACAD_MTEXT_DEFINED_HEIGHT_BEGIN
1070
    46
1040
6.292658374511495
1000
ACAD_MTEXT_DEFINED_HEIGHT_END
  0
MTEXT
  5
B30
102
{ACAD_XDICTIONARY
360
B5A
102
}
330
2B8
100
AcDbEntity
  8
图框
100
AcDbMText
 10
1028.977802139886
 20
511.8287965307664
 30
0.0
 40
1.958998408821398
 41
15.3523306529728
 46
5.246787545140668
 71
     5
 72
     5
  1
{\fSimSun|b0|i0|c134|p2;日期\P\Fromans|c134;Date}
 73
     1
 44
1.0
1001
AcDbBlockRepETag
1070
     1
1071
      138
1005
B30
1001
ACAD
1000
ACAD_MTEXT_DEFINED_HEIGHT_BEGIN
1070
    46
1040
5.246787545140668
1000
ACAD_MTEXT_DEFINED_HEIGHT_END
  0
MTEXT
  5
B31
330
2B8
100
AcDbEntity
  8
图框
100
AcDbMText
 10
1086.643735910939
 20
509.1493769780809
 30
0.0
 40
2.154898249703542
 41
13.34474941400573
 46
8.87215554796615
 71
     5
 72
     5
  1
产品料号\P{\Fromans|c134;Part No.}
 73
     1
 44
1.0
1001
AcDbBlockRepETag
1070
     1
1071
      139
1005
B31
1001
ACAD
1000
ACAD_MTEXT_DEFINED_HEIGHT_BEGIN
1070
    46
1040
8.87215554796615
1000
ACAD_MTEXT_DEFINED_HEIGHT_END
  0
MTEXT
  5
B32
330
2B8
100
AcDbEntity
  8
图框
100
AcDbMText
 10
1086.643735910939
 20
500.2775205517163
 30
0.0
 40
1.958998408821398
 41
13.34474941400573
 46
8.871557304763321
 71
     5
 72
     5
  1
产品名称\P{\Fromans|c134;Part Name}
 73
     1
 44
1.0
1001
AcDbBlockRepETag
1070
     1
1071
      140
1005
B32
1001
ACAD
1000
ACAD_MTEXT_DEFINED_HEIGHT_BEGIN
1070
    46
1040
8.871557304763321
1000
ACAD_MTEXT_DEFINED_HEIGHT_END
  0
LINE
  5
B33
330
2B8
100
AcDbEntity
  8
图框
 62
     1
370
    18
100
AcDbLine
 10
833.4128518455365
 20
690.5347692601515
 30
0.0
 11
833.4128518455365
 21
480.5347692601515
 31
0.0
1001
AcDbBlockRepETag
1070
     1
1071
      141
1005
B33
  0
LINE
  5
B34
330
2B8
100
AcDbEntity
  8
图框
 62
     1
370
    18
100
AcDbLine
 10
833.4128518455365
 20
480.5347692601515
 30
0.0
 11
1130.411601781236
 21
480.5347692601515
 31
0.0
1001
AcDbBlockRepETag
1070
     1
1071
      142
1005
B34
  0
LINE
  5
B35
330
2B8
100
AcDbEntity
  8
图框
 62
     1
370
    18
100
AcDbLine
 10
833.4128518455365
 20
690.5347692601515
 30
0.0
 11
1130.411601781236
 21
690.5347692601515
 31
0.0
1001
AcDbBlockRepETag
1070
     1
1071
      143
1005
B35
  0
LINE
  5
B36
330
2B8
100
AcDbEntity
  8
图框
 62
     1
370
    18
100
AcDbLine
 10
1130.411601781236
 20
480.5347692601515
 30
0.0
 11
1130.411601781236
 21
690.5347692601515
 31
0.0
1001
AcDbBlockRepETag
1070
     1
1071
      144
1005
B36
  0
LINE
  5
B37
330
2B8
100
AcDbEntity
  8
图框
370
    18
100
AcDbLine
 10
836.9128518455394
 20
686.7901958362482
 30
0.0
 11
861.5351874539182
 21
686.7901958362482
 31
0.0
1001
AcDbBlockRepETag
1070
     1
1071
      145
1005
B37
  0
LINE
  5
B38
330
2B8
100
AcDbEntity
  8
图框
370
    50
100
AcDbLine
 10
1126.928502610363
 20
484.3410054693078
 30
0.0
 11
1126.928502610363
 21
675.5347692601515
 31
0.0
1001
AcDbBlockRepETag
1070
     1
1071
      146
1005
B38
  0
MTEXT
  5
B39
330
2B8
100
AcDbEntity
  8
图框
 62
     3
100
AcDbMText
 10
1052.897990117958
 20
495.8417418993364
 30
0.0
 40
2.985513575034151
 41
10.82934843439114
 46
7.886094601211307
 71
     5
 72
     5
  1
V1.1
  7
Romans字体
 73
     1
 44
1.0
1001
AcDbBlockRepETag
1070
     1
1071
      147
1005
B39
1001
ACAD
1000
ACAD_MTEXT_DEFINED_HEIGHT_BEGIN
1070
    46
1040
7.886094601211307
1000
ACAD_MTEXT_DEFINED_HEIGHT_END
  0
LINE
  5
B3A
330
2B8
100
AcDbEntity
  8
图框
 62
     6
100
AcDbLine
 10
1126.911601781236
 20
531.714049199969
 30
0.0
 11
1130.411601781236
 21
531.714049199969
 31
0.0
1001
AcDbBlockRepETag
1070
     1
1071
      148
1005
B3A
  0
ENDBLK
  5
350
330
2B8
100
AcDbEntity
  8
0
100
AcDbBlockEnd
  0
BLOCK
  5
831
330
830
100
AcDbEntity
  8
0
100
AcDbBlockBegin
  2
*D2
 70
     1
 10
0.0
 20
0.0
 30
0.0
  3
*D2
  1

  0
LINE
  5
9DA
330
830
100
AcDbEntity
  8
DIM
 62
     6
370
    -2
100
AcDbLine
 10
802.7929031297736
 20
206.1407643735051
 30
0.0
 11
807.8023530263731
 21
206.1407643735051
 31
0.0
  0
LINE
  5
9DB
330
830
100
AcDbEntity
  8
DIM
 62
     6
370
    -2
100
AcDbLine
 10
802.7929031297736
 20
204.5407643731051
 30
0.0
 11
807.8023530263731
 21
204.5407643731051
 31
0.0
  0
LINE
  5
9DC
330
830
100
AcDbEntity
  8
DIM
 62
     1
370
    -2
100
AcDbLine
 10
807.6023530263732
 20
203.5407643731051
 30
0.0
 11
807.6023530263732
 21
202.5407643731051
 31
0.0
  0
LINE
  5
9DD
330
830
100
AcDbEntity
  8
DIM
 62
     1
370
    -2
100
AcDbLine
 10
807.6023530263732
 20
207.1407643735052
 30
0.0
 11
807.6023530263732
 21
211.2407643735052
 31
0.0
  0
SOLID
  5
9DE
330
830
100
AcDbEntity
  8
DIM
 62
     1
100
AcDbTrace
 10
807.4356863597065
 20
203.5407643731051
 30
0.0
 11
807.7690196930397
 21
203.5407643731051
 31
0.0
 12
807.6023530263732
 22
204.5407643731051
 32
0.0
 13
807.6023530263732
 23
204.5407643731051
 33
0.0
  0
SOLID
  5
9DF
330
830
100
AcDbEntity
  8
DIM
 62
     1
100
AcDbTrace
 10
807.4356863597065
 20
207.1407643735052
 30
0.0
 11
807.7690196930397
 21
207.1407643735052
 31
0.0
 12
807.6023530263732
 22
206.1407643735051
 32
0.0
 13
807.6023530263732
 23
206.1407643735051
 33
0.0
  0
MTEXT
  5
9E0
330
830
100
AcDbEntity
  8
DIM
 62
     4
100
AcDbMText
 10
806.8023530263731
 20
209.6907643735053
 30
0.0
 40
1.199999999999999
 41
0.0
 46
0.0
 71
     5
 72
     1
  1
\A1;%%c1.6
  7
Romans字体
 11
0.0000000000000001
 21
1.0
 31
0.0
 73
     1
 44
1.0
  0
POINT
  5
9E1
330
830
100
AcDbEntity
  8
Defpoints
 62
     0
100
AcDbPoint
 10
802.5929031297735
 20
206.1407643735051
 30
0.0
  0
POINT
  5
9E2
330
830
100
AcDbEntity
  8
Defpoints
 62
     0
100
AcDbPoint
 10
802.5929031297735
 20
204.5407643731051
 30
0.0
  0
POINT
  5
9E3
330
830
100
AcDbEntity
  8
Defpoints
 62
     0
100
AcDbPoint
 10
807.6023530263732
 20
204.5407643731051
 30
0.0
  0
ENDBLK
  5
832
330
830
100
AcDbEntity
  8
0
100
AcDbBlockEnd
  0
BLOCK
  5
83E
330
83D
100
AcDbEntity
  8
0
100
AcDbBlockBegin
  2
*D3
 70
     1
 10
0.0
 20
0.0
 30
0.0
  3
*D3
  1

  0
LINE
  5
9C7
330
83D
100
AcDbEntity
  8
DIM
 62
     6
370
    -2
100
AcDbLine
 10
778.7402270731798
 20
206.9407643737053
 30
0.0
 11
774.1983546213138
 21
206.9407643737053
 31
0.0
  0
LINE
  5
9C8
330
83D
100
AcDbEntity
  8
DIM
 62
     6
370
    -2
100
AcDbLine
 10
778.7402270731798
 20
203.7407643729047
 30
0.0
 11
774.1983546213138
 21
203.7407643729047
 31
0.0
  0
LINE
  5
9C9
330
83D
100
AcDbEntity
  8
DIM
 62
     1
370
    -2
100
AcDbLine
 10
774.3983546213137
 20
204.7407643729047
 30
0.0
 11
774.3983546213137
 21
205.9407643737053
 31
0.0
  0
LINE
  5
9CA
330
83D
100
AcDbEntity
  8
DIM
 62
     1
370
    -2
100
AcDbLine
 10
774.3983546213137
 20
206.9407643737053
 30
0.0
 11
774.3983546213137
 21
211.0407643737053
 31
0.0
  0
SOLID
  5
9CB
330
83D
100
AcDbEntity
  8
DIM
 62
     1
100
AcDbTrace
 10
774.231687954647
 20
204.7407643729047
 30
0.0
 11
774.5650212879803
 21
204.7407643729047
 31
0.0
 12
774.3983546213137
 22
203.7407643729047
 32
0.0
 13
774.3983546213137
 23
203.7407643729047
 33
0.0
  0
SOLID
  5
9CC
330
83D
100
AcDbEntity
  8
DIM
 62
     1
100
AcDbTrace
 10
774.231687954647
 20
205.9407643737053
 30
0.0
 11
774.5650212879803
 21
205.9407643737053
 31
0.0
 12
774.3983546213137
 22
206.9407643737053
 32
0.0
 13
774.3983546213137
 23
206.9407643737053
 33
0.0
  0
MTEXT
  5
9CD
330
83D
100
AcDbEntity
  8
DIM
 62
     4
100
AcDbMText
 10
773.5983546213137
 20
209.4907643737054
 30
0.0
 40
1.199999999999999
 41
0.0
 46
0.0
 71
     5
 72
     1
  1
\A1;%%c3.2
  7
Romans字体
 11
0.0000000000000001
 21
1.0
 31
0.0
 73
     1
 44
1.0
  0
POINT
  5
9CE
330
83D
100
AcDbEntity
  8
Defpoints
 62
     0
100
AcDbPoint
 10
778.9402270731799
 20
206.9407643737053
 30
0.0
  0
POINT
  5
9CF
330
83D
100
AcDbEntity
  8
Defpoints
 62
     0
100
AcDbPoint
 10
778.9402270731799
 20
203.7407643729047
 30
0.0
  0
POINT
  5
9D0
330
83D
100
AcDbEntity
  8
Defpoints
 62
     0
100
AcDbPoint
 10
774.3983546213137
 20
203.7407643729047
 30
0.0
  0
ENDBLK
  5
83F
330
83D
100
AcDbEntity
  8
0
100
AcDbBlockEnd
  0
BLOCK
  5
84B
330
84A
100
AcDbEntity
  8
0
100
AcDbBlockBegin
  2
*D4
 70
     1
 10
0.0
 20
0.0
 30
0.0
  3
*D4
  1

  0
LINE
  5
985
330
84A
100
AcDbEntity
  8
DIM
 62
     6
370
    -2
100
AcDbLine
 10
779.101070991424
 20
206.2157643733052
 30
0.0
 11
776.5695622729094
 21
206.2157643733052
 31
0.0
  0
LINE
  5
986
330
84A
100
AcDbEntity
  8
DIM
 62
     6
370
    -2
100
AcDbLine
 10
779.1010709914232
 20
204.4657643733052
 30
0.0
 11
776.5695622729094
 21
204.4657643733052
 31
0.0
  0
LINE
  5
987
330
84A
100
AcDbEntity
  8
DIM
 62
     1
370
    -2
100
AcDbLine
 10
776.7695622729095
 20
203.4657643733052
 30
0.0
 11
776.7695622729095
 21
202.4657643733052
 31
0.0
  0
LINE
  5
988
330
84A
100
AcDbEntity
  8
DIM
 62
     1
370
    -2
100
AcDbLine
 10
776.7695622729095
 20
207.2157643733052
 30
0.0
 11
776.7695622729095
 21
211.777907230448
 31
0.0
  0
SOLID
  5
989
330
84A
100
AcDbEntity
  8
DIM
 62
     1
100
AcDbTrace
 10
776.6028956062426
 20
203.4657643733052
 30
0.0
 11
776.9362289395761
 21
203.4657643733052
 31
0.0
 12
776.7695622729095
 22
204.4657643733052
 32
0.0
 13
776.7695622729095
 23
204.4657643733052
 33
0.0
  0
SOLID
  5
98A
330
84A
100
AcDbEntity
  8
DIM
 62
     1
100
AcDbTrace
 10
776.6028956062426
 20
207.2157643733052
 30
0.0
 11
776.9362289395761
 21
207.2157643733052
 31
0.0
 12
776.7695622729095
 22
206.2157643733052
 32
0.0
 13
776.7695622729095
 23
206.2157643733052
 33
0.0
  0
MTEXT
  5
98B
330
84A
100
AcDbEntity
  8
DIM
 62
     4
100
AcDbMText
 10
775.9695622729095
 20
210.8514786590195
 30
0.0
 40
1.199999999999999
 41
0.0
 46
0.0
 71
     5
 72
     1
  1
\A1;{\fISOCPEUR|b0|i0|c0|p34;%%C}d
  7
Romans字体
 11
0.0000000000000001
 21
1.0
 31
0.0
 73
     1
 44
1.0
  0
POINT
  5
98C
330
84A
100
AcDbEntity
  8
Defpoints
 62
     0
100
AcDbPoint
 10
779.3010709914239
 20
206.2157643733052
 30
0.0
  0
POINT
  5
98D
330
84A
100
AcDbEntity
  8
Defpoints
 62
     0
100
AcDbPoint
 10
779.3010709914233
 20
204.4657643733052
 30
0.0
  0
POINT
  5
98E
330
84A
100
AcDbEntity
  8
Defpoints
 62
     0
100
AcDbPoint
 10
776.7695622729095
 20
204.4657643733052
 30
0.0
  0
ENDBLK
  5
84C
330
84A
100
AcDbEntity
  8
0
100
AcDbBlockEnd
  0
BLOCK
  5
858
330
857
100
AcDbEntity
  8
0
100
AcDbBlockBegin
  2
*D5
 70
     1
 10
0.0
 20
0.0
 30
0.0
  3
*D5
  1

  0
LINE
  5
98F
330
857
100
AcDbEntity
  8
DIM
 62
     6
370
    -2
100
AcDbLine
 10
782.0824920462613
 20
206.8407643733052
 30
0.0
 11
782.2819800793633
 21
206.8407643733052
 31
0.0
  0
LINE
  5
990
330
857
100
AcDbEntity
  8
DIM
 62
     6
370
    -2
100
AcDbLine
 10
782.1402270731793
 20
203.8407643733052
 30
0.0
 11
782.2819800793633
 21
203.8407643733052
 31
0.0
  0
LINE
  5
991
330
857
100
AcDbEntity
  8
DIM
 62
     1
370
    -2
100
AcDbLine
 10
782.0819800793631
 20
205.8407643733052
 30
0.0
 11
782.0819800793631
 21
204.8407643733052
 31
0.0
  0
LINE
  5
992
330
857
100
AcDbEntity
  8
DIM
 62
     1
370
    -2
100
AcDbLine
 10
782.0819800793631
 20
203.8407643733052
 30
0.0
 11
782.0819800793631
 21
200.005764373305
 31
0.0
  0
SOLID
  5
993
330
857
100
AcDbEntity
  8
DIM
 62
     1
100
AcDbTrace
 10
781.9153134126962
 20
205.8407643733052
 30
0.0
 11
782.2486467460298
 21
205.8407643733052
 31
0.0
 12
782.0819800793631
 22
206.8407643733052
 32
0.0
 13
782.0819800793631
 23
206.8407643733052
 33
0.0
  0
SOLID
  5
994
330
857
100
AcDbEntity
  8
DIM
 62
     1
100
AcDbTrace
 10
781.9153134126962
 20
204.8407643733052
 30
0.0
 11
782.2486467460298
 21
204.8407643733052
 31
0.0
 12
782.0819800793631
 22
203.8407643733052
 32
0.0
 13
782.0819800793631
 23
203.8407643733052
 33
0.0
  0
MTEXT
  5
995
330
857
100
AcDbEntity
  8
DIM
 62
     4
100
AcDbMText
 10
781.2819800793629
 20
200.9964786590194
 30
0.0
 40
1.199999999999999
 41
0.0
 46
0.0
 71
     5
 72
     1
  1
\A1;{\fISOCPEUR|b0|i0|c0|p34;%%C}D
  7
Romans字体
 11
0.0000000000000001
 21
1.0
 31
0.0
 73
     1
 44
1.0
  0
POINT
  5
996
330
857
100
AcDbEntity
  8
Defpoints
 62
     0
100
AcDbPoint
 10
781.8824920462613
 20
206.8407643733052
 30
0.0
  0
POINT
  5
997
330
857
100
AcDbEntity
  8
Defpoints
 62
     0
100
AcDbPoint
 10
781.9402270731793
 20
203.8407643733052
 30
0.0
  0
POINT
  5
998
330
857
100
AcDbEntity
  8
Defpoints
 62
     0
100
AcDbPoint
 10
782.0819800793631
 20
203.8407643733052
 30
0.0
  0
ENDBLK
  5
859
330
857
100
AcDbEntity
  8
0
100
AcDbBlockEnd
  0
BLOCK
  5
865
330
864
100
AcDbEntity
  8
0
100
AcDbBlockBegin
  2
*D6
 70
     1
 10
0.0
 20
0.0
 30
0.0
  3
*D6
  1

  0
LINE
  5
9D1
330
864
100
AcDbEntity
  8
DIM
 62
     6
370
    -2
100
AcDbLine
 10
778.9402270731799
 20
207.1407643737053
 30
0.0
 11
778.9402270731799
 21
212.3952425052249
 31
0.0
  0
LINE
  5
9D2
330
864
100
AcDbEntity
  8
DIM
 62
     6
370
    -2
100
AcDbLine
 10
803.9258677190201
 20
205.5407643733052
 30
0.0
 11
803.9258677190201
 21
212.3952425052249
 31
0.0
  0
LINE
  5
9D3
330
864
100
AcDbEntity
  8
DIM
 62
     1
370
    -2
100
AcDbLine
 10
779.9402270731799
 20
212.1952425052249
 30
0.0
 11
802.9258677190201
 21
212.1952425052249
 31
0.0
  0
SOLID
  5
9D4
330
864
100
AcDbEntity
  8
DIM
 62
     1
100
AcDbTrace
 10
779.9402270731799
 20
212.3619091718916
 30
0.0
 11
779.9402270731799
 21
212.0285758385583
 31
0.0
 12
778.9402270731799
 22
212.1952425052249
 32
0.0
 13
778.9402270731799
 23
212.1952425052249
 33
0.0
  0
SOLID
  5
9D5
330
864
100
AcDbEntity
  8
DIM
 62
     1
100
AcDbTrace
 10
802.9258677190201
 20
212.3619091718916
 30
0.0
 11
802.9258677190201
 21
212.0285758385583
 31
0.0
 12
803.9258677190201
 22
212.1952425052249
 32
0.0
 13
803.9258677190201
 23
212.1952425052249
 33
0.0
  0
MTEXT
  5
9D6
330
864
100
AcDbEntity
  8
DIM
 62
     4
100
AcDbMText
 10
791.4330473961
 20
212.995242505225
 30
0.0
 40
1.199999999999999
 41
0.0
 46
0.0
 71
     5
 72
     1
  1
\A1;25
  7
Romans字体
 73
     1
 44
1.0
  0
POINT
  5
9D7
330
864
100
AcDbEntity
  8
Defpoints
 62
     0
100
AcDbPoint
 10
778.9402270731799
 20
206.9407643737053
 30
0.0
  0
POINT
  5
9D8
330
864
100
AcDbEntity
  8
Defpoints
 62
     0
100
AcDbPoint
 10
803.9258677190201
 20
205.3407643733052
 30
0.0
  0
POINT
  5
9D9
330
864
100
AcDbEntity
  8
Defpoints
 62
     0
100
AcDbPoint
 10
803.9258677190201
 20
212.1952425052249
 30
0.0
  0
ENDBLK
  5
866
330
864
100
AcDbEntity
  8
0
100
AcDbBlockEnd
  0
BLOCK
  5
899
330
898
100
AcDbEntity
  8
0
100
AcDbBlockBegin
  2
*D7
 70
     1
 10
0.0
 20
0.0
 30
0.0
  3
*D7
  1

  0
LINE
  5
999
330
898
100
AcDbEntity
  8
DIM
 62
     6
370
    -2
100
AcDbLine
 10
778.9402270731799
 20
207.1407643737053
 30
0.0
 11
778.9402270731799
 21
209.6573010445081
 31
0.0
  0
LINE
  5
99A
330
898
100
AcDbEntity
  8
DIM
 62
     6
370
    -2
100
AcDbLine
 10
786.9402270731793
 20
206.4157643733052
 30
0.0
 11
786.9402270731793
 21
209.6573010445081
 31
0.0
  0
LINE
  5
99B
330
898
100
AcDbEntity
  8
DIM
 62
     1
370
    -2
100
AcDbLine
 10
779.9402270731799
 20
209.4573010445081
 30
0.0
 11
785.9402270731793
 21
209.4573010445081
 31
0.0
  0
SOLID
  5
99C
330
898
100
AcDbEntity
  8
DIM
 62
     1
100
AcDbTrace
 10
779.9402270731799
 20
209.6239677111748
 30
0.0
 11
779.9402270731799
 21
209.2906343778415
 31
0.0
 12
778.9402270731799
 22
209.4573010445081
 32
0.0
 13
778.9402270731799
 23
209.4573010445081
 33
0.0
  0
SOLID
  5
99D
330
898
100
AcDbEntity
  8
DIM
 62
     1
100
AcDbTrace
 10
785.9402270731793
 20
209.6239677111748
 30
0.0
 11
785.9402270731793
 21
209.2906343778415
 31
0.0
 12
786.9402270731793
 22
209.4573010445081
 32
0.0
 13
786.9402270731793
 23
209.4573010445081
 33
0.0
  0
MTEXT
  5
99E
330
898
100
AcDbEntity
  8
DIM
 62
     4
100
AcDbMText
 10
782.9402270731796
 20
210.2573010445081
 30
0.0
 40
1.199999999999999
 41
0.0
 46
0.0
 71
     5
 72
     1
  1
\A1;8
  7
Romans字体
 73
     1
 44
1.0
  0
POINT
  5
99F
330
898
100
AcDbEntity
  8
Defpoints
 62
     0
100
AcDbPoint
 10
778.9402270731799
 20
206.9407643737053
 30
0.0
  0
POINT
  5
9A0
330
898
100
AcDbEntity
  8
Defpoints
 62
     0
100
AcDbPoint
 10
786.9402270731793
 20
206.2157643733052
 30
0.0
  0
POINT
  5
9A1
330
898
100
AcDbEntity
  8
Defpoints
 62
     0
100
AcDbPoint
 10
786.9402270731793
 20
209.4573010445081
 30
0.0
  0
ENDBLK
  5
89A
330
898
100
AcDbEntity
  8
0
100
AcDbBlockEnd
  0
ENDSEC
  0
SECTION
  2
ENTITIES
  0
HATCH
  5
16
330
2
100
AcDbEntity
  8
图层 1
 62
     7
100
AcDbHatch
 10
0.0
 20
0.0
 30
0.0
210
0.0
220
0.0
230
1.0
  2
SOLID
 70
     1
 71
     0
 91
        1
 92
        1
 93
        2
 72
     4
 94
        3
 73
     0
 74
     0
 95
       17
 96
       13
 40
0.0
 40
0.0
 40
0.0
 40
0.0
 40
0.3527780104152769
 40
0.3527780104152769
 40
0.3527780104152769
 40
0.7055560208305538
 40
0.7055560208305538
 40
0.7055560208305538
 40
1.058334031245828
 40
1.058334031245828
 40
1.058334031245828
 40
1.411112041661104
 40
1.411112041661104
 40
1.411112041661104
 40
1.411112041661104
 10
11.07013262565829
 20
29.50312817963231
 10
11.07013262565829
 20
29.50312817963231
 10
10.9431807732774
 20
29.50312817963231
 10
10.9431807732774
 20
29.50312817963231
 10
10.9431807732774
 20
29.50312817963231
 10
10.85843136843155
 20
29.22786486877117
 10
10.85843136843155
 20
29.22786486877117
 10
10.85843136843155
 20
29.22786486877117
 10
10.90080607085448
 20
29.2068497724476
 10
10.90080607085448
 20
29.2068497724476
 10
10.94455881238059
 20
29.31571486159919
 10
11.00346998404173
 20
29.40907701083995
 10
11.07013262565829
 20
29.50312817963231
 72
     1
 10
11.07013262565829
 20
29.50312817963231
 11
11.07013262565829
 21
29.50312817963231
 97
        0
 75
     0
 76
     1
 98
        0
450
        0
451
        0
460
0.0
461
0.0
452
        0
462
0.0
453
        0
470

  0
HATCH
  5
1A
330
2
100
AcDbEntity
  8
图层 1
 62
     7
100
AcDbHatch
 10
0.0
 20
0.0
 30
0.0
210
0.0
220
0.0
230
1.0
  2
SOLID
 70
     1
 71
     0
 91
        1
 92
        1
 93
        2
 72
     4
 94
        3
 73
     0
 74
     0
 95
       47
 96
       43
 40
0.0
 40
0.0
 40
0.0
 40
0.0
 40
0.3527780104152769
 40
0.3527780104152769
 40
0.3527780104152769
 40
0.7055560208305538
 40
0.7055560208305538
 40
0.7055560208305538
 40
1.058334031245828
 40
1.058334031245828
 40
1.058334031245828
 40
1.411112041661104
 40
1.411112041661104
 40
1.411112041661104
 40
1.763890052076384
 40
1.763890052076384
 40
1.763890052076384
 40
2.116668062491659
 40
2.116668062491659
 40
2.116668062491659
 40
2.469446072906936
 40
2.469446072906936
 40
2.469446072906936
 40
2.822224083322215
 40
2.822224083322215
 40
2.822224083322215
 40
3.175002093737492
 40
3.175002093737492
 40
3.175002093737492
 40
3.527780104152768
 40
3.527780104152768
 40
3.527780104152768
 40
3.880558114568044
 40
3.880558114568044
 40
3.880558114568044
 40
4.233336124983321
 40
4.233336124983321
 40
4.233336124983321
 40
4.586114135398599
 40
4.586114135398599
 40
4.586114135398599
 40
4.938892145813873
 40
4.938892145813873
 40
4.938892145813873
 40
4.938892145813873
 10
162.8986914070121
 20
257.4895347631509
 10
162.8986914070121
 20
257.4895347631509
 10
162.9200510131114
 20
257.4471600607279
 10
162.9200510131114
 20
257.4471600607279
 10
162.9200510131114
 20
257.4471600607279
 10
162.9200510131114
 20
257.404785358305
 10
162.9200510131114
 20
257.404785358305
 10
162.9200510131114
 20
257.404785358305
 10
162.8986914070121
 20
257.36258291077
 10
162.8986914070121
 20
257.36258291077
 10
162.8986914070121
 20
257.36258291077
 10
162.8986914070121
 20
257.320208208347
 10
162.8986914070121
 20
257.320208208347
 10
162.8986914070121
 20
257.320208208347
 10
162.8563167045891
 20
257.2990208571356
 10
162.8563167045891
 20
257.2990208571356
 10
162.8563167045891
 20
257.2990208571356
 10
162.8139420021662
 20
257.2563016449369
 10
162.8139420021662
 20
257.2563016449369
 10
162.8139420021662
 20
257.2563016449369
 10
162.7295371070961
 20
257.2563016449369
 10
162.7295371070961
 20
257.2563016449369
 10
162.7295371070961
 20
257.2563016449369
 10
162.6658027985738
 20
257.2778335059241
 10
162.6658027985738
 20
257.2778335059241
 10
162.6658027985738
 20
257.2778335059241
 10
162.6237726059267
 20
257.2990208571356
 10
162.6237726059267
 20
257.2990208571356
 10
162.6237726059267
 20
257.2990208571356
 10
162.5813979035038
 20
257.3413955595585
 10
162.5813979035038
 20
257.3413955595585
 10
162.5813979035038
 20
257.3413955595585
 10
162.5813979035038
 20
257.4895347631509
 10
162.5813979035038
 20
257.4895347631509
 10
162.5813979035038
 20
257.4895347631509
 10
162.6447877022503
 20
257.5525800521216
 10
162.6447877022503
 20
257.5525800521216
 10
162.6447877022503
 20
257.5525800521216
 10
162.7081775009967
 20
257.5525800521216
 10
162.7081775009967
 20
257.5525800521216
 10
162.8749202324821
 20
257.5424170137356
 10
162.7918933765152
 20
257.5939212252171
 10
162.8986914070121
 20
257.4895347631509
 72
     1
 10
162.8986914070121
 20
257.4895347631509
 11
162.8986914070121
 21
257.4895347631509
 97
        0
 75
     0
 76
     1
 98
        0
450
        0
451
        0
460
0.0
461
0.0
452
        0
462
0.0
453
        0
470

  0
HATCH
  5
1B
330
2
100
AcDbEntity
  8
图层 1
 62
     7
100
AcDbHatch
 10
0.0
 20
0.0
 30
0.0
210
0.0
220
0.0
230
1.0
  2
SOLID
 70
     1
 71
     0
 91
        1
 92
        1
 93
        2
 72
     4
 94
        3
 73
     0
 74
     0
 95
       56
 96
       52
 40
0.0
 40
0.0
 40
0.0
 40
0.0
 40
0.3527780104152769
 40
0.3527780104152769
 40
0.3527780104152769
 40
0.7055560208305538
 40
0.7055560208305538
 40
0.7055560208305538
 40
1.058334031245828
 40
1.058334031245828
 40
1.058334031245828
 40
1.411112041661104
 40
1.411112041661104
 40
1.411112041661104
 40
1.763890052076384
 40
1.763890052076384
 40
1.763890052076384
 40
2.116668062491659
 40
2.116668062491659
 40
2.116668062491659
 40
2.469446072906936
 40
2.469446072906936
 40
2.469446072906936
 40
2.822224083322215
 40
2.822224083322215
 40
2.822224083322215
 40
3.175002093737492
 40
3.175002093737492
 40
3.175002093737492
 40
3.527780104152768
 40
3.527780104152768
 40
3.527780104152768
 40
3.880558114568044
 40
3.880558114568044
 40
3.880558114568044
 40
4.233336124983321
 40
4.233336124983321
 40
4.233336124983321
 40
4.586114135398599
 40
4.586114135398599
 40
4.586114135398599
 40
4.938892145813873
 40
4.938892145813873
 40
4.938892145813873
 40
5.291670156229153
 40
5.291670156229153
 40
5.291670156229153
 40
5.64444816664443
 40
5.64444816664443
 40
5.64444816664443
 40
5.997226177059705
 40
5.997226177059705
 40
5.997226177059705
 40
5.997226177059705
 10
185.4837187788815
 20
241.4451977396596
 10
185.4837187788815
 20
241.4451977396596
 10
185.4837187788815
 20
241.4028230372367
 10
185.4837187788815
 20
241.4028230372367
 10
185.4837187788815
 20
241.4028230372367
 10
185.5047338752051
 20
241.3604483348137
 10
185.5047338752051
 20
241.3604483348137
 10
185.4520238795082
 20
241.2782827532863
 10
185.4671823096433
 20
241.1897437409066
 10
185.335579575289
 20
241.2119646214456
 10
185.335579575289
 20
241.2119646214456
 10
185.2932048728662
 20
241.2119646214456
 10
185.2932048728662
 20
241.2119646214456
 10
185.2932048728662
 20
241.2119646214456
 10
185.2294705643439
 20
241.2334964824328
 10
185.2294705643439
 20
241.2334964824328
 10
185.2294705643439
 20
241.2334964824328
 10
185.1660807655974
 20
241.2543393238685
 10
185.1660807655974
 20
241.2543393238685
 10
185.1660807655974
 20
241.2543393238685
 10
185.1450656692739
 20
241.2758711848558
 10
185.1450656692739
 20
241.2758711848558
 10
185.1450656692739
 20
241.2758711848558
 10
185.1450656692739
 20
241.2967140262914
 10
185.1450656692739
 20
241.2967140262914
 10
185.1450656692739
 20
241.2967140262914
 10
185.1237060631745
 20
241.3604483348137
 10
185.1237060631745
 20
241.3604483348137
 10
185.1237060631745
 20
241.3604483348137
 10
185.1237060631745
 20
241.4028230372367
 10
185.1237060631745
 20
241.4028230372367
 10
185.1237060631745
 20
241.4028230372367
 10
185.1660807655974
 20
241.4875724420825
 10
185.1660807655974
 20
241.4875724420825
 10
185.1660807655974
 20
241.4875724420825
 10
185.2084554680203
 20
241.5085875384061
 10
185.2084554680203
 20
241.5085875384061
 10
185.2084554680203
 20
241.5085875384061
 10
185.2718452667668
 20
241.5297748896175
 10
185.2718452667668
 20
241.5297748896175
 10
185.2718452667668
 20
241.5297748896175
 10
185.3565946716127
 20
241.5297748896175
 10
185.3565946716127
 20
241.5297748896175
 10
185.3565946716127
 20
241.5297748896175
 10
185.4199844703592
 20
241.5085875384061
 10
185.4199844703592
 20
241.5085875384061
 10
185.4199844703592
 20
241.5085875384061
 10
185.4623591727821
 20
241.4875724420825
 10
185.4623591727821
 20
241.4875724420825
 10
185.4623591727821
 20
241.4875724420825
 10
185.4837187788815
 20
241.4451977396596
 10
185.4837187788815
 20
241.4451977396596
 72
     1
 10
185.4837187788815
 20
241.4451977396596
 11
185.4837187788815
 21
241.4451977396596
 97
        0
 75
     0
 76
     1
 98
        0
450
        0
451
        0
460
0.0
461
0.0
452
        0
462
0.0
453
        0
470

  0
HATCH
  5
1C
330
2
100
AcDbEntity
  8
图层 1
 62
     7
100
AcDbHatch
 10
0.0
 20
0.0
 30
0.0
210
0.0
220
0.0
230
1.0
  2
SOLID
 70
     1
 71
     0
 91
        1
 92
        1
 93
        2
 72
     4
 94
        3
 73
     0
 74
     0
 95
       38
 96
       34
 40
0.0
 40
0.0
 40
0.0
 40
0.0
 40
0.3527780104152769
 40
0.3527780104152769
 40
0.3527780104152769
 40
0.7055560208305538
 40
0.7055560208305538
 40
0.7055560208305538
 40
1.058334031245828
 40
1.058334031245828
 40
1.058334031245828
 40
1.411112041661104
 40
1.411112041661104
 40
1.411112041661104
 40
1.763890052076384
 40
1.763890052076384
 40
1.763890052076384
 40
2.116668062491659
 40
2.116668062491659
 40
2.116668062491659
 40
2.469446072906936
 40
2.469446072906936
 40
2.469446072906936
 40
2.822224083322215
 40
2.822224083322215
 40
2.822224083322215
 40
3.175002093737492
 40
3.175002093737492
 40
3.175002093737492
 40
3.527780104152768
 40
3.527780104152768
 40
3.527780104152768
 40
3.880558114568044
 40
3.880558114568044
 40
3.880558114568044
 40
3.880558114568044
 10
185.907121293335
 20
220.1937677098971
 10
185.9005756075949
 20
220.0449394867532
 10
185.9329595265197
 20
220.1136691870245
 10
185.864746590912
 20
219.9817219428946
 10
185.864746590912
 20
219.9817219428946
 10
185.822371888489
 20
219.9605345916831
 10
185.822371888489
 20
219.9605345916831
 10
185.822371888489
 20
219.9605345916831
 10
185.6528730787974
 20
219.9605345916831
 10
185.6528730787974
 20
219.9605345916831
 10
185.6528730787974
 20
219.9605345916831
 10
185.5894832800509
 20
220.002909294106
 10
185.5894832800509
 20
220.002909294106
 10
185.5894832800509
 20
220.002909294106
 10
185.5681236739515
 20
220.0240966453175
 10
185.5681236739515
 20
220.0240966453175
 10
185.5681236739515
 20
220.0240966453175
 10
185.5681236739515
 20
220.045283996529
 10
185.5681236739515
 20
220.045283996529
 10
185.5681236739515
 20
220.045283996529
 10
185.547108577628
 20
220.0876586989519
 10
185.547108577628
 20
220.0876586989519
 10
185.547108577628
 20
220.0876586989519
 10
185.547108577628
 20
220.1513930074742
 10
185.547108577628
 20
220.1513930074742
 10
185.547108577628
 20
220.1513930074742
 10
185.5894832800509
 20
220.23614241232
 10
185.5894832800509
 20
220.23614241232
 10
185.5894832800509
 20
220.23614241232
 10
185.6318579824738
 20
220.2573297635315
 10
185.6318579824738
 20
220.2573297635315
 10
185.7055830744942
 20
220.2566407439799
 10
185.8416644359337
 20
220.3310548555519
 10
185.907121293335
 20
220.1937677098971
 72
     1
 10
185.907121293335
 20
220.1937677098971
 11
185.907121293335
 21
220.1937677098971
 97
        0
 75
     0
 76
     1
 98
        0
450
        0
451
        0
460
0.0
461
0.0
452
        0
462
0.0
453
        0
470

  0
HATCH
  5
1D
330
2
100
AcDbEntity
  8
图层 1
 62
     7
100
AcDbHatch
 10
0.0
 20
0.0
 30
0.0
210
0.0
220
0.0
230
1.0
  2
SOLID
 70
     1
 71
     0
 91
        1
 92
        1
 93
        2
 72
     4
 94
        3
 73
     0
 74
     0
 95
       50
 96
       46
 40
0.0
 40
0.0
 40
0.0
 40
0.0
 40
0.3527780104152769
 40
0.3527780104152769
 40
0.3527780104152769
 40
0.7055560208305538
 40
0.7055560208305538
 40
0.7055560208305538
 40
1.058334031245828
 40
1.058334031245828
 40
1.058334031245828
 40
1.411112041661104
 40
1.411112041661104
 40
1.411112041661104
 40
1.763890052076384
 40
1.763890052076384
 40
1.763890052076384
 40
2.116668062491659
 40
2.116668062491659
 40
2.116668062491659
 40
2.469446072906936
 40
2.469446072906936
 40
2.469446072906936
 40
2.822224083322215
 40
2.822224083322215
 40
2.822224083322215
 40
3.175002093737492
 40
3.175002093737492
 40
3.175002093737492
 40
3.527780104152768
 40
3.527780104152768
 40
3.527780104152768
 40
3.880558114568044
 40
3.880558114568044
 40
3.880558114568044
 40
4.233336124983321
 40
4.233336124983321
 40
4.233336124983321
 40
4.586114135398599
 40
4.586114135398599
 40
4.586114135398599
 40
4.938892145813873
 40
4.938892145813873
 40
4.938892145813873
 40
5.291670156229153
 40
5.291670156229153
 40
5.291670156229153
 40
5.291670156229153
 10
180.9117295442905
 20
208.9327766684477
 10
180.9117295442905
 20
208.9327766684477
 10
180.9117295442905
 20
208.7637946234197
 10
180.9117295442905
 20
208.7637946234197
 10
181.2273004989198
 20
208.6749111012643
 10
181.3833634273555
 20
208.6776671794706
 10
181.6948002646751
 20
208.5097186637701
 10
181.9542161258496
 20
208.4294478860095
 10
182.1388733656765
 20
208.2134402565853
 10
182.3297317814676
 20
208.02292635057
 10
182.3297317814676
 20
208.02292635057
 10
182.435496282637
 20
208.065301052993
 10
182.435496282637
 20
208.065301052993
 10
182.288390608372
 20
208.2733849575739
 10
182.3752070718726
 20
208.2134402565853
 10
182.1605774815516
 20
208.3824223016133
 10
182.1605774815516
 20
208.3824223016133
 10
182.1182027791287
 20
208.4247970040363
 10
182.1182027791287
 20
208.4247970040363
 10
182.1182027791287
 20
208.4247970040363
 10
182.0968431730294
 20
208.467516216235
 10
182.0968431730294
 20
208.467516216235
 10
182.0968431730294
 20
208.467516216235
 10
182.0544684706064
 20
208.4883590576707
 10
182.0544684706064
 20
208.4883590576707
 10
182.0544684706064
 20
208.4883590576707
 10
181.9910786718599
 20
208.5305615052057
 10
181.9910786718599
 20
208.5305615052057
 10
181.9910786718599
 20
208.5305615052057
 10
181.948703969437
 20
208.552093366193
 10
181.948703969437
 20
208.552093366193
 10
181.948703969437
 20
208.552093366193
 10
181.9063292670141
 20
208.5729362076286
 10
181.9063292670141
 20
208.5729362076286
 10
181.9063292670141
 20
208.5729362076286
 10
181.8639545645911
 20
208.6156554198274
 10
181.8639545645911
 20
208.6156554198274
 10
181.8639545645911
 20
208.6156554198274
 10
181.821924371944
 20
208.6368427710388
 10
181.821924371944
 20
208.6368427710388
 10
181.6637943848536
 20
208.6742220817127
 10
181.5452830219797
 20
208.8092699138248
 10
181.3771622513911
 20
208.8061693258427
 10
181.2803550043924
 20
208.8573290275484
 10
181.0126709085988
 20
208.8971199066528
 10
180.9117295442905
 20
208.9327766684477
 72
     1
 10
180.9117295442905
 20
208.9327766684477
 11
180.9117295442905
 21
208.9327766684477
 97
        0
 75
     0
 76
     1
 98
        0
450
        0
451
        0
460
0.0
461
0.0
452
        0
462
0.0
453
        0
470

  0
HATCH
  5
1E
330
2
100
AcDbEntity
  8
图层 1
 62
     7
100
AcDbHatch
 10
0.0
 20
0.0
 30
0.0
210
0.0
220
0.0
230
1.0
  2
SOLID
 70
     1
 71
     0
 91
        1
 92
        1
 93
        2
 72
     4
 94
        3
 73
     0
 74
     0
 95
       38
 96
       34
 40
0.0
 40
0.0
 40
0.0
 40
0.0
 40
0.3527780104152769
 40
0.3527780104152769
 40
0.3527780104152769
 40
0.7055560208305538
 40
0.7055560208305538
 40
0.7055560208305538
 40
1.058334031245828
 40
1.058334031245828
 40
1.058334031245828
 40
1.411112041661104
 40
1.411112041661104
 40
1.411112041661104
 40
1.763890052076384
 40
1.763890052076384
 40
1.763890052076384
 40
2.116668062491659
 40
2.116668062491659
 40
2.116668062491659
 40
2.469446072906936
 40
2.469446072906936
 40
2.469446072906936
 40
2.822224083322215
 40
2.822224083322215
 40
2.822224083322215
 40
3.175002093737492
 40
3.175002093737492
 40
3.175002093737492
 40
3.527780104152768
 40
3.527780104152768
 40
3.527780104152768
 40
3.880558114568044
 40
3.880558114568044
 40
3.880558114568044
 40
3.880558114568044
 10
189.145513185819
 20
166.8326485368285
 10
189.207869455238
 20
166.740492171803
 10
189.1317327947871
 20
166.6833035490209
 10
189.103138483396
 20
166.6209472796017
 10
189.103138483396
 20
166.6209472796017
 10
189.0607637809731
 20
166.5997599283903
 10
189.0607637809731
 20
166.5997599283903
 10
189.0607637809731
 20
166.5997599283903
 10
188.9973739822266
 20
166.5785725771788
 10
188.9973739822266
 20
166.5785725771788
 10
188.9973739822266
 20
166.5785725771788
 10
188.9549992798037
 20
166.5997599283903
 10
188.9549992798037
 20
166.5997599283903
 10
188.9549992798037
 20
166.5997599283903
 10
188.8916094810572
 20
166.5997599283903
 10
188.8916094810572
 20
166.5997599283903
 10
188.8916094810572
 20
166.5997599283903
 10
188.8492347786343
 20
166.6209472796017
 10
188.8492347786343
 20
166.6209472796017
 10
188.8492347786343
 20
166.6209472796017
 10
188.8278751725349
 20
166.6633219820247
 10
188.8278751725349
 20
166.6633219820247
 10
188.8278751725349
 20
166.6633219820247
 10
188.8068600762114
 20
166.6845093332361
 10
188.8068600762114
 20
166.6845093332361
 10
188.8068600762114
 20
166.6845093332361
 10
188.8068600762114
 20
166.8326485368285
 10
188.8068600762114
 20
166.8326485368285
 10
188.8068600762114
 20
166.8326485368285
 10
188.8702498749578
 20
166.896038335575
 10
188.8702498749578
 20
166.896038335575
 10
189.0228677056355
 20
166.8819134347673
 10
189.0686875058164
 20
166.9411691162043
 10
189.145513185819
 20
166.8326485368285
 72
     1
 10
189.145513185819
 20
166.8326485368285
 11
189.145513185819
 21
166.8326485368285
 97
        0
 75
     0
 76
     1
 98
        0
450
        0
451
        0
460
0.0
461
0.0
452
        0
462
0.0
453
        0
470

  0
HATCH
  5
1F
330
2
100
AcDbEntity
  8
图层 1
 62
     7
100
AcDbHatch
 10
0.0
 20
0.0
 30
0.0
210
0.0
220
0.0
230
1.0
  2
SOLID
 70
     1
 71
     0
 91
        1
 92
        1
 93
        2
 72
     4
 94
        3
 73
     0
 74
     0
 95
       68
 96
       64
 40
0.0
 40
0.0
 40
0.0
 40
0.0
 40
0.3527780104152769
 40
0.3527780104152769
 40
0.3527780104152769
 40
0.7055560208305538
 40
0.7055560208305538
 40
0.7055560208305538
 40
1.058334031245828
 40
1.058334031245828
 40
1.058334031245828
 40
1.411112041661104
 40
1.411112041661104
 40
1.411112041661104
 40
1.763890052076384
 40
1.763890052076384
 40
1.763890052076384
 40
2.116668062491659
 40
2.116668062491659
 40
2.116668062491659
 40
2.469446072906936
 40
2.469446072906936
 40
2.469446072906936
 40
2.822224083322215
 40
2.822224083322215
 40
2.822224083322215
 40
3.175002093737492
 40
3.175002093737492
 40
3.175002093737492
 40
3.527780104152768
 40
3.527780104152768
 40
3.527780104152768
 40
3.880558114568044
 40
3.880558114568044
 40
3.880558114568044
 40
4.233336124983321
 40
4.233336124983321
 40
4.233336124983321
 40
4.586114135398599
 40
4.586114135398599
 40
4.586114135398599
 40
4.938892145813873
 40
4.938892145813873
 40
4.938892145813873
 40
5.291670156229153
 40
5.291670156229153
 40
5.291670156229153
 40
5.64444816664443
 40
5.64444816664443
 40
5.64444816664443
 40
5.997226177059705
 40
5.997226177059705
 40
5.997226177059705
 40
6.350004187474984
 40
6.350004187474984
 40
6.350004187474984
 40
6.702782197890257
 40
6.702782197890257
 40
6.702782197890257
 40
7.055560208305537
 40
7.055560208305537
 40
7.055560208305537
 40
7.408338218720808
 40
7.408338218720808
 40
7.408338218720808
 40
7.408338218720808
 10
174.7732543591544
 20
135.4846705078077
 10
174.7732543591544
 20
135.4846705078077
 10
174.7732543591544
 20
135.3789060066383
 10
174.7732543591544
 20
135.3789060066383
 10
174.7732543591544
 20
135.3789060066383
 10
174.8156290615773
 20
135.3789060066383
 10
174.8156290615773
 20
135.3789060066383
 10
174.8156290615773
 20
135.3789060066383
 10
174.8580037640002
 20
135.3578909103147
 10
174.8580037640002
 20
135.3578909103147
 10
174.8580037640002
 20
135.3578909103147
 10
174.9213935627468
 20
135.3578909103147
 10
174.9213935627468
 20
135.3578909103147
 10
174.9213935627468
 20
135.3578909103147
 10
174.9637682651697
 20
135.3365313042154
 10
174.9637682651697
 20
135.3365313042154
 10
174.9637682651697
 20
135.3365313042154
 10
174.9847833614933
 20
135.3365313042154
 10
174.9847833614933
 20
135.3365313042154
 10
174.9847833614933
 20
135.3365313042154
 10
175.0271580639162
 20
135.3155162078918
 10
175.0271580639162
 20
135.3155162078918
 10
175.0271580639162
 20
135.3155162078918
 10
175.0485176700155
 20
135.2941566017924
 10
175.0485176700155
 20
135.2941566017924
 10
175.0485176700155
 20
135.2941566017924
 10
175.0695327663391
 20
135.2941566017924
 10
175.0695327663391
 20
135.2941566017924
 10
175.0695327663391
 20
135.2941566017924
 10
175.0908923724385
 20
135.2731415054689
 10
175.0908923724385
 20
135.2731415054689
 10
175.0908923724385
 20
135.2731415054689
 10
175.1332670748614
 20
135.2731415054689
 10
175.1332670748614
 20
135.2731415054689
 10
175.1332670748614
 20
135.2731415054689
 10
175.154282171185
 20
135.2517818993695
 10
175.154282171185
 20
135.2517818993695
 10
175.154282171185
 20
135.2517818993695
 10
175.154282171185
 20
135.3578909103147
 10
175.154282171185
 20
135.3578909103147
 10
175.154282171185
 20
135.3578909103147
 10
175.1332670748614
 20
135.3789060066383
 10
175.1332670748614
 20
135.3789060066383
 10
175.1332670748614
 20
135.3789060066383
 10
175.0908923724385
 20
135.3789060066383
 10
175.0908923724385
 20
135.3789060066383
 10
175.0908923724385
 20
135.3789060066383
 10
175.0908923724385
 20
135.3999211029619
 10
175.0908923724385
 20
135.3999211029619
 10
175.0908923724385
 20
135.3999211029619
 10
175.0695327663391
 20
135.3999211029619
 10
175.0695327663391
 20
135.3999211029619
 10
175.0695327663391
 20
135.3999211029619
 10
175.0271580639162
 20
135.4212807090612
 10
175.0271580639162
 20
135.4212807090612
 10
175.0271580639162
 20
135.4212807090612
 10
175.0061429675926
 20
135.4212807090612
 10
175.0061429675926
 20
135.4212807090612
 10
175.0061429675926
 20
135.4212807090612
 10
174.9637682651697
 20
135.4422958053848
 10
174.9637682651697
 20
135.4422958053848
 10
174.8996894468716
 20
135.4498750204523
 10
174.8394002361073
 20
135.4860485469109
 10
174.7732543591544
 20
135.4846705078077
 72
     1
 10
174.7732543591544
 20
135.4846705078077
 11
174.7732543591544
 21
135.4846705078077
 97
        0
 75
     0
 76
     1
 98
        0
450
        0
451
        0
460
0.0
461
0.0
452
        0
462
0.0
453
        0
470

  0
HATCH
  5
20
330
2
100
AcDbEntity
  8
图层 1
 62
     7
100
AcDbHatch
 10
0.0
 20
0.0
 30
0.0
210
0.0
220
0.0
230
1.0
  2
SOLID
 70
     1
 71
     0
 91
        1
 92
        1
 93
        2
 72
     4
 94
        3
 73
     0
 74
     0
 95
       29
 96
       25
 40
0.0
 40
0.0
 40
0.0
 40
0.0
 40
0.3527780104152769
 40
0.3527780104152769
 40
0.3527780104152769
 40
0.7055560208305538
 40
0.7055560208305538
 40
0.7055560208305538
 40
1.058334031245828
 40
1.058334031245828
 40
1.058334031245828
 40
1.411112041661104
 40
1.411112041661104
 40
1.411112041661104
 40
1.763890052076384
 40
1.763890052076384
 40
1.763890052076384
 40
2.116668062491659
 40
2.116668062491659
 40
2.116668062491659
 40
2.469446072906936
 40
2.469446072906936
 40
2.469446072906936
 40
2.822224083322215
 40
2.822224083322215
 40
2.822224083322215
 40
2.822224083322215
 10
175.4929352807925
 20
164.0174869039101
 10
175.4929352807925
 20
164.0174869039101
 10
175.5139503771161
 20
163.9751122014871
 10
175.5139503771161
 20
163.9751122014871
 10
175.5139503771161
 20
163.9751122014871
 10
175.5139503771161
 20
163.9327374990642
 10
175.5139503771161
 20
163.9327374990642
 10
175.5139503771161
 20
163.9327374990642
 10
175.4929352807925
 20
163.8903627966413
 10
175.4929352807925
 20
163.8903627966413
 10
175.4929352807925
 20
163.8903627966413
 10
175.471920184469
 20
163.8691754454298
 10
175.471920184469
 20
163.8691754454298
 10
175.471920184469
 20
163.8691754454298
 10
175.4505605783696
 20
163.8269729978948
 10
175.4505605783696
 20
163.8269729978948
 10
175.3571984291289
 20
163.7715069239916
 10
175.272449024283
 20
163.8195660377152
 10
175.1966568736079
 20
163.8691754454298
 10
175.208370205985
 20
163.9930267098286
 10
175.1563492298397
 20
164.0216210212197
 10
175.2600466723544
 20
164.0596893514451
 10
175.3330827448232
 20
164.1094710140476
 10
175.4357466580104
 20
164.0753645462439
 10
175.4929352807925
 20
164.0174869039101
 72
     1
 10
175.4929352807925
 20
164.0174869039101
 11
175.4929352807925
 21
164.0174869039101
 97
        0
 75
     0
 76
     1
 98
        0
450
        0
451
        0
460
0.0
461
0.0
452
        0
462
0.0
453
        0
470

  0
HATCH
  5
21
330
2
100
AcDbEntity
  8
图层 1
 62
     7
100
AcDbHatch
 10
0.0
 20
0.0
 30
0.0
210
0.0
220
0.0
230
1.0
  2
SOLID
 70
     1
 71
     0
 91
        1
 92
        1
 93
        2
 72
     4
 94
        3
 73
     0
 74
     0
 95
       11
 96
        7
 40
0.0
 40
0.0
 40
0.0
 40
0.0
 40
0.3527780104152769
 40
0.3527780104152769
 40
0.3527780104152769
 40
0.7055560208305538
 40
0.7055560208305538
 40
0.7055560208305538
 40
0.7055560208305538
 10
174.9213935627468
 20
174.5369206529582
 10
174.9213935627468
 20
174.5369206529582
 10
174.9213935627468
 20
174.3043765542958
 10
174.9213935627468
 20
174.3043765542958
 10
174.9213935627468
 20
174.3043765542958
 10
174.9213935627468
 20
174.5369206529582
 10
174.9213935627468
 20
174.5369206529582
 72
     1
 10
174.9213935627468
 20
174.5369206529582
 11
174.9213935627468
 21
174.5369206529582
 97
        0
 75
     0
 76
     1
 98
        0
450
        0
451
        0
460
0.0
461
0.0
452
        0
462
0.0
453
        0
470

  0
HATCH
  5
22
330
2
100
AcDbEntity
  8
图层 1
 62
     7
100
AcDbHatch
 10
0.0
 20
0.0
 30
0.0
210
0.0
220
0.0
230
1.0
  2
SOLID
 70
     1
 71
     0
 91
        1
 92
        1
 93
        2
 72
     4
 94
        3
 73
     0
 74
     0
 95
      131
 96
      127
 40
0.0
 40
0.0
 40
0.0
 40
0.0
 40
0.3527780104152769
 40
0.3527780104152769
 40
0.3527780104152769
 40
0.7055560208305538
 40
0.7055560208305538
 40
0.7055560208305538
 40
1.058334031245828
 40
1.058334031245828
 40
1.058334031245828
 40
1.411112041661104
 40
1.411112041661104
 40
1.411112041661104
 40
1.763890052076384
 40
1.763890052076384
 40
1.763890052076384
 40
2.116668062491659
 40
2.116668062491659
 40
2.116668062491659
 40
2.469446072906936
 40
2.469446072906936
 40
2.469446072906936
 40
2.822224083322215
 40
2.822224083322215
 40
2.822224083322215
 40
3.175002093737492
 40
3.175002093737492
 40
3.175002093737492
 40
3.527780104152768
 40
3.527780104152768
 40
3.527780104152768
 40
3.880558114568044
 40
3.880558114568044
 40
3.880558114568044
 40
4.233336124983321
 40
4.233336124983321
 40
4.233336124983321
 40
4.586114135398599
 40
4.586114135398599
 40
4.586114135398599
 40
4.938892145813873
 40
4.938892145813873
 40
4.938892145813873
 40
5.291670156229153
 40
5.291670156229153
 40
5.291670156229153
 40
5.64444816664443
 40
5.64444816664443
 40
5.64444816664443
 40
5.997226177059705
 40
5.997226177059705
 40
5.997226177059705
 40
6.350004187474984
 40
6.350004187474984
 40
6.350004187474984
 40
6.702782197890257
 40
6.702782197890257
 40
6.702782197890257
 40
7.055560208305537
 40
7.055560208305537
 40
7.055560208305537
 40
7.408338218720808
 40
7.408338218720808
 40
7.408338218720808
 40
7.76111622913609
 40
7.76111622913609
 40
7.76111622913609
 40
8.113894239551369
 40
8.113894239551369
 40
8.113894239551369
 40
8.466672249966642
 40
8.466672249966642
 40
8.466672249966642
 40
8.819450260381922
 40
8.819450260381922
 40
8.819450260381922
 40
9.172228270797198
 40
9.172228270797198
 40
9.172228270797198
 40
9.525006281212476
 40
9.525006281212476
 40
9.525006281212476
 40
9.877784291627751
 40
9.877784291627751
 40
9.877784291627751
 40
10.23056230204303
 40
10.23056230204303
 40
10.23056230204303
 40
10.58334031245831
 40
10.58334031245831
 40
10.58334031245831
 40
10.93611832287358
 40
10.93611832287358
 40
10.93611832287358
 40
11.28889633328886
 40
11.28889633328886
 40
11.28889633328886
 40
11.64167434370414
 40
11.64167434370414
 40
11.64167434370414
 40
11.99445235411941
 40
11.99445235411941
 40
11.99445235411941
 40
12.34723036453469
 40
12.34723036453469
 40
12.34723036453469
 40
12.70000837494997
 40
12.70000837494997
 40
12.70000837494997
 40
13.05278638536524
 40
13.05278638536524
 40
13.05278638536524
 40
13.40556439578052
 40
13.40556439578052
 40
13.40556439578052
 40
13.7583424061958
 40
13.7583424061958
 40
13.7583424061958
 40
14.11112041661107
 40
14.11112041661107
 40
14.11112041661107
 40
14.46389842702635
 40
14.46389842702635
 40
14.46389842702635
 40
14.81667643744163
 40
14.81667643744163
 40
14.81667643744163
 40
14.81667643744163
 10
173.3972823146245
 20
126.8274843518258
 10
173.3972823146245
 20
126.8274843518258
 10
173.3972823146245
 20
126.7217198506564
 10
173.3972823146245
 20
126.7217198506564
 10
173.3972823146245
 20
126.7217198506564
 10
173.4186419207238
 20
126.7217198506564
 10
173.4186419207238
 20
126.7217198506564
 10
173.4186419207238
 20
126.7217198506564
 10
173.4820317194703
 20
126.7007047543328
 10
173.4820317194703
 20
126.7007047543328
 10
173.4820317194703
 20
126.7007047543328
 10
173.5244064218933
 20
126.6793451482334
 10
173.5244064218933
 20
126.6793451482334
 10
173.5244064218933
 20
126.6793451482334
 10
173.5877962206398
 20
126.6793451482334
 10
173.5877962206398
 20
126.6793451482334
 10
173.5877962206398
 20
126.6793451482334
 10
173.6301709230627
 20
126.6583300519099
 10
173.6301709230627
 20
126.6583300519099
 10
173.7955356154449
 20
126.5911506456296
 10
173.759706598762
 20
126.6380039751379
 10
173.9478089363468
 20
126.5525655507404
 10
173.9478089363468
 20
126.5525655507404
 10
173.9688240326703
 20
126.4464565397952
 10
173.9688240326703
 20
126.4464565397952
 10
173.9688240326703
 20
126.4464565397952
 10
174.0325583411926
 20
126.5101908483175
 10
174.0325583411926
 20
126.5101908483175
 10
174.0325583411926
 20
126.5101908483175
 10
174.0749330436156
 20
126.5101908483175
 10
174.0749330436156
 20
126.5101908483175
 10
174.0749330436156
 20
126.5101908483175
 10
174.1593379386856
 20
126.4678161458946
 10
174.1593379386856
 20
126.4678161458946
 10
174.1593379386856
 20
126.4678161458946
 10
174.180697544785
 20
126.4464565397952
 10
174.180697544785
 20
126.4464565397952
 10
174.2464989119621
 20
126.3982251711837
 10
174.3298702777047
 20
126.3716979184474
 10
174.3922265471239
 20
126.3196769423022
 10
174.608234176548
 20
126.2059887162895
 10
174.7749769080334
 20
126.0278771622029
 10
174.9637682651697
 20
125.8749148217494
 10
174.9637682651697
 20
125.8749148217494
 10
175.0061429675926
 20
125.9172895241723
 10
175.0061429675926
 20
125.9172895241723
 10
174.961356696739
 20
125.9631093243532
 10
174.782211613325
 20
126.1246844092016
 10
174.7308796567315
 20
126.1501781326105
 10
174.7308796567315
 20
126.1501781326105
 10
174.6885049543085
 20
126.1925528350335
 10
174.6885049543085
 20
126.1925528350335
 10
174.6885049543085
 20
126.1925528350335
 10
174.667489857985
 20
126.2349275374564
 10
174.667489857985
 20
126.2349275374564
 10
174.667489857985
 20
126.2349275374564
 10
174.625115155562
 20
126.2559426337799
 10
174.625115155562
 20
126.2559426337799
 10
174.625115155562
 20
126.2559426337799
 10
174.5827404531391
 20
126.2983173362029
 10
174.5827404531391
 20
126.2983173362029
 10
174.5827404531391
 20
126.2983173362029
 10
174.5403657507162
 20
126.3196769423022
 10
174.5403657507162
 20
126.3196769423022
 10
174.5403657507162
 20
126.3196769423022
 10
174.4979910482932
 20
126.3620516447252
 10
174.4979910482932
 20
126.3620516447252
 10
174.4735308542117
 20
126.3875453681341
 10
174.3247026310678
 20
126.4695386947736
 10
174.2864620459544
 20
126.4888312422181
 10
174.2864620459544
 20
126.4888312422181
 10
174.2654469496308
 20
126.5101908483175
 10
174.2654469496308
 20
126.5101908483175
 10
174.2654469496308
 20
126.5101908483175
 10
174.2230722472079
 20
126.5312059446411
 10
174.2230722472079
 20
126.5312059446411
 10
174.2230722472079
 20
126.5312059446411
 10
174.2017126411085
 20
126.5525655507404
 10
174.2017126411085
 20
126.5525655507404
 10
174.2017126411085
 20
126.5525655507404
 10
174.1383228423621
 20
126.573580647064
 10
174.1383228423621
 20
126.573580647064
 10
174.1383228423621
 20
126.573580647064
 10
174.1169632362627
 20
126.5945957433876
 10
174.1169632362627
 20
126.5945957433876
 10
174.1169632362627
 20
126.5945957433876
 10
174.0959481399391
 20
126.7007047543328
 10
174.0959481399391
 20
126.7007047543328
 10
174.0959481399391
 20
126.7007047543328
 10
174.0325583411926
 20
126.6369704458105
 10
174.0325583411926
 20
126.6369704458105
 10
174.0325583411926
 20
126.6369704458105
 10
173.9901836387697
 20
126.6369704458105
 10
173.9901836387697
 20
126.6369704458105
 10
173.9901836387697
 20
126.6369704458105
 10
173.9054342339239
 20
126.6793451482334
 10
173.9054342339239
 20
126.6793451482334
 10
173.9054342339239
 20
126.6793451482334
 10
173.8420444351773
 20
126.7007047543328
 10
173.8420444351773
 20
126.7007047543328
 10
173.8420444351773
 20
126.7007047543328
 10
173.7996697327544
 20
126.7217198506564
 10
173.7996697327544
 20
126.7217198506564
 10
173.7996697327544
 20
126.7217198506564
 10
173.7572950303315
 20
126.7217198506564
 10
173.7572950303315
 20
126.7217198506564
 10
173.7572950303315
 20
126.7217198506564
 10
173.6725456254856
 20
126.7640945530793
 10
173.6725456254856
 20
126.7640945530793
 10
173.6725456254856
 20
126.7640945530793
 10
173.6515305291621
 20
126.7640945530793
 10
173.6515305291621
 20
126.7640945530793
 10
173.6515305291621
 20
126.7640945530793
 10
173.5667811243162
 20
126.7851096494029
 10
173.5667811243162
 20
126.7851096494029
 10
173.5667811243162
 20
126.7851096494029
 10
173.5033913255697
 20
126.8064692555022
 10
173.5033913255697
 20
126.8064692555022
 10
173.5033913255697
 20
126.8064692555022
 10
173.4396570170474
 20
126.8064692555022
 10
173.4396570170474
 20
126.8064692555022
 10
173.4396570170474
 20
126.8064692555022
 10
173.4186419207238
 20
126.8274843518258
 10
173.4186419207238
 20
126.8274843518258
 10
173.4186419207238
 20
126.8274843518258
 10
173.3972823146245
 20
126.8274843518258
 10
173.3972823146245
 20
126.8274843518258
 72
     1
 10
173.3972823146245
 20
126.8274843518258
 11
173.3972823146245
 21
126.8274843518258
 97
        0
 75
     0
 76
     1
 98
        0
450
        0
451
        0
460
0.0
461
0.0
452
        0
462
0.0
453
        0
470

  0
HATCH
  5
23
330
2
100
AcDbEntity
  8
图层 1
 62
     7
100
AcDbHatch
 10
0.0
 20
0.0
 30
0.0
210
0.0
220
0.0
230
1.0
  2
SOLID
 70
     1
 71
     0
 91
        1
 92
        1
 93
        2
 72
     4
 94
        3
 73
     0
 74
     0
 95
       47
 96
       43
 40
0.0
 40
0.0
 40
0.0
 40
0.0
 40
0.3527780104152769
 40
0.3527780104152769
 40
0.3527780104152769
 40
0.7055560208305538
 40
0.7055560208305538
 40
0.7055560208305538
 40
1.058334031245828
 40
1.058334031245828
 40
1.058334031245828
 40
1.411112041661104
 40
1.411112041661104
 40
1.411112041661104
 40
1.763890052076384
 40
1.763890052076384
 40
1.763890052076384
 40
2.116668062491659
 40
2.116668062491659
 40
2.116668062491659
 40
2.469446072906936
 40
2.469446072906936
 40
2.469446072906936
 40
2.822224083322215
 40
2.822224083322215
 40
2.822224083322215
 40
3.175002093737492
 40
3.175002093737492
 40
3.175002093737492
 40
3.527780104152768
 40
3.527780104152768
 40
3.527780104152768
 40
3.880558114568044
 40
3.880558114568044
 40
3.880558114568044
 40
4.233336124983321
 40
4.233336124983321
 40
4.233336124983321
 40
4.586114135398599
 40
4.586114135398599
 40
4.586114135398599
 40
4.938892145813873
 40
4.938892145813873
 40
4.938892145813873
 40
4.938892145813873
 10
180.1920486226523
 20
255.6479577566324
 10
180.1920486226523
 20
255.6479577566324
 10
180.2130637189759
 20
255.6055830542095
 10
180.2130637189759
 20
255.6055830542095
 10
180.2130637189759
 20
255.6055830542095
 10
180.2130637189759
 20
255.5210059042515
 10
180.2130637189759
 20
255.5210059042515
 10
180.2130637189759
 20
255.5210059042515
 10
180.1920486226523
 20
255.4786312018286
 10
180.1920486226523
 20
255.4786312018286
 10
180.1920486226523
 20
255.4786312018286
 10
180.1496739202294
 20
255.4359119896299
 10
180.1496739202294
 20
255.4359119896299
 10
180.1496739202294
 20
255.4359119896299
 10
180.1283143141301
 20
255.4147246384184
 10
180.1283143141301
 20
255.4147246384184
 10
180.1283143141301
 20
255.4147246384184
 10
180.0225498129606
 20
255.4147246384184
 10
180.0225498129606
 20
255.4147246384184
 10
180.0225498129606
 20
255.4147246384184
 10
179.9591600142141
 20
255.4359119896299
 10
179.9591600142141
 20
255.4359119896299
 10
179.9591600142141
 20
255.4359119896299
 10
179.9167853117912
 20
255.4570993408414
 10
179.9167853117912
 20
255.4570993408414
 10
179.9167853117912
 20
255.4570993408414
 10
179.8957702154676
 20
255.4786312018286
 10
179.8957702154676
 20
255.4786312018286
 10
179.8957702154676
 20
255.4786312018286
 10
179.8744106093683
 20
255.4994740432643
 10
179.8744106093683
 20
255.4994740432643
 10
179.8744106093683
 20
255.4994740432643
 10
179.8744106093683
 20
255.6479577566324
 10
179.8744106093683
 20
255.6479577566324
 10
179.9608825630931
 20
255.7323626517025
 10
180.045631967939
 20
255.7085914771726
 10
180.1496739202294
 20
255.7115198102668
 10
180.1496739202294
 20
255.7115198102668
 10
180.170689016553
 20
255.6688005980681
 10
180.170689016553
 20
255.6688005980681
 10
180.170689016553
 20
255.6688005980681
 10
180.1920486226523
 20
255.6479577566324
 10
180.1920486226523
 20
255.6479577566324
 72
     1
 10
180.1920486226523
 20
255.6479577566324
 11
180.1920486226523
 21
255.6479577566324
 97
        0
 75
     0
 76
     1
 98
        0
450
        0
451
        0
460
0.0
461
0.0
452
        0
462
0.0
453
        0
470

  0
LINE
  5
73A
330
2
100
AcDbEntity
  8
图框
370
    -3
100
AcDbLine
 10
772.0754403969905
 20
231.0246302289946
 30
0.0
 11
782.8446675683741
 21
231.0246302289946
 31
0.0
  0
LINE
  5
73B
330
2
100
AcDbEntity
  8
图框
370
    -3
100
AcDbLine
 10
761.4534327713997
 20
229.6724080421793
 30
0.0
 11
793.5391777651203
 21
229.6724080421801
 31
0.0
  0
MTEXT
  5
73C
330
2
100
AcDbEntity
  8
图框
100
AcDbMText
 10
779.414943678257
 20
231.7007413224371
 30
0.0
 40
0.6000023545570477
 41
6.859684067146692
 46
1.352222186885061
 71
     5
 72
     5
  1
{\f仿宋_GB2312|b0|i0|c134|p49;\C4;线径\Fromans|c134;/Wire Gauge}
  7
Romans字体
 73
     1
 44
1.0
1001
ACAD
1000
ACAD_MTEXT_DEFINED_HEIGHT_BEGIN
1070
    46
1040
1.352222186885061
1000
ACAD_MTEXT_DEFINED_HEIGHT_END
  0
MTEXT
  5
73D
330
2
100
AcDbEntity
  8
图框
100
AcDbMText
 10
781.3697152293753
 20
230.3484841016279
 30
0.0
 40
0.6000023545570477
 41
2.949904677997924
 46
1.352152118895874
 71
     5
 72
     5
  1
{\C4;AWG}
  7
Romans字体
 73
     1
 44
1.0
1001
ACAD
1000
ACAD_MTEXT_DEFINED_HEIGHT_BEGIN
1070
    46
1040
1.352152118895874
1000
ACAD_MTEXT_DEFINED_HEIGHT_END
  0
MTEXT
  5
73E
330
2
100
AcDbEntity
  8
图框
100
AcDbMText
 10
777.9399322671967
 20
230.3485191355872
 30
0.0
 40
0.6000023545570477
 41
3.909661246359366
 46
1.352222186814757
 71
     5
 72
     5
  1
\A1;{\C4;mm\H0.7x;\S2^  ;}
  7
Romans字体
 73
     1
 44
1.0
1001
ACAD
1000
ACAD_MTEXT_DEFINED_HEIGHT_BEGIN
1070
    46
1040
1.352222186814757
1000
ACAD_MTEXT_DEFINED_HEIGHT_END
  0
MTEXT
  5
73F
330
2
100
AcDbEntity
  8
图框
100
AcDbMText
 10
769.0420233978991
 20
231.0245901932858
 30
0.0
 40
0.6000023545570477
 41
6.066833998183262
 46
2.704364302212839
 71
     5
 72
     5
  1
{\f仿宋_GB2312|b0|i0|c134|p49;\C4;产品料号\Fromans|c134;\PPart NO.}
  7
Romans字体
 73
     1
 44
1.0
1001
ACAD
1000
ACAD_MTEXT_DEFINED_HEIGHT_BEGIN
1070
    46
1040
2.704364302212839
1000
ACAD_MTEXT_DEFINED_HEIGHT_END
  0
MTEXT
  5
740
330
2
100
AcDbEntity
  8
图框
100
AcDbMText
 10
784.061119431239
 20
231.0245901932861
 30
0.0
 40
0.6000023545570477
 41
2.432903725729715
 46
2.704364302212435
 71
     5
 72
     5
  1
{\C4;d}
  7
Romans字体
 73
     1
 44
1.0
1001
ACAD
1000
ACAD_MTEXT_DEFINED_HEIGHT_BEGIN
1070
    46
1040
2.704364302212435
1000
ACAD_MTEXT_DEFINED_HEIGHT_END
  0
LINE
  5
741
330
2
100
AcDbEntity
  8
图框
370
    35
100
AcDbLine
 10
761.4534445497721
 20
229.6724080421793
 30
0.0
 11
793.5391895434927
 21
229.6724080421801
 31
0.0
  0
MTEXT
  5
742
330
2
100
AcDbEntity
  8
图框
100
AcDbMText
 10
786.4940231566353
 20
231.0245901932861
 30
0.0
 40
0.6000023545570477
 41
2.432903725062574
 46
2.704364302212435
 71
     5
 72
     5
  1
{\C4;D}
  7
Romans字体
 73
     1
 44
1.0
1001
ACAD
1000
ACAD_MTEXT_DEFINED_HEIGHT_BEGIN
1070
    46
1040
2.704364302212435
1000
ACAD_MTEXT_DEFINED_HEIGHT_END
  0
LINE
  5
743
330
2
100
AcDbEntity
  8
图框
370
    -3
100
AcDbLine
 10
761.4534445497721
 20
228.3172511244434
 30
0.0
 11
793.5391895434927
 21
228.3172511244435
 31
0.0
  0
LINE
  5
744
330
2
100
AcDbEntity
  8
图框
370
    35
380
     1
100
AcDbLine
 10
785.2775712941037
 20
232.3768524158796
 30
0.0
 11
785.2775712941037
 21
229.4724072573276
 31
0.0
  0
LINE
  5
745
330
2
100
AcDbEntity
  8
图框
370
    35
100
AcDbLine
 10
785.2775830724762
 20
229.8724088270322
 30
0.0
 11
785.2775830724762
 21
222.9025946133096
 31
0.0
  0
LINE
  5
746
330
2
100
AcDbEntity
  8
图框
370
    -3
100
AcDbLine
 10
782.8446675690407
 20
232.3768524158796
 30
0.0
 11
782.8446675690407
 21
229.4724072573276
 31
0.0
  0
LINE
  5
747
330
2
100
AcDbEntity
  8
图框
370
    -3
100
AcDbLine
 10
782.8446793474142
 20
229.8724088270322
 30
0.0
 11
782.8446793474149
 21
222.9026127654343
 31
0.0
  0
LINE
  5
748
330
2
100
AcDbEntity
  8
图框
370
    -3
100
AcDbLine
 10
779.8947628910432
 20
231.024640232563
 30
0.0
 11
779.8947628910432
 21
229.4724072573276
 31
0.0
  0
LINE
  5
749
330
2
100
AcDbEntity
  8
图框
370
    -3
100
AcDbLine
 10
779.8947746694157
 20
229.872408827032
 30
0.0
 11
779.8947746694156
 21
222.902634774952
 31
0.0
  0
LINE
  5
74A
330
2
100
AcDbEntity
  8
图框
370
    -3
100
AcDbLine
 10
766.0086181778466
 20
225.6099721200873
 30
0.0
 11
766.0086181778466
 21
229.8724088270316
 31
0.0
  0
LINE
  5
74B
330
2
100
AcDbEntity
  8
图框
370
    -3
100
AcDbLine
 10
766.008606399474
 20
229.4724072573271
 30
0.0
 11
766.0086063994741
 21
231.0246402325623
 31
0.0
  0
LINE
  5
74C
330
2
100
AcDbEntity
  8
图框
370
    -3
100
AcDbLine
 10
772.0754521760302
 20
222.9026931156561
 30
0.0
 11
772.0754521760302
 21
229.8724088270316
 31
0.0
  0
LINE
  5
74D
330
2
100
AcDbEntity
  8
图框
370
    -3
100
AcDbLine
 10
772.0754403976573
 20
229.4724072573271
 30
0.0
 11
772.0754403976573
 21
232.3768524158794
 31
0.0
  0
LINE
  5
74E
330
2
100
AcDbEntity
  8
图框
370
    -3
100
AcDbLine
 10
782.8446675683741
 20
232.3767723443923
 30
0.0
 11
782.8446675683744
 21
229.4724072573276
 31
0.0
  0
LINE
  5
74F
330
2
100
AcDbEntity
  8
图框
370
    -3
100
AcDbLine
 10
782.8446793467477
 20
229.8724088270322
 30
0.0
 11
782.8446793467482
 21
222.9026127654343
 31
0.0
  0
LINE
  5
750
330
2
100
AcDbEntity
  8
图框
370
    -3
100
AcDbLine
 10
779.8947628903762
 20
231.0245601610757
 30
0.0
 11
779.8947628903762
 21
229.4724072573276
 31
0.0
  0
LINE
  5
751
330
2
100
AcDbEntity
  8
图框
370
    -3
100
AcDbLine
 10
779.8947746687489
 20
229.872408827032
 30
0.0
 11
779.8947746687489
 21
222.902634774952
 31
0.0
  0
LINE
  5
752
330
2
100
AcDbEntity
  8
图框
370
    -3
100
AcDbLine
 10
766.0086181771802
 20
222.9027383808781
 30
0.0
 11
766.0086181771802
 21
229.8724088270316
 31
0.0
  0
LINE
  5
753
330
2
100
AcDbEntity
  8
图框
370
    -3
100
AcDbLine
 10
766.0086063988075
 20
229.4724072573271
 30
0.0
 11
766.0086063988075
 21
232.3767723443923
 31
0.0
  0
LINE
  5
754
330
2
100
AcDbEntity
  8
图框
370
    -3
100
AcDbLine
 10
772.0754521753633
 20
222.9026931156561
 30
0.0
 11
772.0754521753633
 21
229.8724088270316
 31
0.0
  0
LINE
  5
755
330
2
100
AcDbEntity
  8
图框
370
    -3
100
AcDbLine
 10
772.0754403969905
 20
229.4724072573271
 30
0.0
 11
772.0754403969905
 21
232.3767723443923
 31
0.0
  0
LINE
  5
756
330
2
100
AcDbEntity
  8
图框
370
    35
100
AcDbLine
 10
761.4534445497721
 20
226.9650389411261
 30
0.0
 11
793.5391895434927
 21
226.9650389411269
 31
0.0
  0
LINE
  5
757
330
2
100
AcDbEntity
  8
图框
370
    35
380
     1
100
AcDbLine
 10
793.5391777651203
 20
232.3767723443925
 30
0.0
 11
793.5391741521913
 21
229.4724072573277
 31
0.0
  0
LINE
  5
758
330
2
100
AcDbEntity
  8
图框
370
    35
100
AcDbLine
 10
793.5391780102636
 20
229.8694740961126
 30
0.0
 11
793.5391693436311
 21
222.9025329728335
 31
0.0
  0
MTEXT
  5
759
102
{ACAD_XDICTIONARY
360
B42
102
}
330
2
100
AcDbEntity
  8
打标文字
 62
     3
100
AcDbMText
 10
812.3936409517357
 20
217.0684391707753
 30
0.0
 40
0.75
 41
21.56370451087032
 46
26.95590277395973
 71
     1
 72
     5
  3
\A1;{\f仿宋_GB2312|b0|i0|c134|p49;技术参数}:\P- {\f仿宋_GB2312|b0|i0|c134|p49;材料}: {\f仿宋_GB2312|b0|i0|c134|p49;铜合金}\P- {\f仿宋_GB2312|b0|i0|c134|p49;表面处理}: {\f仿宋_GB2312|b0|i0|c134|p49;镀金}\P- {\f仿宋_GB2312|b0|i0|c134|p49;额定电流}: 10A\P- {\f仿宋_GB2312|b0|i0|c134|p49
  3
;接触电阻}: ≤3mΩ\P- {\f仿宋_GB2312|b0|i0|c134|p49;线径范围}: 0.5mm{\H0.7x;\S2^ ;}(20 AWG)\P- {\f仿宋_GB2312|b0|i0|c134|p49;可插拔次数}: {\f仿宋_GB2312|b0|i0|c134|p49;≥}500\P\PTechnical specification:\P- Material: copper alloy\P- Surface: hard-gold plated\P- Rated curren
  1
t: 10A\P- Contact resistance: ≤3mΩ\P- Wire gauge: 0.5mm{\H0.7x;\S2^ ;}(20 AWG)\P- Mating cycles: {\f仿宋_GB2312|b0|i0|c134|p49;≥}500
  7
Romans字体
 73
     1
 44
1.0
1001
ACAD
1000
ACAD_MTEXT_DEFINED_HEIGHT_BEGIN
1070
    46
1040
26.95590277395973
1000
ACAD_MTEXT_DEFINED_HEIGHT_END
  0
LINE
  5
75A
330
2
100
AcDbEntity
  8
图框
370
    35
100
AcDbLine
 10
761.4534445497721
 20
225.6099721200871
 30
0.0
 11
793.5391895434927
 21
225.609972120088
 31
0.0
  0
MTEXT
  5
75B
330
2
100
AcDbEntity
  8
图框
100
AcDbMText
 10
763.7310195851039
 20
231.0246352307783
 30
0.0
 40
0.6000023545570477
 41
4.555173627407302
 46
2.704274227227899
 71
     5
 72
     5
  1
{\f仿宋_GB2312|b0|i0|c134|p49;\C4;产品代号\P\Fromans|c134;Part Code}
  7
Romans字体
 73
     1
 44
1.0
1001
ACAD
1000
ACAD_MTEXT_DEFINED_HEIGHT_BEGIN
1070
    46
1040
2.704274227227899
1000
ACAD_MTEXT_DEFINED_HEIGHT_END
  0
MTEXT
  5
75C
330
2
100
AcDbEntity
  8
图框
100
AcDbMText
 10
774.0302710208371
 20
231.7007012866934
 30
0.0
 40
0.6000023545570477
 41
3.909661246359441
 46
1.352142115397727
 71
     5
 72
     5
  1
{\f仿宋_GB2312|b0|i0|c134|p49;\C4;重量\Fromans|c134;/Weight}
  7
Romans字体
 73
     1
 44
1.0
1001
ACAD
1000
ACAD_MTEXT_DEFINED_HEIGHT_BEGIN
1070
    46
1040
1.352142115397727
1000
ACAD_MTEXT_DEFINED_HEIGHT_END
  0
MTEXT
  5
75D
330
2
100
AcDbEntity
  8
图框
100
AcDbMText
 10
774.0302710208371
 20
230.3485191355871
 30
0.0
 40
0.6000023545570477
 41
3.909661246359381
 46
1.352222186814969
 71
     5
 72
     5
  1
{\C4;g}
  7
Romans字体
 73
     1
 44
1.0
1001
ACAD
1000
ACAD_MTEXT_DEFINED_HEIGHT_BEGIN
1070
    46
1040
1.352222186814969
1000
ACAD_MTEXT_DEFINED_HEIGHT_END
  0
LINE
  5
75E
330
2
100
AcDbEntity
  8
图框
370
    -3
100
AcDbLine
 10
775.9851016440166
 20
232.3767723443923
 30
0.0
 11
775.9851016440166
 21
229.4724072573275
 31
0.0
  0
LINE
  5
75F
330
2
100
AcDbEntity
  8
图框
370
    -3
100
AcDbLine
 10
775.9851134223894
 20
229.872408827032
 30
0.0
 11
775.985113422389
 21
222.902663945304
 31
0.0
  0
MTEXT
  5
760
330
2
100
AcDbEntity
  8
图框
100
AcDbMText
 10
790.6248263921431
 20
231.0245901932861
 30
0.0
 40
0.6000023545570477
 41
5.828702745953783
 46
2.704364302212259
 71
     5
 72
     5
  1
{\f仿宋_GB2312|b0|i0|c134|p49;\C4;剥线长度\Fromans|c134;\PStripping Length}
  7
Romans字体
 73
     1
 44
1.0
1001
ACAD
1000
ACAD_MTEXT_DEFINED_HEIGHT_BEGIN
1070
    46
1040
2.704364302212259
1000
ACAD_MTEXT_DEFINED_HEIGHT_END
  0
LINE
  5
761
330
2
100
AcDbEntity
  8
图框
370
    35
380
     1
100
AcDbLine
 10
787.7104750191664
 20
232.3767723443923
 30
0.0
 11
787.7104750191664
 21
229.4724072573275
 31
0.0
  0
LINE
  5
762
330
2
100
AcDbEntity
  8
图框
370
    35
100
AcDbLine
 10
787.710486797539
 20
229.8724088270324
 30
0.0
 11
787.710486797539
 21
222.9025764611849
 31
0.0
  0
MTEXT
  5
763
330
2
100
AcDbEntity
  8
图框
100
AcDbMText
 10
763.7310313638098
 20
228.9962969487711
 30
0.0
 40
0.6000023545570477
 41
4.555173628074113
 46
1.3522221868162
 71
     5
 72
     5
  1
{\C4;CDGM-0.37}
  7
Romans字体
 73
     1
 44
1.0
1001
ACAD
1000
ACAD_MTEXT_DEFINED_HEIGHT_BEGIN
1070
    46
1040
1.3522221868162
1000
ACAD_MTEXT_DEFINED_HEIGHT_END
  0
MTEXT
  5
764
330
2
100
AcDbEntity
  8
图框
100
AcDbMText
 10
769.0420351769386
 20
228.9962969487711
 30
0.0
 40
0.6000023545570477
 41
6.066833998183262
 46
1.352222186816343
 71
     5
 72
     5
  1
{\C4;1010172100301}
  7
Romans字体
 73
     1
 44
1.0
1001
ACAD
1000
ACAD_MTEXT_DEFINED_HEIGHT_BEGIN
1070
    46
1040
1.352222186816343
1000
ACAD_MTEXT_DEFINED_HEIGHT_END
  0
MTEXT
  5
765
330
2
100
AcDbEntity
  8
图框
100
AcDbMText
 10
769.0420351769386
 20
227.6440747619546
 30
0.0
 40
0.6000023545570477
 41
6.066833998183262
 46
1.352222186816343
 71
     5
 72
     5
  1
{\C4;1010172100401}
  7
Romans字体
 73
     1
 44
1.0
1001
ACAD
1000
ACAD_MTEXT_DEFINED_HEIGHT_BEGIN
1070
    46
1040
1.352222186816343
1000
ACAD_MTEXT_DEFINED_HEIGHT_END
  0
MTEXT
  5
766
330
2
100
AcDbEntity
  8
图框
100
AcDbMText
 10
769.0420351769386
 20
226.2918525751394
 30
0.0
 40
0.6000023545570477
 41
6.066833998183262
 46
1.352222186816343
 71
     5
 72
     5
  1
{\C4;1010172100601}
  7
Romans字体
 73
     1
 44
1.0
1001
ACAD
1000
ACAD_MTEXT_DEFINED_HEIGHT_BEGIN
1070
    46
1040
1.352222186816343
1000
ACAD_MTEXT_DEFINED_HEIGHT_END
  0
MTEXT
  5
767
330
2
100
AcDbEntity
  8
图框
100
AcDbMText
 10
769.0420351769386
 20
224.9396303883242
 30
0.0
 40
0.6000023545570477
 41
6.066833998183262
 46
1.352222186816343
 71
     5
 72
     5
  1
{\C4;1010172100801}
  7
Romans字体
 73
     1
 44
1.0
1001
ACAD
1000
ACAD_MTEXT_DEFINED_HEIGHT_BEGIN
1070
    46
1040
1.352222186816343
1000
ACAD_MTEXT_DEFINED_HEIGHT_END
  0
MTEXT
  5
768
330
2
100
AcDbEntity
  8
图框
100
AcDbMText
 10
769.0420351769386
 20
223.587408201509
 30
0.0
 40
0.6000023545570477
 41
6.066833998183262
 46
1.352222186816343
 71
     5
 72
     5
  1
{\C4;1010172100901}
  7
Romans字体
 73
     1
 44
1.0
1001
ACAD
1000
ACAD_MTEXT_DEFINED_HEIGHT_BEGIN
1070
    46
1040
1.352222186816343
1000
ACAD_MTEXT_DEFINED_HEIGHT_END
  0
MTEXT
  5
769
330
2
100
AcDbEntity
  8
图框
100
AcDbMText
 10
777.9399440459027
 20
228.9962969487714
 30
0.0
 40
0.6000023545570477
 41
3.909661247026225
 46
1.3522221868165
 71
     5
 72
     5
  1
{\C4;0.14-0.37}
  7
Romans字体
 73
     1
 44
1.0
1001
ACAD
1000
ACAD_MTEXT_DEFINED_HEIGHT_BEGIN
1070
    46
1040
1.3522221868165
1000
ACAD_MTEXT_DEFINED_HEIGHT_END
  0
MTEXT
  5
76A
330
2
100
AcDbEntity
  8
图框
100
AcDbMText
 10
777.9399440459027
 20
227.6440747619557
 30
0.0
 40
0.6000023545570477
 41
3.909661247026225
 46
1.352222186815229
 71
     5
 72
     5
  1
{\C4;0.5}
  7
Romans字体
 73
     1
 44
1.0
1001
ACAD
1000
ACAD_MTEXT_DEFINED_HEIGHT_BEGIN
1070
    46
1040
1.352222186815229
1000
ACAD_MTEXT_DEFINED_HEIGHT_END
  0
MTEXT
  5
76B
330
2
100
AcDbEntity
  8
图框
100
AcDbMText
 10
781.3697270080812
 20
228.9962969487716
 30
0.0
 40
0.6000023545570477
 41
2.949904678664852
 46
1.352222186816635
 71
     5
 72
     5
  1
{\C4;26-22}
  7
Romans字体
 73
     1
 44
1.0
1001
ACAD
1000
ACAD_MTEXT_DEFINED_HEIGHT_BEGIN
1070
    46
1040
1.352222186816635
1000
ACAD_MTEXT_DEFINED_HEIGHT_END
  0
MTEXT
  5
76C
330
2
100
AcDbEntity
  8
图框
100
AcDbMText
 10
781.369727008415
 20
227.6440747619557
 30
0.0
 40
0.6000023545570477
 41
2.949904677998123
 46
1.352222186815164
 71
     5
 72
     5
  1
{\C4;20}
  7
Romans字体
 73
     1
 44
1.0
1001
ACAD
1000
ACAD_MTEXT_DEFINED_HEIGHT_BEGIN
1070
    46
1040
1.352222186815164
1000
ACAD_MTEXT_DEFINED_HEIGHT_END
  0
MTEXT
  5
76D
330
2
100
AcDbEntity
  8
图框
100
AcDbMText
 10
784.0611312096116
 20
228.9962969487716
 30
0.0
 40
0.6000023545570477
 41
2.43290372572948
 46
1.352222186816667
 71
     5
 72
     5
  1
{\C4;0.9}
  7
Romans字体
 73
     1
 44
1.0
1001
ACAD
1000
ACAD_MTEXT_DEFINED_HEIGHT_BEGIN
1070
    46
1040
1.352222186816667
1000
ACAD_MTEXT_DEFINED_HEIGHT_END
  0
MTEXT
  5
76E
330
2
100
AcDbEntity
  8
图框
100
AcDbMText
 10
784.0611312096116
 20
227.6440747619555
 30
0.0
 40
0.6000023545570477
 41
2.43290372572947
 46
1.352222186815196
 71
     5
 72
     5
  1
{\C4;1.15}
  7
Romans字体
 73
     1
 44
1.0
1001
ACAD
1000
ACAD_MTEXT_DEFINED_HEIGHT_BEGIN
1070
    46
1040
1.352222186815196
1000
ACAD_MTEXT_DEFINED_HEIGHT_END
  0
MTEXT
  5
76F
330
2
100
AcDbEntity
  8
图框
100
AcDbMText
 10
786.4940349350079
 20
228.9962969487716
 30
0.0
 40
0.6000023545570477
 41
2.432903725062595
 46
1.35222218681682
 71
     5
 72
     5
  1
{\C4;2.6}
  7
Romans字体
 73
     1
 44
1.0
1001
ACAD
1000
ACAD_MTEXT_DEFINED_HEIGHT_BEGIN
1070
    46
1040
1.35222218681682
1000
ACAD_MTEXT_DEFINED_HEIGHT_END
  0
MTEXT
  5
770
330
2
100
AcDbEntity
  8
图框
100
AcDbMText
 10
777.9399440462363
 20
226.2918525751405
 30
0.0
 40
0.59999791584616
 41
3.909661246359378
 46
1.352222186815279
 71
     5
 72
     5
  1
{\C4;0.75}
  7
Romans字体
 73
     1
 44
1.0
1001
ACAD
1000
ACAD_MTEXT_DEFINED_HEIGHT_BEGIN
1070
    46
1040
1.352222186815279
1000
ACAD_MTEXT_DEFINED_HEIGHT_END
  0
MTEXT
  5
771
330
2
100
AcDbEntity
  8
图框
100
AcDbMText
 10
781.369727008415
 20
226.2918525751405
 30
0.0
 40
0.59999791584616
 41
2.949904677998274
 46
1.35222218681521
 71
     5
 72
     5
  1
{\C4;18}
  7
Romans字体
 73
     1
 44
1.0
1001
ACAD
1000
ACAD_MTEXT_DEFINED_HEIGHT_BEGIN
1070
    46
1040
1.35222218681521
1000
ACAD_MTEXT_DEFINED_HEIGHT_END
  0
MTEXT
  5
772
330
2
100
AcDbEntity
  8
图框
100
AcDbMText
 10
784.0611312099452
 20
226.2918525751405
 30
0.0
 40
0.59999791584616
 41
2.432903725062625
 46
1.352222186815245
 71
     5
 72
     5
  1
{\C4;1.3}
  7
Romans字体
 73
     1
 44
1.0
1001
ACAD
1000
ACAD_MTEXT_DEFINED_HEIGHT_BEGIN
1070
    46
1040
1.352222186815245
1000
ACAD_MTEXT_DEFINED_HEIGHT_END
  0
MTEXT
  5
773
330
2
100
AcDbEntity
  8
图框
100
AcDbMText
 10
777.9399440462363
 20
224.9374543652004
 30
0.0
 40
0.59999791584616
 41
3.909661246359378
 46
1.347870140565607
 71
     5
 72
     5
  1
{\C4;1.0}
  7
Romans字体
 73
     1
 44
1.0
1001
ACAD
1000
ACAD_MTEXT_DEFINED_HEIGHT_BEGIN
1070
    46
1040
1.347870140565607
1000
ACAD_MTEXT_DEFINED_HEIGHT_END
  0
MTEXT
  5
774
330
2
100
AcDbEntity
  8
图框
100
AcDbMText
 10
781.3697270080815
 20
224.9374143294568
 30
0.0
 40
0.59999791584616
 41
2.94990467733168
 46
1.347790069078369
 71
     5
 72
     5
  1
{\C4;18}
  7
Romans字体
 73
     1
 44
1.0
1001
ACAD
1000
ACAD_MTEXT_DEFINED_HEIGHT_BEGIN
1070
    46
1040
1.347790069078369
1000
ACAD_MTEXT_DEFINED_HEIGHT_END
  0
MTEXT
  5
775
330
2
100
AcDbEntity
  8
图框
100
AcDbMText
 10
784.0611312096121
 20
224.9396303883251
 30
0.0
 40
0.59999791584616
 41
2.43290372572923
 46
1.352222186815245
 71
     5
 72
     5
  1
{\C4;1.45}
  7
Romans字体
 73
     1
 44
1.0
1001
ACAD
1000
ACAD_MTEXT_DEFINED_HEIGHT_BEGIN
1070
    46
1040
1.352222186815245
1000
ACAD_MTEXT_DEFINED_HEIGHT_END
  0
MTEXT
  5
776
330
2
100
AcDbEntity
  8
图框
100
AcDbMText
 10
786.4940349350079
 20
223.5859408360483
 30
0.0
 40
0.59999791584616
 41
2.432903725062594
 46
1.35515691773857
 71
     5
 72
     5
  1
{\C4;3.0}
  7
Romans字体
 73
     1
 44
1.0
1001
ACAD
1000
ACAD_MTEXT_DEFINED_HEIGHT_BEGIN
1070
    46
1040
1.35515691773857
1000
ACAD_MTEXT_DEFINED_HEIGHT_END
  0
MTEXT
  5
777
330
2
100
AcDbEntity
  8
图框
100
AcDbMText
 10
777.9399440459027
 20
223.5874082015091
 30
0.0
 40
0.6000023545570477
 41
3.909661247026225
 46
1.3522221868165
 71
     5
 72
     5
  1
{\C4;1.5}
  7
Romans字体
 73
     1
 44
1.0
1001
ACAD
1000
ACAD_MTEXT_DEFINED_HEIGHT_BEGIN
1070
    46
1040
1.3522221868165
1000
ACAD_MTEXT_DEFINED_HEIGHT_END
  0
MTEXT
  5
778
330
2
100
AcDbEntity
  8
图框
100
AcDbMText
 10
781.3697270074153
 20
223.5874082015091
 30
0.0
 40
0.6000023545570477
 41
2.949904678664852
 46
1.352222186816635
 71
     5
 72
     5
  1
{\C4;16}
  7
Romans字体
 73
     1
 44
1.0
1001
ACAD
1000
ACAD_MTEXT_DEFINED_HEIGHT_BEGIN
1070
    46
1040
1.352222186816635
1000
ACAD_MTEXT_DEFINED_HEIGHT_END
  0
MTEXT
  5
779
330
2
100
AcDbEntity
  8
图框
100
AcDbMText
 10
784.0611312096116
 20
223.5874082015091
 30
0.0
 40
0.6000023545570477
 41
2.43290372572948
 46
1.352222186816667
 71
     5
 72
     5
  1
{\C4;1.75}
  7
Romans字体
 73
     1
 44
1.0
1001
ACAD
1000
ACAD_MTEXT_DEFINED_HEIGHT_BEGIN
1070
    46
1040
1.352222186816667
1000
ACAD_MTEXT_DEFINED_HEIGHT_END
  0
MTEXT
  5
77A
330
2
100
AcDbEntity
  8
图框
100
AcDbMText
 10
763.7310313631427
 20
227.644074761955
 30
0.0
 40
0.6000023545570477
 41
4.555173628074113
 46
1.3522221868162
 71
     5
 72
     5
  1
{\C4;CDGM-0.50}
  7
Romans字体
 73
     1
 44
1.0
1001
ACAD
1000
ACAD_MTEXT_DEFINED_HEIGHT_BEGIN
1070
    46
1040
1.3522221868162
1000
ACAD_MTEXT_DEFINED_HEIGHT_END
  0
MTEXT
  5
77B
330
2
100
AcDbEntity
  8
图框
100
AcDbMText
 10
763.7310313638098
 20
226.2918525751398
 30
0.0
 40
0.6000023545570477
 41
4.555173628074113
 46
1.3522221868162
 71
     5
 72
     5
  1
{\C4;CDGM-0.75}
  7
Romans字体
 73
     1
 44
1.0
1001
ACAD
1000
ACAD_MTEXT_DEFINED_HEIGHT_BEGIN
1070
    46
1040
1.3522221868162
1000
ACAD_MTEXT_DEFINED_HEIGHT_END
  0
MTEXT
  5
77C
330
2
100
AcDbEntity
  8
图框
100
AcDbMText
 10
763.7310313631427
 20
224.9351982705873
 30
0.0
 40
0.6000023545570477
 41
4.555173628074113
 46
1.3522221868162
 71
     5
 72
     5
  1
{\C4;CDGM-1.00}
  7
Romans字体
 73
     1
 44
1.0
1001
ACAD
1000
ACAD_MTEXT_DEFINED_HEIGHT_BEGIN
1070
    46
1040
1.3522221868162
1000
ACAD_MTEXT_DEFINED_HEIGHT_END
  0
MTEXT
  5
77D
330
2
100
AcDbEntity
  8
图框
100
AcDbMText
 10
763.7310313631427
 20
223.5874082015093
 30
0.0
 40
0.6000023545570477
 41
4.555173628074113
 46
1.3522221868162
 71
     5
 72
     5
  1
{\C4;CDGM-1.50}
  7
Romans字体
 73
     1
 44
1.0
1001
ACAD
1000
ACAD_MTEXT_DEFINED_HEIGHT_BEGIN
1070
    46
1040
1.3522221868162
1000
ACAD_MTEXT_DEFINED_HEIGHT_END
  0
MTEXT
  5
77E
330
2
100
AcDbEntity
  8
图框
100
AcDbMText
 10
786.4940349350079
 20
227.6440747619564
 30
0.0
 40
0.6000023545570477
 41
2.432903725062595
 46
1.35222218681682
 71
     5
 72
     5
  1
{\C4;2.6}
  7
Romans字体
 73
     1
 44
1.0
1001
ACAD
1000
ACAD_MTEXT_DEFINED_HEIGHT_BEGIN
1070
    46
1040
1.35222218681682
1000
ACAD_MTEXT_DEFINED_HEIGHT_END
  0
MTEXT
  5
77F
330
2
100
AcDbEntity
  8
图框
100
AcDbMText
 10
786.4940349350079
 20
226.2918525751411
 30
0.0
 40
0.6000023545570477
 41
2.432903725062595
 46
1.35222218681682
 71
     5
 72
     5
  1
{\C4;2.6}
  7
Romans字体
 73
     1
 44
1.0
1001
ACAD
1000
ACAD_MTEXT_DEFINED_HEIGHT_BEGIN
1070
    46
1040
1.35222218681682
1000
ACAD_MTEXT_DEFINED_HEIGHT_END
  0
MTEXT
  5
780
330
2
100
AcDbEntity
  8
图框
100
AcDbMText
 10
786.4940349350079
 20
224.9396303883259
 30
0.0
 40
0.6000023545570477
 41
2.432903725062595
 46
1.35222218681682
 71
     5
 72
     5
  1
{\C4;2.6}
  7
Romans字体
 73
     1
 44
1.0
1001
ACAD
1000
ACAD_MTEXT_DEFINED_HEIGHT_BEGIN
1070
    46
1040
1.35222218681682
1000
ACAD_MTEXT_DEFINED_HEIGHT_END
  0
LINE
  5
781
330
2
100
AcDbEntity
  8
图框
370
    -3
100
AcDbLine
 10
761.4534243508036
 20
222.9027723676098
 30
0.0
 11
793.5391693436311
 21
222.9025329728335
 31
0.0
  0
LINE
  5
782
330
2
100
AcDbEntity
  8
图框
370
    35
100
AcDbLine
 10
761.4534344397866
 20
224.2549845508894
 30
0.0
 11
793.539179432614
 21
224.2547451561125
 31
0.0
  0
DIMENSION
  5
783
330
2
100
AcDbEntity
  8
DIM
 62
     1
100
AcDbDimension
  2
*D2
 10
807.6023530263732
 20
204.5407643731051
 30
0.0
 11
807.6023530263732
 21
209.6907643735053
 31
0.0
 70
   160
  1
%%c<>
 71
     5
 42
1.600000000400114
 73
     0
 74
     0
 75
     0
  3
01
100
AcDbAlignedDimension
 13
802.5929031297735
 23
206.1407643735051
 33
0.0
 14
802.5929031297735
 24
204.5407643731051
 34
0.0
 50
270.0
100
AcDbRotatedDimension
1001
ACAD
1000
DSTYLE
1002
{
1070
    41
1040
1.0
1070
    44
1040
0.2
1070
   140
1040
1.199999999999999
1070
   147
1040
0.2
1002
}
  0
HATCH
  5
784
330
2
100
AcDbEntity
  8
hat
100
AcDbHatch
 10
0.0
 20
0.0
 30
0.0
210
0.0
220
0.0
230
1.0
  2
ANSI31
 70
     0
 71
     0
 91
        3
 92
        7
 72
     0
 73
     1
 93
       12
 10
785.9902270731793
 20
206.2157643733052
 10
785.9902270731793
 20
206.6057643733052
 10
785.9402270736798
 20
206.6057643733052
 10
785.9402270736802
 20
206.9407643737054
 10
785.3402270736802
 20
206.9407643737054
 10
783.9402270731799
 20
206.9407643737052
 10
783.9402270731799
 20
206.8407643733052
 10
779.8247570193422
 20
206.8407643733052
 10
779.7670219921922
 20
206.9407643737052
 10
778.9402270731799
 20
206.9407643737053
 10
778.9402270731799
 20
206.840764373305
 10
779.3010709914239
 20
206.2157643733052
 97
        0
 92
        7
 72
     0
 73
     1
 93
        7
 10
786.9402270731793
 20
206.2157643733052
 10
786.9402270731796
 20
206.0657643733045
 10
787.3588060183407
 20
205.3407643733052
 10
787.6402270747197
 20
205.3407643733052
 10
787.6402270747197
 20
206.6057643733052
 10
786.8902270731797
 20
206.6057643733052
 10
786.8902270731796
 20
206.2157643733052
 97
        0
 92
        7
 72
     0
 73
     1
 93
       17
 10
787.6402270747197
 20
205.0057643725156
 10
787.6402270747203
 20
205.3407643733052
 10
787.3588060183407
 20
205.3407643733052
 10
786.9402270731793
 20
204.6157643733056
 10
786.9402270731791
 20
204.4657643733052
 10
779.3010709914239
 20
204.4657643733052
 10
778.9402270731799
 20
203.8407643733056
 10
778.9402270731799
 20
203.7407643729056
 10
779.7670219921916
 20
203.7407643729056
 10
779.8247570193413
 20
203.8407643733052
 10
783.9402270731794
 20
203.8407643733052
 10
783.9402270731794
 20
203.7407643729052
 10
785.1402270736798
 20
203.740764372905
 10
785.8402270730001
 20
203.7407643729056
 10
785.9402270736798
 20
203.7407643729049
 10
785.9402270736798
 20
204.0757643733053
 10
787.6402270747197
 20
204.0757643733052
 97
        0
 75
     0
 76
     1
 52
0.0
 41
0.1
 77
     0
 78
     1
 53
45.0
 43
3810.188818218524
 44
425.6217999956251
 45
-0.2245064030267288
 46
0.2245064030267288
 79
     0
 47
0.0091907311078154
 98
        3
 10
780.0859825045177
 20
206.4593870621009
 10
787.1879198304977
 20
206.2103813719167
 10
787.3534810805381
 20
204.6939107025837
1001
ACAD
1010
0.0
1020
0.0
1030
0.0
  0
LINE
  5
785
330
2
100
AcDbEntity
  8
0
100
AcDbLine
 10
785.8402270730001
 20
203.7407643729056
 30
0.0
 11
783.9402270731794
 21
203.7407643729056
 31
0.0
  0
LINE
  5
786
330
2
100
AcDbEntity
  8
0
100
AcDbLine
 10
779.7670219921916
 20
203.7407643729056
 30
0.0
 11
778.9402270731799
 21
203.7407643729056
 31
0.0
  0
LINE
  5
787
330
2
100
AcDbEntity
  8
0
100
AcDbLine
 10
790.0402270721192
 20
204.1157643722057
 30
0.0
 11
789.6402270726801
 21
204.1157643722052
 31
0.0
  0
LINE
  5
788
330
2
100
AcDbEntity
  8
0
100
AcDbLine
 10
802.3984279944867
 20
204.5407643731054
 30
0.0
 11
790.6402270735399
 21
204.5407643731054
 31
0.0
  0
LINE
  5
789
330
2
100
AcDbEntity
  8
0
100
AcDbLine
 10
790.6402270735399
 20
204.5407643731054
 30
0.0
 11
790.0402270721197
 21
204.1157643722052
 31
0.0
  0
LINE
  5
78A
330
2
100
AcDbEntity
  8
0
100
AcDbLine
 10
802.3984279944867
 20
206.140764373505
 30
0.0
 11
790.6402270735399
 21
206.1407643735055
 31
0.0
  0
LINE
  5
78B
330
2
100
AcDbEntity
  8
0
100
AcDbLine
 10
790.6402270735399
 20
206.1407643735055
 30
0.0
 11
790.0402270721197
 21
206.5657643718654
 31
0.0
  0
LINE
  5
78C
330
2
100
AcDbEntity
  8
0
100
AcDbLine
 10
790.6402270735399
 20
204.5407643731058
 30
0.0
 11
790.6402270735399
 21
206.1407643735055
 31
0.0
  0
LINE
  5
78D
330
2
100
AcDbEntity
  8
0
100
AcDbLine
 10
790.0402270721182
 20
206.5657643718654
 30
0.0
 11
789.6402270726801
 21
206.5657643718654
 31
0.0
  0
LINE
  5
78E
330
2
100
AcDbEntity
  8
0
100
AcDbLine
 10
785.8402270730001
 20
206.9407643737053
 30
0.0
 11
783.9402270731802
 21
206.9407643737052
 31
0.0
  0
LINE
  5
78F
330
2
100
AcDbEntity
  8
0
100
AcDbLine
 10
779.7670219921926
 20
206.9407643737052
 30
0.0
 11
778.9402270731799
 21
206.9407643737053
 31
0.0
  0
LINE
  5
790
330
2
100
AcDbEntity
  8
0
100
AcDbLine
 10
790.0402270721197
 20
204.1157643722052
 30
0.0
 11
790.0402270721197
 21
206.5657643718654
 31
0.0
  0
LINE
  5
791
330
2
100
AcDbEntity
  8
0
100
AcDbLine
 10
789.6402270726801
 20
204.1157643722052
 30
0.0
 11
789.6402270726801
 21
206.5657643718654
 31
0.0
  0
LINE
  5
792
330
2
100
AcDbEntity
  8
0
100
AcDbLine
 10
787.6402270721797
 20
204.0907643739456
 30
0.0
 11
787.6402270721797
 21
206.5907643726654
 31
0.0
  0
LINE
  5
793
330
2
100
AcDbEntity
  8
0
100
AcDbLine
 10
778.9402270731799
 20
203.7407643729056
 30
0.0
 11
778.9402270731799
 21
206.9407643737053
 31
0.0
  0
LINE
  5
794
330
2
100
AcDbEntity
  8
0
100
AcDbLine
 10
787.6402270747197
 20
206.2357643714653
 30
0.0
 11
787.6402270747197
 21
206.6257643712455
 31
0.0
  0
LINE
  5
795
330
2
100
AcDbEntity
  8
0
100
AcDbLine
 10
787.6402270747197
 20
203.6057643736657
 30
0.0
 11
787.6402270747197
 21
205.0057643725156
 31
0.0
  0
LINE
  5
796
330
2
100
AcDbEntity
  8
0
100
AcDbLine
 10
787.6402270747197
 20
203.6057643736657
 30
0.0
 11
789.2902270726799
 21
204.1997643731887
 31
0.0
  0
LINE
  5
797
330
2
100
AcDbEntity
  8
0
100
AcDbLine
 10
787.6402270747197
 20
207.1057643713656
 30
0.0
 11
789.2902270726799
 21
206.5117643718421
 31
0.0
  0
LINE
  5
798
330
2
100
AcDbEntity
  8
0
100
AcDbLine
 10
787.6402270747197
 20
207.1057643713656
 30
0.0
 11
787.6402270747197
 21
205.7057643725156
 31
0.0
  0
LINE
  5
799
330
2
100
AcDbEntity
  8
0
100
AcDbLine
 10
787.6402270747197
 20
205.0057643725156
 30
0.0
 11
789.2902270726799
 21
205.0057643725156
 31
0.0
  0
LINE
  5
79A
330
2
100
AcDbEntity
  8
0
100
AcDbLine
 10
787.6402270747197
 20
205.7057643725156
 30
0.0
 11
789.2902270726799
 21
205.7057643725156
 31
0.0
  0
LINE
  5
79B
330
2
100
AcDbEntity
  8
0
100
AcDbLine
 10
789.2902270726799
 20
205.7057643725156
 30
0.0
 11
789.2902270726799
 21
206.5117643718425
 31
0.0
  0
LINE
  5
79C
330
2
100
AcDbEntity
  8
0
100
AcDbLine
 10
789.2902270726799
 20
204.1997643731887
 30
0.0
 11
789.2902270726799
 21
205.0057643725156
 31
0.0
  0
LINE
  5
79D
330
2
100
AcDbEntity
  8
0
100
AcDbLine
 10
787.6402270747197
 20
206.6257643712455
 30
0.0
 11
787.6402270747197
 21
204.085764371246
 31
0.0
  0
LINE
  5
79E
330
2
100
AcDbEntity
  8
0
100
AcDbLine
 10
786.9402270731791
 20
205.3407643733052
 30
0.0
 11
786.9402270731791
 21
204.6157643733052
 31
0.0
  0
DIMENSION
  5
79F
330
2
100
AcDbEntity
  8
DIM
 62
     1
100
AcDbDimension
  2
*D3
 10
774.3983546213137
 20
203.7407643729047
 30
0.0
 11
774.3983546213137
 21
209.4907643737054
 31
0.0
 70
   160
  1
%%c<>
 71
     5
 42
3.200000000800598
 73
     0
 74
     0
 75
     0
  3
01
100
AcDbAlignedDimension
 13
778.9402270731799
 23
206.9407643737053
 33
0.0
 14
778.9402270731799
 24
203.7407643729047
 34
0.0
 50
270.0
100
AcDbRotatedDimension
1001
ACAD
1000
DSTYLE
1002
{
1070
    41
1040
1.0
1070
    44
1040
0.2
1070
   140
1040
1.199999999999999
1070
   147
1040
0.2
1002
}
  0
DIMENSION
  5
7A0
330
2
100
AcDbEntity
  8
DIM
 62
     1
100
AcDbDimension
  2
*D4
 10
776.7695622729095
 20
204.4657643733052
 30
0.0
 11
776.7695622729095
 21
210.8514786590195
 31
0.0
 70
   160
  1
{\fISOCPEUR|b0|i0|c0|p34;%%C}d
 71
     5
 42
1.75
 73
     0
 74
     0
 75
     0
  3
01
100
AcDbAlignedDimension
 13
779.3010709914239
 23
206.2157643733052
 33
0.0
 14
779.3010709914233
 24
204.4657643733052
 34
0.0
 50
270.0
100
AcDbRotatedDimension
1001
ACAD
1000
DSTYLE
1002
{
1070
    41
1040
1.0
1070
    44
1040
0.2
1070
   140
1040
1.199999999999999
1070
   147
1040
0.2
1002
}
  0
LINE
  5
7A1
330
2
100
AcDbEntity
  8
CEN
100
AcDbLine
 10
778.0392043976267
 20
205.3407643733052
 30
0.0
 11
804.9408045685837
 21
205.3407643733052
 31
0.0
  0
LINE
  5
7A2
330
2
100
AcDbEntity
  8
0
100
AcDbLine
 10
779.8247570193413
 20
203.8407643733052
 30
0.0
 11
783.9402270731794
 21
203.8407643733052
 31
0.0
  0
LINE
  5
7A3
330
2
100
AcDbEntity
  8
0
100
AcDbLine
 10
779.8247570193422
 20
206.8407643733052
 30
0.0
 11
783.9402270731799
 21
206.8407643733052
 31
0.0
  0
LINE
  5
7A4
330
2
100
AcDbEntity
  8
0
100
AcDbLine
 10
779.3010709914239
 20
204.4657643733052
 30
0.0
 11
786.9402270731791
 21
204.4657643733052
 31
0.0
  0
LINE
  5
7A5
330
2
100
AcDbEntity
  8
0
100
AcDbLine
 10
779.3010709914239
 20
206.2157643733052
 30
0.0
 11
785.9902270731796
 21
206.2157643733052
 31
0.0
  0
LINE
  5
7A6
330
2
100
AcDbEntity
  8
0
100
AcDbLine
 10
786.8902270731797
 20
206.2157643733052
 30
0.0
 11
786.9402270731793
 21
206.2157643733052
 31
0.0
  0
LINE
  5
7A7
330
2
100
AcDbEntity
  8
0
100
AcDbLine
 10
785.9402270736802
 20
204.0757643733053
 30
0.0
 11
787.6402270747197
 21
204.0757643733052
 31
0.0
  0
LINE
  5
7A8
330
2
100
AcDbEntity
  8
0
100
AcDbLine
 10
789.2902270726799
 20
204.4407643733052
 30
0.0
 11
789.6402270726801
 21
204.4407643733052
 31
0.0
  0
LINE
  5
7A9
330
2
100
AcDbEntity
  8
DIM
100
AcDbLine
 10
802.6201226571286
 20
206.1407643735055
 30
0.0
 11
802.3984279944867
 21
206.1407643735055
 31
0.0
  0
ARC
  5
7AA
330
2
100
AcDbEntity
  8
0
100
AcDbCircle
 10
802.3984279944867
 20
205.5407643731054
 30
0.0
 40
1.0
100
AcDbArc
 50
270.0
 51
295.0000000000068
  0
LINE
  5
7AB
330
2
100
AcDbEntity
  8
0
100
AcDbLine
 10
803.7526531975418
 20
205.0688720371939
 30
0.0
 11
802.8210462562276
 21
204.6344565860685
 31
0.0
  0
LINE
  5
7AC
330
2
100
AcDbEntity
  8
0
100
AcDbLine
 10
803.7526531975418
 20
205.612656709416
 30
0.0
 11
802.8210462562276
 21
206.0470721605415
 31
0.0
  0
LINE
  5
7AD
330
2
100
AcDbEntity
  8
DIM
100
AcDbLine
 10
802.8210462562281
 20
206.047072160541
 30
0.0
 11
802.6201226571286
 21
206.1407643735055
 31
0.0
  0
ARC
  5
7AE
330
2
100
AcDbEntity
  8
0
100
AcDbCircle
 10
802.3984279944867
 20
205.140764373505
 30
0.0
 40
1.0
100
AcDbArc
 50
64.99999999999315
 51
90.0
  0
ARC
  5
7AF
330
2
100
AcDbEntity
  8
0
100
AcDbCircle
 10
803.62586771902
 20
205.3407643733052
 30
0.0
 40
0.3
100
AcDbArc
 50
295.0000000000068
 51
64.99999999999315
  0
LINE
  5
7B0
330
2
100
AcDbEntity
  8
0
100
AcDbLine
 10
785.9402270736802
 20
206.9407643737054
 30
0.0
 11
785.3402270736802
 21
206.9407643737054
 31
0.0
  0
LINE
  5
7B1
330
2
100
AcDbEntity
  8
0
100
AcDbLine
 10
785.1402270736798
 20
206.9407643737054
 30
0.0
 11
783.9402270731799
 21
206.9407643737054
 31
0.0
  0
LINE
  5
7B2
330
2
100
AcDbEntity
  8
0
100
AcDbLine
 10
786.9402270731799
 20
205.3407643733054
 30
0.0
 11
786.9402270731791
 21
204.4657643733052
 31
0.0
  0
LINE
  5
7B3
330
2
100
AcDbEntity
  8
0
100
AcDbLine
 10
785.9402270736798
 20
206.6057643733052
 30
0.0
 11
785.9402270736802
 21
206.9407643737056
 31
0.0
  0
LINE
  5
7B4
330
2
100
AcDbEntity
  8
0
100
AcDbLine
 10
786.8902270731797
 20
206.6057643733053
 30
0.0
 11
786.8902270731797
 21
206.2157643733052
 31
0.0
  0
LINE
  5
7B5
330
2
100
AcDbEntity
  8
0
100
AcDbLine
 10
785.9902270731796
 20
206.5907643752053
 30
0.0
 11
785.9902270731796
 21
206.2157643733052
 31
0.0
  0
LINE
  5
7B6
330
2
100
AcDbEntity
  8
0
100
AcDbLine
 10
786.9402270731791
 20
204.6157643733052
 30
0.0
 11
787.3588060183407
 21
205.3407643733052
 31
0.0
  0
LINE
  5
7B7
330
2
100
AcDbEntity
  8
0
100
AcDbLine
 10
779.8247570193422
 20
206.8407643733052
 30
0.0
 11
779.7670219921922
 21
206.9407643737054
 31
0.0
  0
ARC
  5
7B8
330
2
100
AcDbEntity
  8
0
100
AcDbCircle
 10
786.4402270749276
 20
207.9010367395295
 30
0.0
 40
1.371214972617714
100
AcDbArc
 50
250.8418897617235
 51
289.1581102382764
  0
ARC
  5
7B9
330
2
100
AcDbEntity
  8
0
100
AcDbCircle
 10
786.4402270699331
 20
207.5110367760291
 30
0.0
 40
1.371215006604042
100
AcDbArc
 50
250.8418903214047
 51
289.1581096785953
  0
LINE
  5
7BA
330
2
100
AcDbEntity
  8
0
100
AcDbLine
 10
783.9402270731799
 20
206.9407643737054
 30
0.0
 11
783.9402270731799
 21
206.8407643733052
 31
0.0
  0
LINE
  5
7BB
330
2
100
AcDbEntity
  8
0
100
AcDbLine
 10
785.9402270736798
 20
203.7407643729049
 30
0.0
 11
785.3402270736802
 21
203.740764372905
 31
0.0
  0
LINE
  5
7BC
330
2
100
AcDbEntity
  8
0
100
AcDbLine
 10
785.1402270736798
 20
203.740764372905
 30
0.0
 11
783.9402270731794
 21
203.7407643729052
 31
0.0
  0
LINE
  5
7BD
330
2
100
AcDbEntity
  8
0
100
AcDbLine
 10
785.9402270736798
 20
204.0757643733053
 30
0.0
 11
785.9402270736798
 21
203.7407643729046
 31
0.0
  0
LINE
  5
7BE
330
2
100
AcDbEntity
  8
0
100
AcDbLine
 10
779.8247570193413
 20
203.8407643733052
 30
0.0
 11
779.7670219921916
 21
203.7407643729056
 31
0.0
  0
LINE
  5
7BF
330
2
100
AcDbEntity
  8
0
100
AcDbLine
 10
783.9402270731794
 20
203.7407643729052
 30
0.0
 11
783.9402270731794
 21
203.8407643733052
 31
0.0
  0
LINE
  5
7C0
330
2
100
AcDbEntity
  8
0
100
AcDbLine
 10
785.9902270731793
 20
206.6057643745198
 30
0.0
 11
785.9902270731793
 21
206.2157643733052
 31
0.0
  0
LINE
  5
7C1
330
2
100
AcDbEntity
  8
CEN
 48
0.5
100
AcDbLine
 10
786.4402270731793
 20
205.6239444500612
 30
0.0
 11
786.4402270731793
 21
206.8593069523072
 31
0.0
  0
DIMENSION
  5
7C2
330
2
100
AcDbEntity
  8
DIM
 62
     1
100
AcDbDimension
  2
*D5
 10
782.0819800793631
 20
203.8407643733052
 30
0.0
 11
782.0819800793631
 21
200.9964786590194
 31
0.0
 70
   160
  1
{\fISOCPEUR|b0|i0|c0|p34;%%C}D
 71
     5
 42
3.0
 73
     0
 74
     0
 75
     0
  3
01
100
AcDbAlignedDimension
 13
781.8824920462613
 23
206.8407643733052
 33
0.0
 14
781.9402270731793
 24
203.8407643733052
 34
0.0
 50
90.0
100
AcDbRotatedDimension
1001
ACAD
1000
DSTYLE
1002
{
1070
    41
1040
1.0
1070
    44
1040
0.2
1070
   140
1040
1.199999999999999
1070
   147
1040
0.2
1002
}
  0
LINE
  5
7C3
330
2
100
AcDbEntity
  8
0
100
AcDbLine
 10
789.2902270726799
 20
206.2407643733052
 30
0.0
 11
789.6402270726801
 21
206.2407643733052
 31
0.0
  0
LINE
  5
7C4
330
2
100
AcDbEntity
  8
0
100
AcDbLine
 10
778.9402270731799
 20
203.8407643733056
 30
0.0
 11
779.3010709914239
 21
204.4657643733052
 31
0.0
  0
LINE
  5
7C5
330
2
100
AcDbEntity
  8
0
100
AcDbLine
 10
779.3010709914233
 20
204.4657643733052
 30
0.0
 11
779.3010709914242
 21
205.4907643733053
 31
0.0
  0
LINE
  5
7C6
330
2
100
AcDbEntity
  8
0
100
AcDbLine
 10
786.9402270731791
 20
205.3407643733052
 30
0.0
 11
786.9402270731791
 21
205.7907643733052
 31
0.0
  0
LINE
  5
7C7
330
2
100
AcDbEntity
  8
0
100
AcDbLine
 10
785.9402270736802
 20
206.6057643733052
 30
0.0
 11
785.9902270766752
 21
206.6057643733052
 31
0.0
  0
LINE
  5
7C8
330
2
100
AcDbEntity
  8
0
100
AcDbLine
 10
786.8902270731792
 20
206.6057643733052
 30
0.0
 11
787.6402270747197
 21
206.6057643733052
 31
0.0
  0
LINE
  5
7C9
330
2
100
AcDbEntity
  8
0
100
AcDbLine
 10
786.9402270731791
 20
205.3407643733052
 30
0.0
 11
786.9402270731791
 21
206.0657643733052
 31
0.0
  0
LINE
  5
7CA
102
{ACAD_REACTORS
330
7D0
102
}
330
2
100
AcDbEntity
  8
0
100
AcDbLine
 10
786.9402270731799
 20
205.340764373305
 30
0.0
 11
786.9402270731793
 21
206.2157643733052
 31
0.0
  0
LINE
  5
7CB
330
2
100
AcDbEntity
  8
0
100
AcDbLine
 10
786.9402270731791
 20
206.0657643733052
 30
0.0
 11
787.3588060183407
 21
205.3407643733052
 31
0.0
  0
LINE
  5
7CC
330
2
100
AcDbEntity
  8
0
100
AcDbLine
 10
778.9402270731799
 20
206.8407643733048
 30
0.0
 11
779.3010709914239
 21
206.2157643733052
 31
0.0
  0
LINE
  5
7CD
330
2
100
AcDbEntity
  8
0
100
AcDbLine
 10
779.3010709914239
 20
206.2157643733052
 30
0.0
 11
779.3010709914242
 21
205.4907643733052
 31
0.0
  0
DIMENSION
  5
7CE
102
{ACAD_XDICTIONARY
360
7CF
102
}
102
{ACAD_REACTORS
330
7D0
102
}
330
2
100
AcDbEntity
  8
DIM
 62
     1
100
AcDbDimension
  2
*D7
 10
786.9402270731793
 20
209.4573010445081
 30
0.0
 11
782.9402270731796
 21
210.2573010445081
 31
0.0
 70
    32
 71
     5
 42
7.999999999999316
 73
     0
 74
     0
 75
     0
  3
01
100
AcDbAlignedDimension
 13
778.9402270731799
 23
206.9407643737053
 33
0.0
 14
786.9402270731793
 24
206.2157643733052
 34
0.0
100
AcDbRotatedDimension
1001
ACAD
1000
DSTYLE
1002
{
1070
    41
1040
1.0
1070
    44
1040
0.2
1070
   140
1040
1.199999999999999
1070
   147
1040
0.2
1002
}
  0
SPLINE
  5
7D1
330
2
100
AcDbEntity
  8
0
100
AcDbSpline
210
0.0
220
0.0
230
1.0
 70
     8
 71
     3
 72
     9
 73
     5
 74
     3
 42
0.0000000001
 43
0.0000000001
 44
0.0000000001
 12
-0.875427689401776
 22
-0.4833491084388876
 32
0.0
 13
-0.8351755117349476
 23
0.5499835130240435
 33
0.0
 40
0.0
 40
0.0
 40
0.0
 40
0.0
 40
0.0827717597360703
 40
0.1287137485350966
 40
0.1287137485350966
 40
0.1287137485350966
 40
0.1287137485350966
 10
771.8875244732162
 20
192.1813572586559
 30
0.0
 10
771.8633709097583
 20
192.1680213732317
 30
0.0
 10
771.8243632902913
 20
192.1471663412536
 30
0.0
 10
771.7778314280047
 20
192.1527085339076
 30
0.0
 10
771.7650415533362
 20
192.1611309793726
 30
0.0
 11
771.8875244732162
 21
192.1813572586559
 31
0.0
 11
771.810090211829
 21
192.1521151764243
 31
0.0
 11
771.7650415533362
 21
192.1611309793726
 31
0.0
  0
SPLINE
  5
7D2
330
2
100
AcDbEntity
  8
0
100
AcDbSpline
210
0.0
220
0.0
230
1.0
 70
     8
 71
     3
 72
    19
 73
    15
 74
    13
 42
0.0000000001
 43
0.0000000001
 44
0.0000000001
 12
0.8754276874351161
 22
0.4833491120008442
 32
0.0
 13
-0.7953120721302828
 23
0.6062002209862976
 33
0.0
 40
0.0
 40
0.0
 40
0.0
 40
0.0
 40
0.1467279739377218
 40
0.3345709548648943
 40
0.5558607585820698
 40
0.8005469873475789
 40
1.057124846751041
 40
1.313388573785282
 40
1.557150674356701
 40
1.776961729044805
 40
1.962867652452743
 40
2.107355785051927
 40
2.207228940359935
 40
2.269275304198809
 40
2.269275304198809
 40
2.269275304198809
 40
2.269275304198809
 10
765.7342676828782
 20
196.4486024184336
 30
0.0
 10
765.777084259847
 20
196.4722426970697
 30
0.0
 10
765.8684678988363
 20
196.5371455834694
 30
0.0
 10
766.0073818574365
 20
196.6599184553491
 30
0.0
 10
766.1595052682794
 20
196.8162606785772
 30
0.0
 10
766.3171429334718
 20
196.9984939893113
 30
0.0
 10
766.4724259986984
 20
197.1977512449957
 30
0.0
 10
766.617563886939
 20
197.4041229778545
 30
0.0
 10
766.7454685153947
 20
197.6072965636791
 30
0.0
 10
766.8495906464068
 20
197.797236062517
 30
0.0
 10
766.9260931535001
 20
197.9642709841644
 30
0.0
 10
766.9693526221688
 20
198.1014442083257
 30
0.0
 10
766.9853724806793
 20
198.2029013405301
 30
0.0
 10
766.9641754296561
 20
198.2590499277897
 30
0.0
 10
766.9477266889251
 20
198.2715874342798
 30
0.0
 11
765.7342676828782
 21
196.4486024184336
 31
0.0
 11
765.8557431314682
 21
196.5308995248574
 31
0.0
 11
765.9975364986811
 21
196.6541051517501
 31
0.0
 11
766.1525376752924
 21
196.8120412542673
 31
0.0
 11
766.3129742521586
 21
196.996788257899
 31
0.0
 11
766.4708012722416
 21
197.1990821769074
 31
0.0
 11
766.6181046291452
 21
197.4087791459805
 31
0.0
 11
766.7474979185425
 21
197.6153640881567
 31
0.0
 11
766.8524928177215
 21
197.808477968832
 31
0.0
 11
766.9278244437405
 21
197.9784372536019
 31
0.0
 11
766.9697153589936
 21
198.1167194711183
 31
0.0
 11
766.9760649727102
 21
198.2163905780492
 31
0.0
 11
766.9477266889251
 21
198.2715874342798
 31
0.0
  0
SPLINE
  5
7D3
330
2
100
AcDbEntity
  8
0
100
AcDbSpline
210
0.0
220
0.0
230
1.0
 70
     8
 71
     3
 72
    22
 73
    18
 74
    16
 42
0.0000000001
 43
0.0000000001
 44
0.0000000001
 12
-0.9943330378783949
 22
0.1063099702921711
 32
0.0
 13
0.8754277012683346
 23
0.4833490869465252
 33
0.0
 40
0.0
 40
0.0
 40
0.0
 40
0.0
 40
0.0169180325232062
 40
0.0658659894363755
 40
0.1345019751601097
 40
0.234616655197832
 40
0.3663474917784339
 40
0.5273033824677836
 40
0.7132704542927757
 40
0.9168738863800843
 40
1.129600597410843
 40
1.344755668829629
 40
1.556221438158089
 40
1.755773093345075
 40
1.933631157010232
 40
2.082069602678457
 40
2.196998173737009
 40
2.196998173737009
 40
2.196998173737009
 40
2.196998173737009
 10
765.6379806441602
 20
196.453168628453
 30
0.0
 10
765.6323732579356
 20
196.4537681469646
 30
0.0
 10
765.6106851596908
 20
196.4588221205761
 30
0.0
 10
765.5762377635126
 20
196.4949856004362
 30
0.0
 10
765.576063768831
 20
196.5712171582315
 30
0.0
 10
765.5963786190286
 20
196.6685155530376
 30
0.0
 10
765.6420646748322
 20
196.7920677568771
 30
0.0
 10
765.709996536662
 20
196.9363651661113
 30
0.0
 10
765.7989639231459
 20
197.0970624242161
 30
0.0
 10
765.9052900044954
 20
197.2674280320598
 30
0.0
 10
766.0248563981761
 20
197.4407589018158
 30
0.0
 10
766.1533712061569
 20
197.610845554103
 30
0.0
 10
766.2864480965545
 20
197.7717426186361
 30
0.0
 10
766.4187732254825
 20
197.9168362686161
 30
0.0
 10
766.5441718813495
 20
198.0395107808283
 30
0.0
 10
766.6566474371519
 20
198.134444195206
 30
0.0
 10
766.7293739711602
 20
198.184216603087
 30
0.0
 10
766.7629111894175
 20
198.2027334763821
 30
0.0
 11
765.6379806441602
 21
196.453168628453
 31
0.0
 11
765.6215497887314
 21
196.4571993621742
 31
0.0
 11
765.5864823311039
 21
196.4913486799055
 31
0.0
 11
765.577998597398
 21
196.5594583326625
 31
0.0
 11
765.5963465088865
 21
196.6578773516734
 31
0.0
 11
765.640184207342
 21
196.782100012651
 31
0.0
 11
765.707916613406
 21
196.9281106969052
 31
0.0
 11
765.7974392117044
 21
197.0911120962767
 31
0.0
 11
765.9049546691132
 21
197.2640131777536
 31
0.0
 11
766.0256305864609
 21
197.4391987266961
 31
0.0
 11
766.1553622605505
 21
197.6108419540461
 31
0.0
 11
766.2903057092306
 21
197.7736548443711
 31
0.0
 11
766.4250999058847
 21
197.9207989493711
 31
0.0
 11
766.5527820639312
 21
198.0446163848448
 31
0.0
 11
766.6669653864913
 21
198.1394643737617
 31
0.0
 11
766.7629111894175
 21
198.2027334763821
 31
0.0
  0
SPLINE
  5
7D4
330
2
100
AcDbEntity
  8
0
100
AcDbSpline
210
0.0
220
0.0
230
1.0
 70
     8
 71
     3
 72
    10
 73
     6
 74
     4
 42
0.0000000001
 43
0.0000000001
 44
0.0000000001
 12
-0.8754276886621536
 22
-0.4833491097784702
 32
0.0
 13
-0.7953120692931933
 23
0.6062002247084532
 33
0.0
 40
0.0
 40
0.0
 40
0.0
 40
0.0
 40
0.102107966363922
 40
0.1667214274402351
 40
0.1681780306939826
 40
0.1681780306939826
 40
0.1681780306939826
 40
0.1681780306939826
 10
768.4955869248718
 20
194.398048180104
 30
0.0
 10
768.4657908778758
 20
194.3815969152229
 30
0.0
 10
768.416523767445
 20
194.3564814163002
 30
0.0
 10
768.3535860627528
 20
194.3579137731637
 30
0.0
 10
768.3358450216067
 20
194.3709990353829
 30
0.0
 10
768.3354588702241
 20
194.3712933664562
 30
0.0
 11
768.4955869248718
 21
194.398048180104
 31
0.0
 11
768.4005206833051
 21
194.3607863160961
 31
0.0
 11
768.3366306665086
 21
194.3704281575182
 31
0.0
 11
768.3354588702241
 21
194.3712933664562
 31
0.0
  0
SPLINE
  5
7D5
330
2
100
AcDbEntity
  8
0
100
AcDbSpline
210
0.0
220
0.0
230
1.0
 70
     8
 71
     3
 72
    11
 73
     7
 74
     5
 42
0.0000000001
 43
0.0000000001
 44
0.0000000001
 12
0.8754276927496482
 22
0.4833491023753202
 32
0.0
 13
0.4371230271640349
 23
-0.8994017228819114
 33
0.0
 40
0.0
 40
0.0
 40
0.0
 40
0.0
 40
0.0849607362014125
 40
0.1440291687304462
 40
0.192977125608542
 40
0.1938117485075117
 40
0.1938117485075117
 40
0.1938117485075117
 40
0.1938117485075117
 10
766.7629111894175
 20
198.2027334763821
 30
0.0
 10
766.7877035165065
 20
198.2164220415755
 30
0.0
 10
766.8303874412059
 20
198.2364676468872
 30
0.0
 10
766.8998628074703
 20
198.2461637235598
 30
0.0
 10
766.9283019133846
 20
198.2164632641313
 30
0.0
 10
766.9356313428037
 20
198.2015879420163
 30
0.0
 10
766.9357529537665
 20
198.2013377215919
 30
0.0
 11
766.7629111894175
 21
198.2027334763821
 31
0.0
 11
766.8412513670012
 21
198.2356142195618
 31
0.0
 11
766.9003165302529
 21
198.2362356787198
 31
0.0
 11
766.9353839860507
 21
198.2020863591599
 31
0.0
 11
766.9357529537665
 21
198.2013377215919
 31
0.0
  0
SPLINE
  5
7D6
330
2
100
AcDbEntity
  8
0
100
AcDbSpline
210
0.0
220
0.0
230
1.0
 70
     8
 71
     3
 72
    10
 73
     6
 74
     4
 42
0.0000000001
 43
0.0000000001
 44
0.0000000001
 12
-0.8754276886621536
 22
-0.4833491097784702
 32
0.0
 13
-0.7953120692931933
 23
0.6062002247084532
 33
0.0
 40
0.0
 40
0.0
 40
0.0
 40
0.0
 40
0.1021079663634903
 40
0.1667214274402722
 40
0.168178030693955
 40
0.168178030693955
 40
0.168178030693955
 40
0.168178030693955
 10
765.7342676828782
 20
196.4486024184336
 30
0.0
 10
765.7044716358823
 20
196.4321511535526
 30
0.0
 10
765.6552045254539
 20
196.4070356546347
 30
0.0
 10
765.5922668207562
 20
196.4084680114878
 30
0.0
 10
765.574525779613
 20
196.4215532737124
 30
0.0
 10
765.5741396282304
 20
196.4218476047857
 30
0.0
 11
765.7342676828782
 21
196.4486024184336
 31
0.0
 11
765.6392014413118
 21
196.411340554426
 31
0.0
 11
765.5753114245148
 21
196.4209823958475
 31
0.0
 11
765.5741396282304
 21
196.4218476047857
 31
0.0
  0
SPLINE
  5
7D7
330
2
100
AcDbEntity
  8
0
100
AcDbSpline
210
0.0
220
0.0
230
1.0
 70
     8
 71
     3
 72
    17
 73
    13
 74
    11
 42
0.0000000001
 43
0.0000000001
 44
0.0000000001
 12
0.875427687319704
 22
0.4833491122098751
 32
0.0
 13
-0.4150857200972829
 23
0.9097823063630773
 33
0.0
 40
0.0
 40
0.0
 40
0.0
 40
0.0
 40
0.0876463745805829
 40
0.2024969122228663
 40
0.3379381744019886
 40
0.485457759363639
 40
0.6355509218816115
 40
0.7785085780617019
 40
0.9051937419136242
 40
1.007860055983904
 40
1.081254079338088
 40
1.117497884077289
 40
1.117497884077289
 40
1.117497884077289
 40
1.117497884077289
 10
779.2970155449843
 20
187.0215211899315
 30
0.0
 10
779.3225915659847
 20
187.0356424557121
 30
0.0
 10
779.3772560835748
 20
187.0759657364559
 30
0.0
 10
779.4599514690215
 20
187.1525178880661
 30
0.0
 10
779.5499295866415
 20
187.250118032828
 30
0.0
 10
779.6410178536736
 20
187.3621982358416
 30
0.0
 10
779.7270239341745
 20
187.4813161265438
 30
0.0
 10
779.8022392659445
 20
187.5994696329168
 30
0.0
 10
779.8614667742643
 20
187.7084568097835
 30
0.0
 10
779.9018785812518
 20
187.801674183554
 30
0.0
 10
779.9192863242
 20
187.8696951082255
 30
0.0
 10
779.919900769011
 20
187.9081551027448
 30
0.0
 10
779.9148860070813
 20
187.9191464268338
 30
0.0
 11
779.2970155449843
 21
187.0215211899315
 31
0.0
 11
779.3689545019442
 21
187.0715878799423
 31
0.0
 11
779.4539366305825
 21
187.1488451372638
 31
0.0
 11
779.5461705382656
 21
187.2480280076304
 31
0.0
 11
779.6393706339073
 21
187.3623773413392
 31
0.0
 11
779.7271854877916
 21
187.48410042408
 31
0.0
 11
779.8036306609867
 21
187.6049020257071
 31
0.0
 11
779.863496542373
 21
187.7165497170672
 31
0.0
 11
779.9027033717567
 21
187.8114348928032
 31
0.0
 11
779.9185792668525
 21
187.8830912855328
 31
0.0
 11
779.9148860070813
 21
187.9191464268338
 31
0.0
  0
SPLINE
  5
7D8
330
2
100
AcDbEntity
  8
0
100
AcDbSpline
210
0.0
220
0.0
230
1.0
 70
     8
 71
     3
 72
    17
 73
    13
 74
    11
 42
0.0000000001
 43
0.0000000001
 44
0.0000000001
 12
0.8754276876050573
 22
0.4833491116930519
 32
0.0
 13
-0.2990217411305899
 23
0.9542462985682631
 33
0.0
 40
0.0
 40
0.0
 40
0.0
 40
0.0
 40
0.0876463750372947
 40
0.2024969126798038
 40
0.337938173613153
 40
0.4854577611479721
 40
0.635550922182894
 40
0.7785085783635637
 40
0.9051937422151068
 40
1.007860057975305
 40
1.081254081329486
 40
1.112989102057187
 40
1.112989102057187
 40
1.112989102057187
 40
1.112989102057187
 10
772.5346010743101
 20
192.0432866717043
 30
0.0
 10
772.560177095452
 20
192.0574079375434
 30
0.0
 10
772.6148416224327
 20
192.0977312346612
 30
0.0
 10
772.6975369645955
 20
192.1742832691938
 30
0.0
 10
772.7875152782906
 20
192.2718839666483
 30
0.0
 10
772.8786027194342
 20
192.3839618575182
 30
0.0
 10
772.9646119345527
 20
192.5030885143569
 30
0.0
 10
773.0398164944358
 20
192.6212118813314
 30
0.0
 10
773.09907728435
 20
192.7302921831714
 30
0.0
 10
773.1393987973106
 20
192.8232569046321
 30
0.0
 10
773.1566318742062
 20
192.8903789615078
 30
0.0
 10
773.1573036200874
 20
192.926432815588
 30
0.0
 10
773.1541404663698
 20
192.9365271576094
 30
0.0
 11
772.5346010743101
 21
192.0432866717043
 31
0.0
 11
772.6065400330992
 21
192.0933533598863
 31
0.0
 11
772.6915221617376
 21
192.1706106172079
 31
0.0
 11
772.7837560675919
 21
192.2697934875742
 31
0.0
 11
772.8769561650624
 21
192.3841428231119
 31
0.0
 11
772.9647710189466
 21
192.5058659040241
 31
0.0
 11
773.0412161921422
 21
192.6266675056516
 31
0.0
 11
773.1010820735283
 21
192.7383151970113
 31
0.0
 11
773.1402889029118
 21
192.8332003745759
 31
0.0
 11
773.1561647980078
 21
192.9048567673055
 31
0.0
 11
773.1541404663698
 21
192.9365271576094
 31
0.0
  0
SPLINE
  5
7D9
330
2
100
AcDbEntity
  8
0
100
AcDbSpline
210
0.0
220
0.0
230
1.0
 70
     8
 71
     3
 72
    18
 73
    14
 74
    12
 42
0.0000000001
 43
0.0000000001
 44
0.0000000001
 12
0.8754276874214127
 22
0.4833491120256634
 32
0.0
 13
-0.2810371795378294
 23
0.9596968811647883
 33
0.0
 40
0.0
 40
0.0
 40
0.0
 40
0.0
 40
0.1223259357556145
 40
0.2807034051724499
 40
0.4674979584867575
 40
0.672785342362614
 40
0.8853282467763895
 40
1.093396596477847
 40
1.285562980562897
 40
1.451511658592206
 40
1.582951640463857
 40
1.675100698883864
 40
1.704192990400289
 40
1.704192990400289
 40
1.704192990400289
 40
1.704192990400289
 10
772.0565848351201
 20
192.0558131214288
 30
0.0
 10
772.0922806721369
 20
192.0755218322372
 30
0.0
 10
772.1685376711961
 20
192.1306475917417
 30
0.0
 10
772.2842224601946
 20
192.235168782155
 30
0.0
 10
772.4106136207053
 20
192.3684323946952
 30
0.0
 10
772.5403067159618
 20
192.5228220710889
 30
0.0
 10
772.6657881076209
 20
192.689620127563
 30
0.0
 10
772.7798479949507
 20
192.8592160236093
 30
0.0
 10
772.8758728373743
 20
193.0217517924589
 30
0.0
 10
772.9489673690427
 20
193.1680842554723
 30
0.0
 10
772.9945004230044
 20
193.2894968666837
 30
0.0
 10
773.0121418342645
 20
193.3734040901337
 30
0.0
 10
773.0069655995328
 20
193.4139630849518
 30
0.0
 10
773.0042402610147
 20
193.4232696787632
 30
0.0
 11
772.0565848351201
 21
192.0558131214288
 31
0.0
 11
772.1574532555822
 21
192.1250171409072
 31
0.0
 11
772.2758937319339
 21
192.2301612153026
 31
0.0
 11
772.4050229334668
 21
192.3651347477427
 31
0.0
 11
772.5373363391471
 21
192.5220935724576
 31
0.0
 11
772.6651443734978
 21
192.6919158106128
 31
0.0
 11
772.7810193031391
 21
192.8647320101663
 31
0.0
 11
772.8782268921122
 21
193.030498725216
 31
0.0
 11
772.9511177943362
 21
193.1795821921486
 31
0.0
 11
772.9954558506427
 21
193.303318224077
 31
0.0
 11
773.0086642982933
 21
193.394515734341
 31
0.0
 11
773.0042402610147
 21
193.4232696787632
 31
0.0
  0
SPLINE
  5
7DA
330
2
100
AcDbEntity
  8
0
100
AcDbSpline
210
0.0
220
0.0
230
1.0
 70
     8
 71
     3
 72
    19
 73
    15
 74
    13
 42
0.0000000001
 43
0.0000000001
 44
0.0000000001
 12
0.8754276876509774
 22
0.4833491116098828
 32
0.0
 13
-0.8351755121035115
 23
0.5499835124643623
 33
0.0
 40
0.0
 40
0.0
 40
0.0
 40
0.0
 40
0.1223259357554698
 40
0.2807034039586905
 40
0.467497958593777
 40
0.6727853424702253
 40
0.8853282479834838
 40
1.093396596666936
 40
1.285562979173824
 40
1.451511658846204
 40
1.582951640717755
 40
1.675100699137902
 40
1.731637810811494
 40
1.737241146477296
 40
1.737241146477296
 40
1.737241146477296
 40
1.737241146477296
 10
771.8875244732162
 20
192.1813572586559
 30
0.0
 10
771.9232203102422
 20
192.2010659694473
 30
0.0
 10
771.9994773101448
 20
192.2561917654735
 30
0.0
 10
772.1151620921252
 20
192.3607127362504
 30
0.0
 10
772.2415532924233
 20
192.4939773668303
 30
0.0
 10
772.3712462105579
 20
192.6483627196501
 30
0.0
 10
772.4967282970516
 20
192.8151776286041
 30
0.0
 10
772.6107856984981
 20
192.984713086051
 30
0.0
 10
772.7068187072466
 20
193.1474476250468
 30
0.0
 10
772.7798889215996
 20
193.2931880737505
 30
0.0
 10
772.8254859139992
 20
193.4161573876658
 30
0.0
 10
772.8448998023971
 20
193.5056810855067
 30
0.0
 10
772.8346174925921
 20
193.563088387066
 30
0.0
 10
772.8180238243001
 20
193.5757950392585
 30
0.0
 10
772.8164639013887
 20
193.5768222866688
 30
0.0
 11
771.8875244732162
 21
192.1813572586559
 31
0.0
 11
771.9883928936783
 21
192.250561278134
 31
0.0
 11
772.1068333700302
 21
192.3557053507011
 31
0.0
 11
772.2359625715628
 21
192.4906788849694
 31
0.0
 11
772.3682759772438
 21
192.6476377096845
 31
0.0
 11
772.4960840134225
 21
192.81745994784
 31
0.0
 11
772.6119589412355
 21
192.9902761473938
 31
0.0
 11
772.7091665302083
 21
193.1560428606141
 31
0.0
 11
772.7820574324318
 21
193.3051263293759
 31
0.0
 11
772.8263954887393
 21
193.4288623613038
 31
0.0
 11
772.8396039363891
 21
193.5200598715681
 31
0.0
 11
772.8209151457249
 21
193.5734187892848
 31
0.0
 11
772.8164639013887
 21
193.5768222866688
 31
0.0
  0
SPLINE
  5
7DB
330
2
100
AcDbEntity
  8
0
100
AcDbSpline
210
0.0
220
0.0
230
1.0
 70
     8
 71
     3
 72
    18
 73
    14
 74
    12
 42
0.0000000001
 43
0.0000000001
 44
0.0000000001
 12
0.8754276877391646
 22
0.4833491114501606
 32
0.0
 13
-0.8506056208650335
 23
0.5258042199838366
 33
0.0
 40
0.0
 40
0.0
 40
0.0
 40
0.0
 40
0.0958632233144252
 40
0.2214809980117596
 40
0.3696198774172801
 40
0.5309694260419321
 40
0.6951338212084753
 40
0.85149375766941
 40
0.9900556565854532
 40
1.102346936436784
 40
1.182621650385931
 40
1.23115494398426
 40
1.240725880831943
 40
1.240725880831943
 40
1.240725880831943
 40
1.240725880831943
 10
772.0027325455685
 20
192.3778199373073
 30
0.0
 10
772.0307063188769
 20
192.3932650719106
 30
0.0
 10
772.0904956386458
 20
192.4373685749078
 30
0.0
 10
772.1809437088364
 20
192.5210979860551
 30
0.0
 10
772.2793573041959
 20
192.6278458424496
 30
0.0
 10
772.3789849665595
 20
192.7504432230668
 30
0.0
 10
772.4730546127139
 20
192.8806917867452
 30
0.0
 10
772.5553196753751
 20
193.0100481155087
 30
0.0
 10
772.6201050415858
 20
193.1288637319129
 30
0.0
 10
772.6642911295494
 20
193.2318759125844
 30
0.0
 10
772.6840927361818
 20
193.3067037291047
 30
0.0
 10
772.6840292039126
 20
193.3596287478769
 30
0.0
 10
772.6685505297187
 20
193.3721888276522
 30
0.0
 10
772.6658368321587
 20
193.3738663073135
 30
0.0
 11
772.0027325455685
 21
192.3778199373073
 31
0.0
 11
772.0814157822576
 21
192.4325803778493
 31
0.0
 11
772.1743649848272
 21
192.5170805024739
 31
0.0
 11
772.2752458191838
 21
192.6255617674511
 31
0.0
 11
772.3771834256207
 21
192.7506313530237
 31
0.0
 11
772.4732309208003
 21
192.8837659740286
 31
0.0
 11
772.5568428301826
 21
193.0158927250653
 31
0.0
 11
772.6223211378335
 21
193.1380073886336
 31
0.0
 11
772.6652036065011
 21
193.2417880487376
 31
0.0
 11
772.6825678668193
 21
193.3201622292004
 31
0.0
 11
772.6732305736317
 21
193.3677888556128
 31
0.0
 11
772.6658368321587
 21
193.3738663073135
 31
0.0
  0
SPLINE
  5
7DC
330
2
100
AcDbEntity
  8
0
100
AcDbSpline
210
0.0
220
0.0
230
1.0
 70
     8
 71
     3
 72
     9
 73
     5
 74
     3
 42
0.0000000001
 43
0.0000000001
 44
0.0000000001
 12
-0.8754276841497944
 22
-0.4833491179511222
 32
0.0
 13
-0.8506056186638359
 23
0.5258042235447649
 33
0.0
 40
0.0
 40
0.0
 40
0.0
 40
0.0
 40
0.062775213489218
 40
0.0917852890840742
 40
0.0917852890840742
 40
0.0917852890840742
 40
0.0917852890840742
 10
772.0027325455685
 20
192.3778199373073
 30
0.0
 10
771.9844141589796
 20
192.3677058226175
 30
0.0
 10
771.955669414202
 20
192.3512749731687
 30
0.0
 10
771.9238940003328
 20
192.3590024186366
 30
0.0
 10
771.9156686225665
 20
192.3640869587277
 30
0.0
 11
772.0027325455685
 21
192.3778199373073
 31
0.0
 11
771.9436774096275
 21
192.3565310118387
 31
0.0
 11
771.9156686225665
 21
192.3640869587277
 31
0.0
  0
SPLINE
  5
7DD
330
2
100
AcDbEntity
  8
0
100
AcDbSpline
210
0.0
220
0.0
230
1.0
 70
     8
 71
     3
 72
    12
 73
     8
 74
     6
 42
0.0000000001
 43
0.0000000001
 44
0.0000000001
 12
0.2924484276269705
 22
0.9562812960518012
 32
0.0
 13
-0.8028428605125748
 23
0.5961906920809703
 33
0.0
 40
0.0
 40
0.0
 40
0.0
 40
0.0
 40
0.0692980060580871
 40
0.1687779323963358
 40
0.2705998479694469
 40
0.3730351572265822
 40
0.4741902248109134
 40
0.4741902248109134
 40
0.4741902248109134
 40
0.4741902248109134
 10
770.7987097653024
 20
194.0663845869936
 30
0.0
 10
770.8054651296055
 20
194.0884740493426
 30
0.0
 10
770.8163014279282
 20
194.1441132836172
 30
0.0
 10
770.81230842542
 20
194.2353137845324
 30
0.0
 10
770.7820232383121
 20
194.3330504472588
 30
0.0
 10
770.7283976051463
 20
194.4207617548095
 30
0.0
 10
770.6790957040331
 20
194.4686724934017
 30
0.0
 10
770.6520251627615
 20
194.4887750633186
 30
0.0
 11
770.7987097653024
 21
194.0663845869936
 31
0.0
 11
770.8121169596211
 21
194.1343732682878
 31
0.0
 11
770.808166614461
 21
194.2337747296321
 31
0.0
 11
770.7782330867232
 21
194.3310973190353
 31
0.0
 11
770.7247414109282
 21
194.4184565383728
 31
0.0
 11
770.6520251627615
 21
194.4887750633186
 31
0.0
  0
SPLINE
  5
7DE
330
2
100
AcDbEntity
  8
0
100
AcDbSpline
210
0.0
220
0.0
230
1.0
 70
     8
 71
     3
 72
    19
 73
    15
 74
    13
 42
0.0000000001
 43
0.0000000001
 44
0.0000000001
 12
0.8754276874351161
 22
0.4833491120008442
 32
0.0
 13
-0.7953120721302828
 23
0.6062002209862976
 33
0.0
 40
0.0
 40
0.0
 40
0.0
 40
0.0
 40
0.146727973938036
 40
0.3345709548653875
 40
0.5558607573013954
 40
0.8005469872656103
 40
1.057124846668893
 40
1.313388575200407
 40
1.557150673250687
 40
1.776961727938963
 40
1.962867652087312
 40
2.10735578643721
 40
2.207228939920364
 40
2.269275305386172
 40
2.269275305386172
 40
2.269275305386172
 40
2.269275305386172
 10
768.4955869248718
 20
194.398048180104
 30
0.0
 10
768.5384035018407
 20
194.4216884587402
 30
0.0
 10
768.6297871407564
 20
194.4865913452109
 30
0.0
 10
768.7687010994738
 20
194.6093642163866
 30
0.0
 10
768.9208245082893
 20
194.7657064415238
 30
0.0
 10
769.0784621756643
 20
194.9479397502552
 30
0.0
 10
769.2337452411329
 20
195.1471970069925
 30
0.0
 10
769.378883128048
 20
195.3535687403315
 30
0.0
 10
769.5067877561148
 20
195.5567423260243
 30
0.0
 10
769.6109098859713
 20
195.7466818247456
 30
0.0
 10
769.6874123961866
 20
195.9137167458271
 30
0.0
 10
769.7306718639694
 20
196.050889970864
 30
0.0
 10
769.7466917220022
 20
196.1523471030735
 30
0.0
 10
769.7254946720809
 20
196.2084956909603
 30
0.0
 10
769.7090459309187
 20
196.2210331977792
 30
0.0
 11
768.4955869248718
 21
194.398048180104
 31
0.0
 11
768.6170623734621
 21
194.4803452865278
 31
0.0
 11
768.7588557406752
 21
194.6035509134207
 31
0.0
 11
768.9138569154573
 21
194.7614870159379
 31
0.0
 11
769.0742934941522
 21
194.9462340195693
 31
0.0
 11
769.2321205142352
 21
195.1485279385775
 31
0.0
 11
769.3794238711392
 21
195.35822490948
 31
0.0
 11
769.508817158707
 21
195.5648098498273
 31
0.0
 11
769.6138120578865
 21
195.7579237305025
 31
0.0
 11
769.6891436857344
 21
195.9278830152717
 31
0.0
 11
769.7310346009871
 21
196.0661652346175
 31
0.0
 11
769.7373842147039
 21
196.1658363397198
 31
0.0
 11
769.7090459309187
 21
196.2210331977792
 31
0.0
  0
SPLINE
  5
7DF
330
2
100
AcDbEntity
  8
0
100
AcDbSpline
210
0.0
220
0.0
230
1.0
 70
     8
 71
     3
 72
    19
 73
    15
 74
    13
 42
0.0000000001
 43
0.0000000001
 44
0.0000000001
 12
0.8754276873818323
 22
0.4833491120973503
 32
0.0
 13
-0.7953120720493013
 23
0.6062002210925421
 33
0.0
 40
0.0
 40
0.0
 40
0.0
 40
0.0
 40
0.1375574737659281
 40
0.313660268130622
 40
0.5211194598583424
 40
0.7505127996322976
 40
0.9910545424625293
 40
1.231301788607662
 40
1.459828756184678
 40
1.665901619554821
 40
1.840188423526353
 40
1.975646047977426
 40
2.069277130246296
 40
2.127445597681066
 40
2.127445597681066
 40
2.127445597681066
 40
2.127445597681066
 10
768.5285035180177
 20
194.4541803742656
 30
0.0
 10
768.568644058398
 20
194.4763431352013
 30
0.0
 10
768.6543162183789
 20
194.537189592181
 30
0.0
 10
768.7845480562507
 20
194.6522891569422
 30
0.0
 10
768.9271637511178
 20
194.7988599944254
 30
0.0
 10
769.0749490648702
 20
194.9697037211016
 30
0.0
 10
769.2205269387651
 20
195.1565073990959
 30
0.0
 10
769.3565937082549
 20
195.3499808990704
 30
0.0
 10
769.4765042982317
 20
195.5404561353933
 30
0.0
 10
769.5741187930841
 20
195.7185244164502
 30
0.0
 10
769.64583989659
 20
195.8751196546191
 30
0.0
 10
769.6863956450222
 20
196.003719552936
 30
0.0
 10
769.7014142655939
 20
196.0988356146397
 30
0.0
 10
769.6815420288023
 20
196.1514749149298
 30
0.0
 10
769.6661213340144
 20
196.1632288275363
 30
0.0
 11
768.5285035180177
 21
194.4541803742656
 31
0.0
 11
768.6423867491278
 21
194.5313339111955
 31
0.0
 11
768.7753180313475
 21
194.6468391854927
 31
0.0
 11
768.9206316337347
 21
194.7949042833165
 31
0.0
 11
769.0710409258031
 21
194.968104598536
 31
0.0
 11
769.2190037571316
 21
195.1577551471486
 31
0.0
 11
769.3571006550286
 21
195.3543460575985
 31
0.0
 11
769.4784068628099
 21
195.5480194395168
 31
0.0
 11
769.5768395795329
 21
195.7290637028783
 31
0.0
 11
769.6474629800685
 21
195.888400532693
 31
0.0
 11
769.6867357120892
 21
196.018040112072
 31
0.0
 11
769.6926884762062
 21
196.1114817739055
 31
0.0
 11
769.6661213340144
 21
196.1632288275363
 31
0.0
  0
SPLINE
  5
7E0
330
2
100
AcDbEntity
  8
0
100
AcDbSpline
210
0.0
220
0.0
230
1.0
 70
     8
 71
     3
 72
    10
 73
     6
 74
     4
 42
0.0000000001
 43
0.0000000001
 44
0.0000000001
 12
-0.8754276889593365
 22
-0.483349109240221
 32
0.0
 13
-0.7953120739395036
 23
0.6062002186126673
 33
0.0
 40
0.0
 40
0.0
 40
0.0
 40
0.0
 40
0.0957262194569648
 40
0.1563013392460743
 40
0.1576669055801319
 40
0.1576669055801319
 40
0.1576669055801319
 40
0.1576669055801319
 10
768.5285035180177
 20
194.4541803742656
 30
0.0
 10
768.5005697236604
 20
194.4387573132971
 30
0.0
 10
768.4543817988061
 20
194.4152115183854
 30
0.0
 10
768.395377720479
 20
194.4165543835877
 30
0.0
 10
768.3787454824306
 20
194.4288218011624
 30
0.0
 10
768.3783834652995
 20
194.4290977366992
 30
0.0
 11
768.5285035180177
 21
194.4541803742656
 31
0.0
 11
768.4393789159776
 21
194.4192473755006
 31
0.0
 11
768.3794820254592
 21
194.4282866035486
 31
0.0
 11
768.3783834652995
 21
194.4290977366992
 31
0.0
  0
SPLINE
  5
7E1
330
2
100
AcDbEntity
  8
0
100
AcDbSpline
210
0.0
220
0.0
230
1.0
 70
     8
 71
     3
 72
    10
 73
     6
 74
     4
 42
0.0000000001
 43
0.0000000001
 44
0.0000000001
 12
-0.8469686877542088
 22
-0.5316427766498042
 32
0.0
 13
-0.673521303194115
 23
-0.739167811896393
 33
0.0
 40
0.0
 40
0.0
 40
0.0
 40
0.0
 40
0.0696759471625878
 40
0.1881155650942048
 40
0.2757987433210313
 40
0.2757987433210313
 40
0.2757987433210313
 40
0.2757987433210313
 10
770.7411051347659
 20
194.660639072549
 30
0.0
 10
770.7214340195871
 20
194.6482915012106
 30
0.0
 10
770.6712411770345
 20
194.6104049730551
 30
0.0
 10
770.6036884895199
 20
194.5478851005744
 30
0.0
 10
770.556303404642
 20
194.4980973331141
 30
0.0
 10
770.5366179084862
 20
194.4764931387841
 30
0.0
 11
770.7411051347659
 21
194.660639072549
 31
0.0
 11
770.6848170372333
 21
194.6195734215841
 31
0.0
 11
770.5971792166756
 21
194.5399018739421
 31
0.0
 11
770.5366179084862
 21
194.4764931387841
 31
0.0
  0
SPLINE
  5
7E2
330
2
100
AcDbEntity
  8
0
100
AcDbSpline
210
0.0
220
0.0
230
1.0
 70
     8
 71
     3
 72
    15
 73
    11
 74
     9
 42
0.0000000001
 43
0.0000000001
 44
0.0000000001
 12
0.80284285977323
 22
-0.5961906930765877
 32
0.0
 13
-0.8754483997932444
 23
-0.483311596487657
 33
0.0
 40
0.0
 40
0.0
 40
0.0
 40
0.0
 40
0.0918004029838987
 40
0.1874318662987733
 40
0.281071666912051
 40
0.3705717900357166
 40
0.4562359771225277
 40
0.5405151347560545
 40
0.6256583567795884
 40
0.6997997811158328
 40
0.6997997811158328
 40
0.6997997811158328
 40
0.6997997811158328
 10
771.0004188871053
 20
194.6811333825887
 30
0.0
 10
771.0249859864586
 20
194.6628898672955
 30
0.0
 10
771.071745699368
 20
194.6208617731929
 30
0.0
 10
771.129408705346
 20
194.5463419244578
 30
0.0
 10
771.170741090967
 20
194.462281146407
 30
0.0
 10
771.1903096413569
 20
194.3737946984305
 30
0.0
 10
771.1846060817557
 20
194.2861927391405
 30
0.0
 10
771.152767136924
 20
194.2058174788168
 30
0.0
 10
771.1004186380758
 20
194.1421674803784
 30
0.0
 10
771.0566446624367
 20
194.1111602306031
 30
0.0
 10
771.0350089986722
 20
194.0992157605492
 30
0.0
 11
771.0004188871053
 21
194.6811333825887
 31
0.0
 11
771.0687971503488
 21
194.6198820388989
 31
0.0
 11
771.1270685449057
 21
194.5440544624366
 31
0.0
 11
771.1677416073744
 21
194.4597092536319
 31
0.0
 11
771.1862544894243
 21
194.3721447332063
 31
0.0
 11
771.1801352094097
 21
194.2866993859875
 31
0.0
 11
771.1490971120752
 21
194.208343703837
 31
0.0
 11
771.095328391368
 21
194.1423263354401
 31
0.0
 11
771.0350089986722
 21
194.0992157605492
 31
0.0
  0
SPLINE
  5
7E3
330
2
100
AcDbEntity
  8
0
100
AcDbSpline
210
0.0
220
0.0
230
1.0
 70
     8
 71
     3
 72
    12
 73
     8
 74
     6
 42
0.0000000001
 43
0.0000000001
 44
0.0000000001
 12
0.8752944478716147
 22
0.4835903530108156
 32
0.0
 13
0.8028428599942511
 23
-0.5961906927789559
 33
0.0
 40
0.0
 40
0.0
 40
0.0
 40
0.0
 40
0.0119633418673986
 40
0.0864256279581351
 40
0.1639609573352743
 40
0.2475059138803936
 40
0.3345250466498792
 40
0.3345250466498792
 40
0.3345250466498792
 40
0.3345250466498792
 10
770.687060887051
 20
194.7295570695358
 30
0.0
 10
770.6905513692892
 20
194.7314855217747
 30
0.0
 10
770.7161263483278
 20
194.7447453587632
 30
0.0
 10
770.7698055972471
 20
194.7602783254635
 30
0.0
 10
770.8494324016312
 20
194.7557926078622
 30
0.0
 10
770.9283253619892
 20
194.7283793623503
 30
0.0
 10
770.977131323963
 20
194.6984267149389
 30
0.0
 10
771.0004188871053
 20
194.6811333825887
 30
0.0
 11
770.687060887051
 21
194.7295570695358
 31
0.0
 11
770.6976838449262
 21
194.7350592795117
 31
0.0
 11
770.7691886100192
 21
194.7558366859633
 31
0.0
 11
770.8466518542286
 21
194.7524940675025
 31
0.0
 11
770.9259174667916
 21
194.7260985673343
 31
0.0
 11
771.0004188871053
 21
194.6811333825887
 31
0.0
  0
SPLINE
  5
7E4
330
2
100
AcDbEntity
  8
0
100
AcDbSpline
210
0.0
220
0.0
230
1.0
 70
     8
 71
     3
 72
     9
 73
     5
 74
     3
 42
0.0000000001
 43
0.0000000001
 44
0.0000000001
 12
-0.8754276839387614
 22
-0.4833491183333391
 32
0.0
 13
-0.9838175396998167
 23
0.1791732362240509
 33
0.0
 40
0.0
 40
0.0
 40
0.0
 40
0.0
 40
0.0573944809568677
 40
0.0667824578358424
 40
0.0667824578358424
 40
0.0667824578358424
 40
0.0667824578358424
 10
779.2970155449843
 20
187.0215211899315
 30
0.0
 10
779.2802673058059
 20
187.0122739993422
 30
0.0
 10
779.2591271369316
 20
187.0001513909039
 30
0.0
 10
779.2367572665202
 20
187.0024070866164
 30
0.0
 10
779.2336785810817
 20
187.0029677780161
 30
0.0
 11
779.2970155449843
 21
187.0215211899315
 31
0.0
 11
779.2430222768975
 21
187.0020570319582
 31
0.0
 11
779.2336785810817
 21
187.0029677780161
 31
0.0
  0
SPLINE
  5
7E5
330
2
100
AcDbEntity
  8
0
100
AcDbSpline
210
0.0
220
0.0
230
1.0
 70
     8
 71
     3
 72
     9
 73
     5
 74
     3
 42
0.0000000001
 43
0.0000000001
 44
0.0000000001
 12
-0.875427686494463
 22
-0.4833491137045274
 32
0.0
 13
-0.9950020597904478
 23
0.0998543990656702
 33
0.0
 40
0.0
 40
0.0
 40
0.0
 40
0.0
 40
0.057394479856002
 40
0.0622517520912531
 40
0.0622517520912531
 40
0.0622517520912531
 40
0.0622517520912531
 10
772.5346010743101
 20
192.0432866717043
 30
0.0
 10
772.5178528354041
 20
192.034039481381
 30
0.0
 10
772.4981641828783
 20
192.0227051635823
 30
0.0
 10
772.4773694746454
 20
192.0239384577242
 30
0.0
 10
772.4757584760191
 20
192.0241001310576
 30
0.0
 11
772.5346010743101
 21
192.0432866717043
 31
0.0
 11
772.4806078080526
 21
192.0238225119023
 31
0.0
 11
772.4757584760191
 21
192.0241001310576
 31
0.0
  0
SPLINE
  5
7E6
330
2
100
AcDbEntity
  8
0
100
AcDbSpline
210
0.0
220
0.0
230
1.0
 70
     8
 71
     3
 72
     9
 73
     5
 74
     3
 42
0.0000000001
 43
0.0000000001
 44
0.0000000001
 12
-0.8754276905827719
 22
-0.4833491062999027
 32
0.0
 13
-0.9988160153893433
 23
0.0486473781591055
 33
0.0
 40
0.0
 40
0.0
 40
0.0
 40
0.0
 40
0.082771759736251
 40
0.0954813372238317
 40
0.0954813372238317
 40
0.0954813372238317
 40
0.0954813372238317
 10
772.0565848351201
 20
192.0558131214288
 30
0.0
 10
772.0324312716297
 20
192.0424772360636
 30
0.0
 10
772.0026624252962
 20
192.0266279253544
 30
0.0
 10
771.9706738730811
 20
192.0261785410541
 30
0.0
 10
771.9664423632332
 20
192.0263846369282
 30
0.0
 11
772.0565848351201
 21
192.0558131214288
 31
0.0
 11
771.979150573733
 21
192.0265710391967
 31
0.0
 11
771.9664423632332
 21
192.0263846369282
 31
0.0
  0
SPLINE
  5
7E7
330
2
100
AcDbEntity
  8
0
100
AcDbSpline
210
0.0
220
0.0
230
1.0
 70
     8
 71
     3
 72
     9
 73
     5
 74
     3
 42
0.0000000001
 43
0.0000000001
 44
0.0000000001
 12
-0.4150857326850771
 22
0.90978230061993
 32
0.0
 13
-0.8510537227391361
 23
0.52507862364779
 33
0.0
 40
0.0
 40
0.0
 40
0.0
 40
0.0
 40
0.0089190554096163
 40
0.0177005198949558
 40
0.0177005198949558
 40
0.0177005198949558
 40
0.0177005198949558
 10
779.9148860070813
 20
187.9191464268338
 30
0.0
 10
779.9136519495315
 20
187.9218512264171
 30
0.0
 10
779.9104466600315
 20
187.9269413482894
 30
0.0
 10
779.905746961558
 20
187.9306715529651
 30
0.0
 10
779.9032557955443
 20
187.9322085393937
 30
0.0
 11
779.9148860070813
 21
187.9191464268338
 31
0.0
 11
779.9100423114099
 21
187.9266356298383
 31
0.0
 11
779.9032557955443
 21
187.9322085393937
 31
0.0
  0
SPLINE
  5
7E8
330
2
100
AcDbEntity
  8
0
100
AcDbSpline
210
0.0
220
0.0
230
1.0
 70
     8
 71
     3
 72
    19
 73
    15
 74
    13
 42
0.0000000001
 43
0.0000000001
 44
0.0000000001
 12
-0.7953120721302828
 22
0.6062002209862976
 32
0.0
 13
0.8754276874351161
 23
0.4833491120008442
 33
0.0
 40
0.0
 40
0.0
 40
0.0
 40
0.0
 40
0.0620463654658405
 40
0.1619195190651768
 40
0.3064076528846049
 40
0.4923135753616439
 40
0.7121246300494515
 40
0.9558867296499469
 40
1.212150458181116
 40
1.46872831758448
 40
1.713414547549138
 40
1.934704349984639
 40
2.122547330911763
 40
2.269275304850306
 40
2.269275304850306
 40
2.269275304850306
 40
2.269275304850306
 10
765.5741396282304
 20
196.4218476047857
 30
0.0
 10
765.5576908870682
 20
196.4343851116046
 30
0.0
 10
765.5364938366608
 20
196.4905336995764
 30
0.0
 10
765.5525136984643
 20
196.5919908312847
 30
0.0
 10
765.5957731613955
 20
196.7291640567335
 30
0.0
 10
765.6722756741332
 20
196.8961989762857
 30
0.0
 10
765.7763978033192
 20
197.0861384750659
 30
0.0
 10
765.9043024305589
 20
197.2893120619857
 30
0.0
 10
766.0494403180823
 20
197.4956837955242
 30
0.0
 10
766.2047233834684
 20
197.6949410523209
 30
0.0
 10
766.3623610508627
 20
197.8771743610388
 30
0.0
 10
766.5144844596739
 20
198.0335165861784
 30
0.0
 10
766.6533984183923
 20
198.1562894573534
 30
0.0
 10
766.7447820573077
 20
198.2211923438248
 30
0.0
 10
766.7875986342767
 20
198.2448326224611
 30
0.0
 11
765.5741396282304
 21
196.4218476047857
 31
0.0
 11
765.5458013444447
 21
196.4770444628448
 31
0.0
 11
765.5521509599907
 21
196.576715567947
 31
0.0
 11
765.5940418734143
 21
196.7149977872927
 31
0.0
 11
765.6693735012628
 21
196.8849570702334
 31
0.0
 11
765.7743684004413
 21
197.0780709509087
 31
0.0
 11
765.9037616880095
 21
197.2846558930849
 31
0.0
 11
766.0510650449133
 21
197.4943528639871
 31
0.0
 11
766.2088920649969
 21
197.6966467829949
 31
0.0
 11
766.3693286436912
 21
197.8813937866274
 31
0.0
 11
766.5243298184734
 21
198.0393298891439
 31
0.0
 11
766.6661231856862
 21
198.1625355160367
 31
0.0
 11
766.7875986342767
 21
198.2448326224611
 31
0.0
  0
SPLINE
  5
7E9
330
2
100
AcDbEntity
  8
0
100
AcDbSpline
210
0.0
220
0.0
230
1.0
 70
     8
 71
     3
 72
     9
 73
     5
 74
     3
 42
0.0000000001
 43
0.0000000001
 44
0.0000000001
 12
-0.2810371587168253
 22
0.959696887262001
 32
0.0
 13
-0.8356487301234134
 23
0.54926423499362
 33
0.0
 40
0.0
 40
0.0
 40
0.0
 40
0.0
 40
0.028440954625057
 40
0.0340801589607958
 40
0.0340801589607958
 40
0.0340801589607958
 40
0.0340801589607958
 10
773.0042402610147
 20
193.4232696787632
 30
0.0
 10
773.0015759393217
 20
193.432367910638
 30
0.0
 10
772.9961648772525
 20
193.4433830757386
 30
0.0
 10
772.9870650214048
 20
193.4502654421979
 30
0.0
 10
772.9854942234242
 20
193.4512979132831
 30
0.0
 11
773.0042402610147
 21
193.4232696787632
 31
0.0
 11
772.989975507629
 21
193.4478746520578
 31
0.0
 11
772.9854942234242
 21
193.4512979132831
 31
0.0
  0
SPLINE
  5
7EA
330
2
100
AcDbEntity
  8
0
100
AcDbSpline
210
0.0
220
0.0
230
1.0
 70
     8
 71
     3
 72
     9
 73
     5
 74
     3
 42
0.0000000001
 43
0.0000000001
 44
0.0000000001
 12
-0.8351755117349476
 22
0.5499835130240435
 32
0.0
 13
-0.875427689401776
 23
-0.4833491084388876
 33
0.0
 40
0.0
 40
0.0
 40
0.0
 40
0.0
 40
0.0459419887991826
 40
0.1287137485354778
 40
0.1287137485354778
 40
0.1287137485354778
 40
0.1287137485354778
 10
772.8164639013887
 20
193.5768222866688
 30
0.0
 10
772.8036740267202
 20
193.5852447321338
 30
0.0
 10
772.7571421644336
 20
193.5907869247895
 30
0.0
 10
772.7181345449666
 20
193.5699318928095
 30
0.0
 10
772.6939809815088
 20
193.5565960073854
 30
0.0
 11
772.8164639013887
 21
193.5768222866688
 31
0.0
 11
772.7714152428958
 21
193.5858380896179
 31
0.0
 11
772.6939809815088
 21
193.5565960073854
 31
0.0
  0
SPLINE
  5
7EB
330
2
100
AcDbEntity
  8
0
100
AcDbSpline
210
0.0
220
0.0
230
1.0
 70
     8
 71
     3
 72
     9
 73
     5
 74
     3
 42
0.0000000001
 43
0.0000000001
 44
0.0000000001
 12
-0.7953120735842801
 22
0.6062002190787074
 32
0.0
 13
0.1012271348859624
 23
0.9948633409482829
 33
0.0
 40
0.0
 40
0.0
 40
0.0
 40
0.0
 40
0.0620463654655104
 40
0.115594428901661
 40
0.115594428901661
 40
0.115594428901661
 40
0.115594428901661
 10
768.3354588702241
 20
194.3712933664562
 30
0.0
 10
768.3190101290318
 20
194.3838308732356
 30
0.0
 10
768.3040306391431
 20
194.4241791205468
 30
0.0
 10
768.3035983988617
 20
194.4622531378925
 30
0.0
 10
768.3054052378752
 20
194.480010806323
 30
0.0
 11
768.3354588702241
 21
194.3712933664562
 31
0.0
 11
768.3071205864385
 21
194.426490224515
 31
0.0
 11
768.3054052378752
 21
194.480010806323
 31
0.0
  0
SPLINE
  5
7EC
330
2
100
AcDbEntity
  8
0
100
AcDbSpline
210
0.0
220
0.0
230
1.0
 70
     8
 71
     3
 72
     8
 73
     4
 74
     0
 42
0.0000000001
 43
0.0000000001
 40
0.0948020263355762
 40
0.0948020263355762
 40
0.0948020263355762
 40
0.0948020263355762
 40
0.177176885747706
 40
0.177176885747706
 40
0.177176885747706
 40
0.177176885747706
 10
772.6275111352282
 20
193.5137264083221
 30
0.0
 10
772.6488455139732
 20
193.529300145875
 30
0.0
 10
772.6709047470218
 20
193.5438549465931
 30
0.0
 10
772.6939809815088
 20
193.5565960073854
 30
0.0
  0
SPLINE
  5
7ED
330
2
100
AcDbEntity
  8
0
100
AcDbSpline
210
0.0
220
0.0
230
1.0
 70
     8
 71
     3
 72
    11
 73
     7
 74
     0
 42
0.0000000001
 43
0.0000000001
 40
0.0
 40
0.0
 40
0.0
 40
0.0
 40
0.0058368079853051
 40
0.0647296326449272
 40
0.1607182351658714
 40
0.2582784275376029
 40
0.2582784275376029
 40
0.2582784275376029
 40
0.2582784275376029
 10
771.7650415533362
 20
192.1611309793726
 30
0.0
 10
771.7634816304222
 20
192.1621582267795
 30
0.0
 10
771.7468878714611
 20
192.1748647828639
 30
0.0
 10
771.7366103305121
 20
192.2322771396063
 30
0.0
 10
771.7533729200797
 20
192.3096914607263
 30
0.0
 10
771.7737116151806
 20
192.3685633400675
 30
0.0
 10
771.7851220681532
 20
192.3977561648507
 30
0.0
  0
SPLINE
  5
7EE
330
2
100
AcDbEntity
  8
0
100
AcDbSpline
210
0.0
220
0.0
230
1.0
 70
     8
 71
     3
 72
    10
 73
     6
 74
     4
 42
0.0000000001
 43
0.0000000001
 44
0.0000000001
 12
-0.7953120691179623
 22
0.6062002249383497
 32
0.0
 13
-0.9241408258153755
 23
-0.382052004393742
 33
0.0
 40
0.0
 40
0.0
 40
0.0
 40
0.0
 40
0.0014566032541655
 40
0.0660700643309176
 40
0.1154781484160068
 40
0.1154781484160068
 40
0.1154781484160068
 40
0.1154781484160068
 10
769.7090459309187
 20
196.2210331977792
 30
0.0
 10
769.7086597795361
 20
196.2213275288526
 30
0.0
 10
769.690920869603
 20
196.2344143000003
 30
0.0
 10
769.6473709805006
 20
196.2351611975181
 30
0.0
 10
769.6116806559266
 20
196.2243165408728
 30
0.0
 10
769.5964606467172
 20
196.2180243883535
 30
0.0
 11
769.7090459309187
 21
196.2210331977792
 31
0.0
 11
769.7078741346331
 21
196.2218984067165
 31
0.0
 11
769.6439841178363
 21
196.2315402481393
 31
0.0
 11
769.5964606467172
 21
196.2180243883535
 31
0.0
  0
SPLINE
  5
7EF
330
2
100
AcDbEntity
  8
0
100
AcDbSpline
210
0.0
220
0.0
230
1.0
 70
     8
 71
     3
 72
    10
 73
     6
 74
     4
 42
0.0000000001
 43
0.0000000001
 44
0.0000000001
 12
-0.7953120692931933
 22
0.6062002247084532
 32
0.0
 13
-0.8754276886621536
 23
-0.4833491097784702
 33
0.0
 40
0.0
 40
0.0
 40
0.0
 40
0.0
 40
0.0014566043400258
 40
0.0660700654179509
 40
0.1681780317808476
 40
0.1681780317808476
 40
0.1681780317808476
 40
0.1681780317808476
 10
766.9477266889251
 20
198.2715874342798
 30
0.0
 10
766.9473405372546
 20
198.2718817655726
 30
0.0
 10
766.9295995160608
 20
198.2849670554497
 30
0.0
 10
766.8666617767208
 20
198.2863993659925
 30
0.0
 10
766.8173946812723
 20
198.261283887342
 30
0.0
 10
766.7875986342767
 20
198.2448326224611
 30
0.0
 11
766.9477266889251
 21
198.2715874342798
 31
0.0
 11
766.9465548926405
 21
198.2724526450464
 31
0.0
 11
766.8826648758424
 21
198.2820944864688
 31
0.0
 11
766.7875986342767
 21
198.2448326224611
 31
0.0
  0
SPLINE
  5
7F0
330
2
100
AcDbEntity
  8
0
100
AcDbSpline
210
0.0
220
0.0
230
1.0
 70
     8
 71
     3
 72
    11
 73
     7
 74
     5
 42
0.0000000001
 43
0.0000000001
 44
0.0000000001
 12
-0.8028428582195219
 22
0.5961906951688433
 32
0.0
 13
-0.9922863361082077
 23
-0.1239670406719021
 33
0.0
 40
0.0
 40
0.0
 40
0.0
 40
0.0
 40
0.0774388020876269
 40
0.1535393089979573
 40
0.2225610737941986
 40
0.2468698236951713
 40
0.2468698236951713
 40
0.2468698236951713
 40
0.2468698236951713
 10
770.8515836889167
 20
194.5989571360705
 30
0.0
 10
770.8308599591816
 20
194.6143465671537
 30
0.0
 10
770.7877896890707
 20
194.6423485566013
 30
0.0
 10
770.7194141269294
 20
194.6722654207196
 30
0.0
 10
770.6628347350307
 20
194.6818299968922
 30
0.0
 10
770.6317030334019
 20
194.6798559938133
 30
0.0
 10
770.6236626199437
 20
194.6788514992174
 30
0.0
 11
770.8515836889167
 21
194.5989571360705
 31
0.0
 11
770.786371248552
 21
194.6407196275006
 31
0.0
 11
770.7161732470126
 21
194.670105469872
 31
0.0
 11
770.6479224474722
 21
194.6803929563325
 31
0.0
 11
770.6236626199437
 21
194.6788514992174
 31
0.0
  0
SPLINE
  5
7F1
330
2
100
AcDbEntity
  8
0
100
AcDbSpline
210
0.0
220
0.0
230
1.0
 70
     8
 71
     3
 72
    20
 73
    16
 74
    14
 42
0.0000000001
 43
0.0000000001
 44
0.0000000001
 12
0.4371230310110132
 22
-0.899401721012221
 32
0.0
 13
-0.8754277010375371
 23
-0.483349087364539
 33
0.0
 40
0.0
 40
0.0
 40
0.0
 40
0.0
 40
0.0678480329678516
 40
0.1679627151389835
 40
0.2996935517196517
 40
0.460649440750424
 40
0.6466165125747992
 40
0.8502199452491478
 40
1.06294665581107
 40
1.278101727230538
 40
1.489567496558671
 40
1.68911915309433
 40
1.866977214173399
 40
2.015415662417014
 40
2.130344232468861
 40
2.130344232468861
 40
2.130344232468861
 40
2.130344232468861
 10
766.9357529537665
 20
198.2013377215919
 30
0.0
 10
766.9456389330394
 20
198.1809968423857
 30
0.0
 10
766.9457697966497
 20
198.1217977391769
 30
0.0
 10
766.925479149385
 20
198.024988228258
 30
0.0
 10
766.8798048072434
 20
197.9013418366954
 30
0.0
 10
766.8118687059352
 20
197.7570785118043
 30
0.0
 10
766.7229027300152
 20
197.5963699080556
 30
0.0
 10
766.616576217887
 20
197.4260077970288
 30
0.0
 10
766.4970099450497
 20
197.2526759209678
 30
0.0
 10
766.3684951041764
 20
197.0825895443934
 30
0.0
 10
766.2354182216513
 20
196.9216924078375
 30
0.0
 10
766.103093092575
 20
196.7765987743335
 30
0.0
 10
765.9776944361165
 20
196.6539242586383
 30
0.0
 10
765.8652188815117
 20
196.5589908438748
 30
0.0
 10
765.7924923456923
 20
196.5092184376608
 30
0.0
 10
765.7589551277377
 20
196.4907015645119
 30
0.0
 11
766.9357529537665
 21
198.2013377215919
 31
0.0
 11
766.9438677215857
 21
198.1339767082322
 31
0.0
 11
766.9255198082686
 21
198.035557687392
 31
0.0
 11
766.8816821098125
 21
197.9113350264146
 31
0.0
 11
766.8139497037483
 21
197.7653243439888
 31
0.0
 11
766.724427105451
 21
197.6023229446174
 31
0.0
 11
766.6169116498707
 21
197.4294218613121
 31
0.0
 11
766.4962357306944
 21
197.2542363141986
 31
0.0
 11
766.3665040566046
 21
197.0825930868479
 31
0.0
 11
766.2315606079248
 21
196.919780196523
 31
0.0
 11
766.0967664112704
 21
196.7726360896943
 31
0.0
 11
765.969084255053
 21
196.6488186560492
 31
0.0
 11
765.8549009306639
 21
196.5539706653038
 31
0.0
 11
765.7589551277377
 21
196.4907015645119
 31
0.0
  0
SPLINE
  5
7F2
330
2
100
AcDbEntity
  8
0
100
AcDbSpline
210
0.0
220
0.0
230
1.0
 70
     8
 71
     3
 72
    19
 73
    15
 74
    13
 42
0.0000000001
 43
0.0000000001
 44
0.0000000001
 12
0.875427687264518
 22
0.4833491123098268
 32
0.0
 13
-0.8351755120604387
 23
0.5499835125297704
 33
0.0
 40
0.0
 40
0.0
 40
0.0
 40
0.0
 40
0.1248223838008242
 40
0.2864320459596591
 40
0.4770387346597431
 40
0.686515655419676
 40
0.9033961707220207
 40
1.115710813173517
 40
1.311798960431155
 40
1.481134345453634
 40
1.61525677812148
 40
1.709286427427126
 40
1.766977357243068
 40
1.772695048332908
 40
1.772695048332908
 40
1.772695048332908
 40
1.772695048332908
 10
770.7522262467888
 20
193.0042851229827
 30
0.0
 10
770.7886505703786
 20
193.0243960524515
 30
0.0
 10
770.8664638358575
 20
193.0806468650389
 30
0.0
 10
770.9845095309873
 20
193.1873009183878
 30
0.0
 10
771.1134801436104
 20
193.3232852349617
 30
0.0
 10
771.245819855005
 20
193.4808213092722
 30
0.0
 10
771.3738628024751
 20
193.6510406021229
 30
0.0
 10
771.4902479031348
 20
193.8240359698009
 30
0.0
 10
771.5882407729384
 20
193.9900916192077
 30
0.0
 10
771.662802215444
 20
194.1388063654378
 30
0.0
 10
771.7093297567823
 20
194.2642852529991
 30
0.0
 10
771.7291398518836
 20
194.3556359722098
 30
0.0
 10
771.7186476903131
 20
194.4142148393168
 30
0.0
 10
771.701715381451
 20
194.4271808191525
 30
0.0
 10
771.7001236229232
 20
194.4282290310956
 30
0.0
 11
770.7522262467888
 21
193.0042851229827
 31
0.0
 11
770.8551532065937
 21
193.0749014698369
 31
0.0
 11
770.9760108353377
 21
193.1821913411086
 31
0.0
 11
771.1077753266969
 21
193.3199194377122
 31
0.0
 11
771.2427890049553
 21
193.4800815025534
 31
0.0
 11
771.3732053689636
 21
193.6533694995892
 31
0.0
 11
771.4914450906237
 21
193.8297125618883
 31
0.0
 11
771.5906365106308
 21
193.9988622698157
 31
0.0
 11
771.6650149807201
 21
194.1509882564448
 31
0.0
 11
771.7102578961775
 21
194.2772495155295
 31
0.0
 11
771.7237359034607
 21
194.3703081973825
 31
0.0
 11
771.7046657092412
 21
194.4247560722305
 31
0.0
 11
771.7001236229232
 21
194.4282290310956
 31
0.0
  0
SPLINE
  5
7F3
330
2
100
AcDbEntity
  8
0
100
AcDbSpline
210
0.0
220
0.0
230
1.0
 70
     8
 71
     3
 72
     9
 73
     5
 74
     3
 42
0.0000000001
 43
0.0000000001
 44
0.0000000001
 12
-0.8754276860889659
 22
-0.4833491144389521
 32
0.0
 13
-0.8351755078795637
 23
0.5499835188786232
 33
0.0
 40
0.0
 40
0.0
 40
0.0
 40
0.0
 40
0.084460979442022
 40
0.131340559109947
 40
0.131340559109947
 40
0.131340559109947
 40
0.131340559109947
 10
770.7522262467888
 20
193.0042851229827
 30
0.0
 10
770.7275797535229
 20
192.9906770764434
 30
0.0
 10
770.6877760597069
 20
192.9693964339214
 30
0.0
 10
770.6402945677724
 20
192.9750517313593
 30
0.0
 10
770.6272436755197
 20
192.9836460634224
 30
0.0
 11
770.7522262467888
 21
193.0042851229827
 31
0.0
 11
770.6732116937181
 21
192.9744462649056
 31
0.0
 11
770.6272436755197
 21
192.9836460634224
 31
0.0
  0
SPLINE
  5
7F4
330
2
100
AcDbEntity
  8
0
100
AcDbSpline
210
0.0
220
0.0
230
1.0
 70
     8
 71
     3
 72
    15
 73
    11
 74
     9
 42
0.0000000001
 43
0.0000000001
 44
0.0000000001
 12
-0.8028428601767924
 22
0.5961906925331421
 32
0.0
 13
0.8752944481988771
 23
0.4835903524184733
 33
0.0
 40
0.0
 40
0.0
 40
0.0
 40
0.0
 40
0.0903094644860764
 40
0.1848643435488416
 40
0.281310654978958
 40
0.3776085776171416
 40
0.4708305573424393
 40
0.5586285182002798
 40
0.639563410114427
 40
0.7035313551536698
 40
0.7035313551536698
 40
0.7035313551536698
 40
0.7035313551536698
 10
770.6712529666223
 20
194.1198114428015
 30
0.0
 10
770.6470848636993
 20
194.1377586635262
 30
0.0
 10
770.6027496550305
 20
194.1819696136734
 30
0.0
 10
770.556860120475
 20
194.2650062812064
 30
0.0
 10
770.5328026995738
 20
194.3586503627473
 30
0.0
 10
770.5302241532058
 20
194.4546749606142
 30
0.0
 10
770.5472715375361
 20
194.5462345877033
 30
0.0
 10
770.5817680019451
 20
194.627286932409
 30
0.0
 10
770.6292933813222
 20
194.6897857595214
 30
0.0
 10
770.6683972913325
 20
194.7192456425075
 30
0.0
 10
770.687060887051
 20
194.7295570695358
 30
0.0
 11
770.6712529666223
 21
194.1198114428015
 31
0.0
 11
770.6071515588337
 21
194.1834259764812
 31
0.0
 11
770.5608849049102
 21
194.2658882217168
 31
0.0
 11
770.5363962597552
 21
194.3591737899841
 31
0.0
 11
770.5336454903523
 21
194.4554324164657
 31
0.0
 11
770.5509758794652
 21
194.5470293329918
 31
0.0
 11
770.5859859859248
 21
194.6275450108222
 31
0.0
 11
770.6357254268067
 21
194.691392052648
 31
0.0
 11
770.687060887051
 21
194.7295570695358
 31
0.0
  0
SPLINE
  5
7F5
330
2
100
AcDbEntity
  8
0
100
AcDbSpline
210
0.0
220
0.0
230
1.0
 70
     8
 71
     3
 72
    12
 73
     8
 74
     6
 42
0.0000000001
 43
0.0000000001
 44
0.0000000001
 12
-0.8754483987047402
 22
-0.4833115984593234
 32
0.0
 13
-0.8028428607933062
 23
0.5961906917029315
 33
0.0
 40
0.0
 40
0.0
 40
0.0
 40
0.0
 40
0.0144689173163548
 40
0.1065996891414955
 40
0.2004419312940445
 40
0.2938118881821361
 40
0.3833418095327874
 40
0.3833418095327874
 40
0.3833418095327874
 40
0.3833418095327874
 10
771.0350089986722
 20
194.0992157605492
 30
0.0
 10
771.0307867351737
 20
194.0968847620305
 30
0.0
 10
770.9993091781484
 20
194.0803943181667
 30
0.0
 10
770.9350985455647
 20
194.0588559588635
 30
0.0
 10
770.8410961043458
 20
194.0531456582238
 30
0.0
 10
770.7497172040096
 20
194.0725967999292
 30
0.0
 10
770.6952124526836
 20
194.1020191408887
 30
0.0
 10
770.6712529666223
 20
194.1198114428015
 30
0.0
 11
771.0350089986722
 21
194.0992157605492
 31
0.0
 11
771.0221925433302
 21
194.0925009976513
 31
0.0
 11
770.9349089064676
 21
194.0630112392065
 31
0.0
 11
770.8412343469534
 21
194.057403805565
 31
0.0
 11
770.7499836753021
 21
194.0771841941473
 31
0.0
 11
770.6712529666223
 21
194.1198114428015
 31
0.0
  0
SPLINE
  5
7F6
330
2
100
AcDbEntity
  8
0
100
AcDbSpline
210
0.0
220
0.0
230
1.0
 70
     8
 71
     3
 72
    12
 73
     8
 74
     6
 42
0.0000000001
 43
0.0000000001
 44
0.0000000001
 12
0.4995066139888705
 22
0.8663100730000625
 32
0.0
 13
-0.7953120719709269
 23
0.6062002211953667
 33
0.0
 40
0.0
 40
0.0
 40
0.0
 40
0.0
 40
0.19388463258553
 40
0.3797905550626504
 40
0.5242786894122977
 40
0.6241518428954514
 40
0.686198208361361
 40
0.686198208361361
 40
0.686198208361361
 40
0.686198208361361
 10
770.6489209832449
 20
194.7502742682332
 30
0.0
 10
770.6812032020207
 20
194.8062623383028
 30
0.0
 10
770.7415884947272
 20
194.9175872545173
 30
0.0
 10
770.814480540524
 20
195.0767567551501
 30
0.0
 10
770.8577410932138
 20
195.21392890729
 30
0.0
 10
770.8737607785105
 20
195.3153862102196
 30
0.0
 10
770.8525637502185
 20
195.3715347767177
 30
0.0
 10
770.8361150090594
 20
195.384072283541
 30
0.0
 11
770.6489209832449
 21
194.7502742682332
 31
0.0
 11
770.7408811360273
 21
194.9209628180925
 31
0.0
 11
770.8162127638752
 21
195.0909221010336
 31
0.0
 11
770.8581036791278
 21
195.2292043203792
 31
0.0
 11
770.8644532928445
 21
195.3288754254815
 31
0.0
 11
770.8361150090594
 21
195.384072283541
 31
0.0
  0
SPLINE
  5
7F7
330
2
100
AcDbEntity
  8
0
100
AcDbSpline
210
0.0
220
0.0
230
1.0
 70
     8
 71
     3
 72
     9
 73
     5
 74
     3
 42
0.0000000001
 43
0.0000000001
 44
0.0000000001
 12
0.5277670053373216
 22
0.8493891852839166
 32
0.0
 13
0.4995066182757565
 23
0.8663100705282824
 33
0.0
 40
0.0
 40
0.0
 40
0.0
 40
0.0
 40
0.104071263112767
 40
0.1300096531133673
 40
0.1300096531133673
 40
0.1300096531133673
 40
0.1300096531133673
 10
770.5820953821744
 20
194.6387570087182
 30
0.0
 10
770.6004038417993
 20
194.6682226771804
 30
0.0
 10
770.6228227238173
 20
194.7053177989632
 30
0.0
 10
770.6446021840873
 20
194.7427840387429
 30
0.0
 10
770.6489209832449
 20
194.7502742682332
 30
0.0
 11
770.5820953821744
 21
194.6387570087182
 31
0.0
 11
770.6358862368483
 21
194.7278489374174
 31
0.0
 11
770.6489209832449
 21
194.7502742682332
 31
0.0
  0
SPLINE
  5
7F8
330
2
100
AcDbEntity
  8
0
100
AcDbSpline
210
0.0
220
0.0
230
1.0
 70
     8
 71
     3
 72
    14
 73
    10
 74
     8
 42
0.0000000001
 43
0.0000000001
 44
0.0000000001
 12
0.875427687374432
 22
0.4833491121107537
 32
0.0
 13
0.5277670065668759
 23
0.8493891845199343
 33
0.0
 40
0.0
 40
0.0
 40
0.0
 40
0.0
 40
0.1467279729122034
 40
0.3345709538394392
 40
0.5558607575802856
 40
0.800546987544801
 40
1.057124845505981
 40
1.313388574037952
 40
1.453103770331423
 40
1.453103770331423
 40
1.453103770331423
 40
1.453103770331423
 10
769.6226560030127
 20
193.5610872676945
 30
0.0
 10
769.6654725796792
 20
193.5847275461708
 30
0.0
 10
769.7568562182556
 20
193.6496304216696
 30
0.0
 10
769.8957701847036
 20
193.7724033458173
 30
0.0
 10
770.0478935550221
 20
193.9287453288028
 30
0.0
 10
770.2055313838957
 20
194.1109796849209
 30
0.0
 10
770.3608138082357
 20
194.3102327740008
 30
0.0
 10
770.4859946185957
 20
194.4882378954673
 30
0.0
 10
770.5575163585344
 20
194.5991994831699
 30
0.0
 10
770.5820953821744
 20
194.6387570087182
 30
0.0
 11
769.6226560030127
 21
193.5610872676945
 31
0.0
 11
769.7441314516029
 21
193.6433843722896
 31
0.0
 11
769.8859248188157
 21
193.7665899991825
 31
0.0
 11
770.0409259935979
 21
193.924526103528
 31
0.0
 11
770.2013625722927
 21
194.1092731071598
 31
0.0
 11
770.3591895923757
 21
194.3115670243389
 31
0.0
 11
770.50649294928
 21
194.5212639952418
 31
0.0
 11
770.5820953821744
 21
194.6387570087182
 31
0.0
  0
SPLINE
  5
7F9
330
2
100
AcDbEntity
  8
0
100
AcDbSpline
210
0.0
220
0.0
230
1.0
 70
     8
 71
     3
 72
    10
 73
     6
 74
     4
 42
0.0000000001
 43
0.0000000001
 44
0.0000000001
 12
-0.8754276886621536
 22
-0.4833491097784702
 32
0.0
 13
-0.7953120692931933
 23
0.6062002247084532
 33
0.0
 40
0.0
 40
0.0
 40
0.0
 40
0.0
 40
0.1021079670306702
 40
0.1667214283804041
 40
0.1681780316341531
 40
0.1681780316341531
 40
0.1681780316341531
 40
0.1681780316341531
 10
769.6226560030127
 20
193.5610872676945
 30
0.0
 10
769.5928599558222
 20
193.544636002706
 30
0.0
 10
769.5435928457121
 20
193.5195205001335
 30
0.0
 10
769.4806551409831
 20
193.5209528607341
 30
0.0
 10
769.4629140997473
 20
193.5340381229728
 30
0.0
 10
769.4625279483647
 20
193.5343324540461
 30
0.0
 11
769.6226560030127
 21
193.5610872676945
 31
0.0
 11
769.5275897614467
 21
193.5238254018575
 31
0.0
 11
769.4636997446498
 21
193.5334672451089
 31
0.0
 11
769.4625279483647
 21
193.5343324540461
 31
0.0
  0
SPLINE
  5
7FA
330
2
100
AcDbEntity
  8
0
100
AcDbSpline
210
0.0
220
0.0
230
1.0
 70
     8
 71
     3
 72
    19
 73
    15
 74
    13
 42
0.0000000001
 43
0.0000000001
 44
0.0000000001
 12
0.8754276874351161
 22
0.4833491120008442
 32
0.0
 13
-0.7953120721302828
 23
0.6062002209862976
 33
0.0
 40
0.0
 40
0.0
 40
0.0
 40
0.0
 40
0.1467279729128828
 40
0.3345709538400814
 40
0.5558607588620549
 40
0.8005469876273302
 40
1.0571248455886
 40
1.313388574120417
 40
1.5571506746911
 40
1.776961729379
 40
1.962867651115073
 40
2.107355785464841
 40
2.207228938947995
 40
2.269275304413603
 40
2.269275304413603
 40
2.269275304413603
 40
2.269275304413603
 10
766.2978022219482
 20
196.0301219622285
 30
0.0
 10
766.3406187986179
 20
196.0537622406995
 30
0.0
 10
766.4320024386246
 20
196.1186651249589
 30
0.0
 10
766.5709163969067
 20
196.2414379976167
 30
0.0
 10
766.7230398068261
 20
196.3977802222692
 30
0.0
 10
766.8806774719386
 20
196.5800135329501
 30
0.0
 10
767.0359605389793
 20
196.7792707872891
 30
0.0
 10
767.1810984253279
 20
196.9856425215189
 30
0.0
 10
767.3090030546616
 20
197.1888161073547
 30
0.0
 10
767.4131251848581
 20
197.3787556060086
 30
0.0
 10
767.4896276933005
 20
197.5457905269828
 30
0.0
 10
767.5328871610791
 20
197.6829637511455
 30
0.0
 10
767.5489070190742
 20
197.7844208833717
 30
0.0
 10
767.5277099691575
 20
197.8405694712562
 30
0.0
 10
767.5112612279953
 20
197.8531069780751
 30
0.0
 11
766.2978022219482
 21
196.0301219622285
 31
0.0
 11
766.4192776705389
 21
196.1124190668241
 31
0.0
 11
766.5610710377517
 21
196.235624693717
 31
0.0
 11
766.7160722143629
 21
196.3935607980624
 31
0.0
 11
766.8765087912288
 21
196.5783078016942
 31
0.0
 11
767.0343358113118
 21
196.7806017188734
 31
0.0
 11
767.1816391682158
 21
196.9902986897763
 31
0.0
 11
767.3110324576128
 21
197.1968836319518
 31
0.0
 11
767.4160273567917
 21
197.389997512627
 31
0.0
 11
767.491358982811
 21
197.559956795568
 31
0.0
 11
767.5332498980638
 21
197.6982390149137
 31
0.0
 11
767.5395995117805
 21
197.797910120016
 31
0.0
 11
767.5112612279953
 21
197.8531069780751
 31
0.0
  0
SPLINE
  5
7FB
330
2
100
AcDbEntity
  8
0
100
AcDbSpline
210
0.0
220
0.0
230
1.0
 70
     8
 71
     3
 72
    10
 73
     6
 74
     4
 42
0.0000000001
 43
0.0000000001
 44
0.0000000001
 12
-0.8754276886621536
 22
-0.4833491097784702
 32
0.0
 13
-0.7953120692931933
 23
0.6062002247084532
 33
0.0
 40
0.0
 40
0.0
 40
0.0
 40
0.0
 40
0.1021079670302053
 40
0.1667214283799944
 40
0.1681780316338109
 40
0.1681780316338109
 40
0.1681780316338109
 40
0.1681780316338109
 10
766.2978022219482
 20
196.0301219622285
 30
0.0
 10
766.2680061747578
 20
196.0136706972401
 30
0.0
 10
766.2187390646494
 20
195.9885551946686
 30
0.0
 10
766.1558013599174
 20
195.9899875552669
 30
0.0
 10
766.1380603186833
 20
196.0030728175074
 30
0.0
 10
766.1376741673007
 20
196.0033671485807
 30
0.0
 11
766.2978022219482
 21
196.0301219622285
 31
0.0
 11
766.2027359803827
 21
195.9928600963916
 31
0.0
 11
766.1388459635858
 21
196.0025019396434
 31
0.0
 11
766.1376741673007
 21
196.0033671485807
 31
0.0
  0
SPLINE
  5
7FC
330
2
100
AcDbEntity
  8
0
100
AcDbSpline
210
0.0
220
0.0
230
1.0
 70
     8
 71
     3
 72
     9
 73
     5
 74
     3
 42
0.0000000001
 43
0.0000000001
 44
0.0000000001
 12
-0.8754276904792186
 22
-0.4833491064874555
 32
0.0
 13
-0.9943330386653085
 23
0.1063099629320504
 33
0.0
 40
0.0
 40
0.0
 40
0.0
 40
0.0
 40
0.084960734515203
 40
0.1278481114701349
 40
0.1278481114701349
 40
0.1278481114701349
 40
0.1278481114701349
 10
765.7589551277377
 20
196.4907015645119
 30
0.0
 10
765.734162801205
 20
196.4770129994738
 30
0.0
 10
765.6952495497693
 20
196.4590902108725
 30
0.0
 10
765.6521954227762
 20
196.4516488433016
 30
0.0
 10
765.6379806441602
 20
196.453168628453
 30
0.0
 11
765.7589551277377
 21
196.4907015645119
 31
0.0
 11
765.6806149519825
 21
196.4578208213329
 31
0.0
 11
765.6379806441602
 21
196.453168628453
 31
0.0
  0
LINE
  5
7FD
330
2
100
AcDbEntity
  8
0
100
AcDbLine
 10
780.3412046452223
 20
186.8907152110558
 30
0.0
 11
779.2335198503856
 21
187.0020962066833
 31
0.0
  0
LINE
  5
7FE
330
2
100
AcDbEntity
  8
0
100
AcDbLine
 10
779.2335198503856
 20
187.0020962066833
 30
0.0
 11
779.216942444069
 21
187.0081412538764
 31
0.0
  0
LINE
  5
7FF
330
2
100
AcDbEntity
  8
0
100
AcDbLine
 10
766.1376560201187
 20
196.0033620882909
 30
0.0
 11
765.5741214810482
 21
196.4218425444958
 31
0.0
  0
LINE
  5
800
330
2
100
AcDbEntity
  8
0
100
AcDbLine
 10
769.4625098011822
 20
193.5343273937565
 30
0.0
 11
768.3354407230423
 21
194.3712883061663
 31
0.0
  0
LINE
  5
801
330
2
100
AcDbEntity
  8
0
100
AcDbLine
 10
768.3783664538017
 20
194.429092992792
 30
0.0
 11
766.2484410335995
 21
196.0107745054703
 31
0.0
  0
LINE
  5
802
330
2
100
AcDbEntity
  8
0
100
AcDbLine
 10
770.6271120256947
 20
192.9833789726688
 30
0.0
 11
769.741100292413
 21
193.6413308255709
 31
0.0
  0
LINE
  5
803
330
2
100
AcDbEntity
  8
0
100
AcDbLine
 10
771.9339728988866
 20
192.0353250933165
 30
0.0
 11
771.7649125369829
 21
192.1608692305439
 31
0.0
  0
LINE
  5
804
330
2
100
AcDbEntity
  8
0
100
AcDbLine
 10
771.9151525918992
 20
192.3631856309904
 30
0.0
 11
771.8726345269701
 21
192.3947595239383
 31
0.0
  0
LINE
  5
805
330
2
100
AcDbEntity
  8
0
100
AcDbLine
 10
779.216942444069
 20
187.0081412538764
 30
0.0
 11
772.4629127415886
 21
192.0236802093169
 31
0.0
  0
LINE
  5
806
330
2
100
AcDbEntity
  8
0
100
AcDbLine
 10
771.9664095344452
 20
192.0257105869682
 30
0.0
 11
771.9339728988866
 21
192.0353250933165
 31
0.0
  0
LINE
  5
807
330
2
100
AcDbEntity
  8
0
100
AcDbLine
 10
772.4757110826672
 20
192.0236278727184
 30
0.0
 11
771.9664095344452
 21
192.0257105869682
 31
0.0
  0
LINE
  5
808
330
2
100
AcDbEntity
  8
0
100
AcDbLine
 10
773.15347469173
 20
192.9363185299344
 30
0.0
 11
773.004235059907
 21
193.4232681553729
 31
0.0
  0
LINE
  5
809
330
2
100
AcDbEntity
  8
0
100
AcDbLine
 10
779.9037541197692
 20
187.9330162289135
 30
0.0
 11
773.1497244191182
 21
192.9485551861825
 31
0.0
  0
LINE
  5
80A
330
2
100
AcDbEntity
  8
0
100
AcDbLine
 10
772.6663528628253
 20
193.3747676350509
 30
0.0
 11
772.6351152840651
 21
193.3979646448521
 31
0.0
  0
LINE
  5
80B
330
2
100
AcDbEntity
  8
0
100
AcDbLine
 10
772.9856532796465
 20
193.4515398982703
 30
0.0
 11
772.8165929177423
 21
193.5770840354976
 31
0.0
  0
LINE
  5
80C
330
2
100
AcDbEntity
  8
0
100
AcDbLine
 10
771.700255272749
 20
194.4284961200206
 30
0.0
 11
770.8142331134787
 21
195.0864557160621
 31
0.0
  0
LINE
  5
80D
330
2
100
AcDbEntity
  8
0
100
AcDbLine
 10
769.666138347341
 20
196.1632335714432
 30
0.0
 11
767.5362229544496
 21
197.7449076390764
 31
0.0
  0
LINE
  5
80E
330
2
100
AcDbEntity
  8
0
100
AcDbLine
 10
767.5112793751773
 20
197.8531120383646
 30
0.0
 11
766.947744836107
 21
198.2715924945695
 31
0.0
  0
LINE
  5
80F
330
2
100
AcDbEntity
  8
0
100
AcDbLine
 10
770.8361331562413
 20
195.3840773438301
 30
0.0
 11
769.7090640781007
 21
196.2210382580685
 31
0.0
  0
LINE
  5
810
330
2
100
AcDbEntity
  8
0
100
AcDbLine
 10
770.6520251627615
 20
194.4887750633183
 30
0.0
 11
770.8515836889167
 21
194.5989571360704
 31
0.0
  0
LINE
  5
811
330
2
100
AcDbEntity
  8
0
100
AcDbLine
 10
770.6520251627615
 20
194.4887750633183
 30
0.0
 11
770.5486507705777
 21
194.3124921923135
 31
0.0
  0
LINE
  5
812
330
2
100
AcDbEntity
  8
0
100
AcDbLine
 10
780.3412046452223
 20
186.8907152110558
 30
0.0
 11
779.9143337606883
 21
187.9188944657423
 31
0.0
  0
SPLINE
  5
813
330
2
100
AcDbEntity
  8
0
100
AcDbSpline
210
0.0
220
0.0
230
1.0
 70
     8
 71
     3
 72
    11
 73
     7
 74
     5
 42
0.0000000001
 43
0.0000000001
 44
0.0000000001
 12
0.8762233566787822
 22
-0.4819052077022697
 32
0.0
 13
-0.4643534656286029
 23
-0.8856499641273103
 33
0.0
 40
0.0
 40
0.0
 40
0.0
 40
0.0
 40
0.0087141219172168
 40
0.0574418910972565
 40
0.144000158975584
 40
0.2672204222929675
 40
0.2672204222929675
 40
0.2672204222929675
 40
0.2672204222929675
 10
772.6375828408799
 20
193.5031904515618
 30
0.0
 10
772.6401280132654
 20
193.5017906579843
 30
0.0
 10
772.656018543313
 20
193.4897484206978
 30
0.0
 10
772.6467595963445
 20
193.4325206396759
 30
0.0
 10
772.6223794078227
 20
193.3560687501812
 30
0.0
 10
772.5907098268804
 20
193.2911739034024
 30
0.0
 10
772.5716372414447
 20
193.2547972294735
 30
0.0
 11
772.6375828408799
 21
193.5031904515618
 31
0.0
 11
772.644498601192
 21
193.4978887367361
 31
0.0
 11
772.6486652616316
 21
193.4493394377706
 31
0.0
 11
772.6238136085034
 21
193.3664254517677
 31
0.0
 11
772.5716372414447
 21
193.2547972294735
 31
0.0
  0
LINE
  5
814
330
2
100
AcDbEntity
  8
0
100
AcDbLine
 10
771.7756460057304
 20
194.404857908887
 30
0.0
 11
772.6375828408799
 21
193.5031904515618
 31
0.0
  0
SPLINE
  5
815
330
2
100
AcDbEntity
  8
0
100
AcDbSpline
210
0.0
220
0.0
230
1.0
 70
     8
 71
     3
 72
    16
 73
    12
 74
    10
 42
0.0000000001
 43
0.0000000001
 44
0.0000000001
 12
0.8762233572592529
 22
-0.4819052066468296
 32
0.0
 13
0.4643534666425237
 23
0.8856499635957034
 33
0.0
 40
0.0
 40
0.0
 40
0.0
 40
0.0
 40
0.0265764390941136
 40
0.0920433640860674
 40
0.1959817509663311
 40
0.3338450148317343
 40
0.4972377274618279
 40
0.6756056543271423
 40
0.8572336988480156
 40
1.030160258075187
 40
1.183086135622607
 40
1.183086135622607
 40
1.183086135622607
 40
1.183086135622607
 10
771.8081257553142
 20
192.3869624899417
 30
0.0
 10
771.8158880542099
 20
192.3826933818171
 30
0.0
 10
771.8482170398482
 20
192.3768768307663
 30
0.0
 10
771.9056555192866
 20
192.4169425088029
 30
0.0
 10
771.9850706518923
 20
192.4779247347737
 30
0.0
 10
772.0810846842846
 20
192.5747645293809
 30
0.0
 10
772.1872267808646
 20
192.693852799535
 30
0.0
 10
772.2962283168486
 20
192.8303361013114
 30
0.0
 10
772.4006678578132
 20
192.9740665577848
 30
0.0
 10
772.4934670643722
 20
193.1155834986006
 30
0.0
 10
772.5479666876518
 20
193.2096509635126
 30
0.0
 10
772.5716372414447
 20
193.2547972294735
 30
0.0
 11
771.8081257553142
 21
192.3869624899417
 31
0.0
 11
771.8341110175011
 21
192.3813881501598
 31
0.0
 11
771.8935042527111
 21
192.4089265211933
 31
0.0
 11
771.9753421472439
 21
192.4730026266128
 31
0.0
 11
772.0740475893576
 21
192.5692497835617
 31
0.0
 11
772.1828939588402
 21
192.6911089087477
 31
0.0
 11
772.2944635631172
 21
192.8302755022092
 31
0.0
 11
772.4011531107785
 21
192.9772655936314
 31
0.0
 11
772.4956918924531
 21
193.1220620495467
 31
0.0
 11
772.5716372414447
 21
193.2547972294735
 31
0.0
  0
LINE
  5
816
330
2
100
AcDbEntity
  8
0
100
AcDbLine
 10
770.6838246548633
 20
192.9145014228502
 30
0.0
 11
771.8081257553142
 21
192.3869624899417
 31
0.0
  0
SPLINE
  5
817
330
2
100
AcDbEntity
  8
0
100
AcDbSpline
210
0.0
220
0.0
230
1.0
 70
     8
 71
     3
 72
    16
 73
    12
 74
     0
 42
0.0000000001
 43
0.0000000001
 40
0.0
 40
0.0
 40
0.0
 40
0.0
 40
0.068271439039087
 40
0.068271439039087
 40
0.1365428780781739
 40
0.1365428780781739
 40
0.2048143171172609
 40
0.2048143171172609
 40
0.3413571951954348
 40
0.3413571951954348
 40
0.3656853215271653
 40
0.3656853215271653
 40
0.3656853215271653
 40
0.3656853215271653
 10
771.7476565999934
 20
194.3929951470998
 30
0.0
 10
771.7577865475695
 20
194.383754627744
 30
0.0
 10
771.7620354882885
 20
194.3631365843173
 30
0.0
 10
771.7574706798277
 20
194.3241753733511
 30
0.0
 10
771.7505585759584
 20
194.3025650342796
 30
0.0
 10
771.737572792017
 20
194.2613396296519
 30
0.0
 10
771.7304237061929
 20
194.2412175243135
 30
0.0
 10
771.7068797257781
 20
194.1815233455099
 30
0.0
 10
771.6881589327194
 20
194.1423679072372
 30
0.0
 10
771.6647536379164
 20
194.0967751981326
 30
0.0
 10
771.6611788673143
 20
194.0898961172475
 30
0.0
 10
771.6575801682579
 20
194.0830324068838
 30
0.0
  0
SPLINE
  5
818
330
2
100
AcDbEntity
  8
0
100
AcDbSpline
210
0.0
220
0.0
230
1.0
 70
     8
 71
     3
 72
    16
 73
    12
 74
     0
 42
0.0000000001
 43
0.0000000001
 40
0.0
 40
0.0
 40
0.0
 40
0.0
 40
0.062602226540079
 40
0.062602226540079
 40
0.1252044530801579
 40
0.1252044530801579
 40
0.1878066796202368
 40
0.1878066796202368
 40
0.3247692506015984
 40
0.3247692506015984
 40
0.3656853215271653
 40
0.3656853215271653
 40
0.3656853215271653
 40
0.3656853215271653
 10
771.7670657464767
 20
194.4142724832301
 30
0.0
 10
771.7880880957022
 20
194.3950959353281
 30
0.0
 10
771.790390960515
 20
194.3705135649045
 30
0.0
 10
771.787474679313
 20
194.3230077565543
 30
0.0
 10
771.7808943622508
 20
194.303273742361
 30
0.0
 10
771.7687270319948
 20
194.2641872266099
 30
0.0
 10
771.7623760420137
 20
194.2450712858219
 30
0.0
 10
771.7397584298631
 20
194.184698062525
 30
0.0
 10
771.7211054492695
 20
194.1443347760914
 30
0.0
 10
771.6952506772927
 20
194.0930322751411
 30
0.0
 10
771.6891941437552
 20
194.0813072475232
 30
0.0
 10
771.6830868872316
 20
194.0696590270864
 30
0.0
  0
SPLINE
  5
819
330
2
100
AcDbEntity
  8
0
100
AcDbSpline
210
0.0
220
0.0
230
1.0
 70
     8
 71
     3
 72
    10
 73
     6
 74
     0
 42
0.0000000001
 43
0.0000000001
 40
0.2411329027578508
 40
0.2411329027578508
 40
0.2411329027578508
 40
0.2411329027578508
 40
0.2726328170966257
 40
0.2726328170966257
 40
0.2818955530933262
 40
0.2818955530933262
 40
0.2818955530933262
 40
0.2818955530933262
 10
771.7162250017404
 20
194.422690084207
 30
0.0
 10
771.7283476564529
 20
194.4259524671075
 30
0.0
 10
771.7413489547046
 20
194.4279448757208
 30
0.0
 10
771.7596533986407
 20
194.4199544449
 30
0.0
 10
771.7636721307069
 20
194.4173681332281
 30
0.0
 10
771.7670657464767
 20
194.4142724832301
 30
0.0
  0
SPLINE
  5
81A
330
2
100
AcDbEntity
  8
0
100
AcDbSpline
210
0.0
220
0.0
230
1.0
 70
     8
 71
     3
 72
    22
 73
    18
 74
     0
 42
0.0000000001
 43
0.0000000001
 40
0.0
 40
0.0
 40
0.0
 40
0.0
 40
0.052915054816513
 40
0.052915054816513
 40
0.105830109633026
 40
0.105830109633026
 40
0.2048994418961127
 40
0.2048994418961127
 40
0.3039687741591994
 40
0.3039687741591994
 40
0.5906882738913822
 40
0.5906882738913822
 40
0.8774077736235648
 40
0.8774077736235648
 40
1.450846773087928
 40
1.450846773087928
 40
1.617681132486946
 40
1.617681132486946
 40
1.617681132486946
 40
1.617681132486946
 10
770.6778155445666
 20
192.9469992542264
 30
0.0
 10
770.6842622544682
 20
192.9411185774381
 30
0.0
 10
770.6965969035252
 20
192.9420149133343
 30
0.0
 10
770.7286508998245
 20
192.9533994873404
 30
0.0
 10
770.74348813827
 20
192.9607245477653
 30
0.0
 10
770.782969211999
 20
192.9839606909038
 30
0.0
 10
770.8074834613429
 20
193.002452970115
 30
0.0
 10
770.8564482291583
 20
193.0417469993888
 30
0.0
 10
770.8803732051777
 20
193.0627198065381
 30
0.0
 10
770.9705060995924
 20
193.145978398939
 30
0.0
 10
771.0327913544562
 20
193.2125251465663
 30
0.0
 10
771.1537813377057
 20
193.3497434395025
 30
0.0
 10
771.2118239787801
 20
193.4204466017038
 30
0.0
 10
771.3802368078882
 20
193.637163119925
 30
0.0
 10
771.4854030529407
 20
193.7874143254973
 30
0.0
 10
771.6066743540002
 20
193.9898374517083
 30
0.0
 10
771.6329417156543
 20
194.0360400912618
 30
0.0
 10
771.657580168267
 20
194.0830324069016
 30
0.0
  0
SPLINE
  5
81B
330
2
100
AcDbEntity
  8
0
100
AcDbSpline
210
0.0
220
0.0
230
1.0
 70
     8
 71
     3
 72
    24
 73
    20
 74
     0
 42
0.0000000001
 43
0.0000000001
 40
0.0
 40
0.0
 40
0.0
 40
0.0
 40
0.0336660361682034
 40
0.0336660361682034
 40
0.0673320723364068
 40
0.0673320723364068
 40
0.1310519666916519
 40
0.1310519666916519
 40
0.194771861046897
 40
0.194771861046897
 40
0.3222116497573872
 40
0.3222116497573872
 40
0.5763441207315349
 40
0.5763441207315349
 40
1.084609062679827
 40
1.084609062679827
 40
1.59287400462812
 40
1.59287400462812
 40
1.617681132486946
 40
1.617681132486946
 40
1.617681132486946
 40
1.617681132486946
 10
770.6584063980931
 20
192.9257219180877
 30
0.0
 10
770.6717902450876
 20
192.9135131977385
 30
0.0
 10
770.6882466222566
 20
192.9131197059828
 30
0.0
 10
770.7136364883012
 20
192.9168957932772
 30
0.0
 10
770.725734567743
 20
192.9215444864244
 30
0.0
 10
770.7574381085809
 20
192.9349742627214
 30
0.0
 10
770.7754243820427
 20
192.9456107602179
 30
0.0
 10
770.8097566146919
 20
192.968381921853
 30
0.0
 10
770.8262030024118
 20
192.9807700487931
 30
0.0
 10
770.8745735041023
 20
193.0190458718216
 30
0.0
 10
770.906034008585
 20
193.046818695672
 30
0.0
 10
770.9957025964114
 20
193.1311680841046
 30
0.0
 10
771.0515932143898
 20
193.1907125439528
 30
0.0
 10
771.2140231369976
 20
193.3737933369107
 30
0.0
 10
771.3150437331721
 20
193.5021802593502
 30
0.0
 10
771.5051522541807
 20
193.7674603693629
 30
0.0
 10
771.5944604008694
 20
193.9043651082832
 30
0.0
 10
771.6756340087222
 20
194.0555315465343
 30
0.0
 10
771.6793781120503
 20
194.0625853712574
 30
0.0
 10
771.683086887222
 20
194.0696590270684
 30
0.0
  0
SPLINE
  5
81C
330
2
100
AcDbEntity
  8
0
100
AcDbSpline
210
0.0
220
0.0
230
1.0
 70
     8
 71
     3
 72
     8
 73
     4
 74
     0
 42
0.0000000001
 43
0.0000000001
 40
0.2305708090866159
 40
0.2305708090866159
 40
0.2305708090866159
 40
0.2305708090866159
 40
0.2817094252584755
 40
0.2817094252584755
 40
0.2817094252584755
 40
0.2817094252584755
 10
770.6375053509973
 20
192.9821454521253
 30
0.0
 10
770.637637933158
 20
192.9621375144817
 30
0.0
 10
770.6408616211787
 20
192.942643194163
 30
0.0
 10
770.6588823332761
 20
192.9262047340975
 30
0.0
  0
SPLINE
  5
81D
330
2
100
AcDbEntity
  8
0
100
AcDbSpline
210
0.0
220
0.0
230
1.0
 70
     8
 71
     3
 72
     8
 73
     4
 74
     0
 42
0.0000000001
 43
0.0000000001
 40
0.2305708090866159
 40
0.2305708090866159
 40
0.2305708090866159
 40
0.2305708090866159
 40
0.2817094252584755
 40
0.2817094252584755
 40
0.2817094252584755
 40
0.2817094252584755
 10
770.6663047187106
 20
192.9823362905052
 30
0.0
 10
770.6663966110421
 20
192.9684688438895
 30
0.0
 10
770.6709265012764
 20
192.9542003899043
 30
0.0
 10
770.6782914797421
 20
192.947482070243
 30
0.0
  0
LINE
  5
81E
330
2
100
AcDbEntity
  8
0
100
AcDbLine
 10
771.6962817862413
 20
194.0951419138698
 30
0.0
 11
771.6533116610733
 21
194.1270515065537
 31
0.0
  0
LINE
  5
81F
330
2
100
AcDbEntity
  8
0
100
AcDbLine
 10
770.9450557080795
 20
193.083579073404
 30
0.0
 11
770.9014253249711
 21
193.1159789732543
 31
0.0
  0
MTEXT
  5
820
330
2
100
AcDbEntity
  8
图框
100
AcDbMText
 10
774.0302827985426
 20
228.9962168772839
 30
0.0
 40
0.6000023545570477
 41
3.90966124635945
 46
1.352222186816528
 71
     5
 72
     5
  1
{\C4;0.68}
  7
Romans字体
 73
     1
 44
1.0
1001
ACAD
1000
ACAD_MTEXT_DEFINED_HEIGHT_BEGIN
1070
    46
1040
1.352222186816528
1000
ACAD_MTEXT_DEFINED_HEIGHT_END
  0
MTEXT
  5
821
330
2
100
AcDbEntity
  8
图框
100
AcDbMText
 10
774.0302827985426
 20
227.6439946904673
 30
0.0
 40
0.6000023545570477
 41
3.90966124635945
 46
1.352222186816528
 71
     5
 72
     5
  1
{\C4;0.66}
  7
Romans字体
 73
     1
 44
1.0
1001
ACAD
1000
ACAD_MTEXT_DEFINED_HEIGHT_BEGIN
1070
    46
1040
1.352222186816528
1000
ACAD_MTEXT_DEFINED_HEIGHT_END
  0
MTEXT
  5
822
330
2
100
AcDbEntity
  8
图框
100
AcDbMText
 10
774.0302827985426
 20
226.2917725036522
 30
0.0
 40
0.6000023545570477
 41
3.90966124635945
 46
1.352222186816528
 71
     5
 72
     5
  1
{\C4;0.64}
  7
Romans字体
 73
     1
 44
1.0
1001
ACAD
1000
ACAD_MTEXT_DEFINED_HEIGHT_BEGIN
1070
    46
1040
1.352222186816528
1000
ACAD_MTEXT_DEFINED_HEIGHT_END
  0
MTEXT
  5
823
330
2
100
AcDbEntity
  8
图框
100
AcDbMText
 10
774.0302827985426
 20
224.939550316837
 30
0.0
 40
0.6000023545570477
 41
3.90966124635945
 46
1.352222186816528
 71
     5
 72
     5
  1
{\C4;0.62}
  7
Romans字体
 73
     1
 44
1.0
1001
ACAD
1000
ACAD_MTEXT_DEFINED_HEIGHT_BEGIN
1070
    46
1040
1.352222186816528
1000
ACAD_MTEXT_DEFINED_HEIGHT_END
  0
MTEXT
  5
824
330
2
100
AcDbEntity
  8
图框
100
AcDbMText
 10
774.0302827985426
 20
223.5873281300218
 30
0.0
 40
0.6000023545570477
 41
3.90966124635945
 46
1.352222186816528
 71
     5
 72
     5
  1
{\C4;0.62}
  7
Romans字体
 73
     1
 44
1.0
1001
ACAD
1000
ACAD_MTEXT_DEFINED_HEIGHT_BEGIN
1070
    46
1040
1.352222186816528
1000
ACAD_MTEXT_DEFINED_HEIGHT_END
  0
MTEXT
  5
825
330
2
100
AcDbEntity
  8
图框
100
AcDbMText
 10
790.6248247063751
 20
228.9933622178518
 30
0.0
 40
0.6000023545570477
 41
5.828702745953752
 46
1.35222218681682
 71
     5
 72
     5
  1
{\C4;8}
  7
Romans字体
 73
     1
 44
1.0
1001
ACAD
1000
ACAD_MTEXT_DEFINED_HEIGHT_BEGIN
1070
    46
1040
1.35222218681682
1000
ACAD_MTEXT_DEFINED_HEIGHT_END
  0
MTEXT
  5
826
330
2
100
AcDbEntity
  8
图框
100
AcDbMText
 10
790.6248230242701
 20
227.6411500345353
 30
0.0
 40
0.6000023545570477
 41
5.828702745953752
 46
1.35222218681682
 71
     5
 72
     5
  1
{\C4;8}
  7
Romans字体
 73
     1
 44
1.0
1001
ACAD
1000
ACAD_MTEXT_DEFINED_HEIGHT_BEGIN
1070
    46
1040
1.35222218681682
1000
ACAD_MTEXT_DEFINED_HEIGHT_END
  0
MTEXT
  5
827
330
2
100
AcDbEntity
  8
图框
100
AcDbMText
 10
790.6248213386142
 20
226.2860832134964
 30
0.0
 40
0.6000023545570477
 41
5.828702745953752
 46
1.35222218681682
 71
     5
 72
     5
  1
{\C4;8}
  7
Romans字体
 73
     1
 44
1.0
1001
ACAD
1000
ACAD_MTEXT_DEFINED_HEIGHT_BEGIN
1070
    46
1040
1.35222218681682
1000
ACAD_MTEXT_DEFINED_HEIGHT_END
  0
MTEXT
  5
828
330
2
100
AcDbEntity
  8
图框
100
AcDbMText
 10
790.6248280596367
 20
224.9308562495208
 30
0.0
 40
0.6000023545570477
 41
5.828702745953752
 46
1.35222218681682
 71
     5
 72
     5
  1
{\C4;8}
  7
Romans字体
 73
     1
 44
1.0
1001
ACAD
1000
ACAD_MTEXT_DEFINED_HEIGHT_BEGIN
1070
    46
1040
1.35222218681682
1000
ACAD_MTEXT_DEFINED_HEIGHT_END
  0
MTEXT
  5
829
330
2
100
AcDbEntity
  8
图框
100
AcDbMText
 10
790.624817970654
 20
223.5786440662419
 30
0.0
 40
0.6000023545570477
 41
5.828702745953752
 46
1.35222218681682
 71
     5
 72
     5
  1
{\C4;8}
  7
Romans字体
 73
     1
 44
1.0
1001
ACAD
1000
ACAD_MTEXT_DEFINED_HEIGHT_BEGIN
1070
    46
1040
1.35222218681682
1000
ACAD_MTEXT_DEFINED_HEIGHT_END
  0
MTEXT
  5
82A
330
2
100
AcDbEntity
  8
图框
 62
     3
100
AcDbMText
 10
829.7557967894848
 20
190.7804244233604
 30
0.0
 40
0.746378394635083
 41
8.403098007973925
 46
2.218038889596384
 71
     5
 72
     5
  1
{\C4;1010172100401}
  7
Romans字体
 73
     1
 44
1.0
1001
ACAD
1000
ACAD_MTEXT_DEFINED_HEIGHT_BEGIN
1070
    46
1040
2.218038889596384
1000
ACAD_MTEXT_DEFINED_HEIGHT_END
  0
INSERT
  5
82B
330
2
100
AcDbEntity
  8
DIM
100
AcDbBlockReference
  2
A4图框-NEW
 10
552.2252198100153
 20
63.49308002935436
 30
0.0
 41
0.25
 42
0.25
 43
0.25
  0
MTEXT
  5
82C
330
2
100
AcDbEntity
  8
图框
 62
     3
100
AcDbMText
 10
818.1478865695671
 20
187.3619238634659
 30
0.0
 40
0.746378394635083
 41
2.707336787601192
 46
1.971523801091308
 71
     5
 72
     5
  1
0.66g
  7
Romans字体
 73
     1
 44
1.0
1001
ACAD
1000
ACAD_MTEXT_DEFINED_HEIGHT_BEGIN
1070
    46
1040
1.971523801091308
1000
ACAD_MTEXT_DEFINED_HEIGHT_END
  0
MTEXT
  5
82D
330
2
100
AcDbEntity
  8
图框
 62
     3
100
AcDbMText
 10
812.7423802309071
 20
187.4535155041882
 30
0.0
 40
0.7463783937585367
 41
2.707337108597616
 46
1.971523650302624
 71
     5
 72
     5
  1
4:1
  7
Romans字体
 73
     1
 44
1.0
1001
ACAD
1000
ACAD_MTEXT_DEFINED_HEIGHT_BEGIN
1070
    46
1040
1.971523650302624
1000
ACAD_MTEXT_DEFINED_HEIGHT_END
  0
MTEXT
  5
82E
330
2
100
AcDbEntity
  8
图框
 62
     3
100
AcDbMText
 10
829.7557964635533
 20
192.9752869055811
 30
0.0
 40
0.7463783937585367
 41
8.403097998105339
 46
2.171686376421464
 71
     5
 72
     5
  1
CDGM-0.50
  7
Romans字体
 73
     1
 44
1.0
1001
ACAD
1000
ACAD_MTEXT_DEFINED_HEIGHT_BEGIN
1070
    46
1040
2.171686376421464
1000
ACAD_MTEXT_DEFINED_HEIGHT_END
  0
DIMENSION
  5
82F
330
2
100
AcDbEntity
  8
DIM
 62
     1
100
AcDbDimension
  2
*D6
 10
803.9258677190201
 20
212.1952425052249
 30
0.0
 11
791.4330473961
 21
212.995242505225
 31
0.0
 70
    32
 71
     5
 42
24.98564064584002
 73
     0
 74
     0
 75
     0
  3
01
100
AcDbAlignedDimension
 13
778.9402270731799
 23
206.9407643737053
 33
0.0
 14
803.9258677190201
 24
205.3407643733052
 34
0.0
100
AcDbRotatedDimension
1001
ACAD
1000
DSTYLE
1002
{
1070
    41
1040
1.0
1070
    44
1040
0.2
1070
   140
1040
1.199999999999999
1070
   147
1040
0.2
1002
}
  0
ENDSEC
  0
SECTION
  2
OBJECTS
  0
DICTIONARY
  5
B
330
0
100
AcDbDictionary
281
     1
  3
ACAD_COLOR
350
244
  3
ACAD_GROUP
350
231
  3
ACAD_LAYOUT
350
212
  3
ACAD_MATERIAL
350
D
  3
ACAD_MLEADERSTYLE
350
2A7
  3
ACAD_MLINESTYLE
350
232
  3
ACAD_PLOTSETTINGS
350
233
  3
ACAD_PLOTSTYLENAME
350
A
  3
ACAD_SCALELIST
350
245
  3
ACAD_TABLESTYLE
350
246
  3
ACAD_VISUALSTYLE
350
22B
  3
ACDB_RECOMPOSE_DATA
350
297
  3
AcDbVariableDictionary
350
26E
  0
DICTIONARY
  5
22C
330
228
100
AcDbDictionary
280
     1
281
     1
  0
DICTIONARY
  5
21D
330
21C
100
AcDbDictionary
280
     1
281
     1
  3
ACAD_LAYERFILTERS
360
9FC
  3
ACAD_LAYERSTATES
360
21F
  3
ACLYDICTIONARY
360
9FB
  0
DICTIONARY
  5
7
330
6
100
AcDbDictionary
280
     1
281
     1
  3
ADSK_XREC_LAYER_RECONCILED
360
8
  0
DICTIONARY
  5
18
330
17
100
AcDbDictionary
280
     1
281
     1
  3
ADSK_XREC_LAYER_RECONCILED
360
19
  0
DICTIONARY
  5
26
330
25
100
AcDbDictionary
280
     1
281
     1
  3
ADSK_XREC_LAYER_RECONCILED
360
27
  0
DICTIONARY
  5
3
330
2
100
AcDbDictionary
280
     1
281
     1
  3
ACAD_SORTENTS
360
26D
  0
DICTIONARY
  5
B3B
330
2B8
100
AcDbDictionary
280
     1
281
     1
  0
DICTIONARY
  5
B44
330
AA6
100
AcDbDictionary
280
     1
281
     1
  3
ACAD_MTEXT_2008_RT
360
B45
  0
DICTIONARY
  5
B46
330
AEA
100
AcDbDictionary
280
     1
281
     1
  3
ACAD_MTEXT_2008_RT
360
B47
  0
DICTIONARY
  5
B48
330
AEB
100
AcDbDictionary
280
     1
281
     1
  3
ACAD_MTEXT_2008_RT
360
B49
  0
DICTIONARY
  5
B4A
330
B10
100
AcDbDictionary
280
     1
281
     1
  3
ACAD_MTEXT_2008_RT
360
B4B
  0
DICTIONARY
  5
B4C
330
B13
100
AcDbDictionary
280
     1
281
     1
  3
ACAD_MTEXT_2008_RT
360
B4D
  0
DICTIONARY
  5
B4E
330
B14
100
AcDbDictionary
280
     1
281
     1
  3
ACAD_MTEXT_2008_RT
360
B4F
  0
DICTIONARY
  5
B50
330
B1E
100
AcDbDictionary
280
     1
281
     1
  3
ACAD_MTEXT_2008_RT
360
B51
  0
DICTIONARY
  5
B52
330
B1F
100
AcDbDictionary
280
     1
281
     1
  3
ACAD_MTEXT_2008_RT
360
B53
  0
DICTIONARY
  5
B54
330
B20
100
AcDbDictionary
280
     1
281
     1
  3
ACAD_MTEXT_2008_RT
360
B55
  0
DICTIONARY
  5
B56
330
B2E
100
AcDbDictionary
280
     1
281
     1
  3
ACAD_MTEXT_2008_RT
360
B57
  0
DICTIONARY
  5
B58
330
B2F
100
AcDbDictionary
280
     1
281
     1
  3
ACAD_MTEXT_2008_RT
360
B59
  0
DICTIONARY
  5
B5A
330
B30
100
AcDbDictionary
280
     1
281
     1
  3
ACAD_MTEXT_2008_RT
360
B5B
  0
DICTIONARY
  5
B42
330
759
100
AcDbDictionary
280
     1
281
     1
  3
ACAD_MTEXT_2008_RT
360
B43
  0
DICTIONARY
  5
7CF
330
7CE
100
AcDbDictionary
280
     1
281
     1
  3
ACAD_DIMASSOC
360
7D0
  0
DICTIONARY
  5
244
102
{ACAD_REACTORS
330
B
102
}
330
B
100
AcDbDictionary
281
     1
  0
DICTIONARY
  5
231
102
{ACAD_REACTORS
330
B
102
}
330
B
100
AcDbDictionary
281
     1
  0
DICTIONARY
  5
212
102
{ACAD_REACTORS
330
B
102
}
330
B
100
AcDbDictionary
281
     1
  3
Layout1
350
217
  3
Layout2
350
21B
  3
Model
350
211
  0
DICTIONARY
  5
D
102
{ACAD_REACTORS
330
B
102
}
330
B
100
AcDbDictionary
281
     1
  3
ByBlock
350
23C
  3
ByLayer
350
234
  3
Global
350
C
  0
DICTIONARY
  5
2A7
102
{ACAD_REACTORS
330
B
102
}
330
B
100
AcDbDictionary
281
     1
  3
Standard
350
2A8
  0
DICTIONARY
  5
232
102
{ACAD_REACTORS
330
B
102
}
330
B
100
AcDbDictionary
281
     1
  3
Standard
350
247
  0
DICTIONARY
  5
233
102
{ACAD_REACTORS
330
B
102
}
330
B
100
AcDbDictionary
281
     1
  0
ACDBDICTIONARYWDFLT
  5
A
102
{ACAD_REACTORS
330
B
102
}
330
B
100
AcDbDictionary
281
     1
  3
Normal
350
9
100
AcDbDictionaryWithDefault
340
9
  0
DICTIONARY
  5
245
102
{ACAD_REACTORS
330
B
102
}
330
B
100
AcDbDictionary
281
     1
  3
A0
350
24C
  3
A1
350
24D
  3
A2
350
24E
  3
A3
350
24F
  3
A4
350
250
  3
A5
350
251
  3
A6
350
252
  3
A7
350
253
  3
A8
350
254
  3
A9
350
255
  3
B0
350
256
  3
B1
350
257
  3
B2
350
258
  3
B3
350
259
  3
B4
350
25A
  3
B5
350
25B
  3
B6
350
25C
  3
B7
350
25D
  3
B8
350
25E
  3
B9
350
25F
  3
C0
350
260
  3
C1
350
261
  3
C2
350
262
  3
C3
350
263
  3
C4
350
264
  3
C5
350
265
  3
C6
350
266
  3
C7
350
267
  3
C8
350
268
  3
C9
350
269
  3
D0
350
26A
  3
D1
350
26B
  3
D2
350
26C
  0
DICTIONARY
  5
246
102
{ACAD_REACTORS
330
B
102
}
330
B
100
AcDbDictionary
281
     1
  3
Standard
350
248
  0
DICTIONARY
  5
22B
102
{ACAD_REACTORS
330
B
102
}
330
B
100
AcDbDictionary
281
     1
  3
2dWireframe
350
22A
  3
3D Hidden
350
29F
  3
3dWireframe
350
24B
  3
Basic
350
29E
  3
Brighten
350
2A2
  3
ColorChange
350
2A6
  3
Conceptual
350
2A0
  3
Dim
350
2A1
  3
Facepattern
350
2A5
  3
Flat
350
29A
  3
FlatWithEdges
350
29B
  3
Gouraud
350
29C
  3
GouraudWithEdges
350
29D
  3
Linepattern
350
2A4
  3
Realistic
350
24A
  3
Thicken
350
2A3
  0
XRECORD
  5
297
102
{ACAD_REACTORS
330
B
102
}
330
B
100
AcDbXrecord
280
     1
 90
        1
330
248
330
759
330
AA6
330
AEA
330
AEB
330
B10
330
B13
330
B14
330
B1E
330
B1F
330
B20
330
B2E
330
B2F
330
B30
  0
DICTIONARY
  5
26E
102
{ACAD_REACTORS
330
B
102
}
330
B
100
AcDbDictionary
281
     1
  3
CANNOSCALE
350
271
  3
CMLEADERSTYLE
350
270
  3
CTABLESTYLE
350
26F
  3
DIMASSOC
350
90E
  3
HIDETEXT
350
90D
  3
INDEXCTL
350
90C
  3
LIGHTINGUNITS
350
272
  3
MSLTSCALE
350
90A
  3
SORTENTS
350
90B
  0
DICTIONARY
  5
9FC
102
{ACAD_REACTORS
330
21D
102
}
330
21D
100
AcDbDictionary
281
     1
  0
DICTIONARY
  5
21F
102
{ACAD_REACTORS
330
21D
102
}
330
21D
100
AcDbDictionary
281
     1
  0
DICTIONARY
  5
9FB
102
{ACAD_REACTORS
330
21D
102
}
330
21D
100
AcDbDictionary
281
     1
1001
ACAD
1000
<All
  0
XRECORD
  5
8
102
{ACAD_REACTORS
330
7
102
}
330
7
100
AcDbXrecord
280
     1
290
     1
  0
XRECORD
  5
19
102
{ACAD_REACTORS
330
18
102
}
330
18
100
AcDbXrecord
280
     1
290
     1
  0
XRECORD
  5
27
102
{ACAD_REACTORS
330
26
102
}
330
26
100
AcDbXrecord
280
     1
290
     1
  0
SORTENTSTABLE
  5
26D
102
{ACAD_REACTORS
330
3
102
}
330
3
100
AcDbSortentsTable
330
2
  0
XRECORD
  5
B45
102
{ACAD_REACTORS
330
B44
102
}
330
B44
100
AcDbXrecord
280
     1
 40
1527.0
  1
\pxqc;BQ LUO
  0
XRECORD
  5
B47
102
{ACAD_REACTORS
330
B46
102
}
330
B46
100
AcDbXrecord
280
     1
 40
3624820.0
  1
\pxqc;档案员{\H0.7x;\P\Fromans|c134;Filing Clerk\fFangSong_GB2312|b0|i0|c134|p49; }
  0
XRECORD
  5
B49
102
{ACAD_REACTORS
330
B48
102
}
330
B48
100
AcDbXrecord
280
     1
 40
2054623.0
  1
\pxqc;日期{\Fromans|c134;/Date}
  0
XRECORD
  5
B4B
102
{ACAD_REACTORS
330
B4A
102
}
330
B4A
100
AcDbXrecord
280
     1
 40
1836818.0
  1
\pxsm0.7;{\fFangSong_GB2312|b0|i0|c134|p49;标准化}\PStand.
  0
XRECORD
  5
B4D
102
{ACAD_REACTORS
330
B4C
102
}
330
B4C
100
AcDbXrecord
280
     1
 40
1476476.0
  1
\pxsm0.7;签名\P{\Fromans|c134;Signature} 
  0
XRECORD
  5
B4F
102
{ACAD_REACTORS
330
B4E
102
}
330
B4E
100
AcDbXrecord
280
     1
 40
1354713.0
  1
\pxsm0.7,qc;处数\P{\Fromans|c134;Number }
  0
XRECORD
  5
B51
102
{ACAD_REACTORS
330
B50
102
}
330
B50
100
AcDbXrecord
280
     1
 40
1692934.0
  1
\pxsm0.7;标记\P{\Fromans|c134;Mark}
  0
XRECORD
  5
B53
102
{ACAD_REACTORS
330
B52
102
}
330
B52
100
AcDbXrecord
280
     1
 40
1391581.0
  1
\pxsm0.7;审核\P{\Fromans|c134;Checked}
  0
XRECORD
  5
B55
102
{ACAD_REACTORS
330
B54
102
}
330
B54
100
AcDbXrecord
280
     1
 40
1546703.0
  1
\pxsm0.7;绘图\P{\Fromans|c134;Drawn\Ftxt|c134; }
  0
XRECORD
  5
B57
102
{ACAD_REACTORS
330
B56
102
}
330
B56
100
AcDbXrecord
280
     1
 40
1293614.0
  1
\pxsm0.7;批准\P{\Fromans|c134;Approved}
  0
XRECORD
  5
B59
102
{ACAD_REACTORS
330
B58
102
}
330
B58
100
AcDbXrecord
280
     1
 40
1583427.0
  1
\pxsm0.7;工艺\P{\Fromans|c134;Process}
  0
XRECORD
  5
B5B
102
{ACAD_REACTORS
330
B5A
102
}
330
B5A
100
AcDbXrecord
280
     1
 40
1435325.0
  1
\pxsm0.7;日期\P{\Fromans|c134;Date}
  0
XRECORD
  5
B43
102
{ACAD_REACTORS
330
B42
102
}
330
B42
100
AcDbXrecord
280
     1
 40
321989588.0
  1
\A1;\pxql;{\f仿宋_GB2312|b0|i0|c134|p49;技术参数}:\P\pq*;- {\f仿宋_GB2312|b0|i0|c134|p49;材料}: {\f仿宋_GB2312|b0|i0|c134|p49;铜合金}\P- {\f仿宋_GB2312|b0|i0|c134|p49;表面处理}: {\f仿宋_GB2312|b0|i0|c134|p49;镀金}\P\pql;- {\f仿宋_GB2312|b0|i0|c134|p49;额定电流}: 10A\P- {\f仿宋_GB231
  1
2|b0|i0|c134|p49;接触电阻}: ≤3mΩ\P- {\f仿宋_GB2312|b0|i0|c134|p49;线径范围}: 0.5mm{\H0.7x;\S2^ ;}(20 AWG)\P\pq*;- {\f仿宋_GB2312|b0|i0|c134|p49;可插拔次数}: {\f仿宋_GB2312|b0|i0|c134|p49;≥}500\P\P\pql;Technical specification:\P- Material: copper alloy\P- Surface: hard-g
  1
old plated\P- Rated current: 10A\P- Contact resistance: ≤3mΩ\P- Wire gauge: 0.5mm{\H0.7x;\S2^ ;}(20 AWG)\P- Mating cycles: {\f仿宋_GB2312|b0|i0|c134|p49;≥}500
  0
DIMASSOC
  5
7D0
102
{ACAD_REACTORS
330
7CF
102
}
330
7CF
100
AcDbDimAssoc
330
7CE
 90
        2
 70
     0
 71
     0
  1
AcDbOsnapPointRef
 72
     1
331
7CA
 73
     2
 91
        0
 40
1.0
 10
0.0
 20
0.0
 30
2.000000000000000E+50
 75
     0
  0
LAYOUT
  5
217
102
{ACAD_REACTORS
330
212
102
}
330
212
100
AcDbPlotSettings
  1

  2
none_device
  4

  6

 40
0.0
 41
0.0
 42
0.0
 43
0.0
 44
0.0
 45
0.0
 46
0.0
 47
0.0
 48
0.0
 49
0.0
140
0.0
141
0.0
142
1.0
143
1.0
 70
   688
 72
     0
 73
     0
 74
     5
  7

 75
    16
147
1.0
 76
     0
 77
     2
 78
   300
148
0.0
149
0.0
100
AcDbLayout
  1
Layout1
 70
     1
 71
     1
 10
0.0
 20
0.0
 11
12.0
 21
9.0
 12
0.0
 22
0.0
 32
0.0
 14
1.000000000000000E+20
 24
1.000000000000000E+20
 34
1.000000000000000E+20
 15
-1.000000000000000E+20
 25
-1.000000000000000E+20
 35
-1.000000000000000E+20
146
0.0
 13
0.0
 23
0.0
 33
0.0
 16
1.0
 26
0.0
 36
0.0
 17
0.0
 27
1.0
 37
0.0
 76
     0
330
214
  0
LAYOUT
  5
21B
102
{ACAD_REACTORS
330
212
102
}
330
212
100
AcDbPlotSettings
  1

  2
none_device
  4

  6

 40
0.0
 41
0.0
 42
0.0
 43
0.0
 44
0.0
 45
0.0
 46
0.0
 47
0.0
 48
0.0
 49
0.0
140
0.0
141
0.0
142
1.0
143
1.0
 70
   688
 72
     0
 73
     0
 74
     5
  7

 75
    16
147
1.0
 76
     0
 77
     2
 78
   300
148
0.0
149
0.0
100
AcDbLayout
  1
Layout2
 70
     1
 71
     2
 10
0.0
 20
0.0
 11
0.0
 21
0.0
 12
0.0
 22
0.0
 32
0.0
 14
0.0
 24
0.0
 34
0.0
 15
0.0
 25
0.0
 35
0.0
146
0.0
 13
0.0
 23
0.0
 33
0.0
 16
1.0
 26
0.0
 36
0.0
 17
0.0
 27
1.0
 37
0.0
 76
     0
330
218
  0
LAYOUT
  5
211
102
{ACAD_REACTORS
330
212
102
}
330
212
100
AcDbPlotSettings
  1

  2
Adobe PDF Converter.pc3
  4
A4
  6

 40
3.174999952316281
 41
3.174999952316281
 42
3.17498779296875
 43
3.175003051757812
 44
297.0318298339844
 45
209.9733276367186
 46
0.0000000000000076
 47
1.630241740247063
 48
246.9897427644609
 49
39.36804549891383
140
544.952097801264
141
244.7492402188181
142
1.0
143
1.025046328645055
 70
  3764
 72
     1
 73
     0
 74
     4
  7
monochrome.ctb
 75
     0
147
0.9755656618192436
 76
     1
 77
     2
 78
   300
148
-246.9897427644609
149
-39.36804549891383
100
AcDbLayout
  1
Model
 70
     1
 71
     0
 10
0.0
 20
0.0
 11
12.0
 21
9.0
 12
0.0
 22
0.0
 32
0.0
 14
1.000000000000000E+20
 24
1.000000000000000E+20
 34
1.000000000000000E+20
 15
-1.000000000000000E+20
 25
-1.000000000000000E+20
 35
-1.000000000000000E+20
146
0.0
 13
0.0
 23
0.0
 33
0.0
 16
1.0
 26
0.0
 36
0.0
 17
0.0
 27
1.0
 37
0.0
 76
     0
330
2
331
229
1001
ACAD_PSEXT
1000
Adobe PDF Converter.pc3
1000
Adobe PDF Converter
1000
桌面\*.pdf
1000

1070
     0
  0
MATERIAL
  5
23C
102
{ACAD_XDICTIONARY
360
23D
102
}
102
{ACAD_REACTORS
330
D
102
}
330
D
100
AcDbMaterial
  1
ByBlock
 72
     0
 43
0.0208333333333333
 43
0.0
 43
0.0
 43
0.0
 43
0.0
 43
0.0208333333333333
 43
0.0
 43
0.0
 43
0.0
 43
0.0
 43
1.0
 43
0.0
 43
0.0
 43
0.0
 43
0.0
 43
1.0
 77
     0
 47
0.0208333333333333
 47
0.0
 47
0.0
 47
0.0
 47
0.0
 47
0.0208333333333333
 47
0.0
 47
0.0
 47
0.0
 47
0.0
 47
1.0
 47
0.0
 47
0.0
 47
0.0
 47
0.0
 47
1.0
171
     0
 49
0.0208333333333333
 49
0.0
 49
0.0
 49
0.0
 49
0.0
 49
0.0208333333333333
 49
0.0
 49
0.0
 49
0.0
 49
0.0
 49
1.0
 49
0.0
 49
0.0
 49
0.0
 49
0.0
 49
1.0
175
     0
142
0.0208333333333333
142
0.0
142
0.0
142
0.0
142
0.0
142
0.0208333333333333
142
0.0
142
0.0
142
0.0
142
0.0
142
1.0
142
0.0
142
0.0
142
0.0
142
0.0
142
1.0
179
     0
144
0.0208333333333333
144
0.0
144
0.0
144
0.0
144
0.0
144
0.0208333333333333
144
0.0
144
0.0
144
0.0
144
0.0
144
1.0
144
0.0
144
0.0
144
0.0
144
0.0
144
1.0
147
0.0208333333333333
147
0.0
147
0.0
147
0.0
147
0.0
147
0.0208333333333333
147
0.0
147
0.0
147
0.0
147
0.0
147
1.0
147
0.0
147
0.0
147
0.0
147
0.0
147
1.0
  0
MATERIAL
  5
234
102
{ACAD_XDICTIONARY
360
235
102
}
102
{ACAD_REACTORS
330
D
102
}
330
D
100
AcDbMaterial
  1
ByLayer
 72
     0
 43
0.0208333333333333
 43
0.0
 43
0.0
 43
0.0
 43
0.0
 43
0.0208333333333333
 43
0.0
 43
0.0
 43
0.0
 43
0.0
 43
1.0
 43
0.0
 43
0.0
 43
0.0
 43
0.0
 43
1.0
 77
     0
 47
0.0208333333333333
 47
0.0
 47
0.0
 47
0.0
 47
0.0
 47
0.0208333333333333
 47
0.0
 47
0.0
 47
0.0
 47
0.0
 47
1.0
 47
0.0
 47
0.0
 47
0.0
 47
0.0
 47
1.0
171
     0
 49
0.0208333333333333
 49
0.0
 49
0.0
 49
0.0
 49
0.0
 49
0.0208333333333333
 49
0.0
 49
0.0
 49
0.0
 49
0.0
 49
1.0
 49
0.0
 49
0.0
 49
0.0
 49
0.0
 49
1.0
175
     0
142
0.0208333333333333
142
0.0
142
0.0
142
0.0
142
0.0
142
0.0208333333333333
142
0.0
142
0.0
142
0.0
142
0.0
142
1.0
142
0.0
142
0.0
142
0.0
142
0.0
142
1.0
179
     0
144
0.0208333333333333
144
0.0
144
0.0
144
0.0
144
0.0
144
0.0208333333333333
144
0.0
144
0.0
144
0.0
144
0.0
144
1.0
144
0.0
144
0.0
144
0.0
144
0.0
144
1.0
147
0.0208333333333333
147
0.0
147
0.0
147
0.0
147
0.0
147
0.0208333333333333
147
0.0
147
0.0
147
0.0
147
0.0
147
1.0
147
0.0
147
0.0
147
0.0
147
0.0
147
1.0
  0
MATERIAL
  5
C
102
{ACAD_XDICTIONARY
360
E
102
}
102
{ACAD_REACTORS
330
D
102
}
330
D
100
AcDbMaterial
  1
Global
 72
     0
 43
0.0208333333333333
 43
0.0
 43
0.0
 43
0.0
 43
0.0
 43
0.0208333333333333
 43
0.0
 43
0.0
 43
0.0
 43
0.0
 43
1.0
 43
0.0
 43
0.0
 43
0.0
 43
0.0
 43
1.0
 77
     0
 47
0.0208333333333333
 47
0.0
 47
0.0
 47
0.0
 47
0.0
 47
0.0208333333333333
 47
0.0
 47
0.0
 47
0.0
 47
0.0
 47
1.0
 47
0.0
 47
0.0
 47
0.0
 47
0.0
 47
1.0
171
     0
 49
0.0208333333333333
 49
0.0
 49
0.0
 49
0.0
 49
0.0
 49
0.0208333333333333
 49
0.0
 49
0.0
 49
0.0
 49
0.0
 49
1.0
 49
0.0
 49
0.0
 49
0.0
 49
0.0
 49
1.0
175
     0
142
0.0208333333333333
142
0.0
142
0.0
142
0.0
142
0.0
142
0.0208333333333333
142
0.0
142
0.0
142
0.0
142
0.0
142
1.0
142
0.0
142
0.0
142
0.0
142
0.0
142
1.0
179
     0
144
0.0208333333333333
144
0.0
144
0.0
144
0.0
144
0.0
144
0.0208333333333333
144
0.0
144
0.0
144
0.0
144
0.0
144
1.0
144
0.0
144
0.0
144
0.0
144
0.0
144
1.0
147
0.0208333333333333
147
0.0
147
0.0
147
0.0
147
0.0
147
0.0208333333333333
147
0.0
147
0.0
147
0.0
147
0.0
147
1.0
147
0.0
147
0.0
147
0.0
147
0.0
147
1.0
  0
MLEADERSTYLE
  5
2A8
102
{ACAD_REACTORS
330
2A7
102
}
330
2A7
100
AcDbMLeaderStyle
170
     2
171
     1
172
     0
 90
        2
 40
0.0
 41
0.0
173
     1
 91
-1056964608
340
224
 92
       -2
290
     1
 42
0.09
291
     1
 43
0.36
  3
Standard
 44
0.18
300

342
40
174
     1
178
     6
175
     1
176
     0
 93
-1056964608
 45
0.18
292
     0
297
     0
 46
0.18
 94
-1056964608
 47
1.0
 49
1.0
140
1.0
293
     1
141
0.0
294
     1
177
     0
142
1.0
295
     0
296
     0
143
0.125
1001
ACAD_MLEADERVER
1070
     2
  0
MLINESTYLE
  5
247
102
{ACAD_REACTORS
330
232
102
}
330
232
100
AcDbMlineStyle
  2
STANDARD
 70
     0
  3

 62
   256
 51
90.0
 52
90.0
 71
     2
 49
0.5
 62
   256
  6
BYLAYER
 49
-0.5
 62
   256
  6
BYLAYER
  0
ACDBPLACEHOLDER
  5
9
102
{ACAD_REACTORS
330
A
102
}
330
A
  0
SCALE
  5
24C
102
{ACAD_REACTORS
330
245
102
}
330
245
100
AcDbScale
 70
     0
300
1:1
140
1.0
141
1.0
290
     1
  0
SCALE
  5
24D
102
{ACAD_REACTORS
330
245
102
}
330
245
100
AcDbScale
 70
     0
300
1:2
140
1.0
141
2.0
290
     0
  0
SCALE
  5
24E
102
{ACAD_REACTORS
330
245
102
}
330
245
100
AcDbScale
 70
     0
300
1:4
140
1.0
141
4.0
290
     0
  0
SCALE
  5
24F
102
{ACAD_REACTORS
330
245
102
}
330
245
100
AcDbScale
 70
     0
300
1:5
140
1.0
141
5.0
290
     0
  0
SCALE
  5
250
102
{ACAD_REACTORS
330
245
102
}
330
245
100
AcDbScale
 70
     0
300
1:8
140
1.0
141
8.0
290
     0
  0
SCALE
  5
251
102
{ACAD_REACTORS
330
245
102
}
330
245
100
AcDbScale
 70
     0
300
1:10
140
1.0
141
10.0
290
     0
  0
SCALE
  5
252
102
{ACAD_REACTORS
330
245
102
}
330
245
100
AcDbScale
 70
     0
300
1:16
140
1.0
141
16.0
290
     0
  0
SCALE
  5
253
102
{ACAD_REACTORS
330
245
102
}
330
245
100
AcDbScale
 70
     0
300
1:20
140
1.0
141
20.0
290
     0
  0
SCALE
  5
254
102
{ACAD_REACTORS
330
245
102
}
330
245
100
AcDbScale
 70
     0
300
1:30
140
1.0
141
30.0
290
     0
  0
SCALE
  5
255
102
{ACAD_REACTORS
330
245
102
}
330
245
100
AcDbScale
 70
     0
300
1:40
140
1.0
141
40.0
290
     0
  0
SCALE
  5
256
102
{ACAD_REACTORS
330
245
102
}
330
245
100
AcDbScale
 70
     0
300
1:50
140
1.0
141
50.0
290
     0
  0
SCALE
  5
257
102
{ACAD_REACTORS
330
245
102
}
330
245
100
AcDbScale
 70
     0
300
1:100
140
1.0
141
100.0
290
     0
  0
SCALE
  5
258
102
{ACAD_REACTORS
330
245
102
}
330
245
100
AcDbScale
 70
     0
300
2:1
140
2.0
141
1.0
290
     0
  0
SCALE
  5
259
102
{ACAD_REACTORS
330
245
102
}
330
245
100
AcDbScale
 70
     0
300
4:1
140
4.0
141
1.0
290
     0
  0
SCALE
  5
25A
102
{ACAD_REACTORS
330
245
102
}
330
245
100
AcDbScale
 70
     0
300
8:1
140
8.0
141
1.0
290
     0
  0
SCALE
  5
25B
102
{ACAD_REACTORS
330
245
102
}
330
245
100
AcDbScale
 70
     0
300
10:1
140
10.0
141
1.0
290
     0
  0
SCALE
  5
25C
102
{ACAD_REACTORS
330
245
102
}
330
245
100
AcDbScale
 70
     0
300
100:1
140
100.0
141
1.0
290
     0
  0
SCALE
  5
25D
102
{ACAD_REACTORS
330
245
102
}
330
245
100
AcDbScale
 70
     0
300
1/128" = 1'-0"
140
0.0078125
141
12.0
290
     0
  0
SCALE
  5
25E
102
{ACAD_REACTORS
330
245
102
}
330
245
100
AcDbScale
 70
     0
300
1/64" = 1'-0"
140
0.015625
141
12.0
290
     0
  0
SCALE
  5
25F
102
{ACAD_REACTORS
330
245
102
}
330
245
100
AcDbScale
 70
     0
300
1/32" = 1'-0"
140
0.03125
141
12.0
290
     0
  0
SCALE
  5
260
102
{ACAD_REACTORS
330
245
102
}
330
245
100
AcDbScale
 70
     0
300
1/16" = 1'-0"
140
0.0625
141
12.0
290
     0
  0
SCALE
  5
261
102
{ACAD_REACTORS
330
245
102
}
330
245
100
AcDbScale
 70
     0
300
3/32" = 1'-0"
140
0.09375
141
12.0
290
     0
  0
SCALE
  5
262
102
{ACAD_REACTORS
330
245
102
}
330
245
100
AcDbScale
 70
     0
300
1/8" = 1'-0"
140
0.125
141
12.0
290
     0
  0
SCALE
  5
263
102
{ACAD_REACTORS
330
245
102
}
330
245
100
AcDbScale
 70
     0
300
3/16" = 1'-0"
140
0.1875
141
12.0
290
     0
  0
SCALE
  5
264
102
{ACAD_REACTORS
330
245
102
}
330
245
100
AcDbScale
 70
     0
300
1/4" = 1'-0"
140
0.25
141
12.0
290
     0
  0
SCALE
  5
265
102
{ACAD_REACTORS
330
245
102
}
330
245
100
AcDbScale
 70
     0
300
3/8" = 1'-0"
140
0.375
141
12.0
290
     0
  0
SCALE
  5
266
102
{ACAD_REACTORS
330
245
102
}
330
245
100
AcDbScale
 70
     0
300
1/2" = 1'-0"
140
0.5
141
12.0
290
     0
  0
SCALE
  5
267
102
{ACAD_REACTORS
330
245
102
}
330
245
100
AcDbScale
 70
     0
300
3/4" = 1'-0"
140
0.75
141
12.0
290
     0
  0
SCALE
  5
268
102
{ACAD_REACTORS
330
245
102
}
330
245
100
AcDbScale
 70
     0
300
1" = 1'-0"
140
1.0
141
12.0
290
     0
  0
SCALE
  5
269
102
{ACAD_REACTORS
330
245
102
}
330
245
100
AcDbScale
 70
     0
300
1-1/2" = 1'-0"
140
1.5
141
12.0
290
     0
  0
SCALE
  5
26A
102
{ACAD_REACTORS
330
245
102
}
330
245
100
AcDbScale
 70
     0
300
3" = 1'-0"
140
3.0
141
12.0
290
     0
  0
SCALE
  5
26B
102
{ACAD_REACTORS
330
245
102
}
330
245
100
AcDbScale
 70
     0
300
6" = 1'-0"
140
6.0
141
12.0
290
     0
  0
SCALE
  5
26C
102
{ACAD_REACTORS
330
245
102
}
330
245
100
AcDbScale
 70
     0
300
1'-0" = 1'-0"
140
12.0
141
12.0
290
     0
  0
TABLESTYLE
  5
248
102
{ACAD_XDICTIONARY
360
249
102
}
102
{ACAD_REACTORS
330
246
102
}
330
246
100
AcDbTableStyle
  3
Standard
 70
     0
 71
     0
 40
0.06
 41
0.06
280
     0
281
     0
  7
Standard
140
0.18
170
     2
 62
     0
 63
     7
283
     0
 90
      512
 91
        0
  1

274
    -2
284
     1
 64
     0
275
    -2
285
     1
 65
     0
276
    -2
286
     1
 66
     0
277
    -2
287
     1
 67
     0
278
    -2
288
     1
 68
     0
279
    -2
289
     1
 69
     0
  7
Standard
140
0.25
170
     5
 62
     0
 63
     7
283
     0
 90
      512
 91
        0
  1

274
    -2
284
     1
 64
     0
275
    -2
285
     1
 65
     0
276
    -2
286
     1
 66
     0
277
    -2
287
     1
 67
     0
278
    -2
288
     1
 68
     0
279
    -2
289
     1
 69
     0
  7
Standard
140
0.18
170
     5
 62
     0
 63
     7
283
     0
 90
      512
 91
        0
  1

274
    -2
284
     1
 64
     0
275
    -2
285
     1
 65
     0
276
    -2
286
     1
 66
     0
277
    -2
287
     1
 67
     0
278
    -2
288
     1
 68
     0
279
    -2
289
     1
 69
     0
  0
VISUALSTYLE
  5
22A
102
{ACAD_REACTORS
330
22B
102
}
330
22B
100
AcDbVisualStyle
  2
2dWireframe
 70
     4
 71
     0
 72
     2
 73
     0
 90
        0
 40
-0.6
 41
-30.0
 62
     5
 63
     7
 74
     1
 91
        4
 64
     7
 65
   257
 75
     1
175
     1
 42
1.0
 92
        0
 66
   257
 43
1.0
 76
     1
 77
     6
 78
     2
 67
     7
 79
     5
170
     0
171
     0
290
     0
174
     0
 93
        1
 44
0.0
173
     0
291
     0
 45
0.0
1001
ACAD
1000
AcDbSavedByObjectVersion
1070
     0
1000
AcDbSavedByObjectVersion
1070
     0
1000
AcDbSavedByObjectVersion
1070
     0
1000
AcDbSavedByObjectVersion
1070
     0
1000
AcDbSavedByObjectVersion
1070
     0
1000
AcDbSavedByObjectVersion
1070
     0
1000
AcDbSavedByObjectVersion
1070
     0
1000
AcDbSavedByObjectVersion
1070
     0
1000
AcDbSavedByObjectVersion
1070
     0
1000
AcDbSavedByObjectVersion
1070
     0
1000
AcDbSavedByObjectVersion
1070
     0
1000
AcDbSavedByObjectVersion
1070
     0
1000
AcDbSavedByObjectVersion
1070
     0
1000
AcDbSavedByObjectVersion
1070
     0
1000
AcDbSavedByObjectVersion
1070
     0
1000
AcDbSavedByObjectVersion
1070
     0
1000
AcDbSavedByObjectVersion
1070
     0
1000
AcDbSavedByObjectVersion
1070
     0
1000
AcDbSavedByObjectVersion
1070
     0
1000
AcDbSavedByObjectVersion
1070
     0
1000
AcDbSavedByObjectVersion
1070
     0
1000
AcDbSavedByObjectVersion
1070
     0
1000
AcDbSavedByObjectVersion
1070
     0
1000
AcDbSavedByObjectVersion
1070
     0
1000
AcDbSavedByObjectVersion
1070
     0
1000
AcDbSavedByObjectVersion
1070
     0
1000
AcDbSavedByObjectVersion
1070
     0
1000
AcDbSavedByObjectVersion
1070
     0
1000
AcDbSavedByObjectVersion
1070
     0
1000
AcDbSavedByObjectVersion
1070
     0
1000
AcDbSavedByObjectVersion
1070
     0
1000
AcDbSavedByObjectVersion
1070
     0
1000
AcDbSavedByObjectVersion
1070
     0
1000
AcDbSavedByObjectVersion
1070
     0
  0
VISUALSTYLE
  5
29F
102
{ACAD_REACTORS
330
22B
102
}
330
22B
100
AcDbVisualStyle
  2
3D Hidden
 70
     6
 71
     1
 72
     2
 73
     2
 90
        0
 40
-0.6
 41
-30.0
 62
     5
 63
     7
 74
     2
 91
        2
 64
     7
 65
   257
 75
     2
175
     1
 42
40.0
 92
        0
 66
   257
 43
1.0
 76
     1
 77
     6
 78
     2
 67
     7
 79
     3
170
     0
171
     0
290
     0
174
     0
 93
        1
 44
0.0
173
     0
291
     0
 45
0.0
1001
ACAD
1000
AcDbSavedByObjectVersion
1070
     0
1000
AcDbSavedByObjectVersion
1070
     0
1000
AcDbSavedByObjectVersion
1070
     0
  0
VISUALSTYLE
  5
24B
102
{ACAD_REACTORS
330
22B
102
}
330
22B
100
AcDbVisualStyle
  2
3dWireframe
 70
     5
 71
     0
 72
     2
 73
     0
 90
        0
 40
-0.6
 41
-30.0
 62
     5
 63
     7
 74
     1
 91
        4
 64
     7
 65
   257
 75
     1
175
     1
 42
1.0
 92
        0
 66
   257
 43
1.0
 76
     1
 77
     6
 78
     2
 67
     7
 79
     5
170
     0
171
     0
290
     0
174
     0
 93
        1
 44
0.0
173
     0
291
     0
 45
0.0
1001
ACAD
1000
AcDbSavedByObjectVersion
1070
     0
1000
AcDbSavedByObjectVersion
1070
     0
1000
AcDbSavedByObjectVersion
1070
     0
1000
AcDbSavedByObjectVersion
1070
     0
1000
AcDbSavedByObjectVersion
1070
     0
1000
AcDbSavedByObjectVersion
1070
     0
1000
AcDbSavedByObjectVersion
1070
     0
1000
AcDbSavedByObjectVersion
1070
     0
1000
AcDbSavedByObjectVersion
1070
     0
1000
AcDbSavedByObjectVersion
1070
     0
1000
AcDbSavedByObjectVersion
1070
     0
1000
AcDbSavedByObjectVersion
1070
     0
1000
AcDbSavedByObjectVersion
1070
     0
1000
AcDbSavedByObjectVersion
1070
     0
1000
AcDbSavedByObjectVersion
1070
     0
1000
AcDbSavedByObjectVersion
1070
     0
1000
AcDbSavedByObjectVersion
1070
     0
1000
AcDbSavedByObjectVersion
1070
     0
1000
AcDbSavedByObjectVersion
1070
     0
1000
AcDbSavedByObjectVersion
1070
     0
1000
AcDbSavedByObjectVersion
1070
     0
1000
AcDbSavedByObjectVersion
1070
     0
1000
AcDbSavedByObjectVersion
1070
     0
1000
AcDbSavedByObjectVersion
1070
     0
1000
AcDbSavedByObjectVersion
1070
     0
1000
AcDbSavedByObjectVersion
1070
     0
1000
AcDbSavedByObjectVersion
1070
     0
1000
AcDbSavedByObjectVersion
1070
     0
1000
AcDbSavedByObjectVersion
1070
     0
1000
AcDbSavedByObjectVersion
1070
     0
1000
AcDbSavedByObjectVersion
1070
     0
1000
AcDbSavedByObjectVersion
1070
     0
1000
AcDbSavedByObjectVersion
1070
     0
1000
AcDbSavedByObjectVersion
1070
     0
  0
VISUALSTYLE
  5
29E
102
{ACAD_REACTORS
330
22B
102
}
330
22B
100
AcDbVisualStyle
  2
Basic
 70
     7
 71
     1
 72
     0
 73
     1
 90
        0
 40
-0.6
 41
-30.0
 62
     5
 63
     7
 74
     0
 91
        4
 64
     7
 65
   257
 75
     1
175
     1
 42
1.0
 92
        8
 66
     7
 43
1.0
 76
     1
 77
     6
 78
     2
 67
     7
 79
     5
170
     0
171
     0
290
     0
174
     0
 93
        1
 44
0.0
173
     0
291
     1
 45
0.0
1001
ACAD
1000
AcDbSavedByObjectVersion
1070
     0
1000
AcDbSavedByObjectVersion
1070
     0
1000
AcDbSavedByObjectVersion
1070
     0
  0
VISUALSTYLE
  5
2A2
102
{ACAD_REACTORS
330
22B
102
}
330
22B
100
AcDbVisualStyle
  2
Brighten
 70
    12
 71
     2
 72
     2
 73
     0
 90
        0
 40
-0.6
 41
-30.0
 62
     5
 63
     7
 74
     1
 91
        4
 64
     7
 65
   257
 75
     1
175
     1
 42
1.0
 92
        8
 66
     7
 43
1.0
 76
     1
 77
     6
 78
     2
 67
     7
 79
     5
170
     0
171
     0
290
     0
174
     0
 93
        1
 44
50.0
173
     0
291
     1
 45
0.0
1001
ACAD
1000
AcDbSavedByObjectVersion
1070
     0
1000
AcDbSavedByObjectVersion
1070
     0
1000
AcDbSavedByObjectVersion
1070
     0
  0
VISUALSTYLE
  5
2A6
102
{ACAD_REACTORS
330
22B
102
}
330
22B
100
AcDbVisualStyle
  2
ColorChange
 70
    16
 71
     2
 72
     2
 73
     3
 90
        0
 40
-0.6
 41
-30.0
 62
     5
 63
     8
 74
     1
 91
        4
 64
     7
 65
   257
 75
     1
175
     1
 42
1.0
 92
        8
 66
     8
 43
1.0
 76
     1
 77
     6
 78
     2
 67
     7
 79
     5
170
     0
171
     0
290
     0
174
     0
 93
        1
 44
0.0
173
     0
291
     1
 45
0.0
1001
ACAD
1000
AcDbSavedByObjectVersion
1070
     0
1000
AcDbSavedByObjectVersion
1070
     0
1000
AcDbSavedByObjectVersion
1070
     0
  0
VISUALSTYLE
  5
2A0
102
{ACAD_REACTORS
330
22B
102
}
330
22B
100
AcDbVisualStyle
  2
Conceptual
 70
     9
 71
     3
 72
     2
 73
     0
 90
        0
 40
-0.6
 41
-30.0
 62
     5
 63
     7
 74
     2
 91
        2
 64
     7
 65
   257
 75
     1
175
     1
 42
40.0
 92
        8
 66
     7
 43
1.0
 76
     1
 77
     6
 78
     2
 67
     7
 79
     3
170
     0
171
     0
290
     0
174
     0
 93
        1
 44
0.0
173
     0
291
     0
 45
0.0
1001
ACAD
1000
AcDbSavedByObjectVersion
1070
     0
1000
AcDbSavedByObjectVersion
1070
     0
1000
AcDbSavedByObjectVersion
1070
     0
  0
VISUALSTYLE
  5
2A1
102
{ACAD_REACTORS
330
22B
102
}
330
22B
100
AcDbVisualStyle
  2
Dim
 70
    11
 71
     2
 72
     2
 73
     0
 90
        0
 40
-0.6
 41
-30.0
 62
     5
 63
     7
 74
     1
 91
        4
 64
     7
 65
   257
 75
     1
175
     1
 42
1.0
 92
        8
 66
     7
 43
1.0
 76
     1
 77
     6
 78
     2
 67
     7
 79
     5
170
     0
171
     0
290
     0
174
     0
 93
        1
 44
-50.0
173
     0
291
     1
 45
0.0
1001
ACAD
1000
AcDbSavedByObjectVersion
1070
     0
1000
AcDbSavedByObjectVersion
1070
     0
1000
AcDbSavedByObjectVersion
1070
     0
  0
VISUALSTYLE
  5
2A5
102
{ACAD_REACTORS
330
22B
102
}
330
22B
100
AcDbVisualStyle
  2
Facepattern
 70
    15
 71
     2
 72
     2
 73
     0
 90
        0
 40
-0.6
 41
-30.0
 62
     5
 63
     7
 74
     1
 91
        4
 64
     7
 65
   257
 75
     1
175
     1
 42
1.0
 92
        8
 66
     7
 43
1.0
 76
     1
 77
     6
 78
     2
 67
     7
 79
     5
170
     0
171
     0
290
     0
174
     0
 93
        1
 44
0.0
173
     0
291
     1
 45
0.0
1001
ACAD
1000
AcDbSavedByObjectVersion
1070
     0
1000
AcDbSavedByObjectVersion
1070
     0
1000
AcDbSavedByObjectVersion
1070
     0
  0
VISUALSTYLE
  5
29A
102
{ACAD_REACTORS
330
22B
102
}
330
22B
100
AcDbVisualStyle
  2
Flat
 70
     0
 71
     2
 72
     1
 73
     1
 90
        2
 40
-0.6
 41
30.0
 62
     5
 63
     7
 74
     0
 91
        4
 64
     7
 65
   257
 75
     1
175
     1
 42
1.0
 92
        8
 66
     7
 43
1.0
 76
     1
 77
     6
 78
     2
 67
     7
 79
     5
170
     0
171
     0
290
     0
174
     0
 93
       13
 44
0.0
173
     0
291
     1
 45
0.0
1001
ACAD
1000
AcDbSavedByObjectVersion
1070
     0
1000
AcDbSavedByObjectVersion
1070
     0
1000
AcDbSavedByObjectVersion
1070
     0
  0
VISUALSTYLE
  5
29B
102
{ACAD_REACTORS
330
22B
102
}
330
22B
100
AcDbVisualStyle
  2
FlatWithEdges
 70
     1
 71
     2
 72
     1
 73
     1
 90
        2
 40
-0.6
 41
30.0
 62
     5
 63
     7
 74
     1
 91
        4
 64
     7
 65
   257
 75
     1
175
     1
 42
1.0
 92
        0
 66
   257
 43
1.0
 76
     1
 77
     6
 78
     2
 67
     7
 79
     5
170
     0
171
     0
290
     0
174
     0
 93
       13
 44
0.0
173
     0
291
     1
 45
0.0
1001
ACAD
1000
AcDbSavedByObjectVersion
1070
     0
1000
AcDbSavedByObjectVersion
1070
     0
1000
AcDbSavedByObjectVersion
1070
     0
  0
VISUALSTYLE
  5
29C
102
{ACAD_REACTORS
330
22B
102
}
330
22B
100
AcDbVisualStyle
  2
Gouraud
 70
     2
 71
     2
 72
     2
 73
     1
 90
        2
 40
-0.6
 41
30.0
 62
     5
 63
     7
 74
     0
 91
        4
 64
     7
 65
   257
 75
     1
175
     1
 42
1.0
 92
        0
 66
     7
 43
1.0
 76
     1
 77
     6
 78
     2
 67
     7
 79
     5
170
     0
171
     0
290
     0
174
     0
 93
       13
 44
0.0
173
     0
291
     1
 45
0.0
1001
ACAD
1000
AcDbSavedByObjectVersion
1070
     0
1000
AcDbSavedByObjectVersion
1070
     0
1000
AcDbSavedByObjectVersion
1070
     0
  0
VISUALSTYLE
  5
29D
102
{ACAD_REACTORS
330
22B
102
}
330
22B
100
AcDbVisualStyle
  2
GouraudWithEdges
 70
     3
 71
     2
 72
     2
 73
     1
 90
        2
 40
-0.6
 41
30.0
 62
     5
 63
     7
 74
     1
 91
        4
 64
     7
 65
   257
 75
     1
175
     1
 42
1.0
 92
        0
 66
   257
 43
1.0
 76
     1
 77
     6
 78
     2
 67
     7
 79
     5
170
     0
171
     0
290
     0
174
     0
 93
       13
 44
0.0
173
     0
291
     1
 45
0.0
1001
ACAD
1000
AcDbSavedByObjectVersion
1070
     0
1000
AcDbSavedByObjectVersion
1070
     0
1000
AcDbSavedByObjectVersion
1070
     0
  0
VISUALSTYLE
  5
2A4
102
{ACAD_REACTORS
330
22B
102
}
330
22B
100
AcDbVisualStyle
  2
Linepattern
 70
    14
 71
     2
 72
     2
 73
     0
 90
        0
 40
-0.6
 41
-30.0
 62
     5
 63
     7
 74
     1
 91
        4
 64
     7
 65
   257
 75
     7
175
     7
 42
1.0
 92
        8
 66
     7
 43
1.0
 76
     1
 77
     6
 78
     2
 67
     7
 79
     5
170
     0
171
     0
290
     0
174
     0
 93
        1
 44
0.0
173
     0
291
     1
 45
0.0
1001
ACAD
1000
AcDbSavedByObjectVersion
1070
     0
1000
AcDbSavedByObjectVersion
1070
     0
1000
AcDbSavedByObjectVersion
1070
     0
  0
VISUALSTYLE
  5
24A
102
{ACAD_REACTORS
330
22B
102
}
330
22B
100
AcDbVisualStyle
  2
Realistic
 70
     8
 71
     2
 72
     2
 73
     0
 90
        0
 40
-0.6
 41
-30.0
 62
     5
 63
     7
 74
     1
 91
        0
 64
     7
 65
   257
 75
     1
175
     1
 42
1.0
 92
        8
 66
     8
 43
1.0
 76
     1
 77
     6
 78
     2
 67
     7
 79
     5
170
     0
171
     0
290
     0
174
     0
 93
       13
 44
0.0
173
     0
291
     0
 45
0.0
1001
ACAD
1000
AcDbSavedByObjectVersion
1070
     0
1000
AcDbSavedByObjectVersion
1070
     0
1000
AcDbSavedByObjectVersion
1070
     0
1000
AcDbSavedByObjectVersion
1070
     0
1000
AcDbSavedByObjectVersion
1070
     0
1000
AcDbSavedByObjectVersion
1070
     0
1000
AcDbSavedByObjectVersion
1070
     0
1000
AcDbSavedByObjectVersion
1070
     0
1000
AcDbSavedByObjectVersion
1070
     0
1000
AcDbSavedByObjectVersion
1070
     0
1000
AcDbSavedByObjectVersion
1070
     0
1000
AcDbSavedByObjectVersion
1070
     0
1000
AcDbSavedByObjectVersion
1070
     0
1000
AcDbSavedByObjectVersion
1070
     0
1000
AcDbSavedByObjectVersion
1070
     0
1000
AcDbSavedByObjectVersion
1070
     0
1000
AcDbSavedByObjectVersion
1070
     0
1000
AcDbSavedByObjectVersion
1070
     0
1000
AcDbSavedByObjectVersion
1070
     0
1000
AcDbSavedByObjectVersion
1070
     0
1000
AcDbSavedByObjectVersion
1070
     0
1000
AcDbSavedByObjectVersion
1070
     0
1000
AcDbSavedByObjectVersion
1070
     0
1000
AcDbSavedByObjectVersion
1070
     0
1000
AcDbSavedByObjectVersion
1070
     0
1000
AcDbSavedByObjectVersion
1070
     0
1000
AcDbSavedByObjectVersion
1070
     0
1000
AcDbSavedByObjectVersion
1070
     0
1000
AcDbSavedByObjectVersion
1070
     0
1000
AcDbSavedByObjectVersion
1070
     0
1000
AcDbSavedByObjectVersion
1070
     0
1000
AcDbSavedByObjectVersion
1070
     0
1000
AcDbSavedByObjectVersion
1070
     0
1000
AcDbSavedByObjectVersion
1070
     0
  0
VISUALSTYLE
  5
2A3
102
{ACAD_REACTORS
330
22B
102
}
330
22B
100
AcDbVisualStyle
  2
Thicken
 70
    13
 71
     2
 72
     2
 73
     0
 90
        0
 40
-0.6
 41
-30.0
 62
     5
 63
     7
 74
     1
 91
        4
 64
     7
 65
   257
 75
     1
175
     1
 42
1.0
 92
       12
 66
     7
 43
1.0
 76
     1
 77
     6
 78
     2
 67
     7
 79
     5
170
     0
171
     0
290
     0
174
     0
 93
        1
 44
0.0
173
     0
291
     1
 45
0.0
1001
ACAD
1000
AcDbSavedByObjectVersion
1070
     0
1000
AcDbSavedByObjectVersion
1070
     0
1000
AcDbSavedByObjectVersion
1070
     0
  0
DICTIONARYVAR
  5
271
102
{ACAD_REACTORS
330
26E
102
}
330
26E
100
DictionaryVariables
280
     0
  1
1:1
  0
DICTIONARYVAR
  5
270
102
{ACAD_REACTORS
330
26E
102
}
330
26E
100
DictionaryVariables
280
     0
  1
STANDARD
  0
DICTIONARYVAR
  5
26F
102
{ACAD_REACTORS
330
26E
102
}
330
26E
100
DictionaryVariables
280
     0
  1
STANDARD
  0
DICTIONARYVAR
  5
90E
102
{ACAD_REACTORS
330
26E
102
}
330
26E
100
DictionaryVariables
280
     0
  1
1
  0
DICTIONARYVAR
  5
90D
102
{ACAD_REACTORS
330
26E
102
}
330
26E
100
DictionaryVariables
280
     0
  1
1
  0
DICTIONARYVAR
  5
90C
102
{ACAD_REACTORS
330
26E
102
}
330
26E
100
DictionaryVariables
280
     0
  1
0
  0
DICTIONARYVAR
  5
272
102
{ACAD_REACTORS
330
26E
102
}
330
26E
100
DictionaryVariables
280
     0
  1
0
  0
DICTIONARYVAR
  5
90A
102
{ACAD_REACTORS
330
26E
102
}
330
26E
100
DictionaryVariables
280
     0
  1
1
  0
DICTIONARYVAR
  5
90B
102
{ACAD_REACTORS
330
26E
102
}
330
26E
100
DictionaryVariables
280
     0
  1
127
  0
DICTIONARY
  5
23D
330
23C
100
AcDbDictionary
280
     1
281
     1
  3
ACAD_XREC_ROUNDTRIP
360
935
  3
BUMPTILE
360
23E
  3
DIFFUSETILE
360
23F
  3
OPACITYTILE
360
240
  3
REFLECTIONTILE
360
241
  3
REFRACTIONTILE
360
242
  3
SPECULARTILE
360
243
  0
DICTIONARY
  5
235
330
234
100
AcDbDictionary
280
     1
281
     1
  3
ACAD_XREC_ROUNDTRIP
360
934
  3
BUMPTILE
360
236
  3
DIFFUSETILE
360
237
  3
OPACITYTILE
360
238
  3
REFLECTIONTILE
360
239
  3
REFRACTIONTILE
360
23A
  3
SPECULARTILE
360
23B
  0
DICTIONARY
  5
E
330
C
100
AcDbDictionary
280
     1
281
     1
  3
ACAD_XREC_ROUNDTRIP
360
92D
  3
BUMPTILE
360
F
  3
DIFFUSETILE
360
10
  3
OPACITYTILE
360
11
  3
REFLECTIONTILE
360
12
  3
REFRACTIONTILE
360
13
  3
SPECULARTILE
360
14
  0
DICTIONARY
  5
249
330
248
100
AcDbDictionary
280
     1
281
     1
  3
ACAD_ROUNDTRIP_2008_TABLESTYLE_CELLSTYLEMAP
360
B41
  0
XRECORD
  5
935
102
{ACAD_REACTORS
330
23D
102
}
330
23D
100
AcDbXrecord
280
     1
102
MATERIAL
148
0.0
149
0.0
149
0.0
 93
        0
 94
      127
282
     0
 72
     0
 77
     0
171
     0
175
     0
179
     0
273
     0
  0
XRECORD
  5
23E
102
{ACAD_REACTORS
330
23D
102
}
330
23D
100
AcDbXrecord
280
     1
270
     1
271
     1
  0
XRECORD
  5
23F
102
{ACAD_REACTORS
330
23D
102
}
330
23D
100
AcDbXrecord
280
     1
270
     1
271
     1
  0
XRECORD
  5
240
102
{ACAD_REACTORS
330
23D
102
}
330
23D
100
AcDbXrecord
280
     1
270
     1
271
     1
  0
XRECORD
  5
241
102
{ACAD_REACTORS
330
23D
102
}
330
23D
100
AcDbXrecord
280
     1
270
     1
271
     1
  0
XRECORD
  5
242
102
{ACAD_REACTORS
330
23D
102
}
330
23D
100
AcDbXrecord
280
     1
270
     1
271
     1
  0
XRECORD
  5
243
102
{ACAD_REACTORS
330
23D
102
}
330
23D
100
AcDbXrecord
280
     1
270
     1
271
     1
  0
XRECORD
  5
934
102
{ACAD_REACTORS
330
235
102
}
330
235
100
AcDbXrecord
280
     1
102
MATERIAL
148
0.0
149
0.0
149
0.0
 93
        0
 94
      127
282
     0
 72
     0
 77
     0
171
     0
175
     0
179
     0
273
     0
  0
XRECORD
  5
236
102
{ACAD_REACTORS
330
235
102
}
330
235
100
AcDbXrecord
280
     1
270
     1
271
     1
  0
XRECORD
  5
237
102
{ACAD_REACTORS
330
235
102
}
330
235
100
AcDbXrecord
280
     1
270
     1
271
     1
  0
XRECORD
  5
238
102
{ACAD_REACTORS
330
235
102
}
330
235
100
AcDbXrecord
280
     1
270
     1
271
     1
  0
XRECORD
  5
239
102
{ACAD_REACTORS
330
235
102
}
330
235
100
AcDbXrecord
280
     1
270
     1
271
     1
  0
XRECORD
  5
23A
102
{ACAD_REACTORS
330
235
102
}
330
235
100
AcDbXrecord
280
     1
270
     1
271
     1
  0
XRECORD
  5
23B
102
{ACAD_REACTORS
330
235
102
}
330
235
100
AcDbXrecord
280
     1
270
     1
271
     1
  0
XRECORD
  5
92D
102
{ACAD_REACTORS
330
E
102
}
330
E
100
AcDbXrecord
280
     1
102
MATERIAL
148
0.0
149
0.0
149
0.0
 93
        0
 94
      127
282
     0
 72
     0
 77
     0
171
     0
175
     0
179
     0
273
     0
  0
XRECORD
  5
F
102
{ACAD_REACTORS
330
E
102
}
330
E
100
AcDbXrecord
280
     1
270
     1
271
     1
  0
XRECORD
  5
10
102
{ACAD_REACTORS
330
E
102
}
330
E
100
AcDbXrecord
280
     1
270
     1
271
     1
  0
XRECORD
  5
11
102
{ACAD_REACTORS
330
E
102
}
330
E
100
AcDbXrecord
280
     1
270
     1
271
     1
  0
XRECORD
  5
12
102
{ACAD_REACTORS
330
E
102
}
330
E
100
AcDbXrecord
280
     1
270
     1
271
     1
  0
XRECORD
  5
13
102
{ACAD_REACTORS
330
E
102
}
330
E
100
AcDbXrecord
280
     1
270
     1
271
     1
  0
XRECORD
  5
14
102
{ACAD_REACTORS
330
E
102
}
330
E
100
AcDbXrecord
280
     1
270
     1
271
     1
  0
CELLSTYLEMAP
  5
B41
102
{ACAD_REACTORS
330
249
102
}
330
249
100
AcDbCellStyleMap
 90
        3
300
CELLSTYLE
  1
TABLEFORMAT_BEGIN
 90
        5
170
     1
 91
        0
 92
    32768
 62
   257
 93
        1
300
CONTENTFORMAT
  1
CONTENTFORMAT_BEGIN
 90
        0
 91
        0
 92
      512
 93
        0
300

 40
0.0
140
1.0
 94
        5
 62
     0
340
40
144
0.25
309
CONTENTFORMAT_END
171
     1
301
MARGIN
  1
CELLMARGIN_BEGIN
 40
0.06
 40
0.06
 40
0.06
 40
0.06
 40
0.18
 40
0.18
309
CELLMARGIN_END
 94
        6
 95
        1
302
GRIDFORMAT
  1
GRIDFORMAT_BEGIN
 90
        0
 91
        1
 62
     0
 92
       -2
340
0
 93
        0
 40
0.045
309
GRIDFORMAT_END
 95
        2
302
GRIDFORMAT
  1
GRIDFORMAT_BEGIN
 90
        0
 91
        1
 62
     0
 92
       -2
340
0
 93
        0
 40
0.045
309
GRIDFORMAT_END
 95
        4
302
GRIDFORMAT
  1
GRIDFORMAT_BEGIN
 90
        0
 91
        1
 62
     0
 92
       -2
340
0
 93
        0
 40
0.045
309
GRIDFORMAT_END
 95
        8
302
GRIDFORMAT
  1
GRIDFORMAT_BEGIN
 90
        0
 91
        1
 62
     0
 92
       -2
340
0
 93
        0
 40
0.045
309
GRIDFORMAT_END
 95
       16
302
GRIDFORMAT
  1
GRIDFORMAT_BEGIN
 90
        0
 91
        1
 62
     0
 92
       -2
340
0
 93
        0
 40
0.045
309
GRIDFORMAT_END
 95
       32
302
GRIDFORMAT
  1
GRIDFORMAT_BEGIN
 90
        0
 91
        1
 62
     0
 92
       -2
340
0
 93
        0
 40
0.045
309
GRIDFORMAT_END
309
TABLEFORMAT_END
  1
CELLSTYLE_BEGIN
 90
        1
 91
        1
300
_TITLE
309
CELLSTYLE_END
300
CELLSTYLE
  1
TABLEFORMAT_BEGIN
 90
        5
170
     1
 91
        0
 92
        0
 62
   257
 93
        1
300
CONTENTFORMAT
  1
CONTENTFORMAT_BEGIN
 90
        0
 91
        0
 92
      512
 93
        0
300

 40
0.0
140
1.0
 94
        5
 62
     0
340
40
144
0.18
309
CONTENTFORMAT_END
171
     1
301
MARGIN
  1
CELLMARGIN_BEGIN
 40
0.06
 40
0.06
 40
0.06
 40
0.06
 40
0.18
 40
0.18
309
CELLMARGIN_END
 94
        6
 95
        1
302
GRIDFORMAT
  1
GRIDFORMAT_BEGIN
 90
        0
 91
        1
 62
     0
 92
       -2
340
0
 93
        0
 40
0.045
309
GRIDFORMAT_END
 95
        2
302
GRIDFORMAT
  1
GRIDFORMAT_BEGIN
 90
        0
 91
        1
 62
     0
 92
       -2
340
0
 93
        0
 40
0.045
309
GRIDFORMAT_END
 95
        4
302
GRIDFORMAT
  1
GRIDFORMAT_BEGIN
 90
        0
 91
        1
 62
     0
 92
       -2
340
0
 93
        0
 40
0.045
309
GRIDFORMAT_END
 95
        8
302
GRIDFORMAT
  1
GRIDFORMAT_BEGIN
 90
        0
 91
        1
 62
     0
 92
       -2
340
0
 93
        0
 40
0.045
309
GRIDFORMAT_END
 95
       16
302
GRIDFORMAT
  1
GRIDFORMAT_BEGIN
 90
        0
 91
        1
 62
     0
 92
       -2
340
0
 93
        0
 40
0.045
309
GRIDFORMAT_END
 95
       32
302
GRIDFORMAT
  1
GRIDFORMAT_BEGIN
 90
        0
 91
        1
 62
     0
 92
       -2
340
0
 93
        0
 40
0.045
309
GRIDFORMAT_END
309
TABLEFORMAT_END
  1
CELLSTYLE_BEGIN
 90
        2
 91
        1
300
_HEADER
309
CELLSTYLE_END
300
CELLSTYLE
  1
TABLEFORMAT_BEGIN
 90
        5
170
     1
 91
        0
 92
        0
 62
   257
 93
        1
300
CONTENTFORMAT
  1
CONTENTFORMAT_BEGIN
 90
        0
 91
        0
 92
      512
 93
        0
300

 40
0.0
140
1.0
 94
        2
 62
     0
340
40
144
0.18
309
CONTENTFORMAT_END
171
     1
301
MARGIN
  1
CELLMARGIN_BEGIN
 40
0.06
 40
0.06
 40
0.06
 40
0.06
 40
0.18
 40
0.18
309
CELLMARGIN_END
 94
        6
 95
        1
302
GRIDFORMAT
  1
GRIDFORMAT_BEGIN
 90
        0
 91
        1
 62
     0
 92
       -2
340
0
 93
        0
 40
0.045
309
GRIDFORMAT_END
 95
        2
302
GRIDFORMAT
  1
GRIDFORMAT_BEGIN
 90
        0
 91
        1
 62
     0
 92
       -2
340
0
 93
        0
 40
0.045
309
GRIDFORMAT_END
 95
        4
302
GRIDFORMAT
  1
GRIDFORMAT_BEGIN
 90
        0
 91
        1
 62
     0
 92
       -2
340
0
 93
        0
 40
0.045
309
GRIDFORMAT_END
 95
        8
302
GRIDFORMAT
  1
GRIDFORMAT_BEGIN
 90
        0
 91
        1
 62
     0
 92
       -2
340
0
 93
        0
 40
0.045
309
GRIDFORMAT_END
 95
       16
302
GRIDFORMAT
  1
GRIDFORMAT_BEGIN
 90
        0
 91
        1
 62
     0
 92
       -2
340
0
 93
        0
 40
0.045
309
GRIDFORMAT_END
 95
       32
302
GRIDFORMAT
  1
GRIDFORMAT_BEGIN
 90
        0
 91
        1
 62
     0
 92
       -2
340
0
 93
        0
 40
0.045
309
GRIDFORMAT_END
309
TABLEFORMAT_END
  1
CELLSTYLE_BEGIN
 90
        3
 91
        2
300
_DATA
309
CELLSTYLE_END
  0
ENDSEC
  0
EOF
