  0
SECTION
  2
HEADER
  9
$ACADVER
  1
AC1021
  9
$ACADMAINTVER
 70
    25
  9
$DWGCODEPAGE
  3
ANSI_936
  9
$LASTSAVEDBY
  1
zb.ye
  9
$INSBASE
 10
0.0
 20
0.0
 30
0.0
  9
$EXTMIN
 10
362.2123901745703
 20
289.5705433766078
 30
-0.0000000000112498
  9
$EXTMAX
 10
510.7278086859677
 20
394.5777219342511
 30
0.0000000000002956
  9
$LIMMIN
 10
0.0
 20
0.0
  9
$LIMMAX
 10
12.0
 20
9.0
  9
$ORTHOMODE
 70
     0
  9
$REGENMODE
 70
     1
  9
$FILLMODE
 70
     1
  9
$QTEXTMODE
 70
     0
  9
$MIRRTEXT
 70
     1
  9
$LTSCALE
 40
1.0
  9
$ATTMODE
 70
     1
  9
$TEXTSIZE
 40
0.2
  9
$TRACEWID
 40
0.05
  9
$TEXTSTYLE
  7
Standard
  9
$CLAYER
  8
DIM
  9
$CELTYPE
  6
ByLayer
  9
$CECOLOR
 62
   256
  9
$CELTSCALE
 40
1.0
  9
$DISPSILH
 70
     0
  9
$DIMSCALE
 40
1.0
  9
$DIMASZ
 40
1.5
  9
$DIMEXO
 40
0.2
  9
$DIMDLI
 40
0.2
  9
$DIMRND
 40
0.0
  9
$DIMDLE
 40
0.0
  9
$DIMEXE
 40
0.5
  9
$DIMTP
 40
0.0
  9
$DIMTM
 40
0.0
  9
$DIMTXT
 40
2.0
  9
$DIMCEN
 40
0.0
  9
$DIMTSZ
 40
0.0
  9
$DIMTOL
 70
     0
  9
$DIMLIM
 70
     0
  9
$DIMTIH
 70
     0
  9
$DIMTOH
 70
     0
  9
$DIMSE1
 70
     0
  9
$DIMSE2
 70
     0
  9
$DIMTAD
 70
     1
  9
$DIMZIN
 70
     8
  9
$DIMBLK
  1

  9
$DIMASO
 70
     1
  9
$DIMSHO
 70
     1
  9
$DIMPOST
  1

  9
$DIMAPOST
  1

  9
$DIMALT
 70
     0
  9
$DIMALTD
 70
     2
  9
$DIMALTF
 40
25.4
  9
$DIMLFAC
 40
1.0
  9
$DIMTOFL
 70
     0
  9
$DIMTVP
 40
0.0
  9
$DIMTIX
 70
     0
  9
$DIMSOXD
 70
     0
  9
$DIMSAH
 70
     0
  9
$DIMBLK1
  1

  9
$DIMBLK2
  1

  9
$DIMSTYLE
  2
01
  9
$DIMCLRD
 70
     1
  9
$DIMCLRE
 70
     6
  9
$DIMCLRT
 70
     4
  9
$DIMTFAC
 40
1.0
  9
$DIMGAP
 40
0.5
  9
$DIMJUST
 70
     0
  9
$DIMSD1
 70
     0
  9
$DIMSD2
 70
     0
  9
$DIMTOLJ
 70
     1
  9
$DIMTZIN
 70
     0
  9
$DIMALTZ
 70
     0
  9
$DIMALTTZ
 70
     0
  9
$DIMUPT
 70
     0
  9
$DIMDEC
 70
     1
  9
$DIMTDEC
 70
     1
  9
$DIMALTU
 70
     2
  9
$DIMALTTD
 70
     2
  9
$DIMTXSTY
  7
Romans字体
  9
$DIMAUNIT
 70
     0
  9
$DIMADEC
 70
     2
  9
$DIMALTRND
 40
0.0
  9
$DIMAZIN
 70
     2
  9
$DIMDSEP
 70
    46
  9
$DIMATFIT
 70
     3
  9
$DIMFRAC
 70
     0
  9
$DIMLDRBLK
  1

  9
$DIMLUNIT
 70
     2
  9
$DIMLWD
 70
    -2
  9
$DIMLWE
 70
    -2
  9
$DIMTMOVE
 70
     0
  9
$DIMFXL
 40
1.0
  9
$DIMFXLON
 70
     0
  9
$DIMJOGANG
 40
0.7853981633974483
  9
$DIMTFILL
 70
     0
  9
$DIMTFILLCLR
 70
     0
  9
$DIMARCSYM
 70
     0
  9
$DIMLTYPE
  6

  9
$DIMLTEX1
  6

  9
$DIMLTEX2
  6

  9
$LUNITS
 70
     2
  9
$LUPREC
 70
     4
  9
$SKETCHINC
 40
0.1
  9
$FILLETRAD
 40
0.5
  9
$AUNITS
 70
     0
  9
$AUPREC
 70
     0
  9
$MENU
  1
.
  9
$ELEVATION
 40
0.0
  9
$PELEVATION
 40
0.0
  9
$THICKNESS
 40
0.0
  9
$LIMCHECK
 70
     0
  9
$CHAMFERA
 40
0.5
  9
$CHAMFERB
 40
0.5
  9
$CHAMFERC
 40
1.0
  9
$CHAMFERD
 40
0.0
  9
$SKPOLY
 70
     0
  9
$TDCREATE
 40
2456524.383632987
  9
$TDUCREATE
 40
2456524.050299653
  9
$TDUPDATE
 40
2460291.396865267
  9
$TDUUPDATE
 40
2460291.063531933
  9
$TDINDWG
 40
1.1957054630
  9
$TDUSRTIMER
 40
1.1956863889
  9
$USRTIMER
 70
     1
  9
$ANGBASE
 50
0.0
  9
$ANGDIR
 70
     0
  9
$PDMODE
 70
     0
  9
$PDSIZE
 40
0.0
  9
$PLINEWID
 40
0.0
  9
$SPLFRAME
 70
     0
  9
$SPLINETYPE
 70
     6
  9
$SPLINESEGS
 70
     8
  9
$HANDSEED
  5
162E1
  9
$SURFTAB1
 70
     6
  9
$SURFTAB2
 70
     6
  9
$SURFTYPE
 70
     6
  9
$SURFU
 70
     6
  9
$SURFV
 70
     6
  9
$UCSBASE
  2

  9
$UCSNAME
  2

  9
$UCSORG
 10
0.0
 20
0.0
 30
0.0
  9
$UCSXDIR
 10
1.0
 20
0.0
 30
0.0
  9
$UCSYDIR
 10
0.0
 20
1.0
 30
0.0
  9
$UCSORTHOREF
  2

  9
$UCSORTHOVIEW
 70
     0
  9
$UCSORGTOP
 10
0.0
 20
0.0
 30
0.0
  9
$UCSORGBOTTOM
 10
0.0
 20
0.0
 30
0.0
  9
$UCSORGLEFT
 10
0.0
 20
0.0
 30
0.0
  9
$UCSORGRIGHT
 10
0.0
 20
0.0
 30
0.0
  9
$UCSORGFRONT
 10
0.0
 20
0.0
 30
0.0
  9
$UCSORGBACK
 10
0.0
 20
0.0
 30
0.0
  9
$PUCSBASE
  2

  9
$PUCSNAME
  2

  9
$PUCSORG
 10
0.0
 20
0.0
 30
0.0
  9
$PUCSXDIR
 10
1.0
 20
0.0
 30
0.0
  9
$PUCSYDIR
 10
0.0
 20
1.0
 30
0.0
  9
$PUCSORTHOREF
  2

  9
$PUCSORTHOVIEW
 70
     0
  9
$PUCSORGTOP
 10
0.0
 20
0.0
 30
0.0
  9
$PUCSORGBOTTOM
 10
0.0
 20
0.0
 30
0.0
  9
$PUCSORGLEFT
 10
0.0
 20
0.0
 30
0.0
  9
$PUCSORGRIGHT
 10
0.0
 20
0.0
 30
0.0
  9
$PUCSORGFRONT
 10
0.0
 20
0.0
 30
0.0
  9
$PUCSORGBACK
 10
0.0
 20
0.0
 30
0.0
  9
$USERI1
 70
     0
  9
$USERI2
 70
     0
  9
$USERI3
 70
     0
  9
$USERI4
 70
     0
  9
$USERI5
 70
     0
  9
$USERR1
 40
0.0
  9
$USERR2
 40
0.0
  9
$USERR3
 40
0.0
  9
$USERR4
 40
0.0
  9
$USERR5
 40
0.0
  9
$WORLDVIEW
 70
     1
  9
$SHADEDGE
 70
     3
  9
$SHADEDIF
 70
    70
  9
$TILEMODE
 70
     1
  9
$MAXACTVP
 70
    64
  9
$PINSBASE
 10
0.0
 20
0.0
 30
0.0
  9
$PLIMCHECK
 70
     0
  9
$PEXTMIN
 10
1.000000000000000E+20
 20
1.000000000000000E+20
 30
1.000000000000000E+20
  9
$PEXTMAX
 10
-1.000000000000000E+20
 20
-1.000000000000000E+20
 30
-1.000000000000000E+20
  9
$PLIMMIN
 10
0.0
 20
0.0
  9
$PLIMMAX
 10
12.0
 20
9.0
  9
$UNITMODE
 70
     0
  9
$VISRETAIN
 70
     1
  9
$PLINEGEN
 70
     0
  9
$PSLTSCALE
 70
     1
  9
$TREEDEPTH
 70
  3020
  9
$CMLSTYLE
  2
Standard
  9
$CMLJUST
 70
     0
  9
$CMLSCALE
 40
1.0
  9
$PROXYGRAPHICS
 70
     1
  9
$MEASUREMENT
 70
     0
  9
$CELWEIGHT
370
    -1
  9
$ENDCAPS
280
     0
  9
$JOINSTYLE
280
     0
  9
$LWDISPLAY
290
     0
  9
$INSUNITS
 70
     1
  9
$HYPERLINKBASE
  1

  9
$STYLESHEET
  1
MONOCHROME.CTB
  9
$XEDIT
290
     1
  9
$CEPSNTYPE
380
     0
  9
$PSTYLEMODE
290
     1
  9
$FINGERPRINTGUID
  2
{4A02065B-8BB3-4A96-9036-502DC906C165}
  9
$VERSIONGUID
  2
{A09633DF-D27A-478C-8C52-D2B03CF31C17}
  9
$EXTNAMES
290
     1
  9
$PSVPSCALE
 40
0.0
  9
$OLESTARTUP
290
     0
  9
$SORTENTS
280
   127
  9
$INDEXCTL
280
     0
  9
$HIDETEXT
280
     0
  9
$XCLIPFRAME
290
     0
  9
$HALOGAP
280
     0
  9
$OBSCOLOR
 70
   257
  9
$OBSLTYPE
280
     0
  9
$INTERSECTIONDISPLAY
280
     0
  9
$INTERSECTIONCOLOR
 70
   257
  9
$DIMASSOC
280
     1
  9
$PROJECTNAME
  1

  9
$CAMERADISPLAY
290
     0
  9
$LENSLENGTH
 40
50.0
  9
$CAMERAHEIGHT
 40
0.0
  9
$STEPSPERSEC
 40
2.0
  9
$STEPSIZE
 40
6.0
  9
$3DDWFPREC
 40
2.0
  9
$PSOLWIDTH
 40
0.25
  9
$PSOLHEIGHT
 40
4.0
  9
$LOFTANG1
 40
1.570796326794896
  9
$LOFTANG2
 40
1.570796326794896
  9
$LOFTMAG1
 40
0.0
  9
$LOFTMAG2
 40
0.0
  9
$LOFTPARAM
 70
     7
  9
$LOFTNORMALS
280
     1
  9
$LATITUDE
 40
37.795
  9
$LONGITUDE
 40
-122.394
  9
$NORTHDIRECTION
 40
0.0
  9
$TIMEZONE
 70
 -8000
  9
$LIGHTGLYPHDISPLAY
280
     1
  9
$TILEMODELIGHTSYNCH
280
     1
  9
$CMATERIAL
347
4FE6
  9
$SOLIDHIST
280
     1
  9
$SHOWHIST
280
     1
  9
$DWFFRAME
280
     2
  9
$DGNFRAME
280
     0
  9
$REALWORLDSCALE
290
     1
  9
$INTERFERECOLOR
 62
     1
  9
$INTERFEREOBJVS
345
33
  9
$INTERFEREVPVS
346
30
  9
$CSHADOW
280
     0
  9
$SHADOWPLANELOCATION
 40
0.0
  0
ENDSEC
  0
SECTION
  2
CLASSES
  0
CLASS
  1
ACDBDICTIONARYWDFLT
  2
AcDbDictionaryWithDefault
  3
ObjectDBX Classes
 90
        0
 91
        1
280
     0
281
     0
  0
CLASS
  1
VISUALSTYLE
  2
AcDbVisualStyle
  3
ObjectDBX Classes
 90
     4095
 91
       16
280
     0
281
     0
  0
CLASS
  1
MATERIAL
  2
AcDbMaterial
  3
ObjectDBX Classes
 90
     1153
 91
        3
280
     0
281
     0
  0
CLASS
  1
TABLESTYLE
  2
AcDbTableStyle
  3
ObjectDBX Classes
 90
     4095
 91
        1
280
     0
281
     0
  0
CLASS
  1
SCALE
  2
AcDbScale
  3
ObjectDBX Classes
 90
     1153
 91
       33
280
     0
281
     0
  0
CLASS
  1
MLEADERSTYLE
  2
AcDbMLeaderStyle
  3
ACDB_MLEADERSTYLE_CLASS
 90
     4095
 91
        1
280
     0
281
     0
  0
CLASS
  1
CELLSTYLEMAP
  2
AcDbCellStyleMap
  3
ObjectDBX Classes
 90
     1152
 91
        2
280
     0
281
     0
  0
CLASS
  1
DICTIONARYVAR
  2
AcDbDictionaryVar
  3
ObjectDBX Classes
 90
        0
 91
        8
280
     0
281
     0
  0
CLASS
  1
SORTENTSTABLE
  2
AcDbSortentsTable
  3
ObjectDBX Classes
 90
        0
 91
        2
280
     0
281
     0
  0
CLASS
  1
ACAD_EVALUATION_GRAPH
  2
AcDbEvalGraph
  3
ObjectDBX Classes
 90
     1153
 91
        0
280
     0
281
     0
  0
CLASS
  1
ACAECUSTOBJ
  2
AcAeEditorObj
  3
AcAeEditorObj
 90
     1024
 91
        0
280
     0
281
     0
  0
CLASS
  1
ACDB_DYNAMICBLOCKPURGEPREVENTER_VERSION
  2
AcDbDynamicBlockPurgePreventer
  3
ObjectDBX Classes
 90
     1153
 91
        0
280
     0
281
     0
  0
CLASS
  1
MENTALRAYRENDERSETTINGS
  2
AcDbMentalRayRenderSettings
  3
SCENEOE
 90
     1024
 91
        1
280
     0
281
     0
  0
CLASS
  1
ACDB_BLOCKREPRESENTATION_DATA
  2
AcDbBlockRepresentationData
  3
ObjectDBX Classes
 90
     1153
 91
        0
280
     0
281
     0
  0
CLASS
  1
DIMASSOC
  2
AcDbDimAssoc
  3
"AcDbDimAssoc|Product Desc:     AcDim ARX App For Dimension|Company:          Autodesk, Inc.|WEB Address:      www.autodesk.com"
 90
        0
 91
        0
280
     0
281
     0
  0
ENDSEC
  0
SECTION
  2
TABLES
  0
TABLE
  2
VPORT
  5
8
102
{ACAD_XDICTIONARY
360
50EE
102
}
330
0
100
AcDbSymbolTable
 70
     1
  0
VPORT
  5
29
330
8
100
AcDbSymbolTableRecord
100
AcDbViewportTableRecord
  2
*Active
 70
     0
 10
0.0
 20
0.0
 11
1.0
 21
1.0
 12
331.5046025583604
 22
193.5719018868316
 13
0.0
 23
0.0
 14
0.5
 24
0.5
 15
0.5
 25
0.5
 16
0.0
 26
0.0
 36
1.0
 17
104.9654968719086
 27
148.5022307685978
 37
0.0
 40
106.0714405024843
 41
2.426395939086294
 42
50.0
 43
0.0
 44
0.0
 50
0.0
 51
0.0
 71
     0
 72
   100
 73
     1
 74
     3
 75
     0
 76
     0
 77
     0
 78
     0
281
     0
 65
     1
110
0.0
120
0.0
130
0.0
111
1.0
121
0.0
131
0.0
112
0.0
122
1.0
132
0.0
 79
     0
146
0.0
348
2F
 60
     3
 61
     5
292
     1
282
     1
141
0.0
142
0.0
 63
   250
421
  3355443
  0
ENDTAB
  0
TABLE
  2
LTYPE
  5
5
330
0
100
AcDbSymbolTable
 70
     3
  0
LTYPE
  5
14
330
5
100
AcDbSymbolTableRecord
100
AcDbLinetypeTableRecord
  2
ByBlock
 70
     0
  3

 72
    65
 73
     0
 40
0.0
  0
LTYPE
  5
15
330
5
100
AcDbSymbolTableRecord
100
AcDbLinetypeTableRecord
  2
ByLayer
 70
     0
  3

 72
    65
 73
     0
 40
0.0
  0
LTYPE
  5
16
330
5
100
AcDbSymbolTableRecord
100
AcDbLinetypeTableRecord
  2
Continuous
 70
     0
  3
Solid line
 72
    65
 73
     0
 40
0.0
  0
LTYPE
  5
67BA
330
5
100
AcDbSymbolTableRecord
100
AcDbLinetypeTableRecord
  2
CENTER
 70
     0
  3
Center ____ _ ____ _ ____ _ ____ _ ____ _ ____
 72
    65
 73
     4
 40
2.0
 49
1.25
 74
     0
 49
-0.25
 74
     0
 49
0.25
 74
     0
 49
-0.25
 74
     0
  0
ENDTAB
  0
TABLE
  2
LAYER
  5
2
102
{ACAD_XDICTIONARY
360
50B8
102
}
330
0
100
AcDbSymbolTable
 70
     9
  0
LAYER
  5
10
102
{ACAD_XDICTIONARY
360
50D0
102
}
330
2
100
AcDbSymbolTableRecord
100
AcDbLayerTableRecord
  2
0
 70
     0
 62
     7
  6
Continuous
370
    30
390
F
347
4FF6
  0
LAYER
  5
3B
102
{ACAD_XDICTIONARY
360
50D2
102
}
330
2
100
AcDbSymbolTableRecord
100
AcDbLayerTableRecord
  2
图层 1
 70
     0
 62
     7
  6
Continuous
370
    -3
390
F
347
4FF6
  0
LAYER
  5
50AE
102
{ACAD_XDICTIONARY
360
50AF
102
}
330
2
100
AcDbSymbolTableRecord
100
AcDbLayerTableRecord
  2
图框
 70
     0
 62
     7
  6
Continuous
370
    20
390
F
347
4FF6
  0
LAYER
  5
5141
330
2
100
AcDbSymbolTableRecord
100
AcDbLayerTableRecord
  2
Defpoints
 70
     0
 62
     7
  6
Continuous
290
     0
370
    -3
390
F
347
4FF6
  0
LAYER
  5
5144
330
2
100
AcDbSymbolTableRecord
100
AcDbLayerTableRecord
  2
DIM
 70
     0
 62
     3
  6
Continuous
370
    15
390
F
347
4FF6
1001
AcAecLayerStandard
1000

1000

  0
LAYER
  5
52F3
330
2
100
AcDbSymbolTableRecord
100
AcDbLayerTableRecord
  2
打标文字
 70
     0
 62
     3
  6
Continuous
370
    20
390
F
347
4FF6
  0
LAYER
  5
67B7
330
2
100
AcDbSymbolTableRecord
100
AcDbLayerTableRecord
  2
CEN
 70
     0
 62
     1
  6
CENTER
370
    15
390
F
347
4FF6
1001
AcAecLayerStandard
1000

1000

  0
LAYER
  5
1581D
102
{ACAD_XDICTIONARY
360
1581E
102
}
330
2
100
AcDbSymbolTableRecord
100
AcDbLayerTableRecord
  2
02___PRT_ALL_AXES
 70
     0
 62
     7
  6
Continuous
370
    -3
390
F
347
4FF6
  0
LAYER
  5
15BAE
330
2
100
AcDbSymbolTableRecord
100
AcDbLayerTableRecord
  2
DEFAULT_1
 70
     0
 62
     7
  6
CENTER
370
    -3
390
F
347
4FF6
  0
ENDTAB
  0
TABLE
  2
STYLE
  5
3
330
0
100
AcDbSymbolTable
 70
     4
  0
STYLE
  5
11
330
3
100
AcDbSymbolTableRecord
100
AcDbTextStyleTableRecord
  2
Standard
 70
     0
 40
0.0
 41
0.75
 50
0.0
 71
     0
 42
0.2
  3
SIMFANG.TTF
  4

1001
ACAD
1000
FangSong_GB2312
1071
    34353
  0
STYLE
  5
FD48
330
3
100
AcDbSymbolTableRecord
100
AcDbTextStyleTableRecord
  2
Romans字体
 70
     0
 40
0.0
 41
0.75
 50
0.0
 71
     0
 42
0.2
  3
romans.shx
  4

  0
STYLE
  5
11080
330
3
100
AcDbSymbolTableRecord
100
AcDbTextStyleTableRecord
  2
工程字
 70
     0
 40
0.0
 41
1.0
 50
0.0
 71
     0
 42
3.5
  3
gbenor.shx
  4
gbcbig.shx
  0
STYLE
  5
11081
330
3
100
AcDbSymbolTableRecord
100
AcDbTextStyleTableRecord
  2
Chinese
 70
     0
 40
0.0
 41
1.0
 50
0.0
 71
     0
 42
2.5
  3
PMingLiU.ttf
  4

1001
ACAD
1000
PMingLiU
1071
    34834
  0
ENDTAB
  0
TABLE
  2
VIEW
  5
6
330
0
100
AcDbSymbolTable
 70
     0
  0
ENDTAB
  0
TABLE
  2
UCS
  5
7
330
0
100
AcDbSymbolTable
 70
     0
  0
ENDTAB
  0
TABLE
  2
APPID
  5
9
330
0
100
AcDbSymbolTable
 70
    17
  0
APPID
  5
12
330
9
100
AcDbSymbolTableRecord
100
AcDbRegAppTableRecord
  2
ACAD
 70
     0
  0
APPID
  5
5024
330
9
100
AcDbSymbolTableRecord
100
AcDbRegAppTableRecord
  2
ACAD_MLEADERVER
 70
     0
  0
APPID
  5
50B5
330
9
100
AcDbSymbolTableRecord
100
AcDbRegAppTableRecord
  2
AcDbDynamicBlockGUID
 70
     0
  0
APPID
  5
50B6
330
9
100
AcDbSymbolTableRecord
100
AcDbRegAppTableRecord
  2
AcDbBlockRepETag
 70
     0
  0
APPID
  5
50B7
330
9
100
AcDbSymbolTableRecord
100
AcDbRegAppTableRecord
  2
ACAD_PSEXT
 70
     0
  0
APPID
  5
50CF
330
9
100
AcDbSymbolTableRecord
100
AcDbRegAppTableRecord
  2
AcadAnnoPO
 70
     0
  0
APPID
  5
5146
330
9
100
AcDbSymbolTableRecord
100
AcDbRegAppTableRecord
  2
AcAecLayerStandard
 70
     0
  0
APPID
  5
5147
330
9
100
AcDbSymbolTableRecord
100
AcDbRegAppTableRecord
  2
ACAD_DSTYLE_DIMJAG
 70
     0
  0
APPID
  5
5148
330
9
100
AcDbSymbolTableRecord
100
AcDbRegAppTableRecord
  2
ACAD_DSTYLE_DIMTALN
 70
     0
  0
APPID
  5
52AD
330
9
100
AcDbSymbolTableRecord
100
AcDbRegAppTableRecord
  2
ACAUTHENVIRON
 70
     0
  0
APPID
  5
52B0
330
9
100
AcDbSymbolTableRecord
100
AcDbRegAppTableRecord
  2
AcDbDynamicBlockTrueName
 70
     0
  0
APPID
  5
67C6
330
9
100
AcDbSymbolTableRecord
100
AcDbRegAppTableRecord
  2
ACAD_EXEMPT_FROM_CAD_STANDARDS
 70
     0
  0
APPID
  5
6838
330
9
100
AcDbSymbolTableRecord
100
AcDbRegAppTableRecord
  2
ACAD_NAV_VCDISPLAY
 70
     0
  0
APPID
  5
70A9
330
9
100
AcDbSymbolTableRecord
100
AcDbRegAppTableRecord
  2
DCO15
 70
     0
  0
APPID
  5
8725
330
9
100
AcDbSymbolTableRecord
100
AcDbRegAppTableRecord
  2
AcDbBlockRepBTag
 70
     0
  0
APPID
  5
FE64
330
9
100
AcDbSymbolTableRecord
100
AcDbRegAppTableRecord
  2
ACAD_DSTYLE_DIMRADIAL_EXTENSION
 70
     0
  0
APPID
  5
FF93
330
9
100
AcDbSymbolTableRecord
100
AcDbRegAppTableRecord
  2
ACAD_DSTYLE_DIMBREAK
 70
     0
  0
ENDTAB
  0
TABLE
  2
DIMSTYLE
  5
A
330
0
100
AcDbSymbolTable
 70
    12
100
AcDbDimStyleTable
 71
     2
340
5145
340
27
  0
DIMSTYLE
105
27
330
A
100
AcDbSymbolTableRecord
100
AcDbDimStyleTableRecord
  2
Standard
 70
     0
340
11
  0
DIMSTYLE
105
5145
102
{ACAD_REACTORS
330
16056
330
16063
330
16070
330
1607E
330
16096
102
}
330
A
100
AcDbSymbolTableRecord
100
AcDbDimStyleTableRecord
  2
01
 70
     0
 41
1.5
 42
0.2
 43
0.2
 44
0.5
 73
     0
 74
     0
 77
     1
 78
     8
 79
     2
140
2.0
141
0.0
147
0.5
176
     1
177
     6
178
     4
179
     2
271
     1
272
     1
340
FD48
1001
ACAD_DSTYLE_DIMJAG
1070
   388
1040
1.5
1001
ACAD_DSTYLE_DIMTALN
1070
   392
1070
     0
  0
DIMSTYLE
105
15BAF
330
A
100
AcDbSymbolTableRecord
100
AcDbDimStyleTableRecord
  2
lin01-1-1
 70
     0
 41
1.5
 42
0.5
 44
0.8
 47
0.01
 48
0.01
 73
     0
 74
     0
 77
     1
 78
     8
 79
     2
140
1.5
147
0.3
172
     1
176
     1
177
     6
178
     4
179
     1
271
     1
272
     1
284
     8
340
11
1001
ACAD_DSTYLE_DIMBREAK
1070
   391
1040
3.75
1001
ACAD_DSTYLE_DIMJAG
1070
   388
1040
1.5
1001
ACAD_DSTYLE_DIMTALN
1070
   392
1070
     0
  0
DIMSTYLE
105
15BB0
330
A
100
AcDbSymbolTableRecord
100
AcDbDimStyleTableRecord
  2
DIMSTYLE_2
 70
     0
 41
3.5
 47
0.1
 48
0.1
 73
     0
 74
     0
 77
     1
 78
     8
140
2.0
144
0.2
271
     2
272
     2
284
     8
340
11
341
15ADA
342
15ADA
343
15ADA
344
15ADA
  0
DIMSTYLE
105
15BB1
330
A
100
AcDbSymbolTableRecord
100
AcDbDimStyleTableRecord
  2
DIMSTYLE_3
 70
     0
 41
3.5
 47
0.03
 48
0.03
 71
     1
 73
     0
 74
     0
 77
     1
 78
     8
140
2.0
144
0.2
271
     2
272
     2
284
     8
340
11
341
15ADA
342
15ADA
343
15ADA
344
15ADA
  0
DIMSTYLE
105
15BB2
330
A
100
AcDbSymbolTableRecord
100
AcDbDimStyleTableRecord
  2
DIMSTYLE_4
 70
     0
 41
3.5
 48
0.1
 71
     1
 73
     0
 74
     0
 77
     1
 78
     8
140
2.0
144
0.2
146
0.6
271
     2
272
     2
284
     8
340
11
341
15ADA
342
15ADA
343
15ADA
344
15ADA
  0
DIMSTYLE
105
15BB3
330
A
100
AcDbSymbolTableRecord
100
AcDbDimStyleTableRecord
  2
DIMSTYLE_5
 70
     0
 41
3.5
 48
0.02
 71
     1
 73
     0
 74
     0
 77
     1
 78
     8
140
2.0
144
0.2
146
0.6
271
     2
272
     2
284
     8
340
11
341
15ADA
342
15ADA
343
15ADA
344
15ADA
  0
DIMSTYLE
105
15BB4
330
A
100
AcDbSymbolTableRecord
100
AcDbDimStyleTableRecord
  2
DIMSTYLE_6
 70
     0
 41
3.5
 47
0.01
 48
0.02
 71
     1
 73
     0
 74
     0
 77
     1
 78
     8
140
2.0
144
0.2
146
0.6
271
     2
272
     2
284
     8
340
11
341
15ADA
342
15ADA
343
15ADA
344
15ADA
  0
DIMSTYLE
105
15BB5
330
A
100
AcDbSymbolTableRecord
100
AcDbDimStyleTableRecord
  2
DIMSTYLE_7
 70
     0
 41
3.5
 47
0.1
 48
0.1
 73
     0
 74
     0
 77
     1
 78
     8
140
2.0
144
0.2
271
     2
272
     2
284
     8
340
11
341
15ADA
342
15ADA
343
15ADA
344
15ADA
  0
DIMSTYLE
105
15BB6
330
A
100
AcDbSymbolTableRecord
100
AcDbDimStyleTableRecord
  2
DIMSTYLE_8
 70
     0
 41
3.5
 47
0.05
 71
     1
 73
     0
 74
     0
 77
     1
 78
     8
140
2.0
144
0.2
146
0.6
271
     2
272
     2
284
     8
340
11
341
15ADA
342
15ADA
343
15ADA
344
15ADA
  0
DIMSTYLE
105
15BB7
330
A
100
AcDbSymbolTableRecord
100
AcDbDimStyleTableRecord
  2
DIMSTYLE_9
 70
     0
 41
3.5
 47
0.2
 48
0.2
 73
     0
 74
     0
 77
     1
 78
     8
140
2.0
144
0.2
271
     2
272
     2
284
     8
340
11
341
15ADA
342
15ADA
343
15ADA
344
15ADA
  0
ENDTAB
  0
TABLE
  2
BLOCK_RECORD
  5
1
330
0
100
AcDbSymbolTable
 70
    59
  0
BLOCK_RECORD
  5
1F
102
{ACAD_XDICTIONARY
360
67C0
102
}
330
1
100
AcDbSymbolTableRecord
100
AcDbBlockTableRecord
  2
*Model_Space
340
22
 70
     0
280
     1
281
     0
  0
BLOCK_RECORD
  5
1B
330
1
100
AcDbSymbolTableRecord
100
AcDbBlockTableRecord
  2
*Paper_Space
340
1E
 70
     0
280
     1
281
     0
  0
BLOCK_RECORD
  5
23
330
1
100
AcDbSymbolTableRecord
100
AcDbBlockTableRecord
  2
*Paper_Space0
340
26
 70
     0
280
     1
281
     0
  0
BLOCK_RECORD
  5
15410
330
1
100
AcDbSymbolTableRecord
100
AcDbBlockTableRecord
  2
*D1
340
0
 70
     0
280
     1
281
     0
  0
BLOCK_RECORD
  5
1541D
330
1
100
AcDbSymbolTableRecord
100
AcDbBlockTableRecord
  2
*D2
340
0
 70
     0
280
     1
281
     0
  0
BLOCK_RECORD
  5
1542B
330
1
100
AcDbSymbolTableRecord
100
AcDbBlockTableRecord
  2
*D3
340
0
 70
     0
280
     1
281
     0
  0
BLOCK_RECORD
  5
15439
330
1
100
AcDbSymbolTableRecord
100
AcDbBlockTableRecord
  2
*D4
340
0
 70
     0
280
     1
281
     0
  0
BLOCK_RECORD
  5
156B5
102
{ACAD_XDICTIONARY
360
16266
102
}
330
1
100
AcDbSymbolTableRecord
100
AcDbBlockTableRecord
  2
A4图框-NEW
340
0
310
2800000020000000200000000100080000000000000400000000000000000000000000000000000000000000000080000080000000808000800000008000800080800000C0C0C000C0DCC000F0CAA6000020400000206000002080000020A0000020C0000020E00000400000004020000040400000406000004080000040A0
310
000040C0000040E00000600000006020000060400000606000006080000060A0000060C0000060E00000800000008020000080400000806000008080000080A0000080C0000080E00000A0000000A0200000A0400000A0600000A0800000A0A00000A0C00000A0E00000C0000000C0200000C0400000C0600000C0800000C0
310
A00000C0C00000C0E00000E0000000E0200000E0400000E0600000E0800000E0A00000E0C00000E0E00040000000400020004000400040006000400080004000A0004000C0004000E00040200000402020004020400040206000402080004020A0004020C0004020E000404000004040200040404000404060004040800040
310
40A0004040C0004040E00040600000406020004060400040606000406080004060A0004060C0004060E00040800000408020004080400040806000408080004080A0004080C0004080E00040A0000040A0200040A0400040A0600040A0800040A0A00040A0C00040A0E00040C0000040C0200040C0400040C0600040C08000
310
40C0A00040C0C00040C0E00040E0000040E0200040E0400040E0600040E0800040E0A00040E0C00040E0E00080000000800020008000400080006000800080008000A0008000C0008000E00080200000802020008020400080206000802080008020A0008020C0008020E00080400000804020008040400080406000804080
310
008040A0008040C0008040E00080600000806020008060400080606000806080008060A0008060C0008060E00080800000808020008080400080806000808080008080A0008080C0008080E00080A0000080A0200080A0400080A0600080A0800080A0A00080A0C00080A0E00080C0000080C0200080C0400080C0600080C0
310
800080C0A00080C0C00080C0E00080E0000080E0200080E0400080E0600080E0800080E0A00080E0C00080E0E000C0000000C0002000C0004000C0006000C0008000C000A000C000C000C000E000C0200000C0202000C0204000C0206000C0208000C020A000C020C000C020E000C0400000C0402000C0404000C0406000C0
310
408000C040A000C040C000C040E000C0600000C0602000C0604000C0606000C0608000C060A000C060C000C060E000C0800000C0802000C0804000C0806000C0808000C080A000C080C000C080E000C0A00000C0A02000C0A04000C0A06000C0A08000C0A0A000C0A0C000C0A0E000C0C00000C0C02000C0C04000C0C06000
310
C0C08000C0C0A000F0FBFF00A4A0A000808080000000FF0000FF000000FFFF00FF000000FF00FF00FFFF0000FFFFFF0000000000000000000000000000000000000000000000000000000000000000000000000000000000000000000000000000000000000000000000000000000000000000000000000000000000000000
310
000000000000000000000000000000000000000000000000000000000000000000000000000000000000000000000000000000000000000000000000000000000000000000000000000000000000000000000000000000000000000000000000000000000000000000000000000000000000F9F9F9F9F9F9F9F9F9F9F9F9F9
310
F9F9F9F9F9F9F9F9F9F9F9F9F9F9FF00000000F9FF000000000000000000FFFFFFFFFFFFFFFFFFFFFFFFF9FAFAFAFF00000000F9FF000000000000000000FFFFFFFFFFFFFFFFFFFFFFFFFFFFFFFFFF00000000F9FD000000000000000000FFFFFFFFFFFFFFFFFFFFFFFFFFFFFFFFFF00000000F9FF000000000000000000FF
310
FFFFFFFFFFFFFFFFFFFFFFFFFFFFFFFF00000000F9FD000000000000000000FFFFFFFFFFFFFFFFFFFFFFFFFFFFFFFFFF00000000F9FF00000000000000000000000000000000000000000000000000FF00000000F9FD00000000000000000000000000000000000000000000000000FF00000000F9FF000000000000000000
310
00000000000000000000000000000000FF00000000F9FD00000000000000000000000000000000000000000000000000FF00000000F9FF00000000000000000000000000000000000000000000000000FF00000000F9FD00000000000000000000000000000000000000000000000000FF00000000F9FD0000000000000000
310
0000000000000000000000000000000000FF00000000F9FF00000000000000000000000000000000000000000000000000FF00000000F9FD00000000000000000000000000000000000000000000000000FF00000000F9FF00000000000000000000000000000000000000000000000000FF00000000F9FD00000000000000
310
000000000000000000000000000000000000FF00000000F9FF00000000000000000000000000000000000000000000000000FF00000000F9FFFFFFFFFFFFFFFFFFFFFFFFFFFFFFFFFFFFFFFFFFFFFFFFFFFFFF00000000F9FFFFFFF9F9F9F9F9F9F9F9F9F9F9F9F9F9F9F9F9F9F9F9F9F9F9F9000000000000000000000000
310
00000000000000000000000000000000000000000000000000000000000000000000000000000000000000000000000000000000000000000000000000000000000000000000000000000000000000000000000000000000000000000000000000000000000000000000000000000000000000000000000000000000000000
310
0000000000000000000000000000000000000000000000000000000000000000000000000000000000000000000000000000000000000000
102
{BLKREFS
331
1575A
102
}
 70
     4
280
     1
281
     0
1001
AcDbDynamicBlockGUID
1000
{DFD32343-0DD2-4740-A02B-97E3013478D7}
1001
AcDbBlockRepETag
1070
     1
1071
      149
  0
BLOCK_RECORD
  5
157DE
330
1
100
AcDbSymbolTableRecord
100
AcDbBlockTableRecord
  2
*D6
340
0
 70
     0
280
     1
281
     0
  0
BLOCK_RECORD
  5
157EB
330
1
100
AcDbSymbolTableRecord
100
AcDbBlockTableRecord
  2
*D7
340
0
 70
     0
280
     1
281
     0
  0
BLOCK_RECORD
  5
157F8
330
1
100
AcDbSymbolTableRecord
100
AcDbBlockTableRecord
  2
*D8
340
0
 70
     0
280
     1
281
     0
  0
BLOCK_RECORD
  5
15805
330
1
100
AcDbSymbolTableRecord
100
AcDbBlockTableRecord
  2
*D9
340
0
 70
     0
280
     1
281
     0
  0
BLOCK_RECORD
  5
15811
330
1
100
AcDbSymbolTableRecord
100
AcDbBlockTableRecord
  2
*D10
340
0
 70
     0
280
     1
281
     0
  0
BLOCK_RECORD
  5
1590B
330
1
100
AcDbSymbolTableRecord
100
AcDbBlockTableRecord
  2
*D11
340
0
 70
     0
280
     1
281
     0
  0
BLOCK_RECORD
  5
15918
330
1
100
AcDbSymbolTableRecord
100
AcDbBlockTableRecord
  2
*D12
340
0
 70
     0
280
     1
281
     0
  0
BLOCK_RECORD
  5
15925
330
1
100
AcDbSymbolTableRecord
100
AcDbBlockTableRecord
  2
*D13
340
0
 70
     0
280
     1
281
     0
  0
BLOCK_RECORD
  5
15932
330
1
100
AcDbSymbolTableRecord
100
AcDbBlockTableRecord
  2
*D14
340
0
 70
     0
280
     1
281
     0
  0
BLOCK_RECORD
  5
1593E
330
1
100
AcDbSymbolTableRecord
100
AcDbBlockTableRecord
  2
*D15
340
0
 70
     0
280
     1
281
     0
  0
BLOCK_RECORD
  5
15ADA
330
1
100
AcDbSymbolTableRecord
100
AcDbBlockTableRecord
  2
_FILLED
340
0
102
{BLKREFS
331
15B15
331
15B16
331
15B38
331
15B39
331
15AE2
331
15B2B
331
15B2C
331
15AEE
331
15AEF
331
15AFB
331
15AFC
331
15B08
331
15B09
331
15B44
331
15B45
331
15B51
331
15B52
331
15B5E
331
15B5F
331
15B6B
331
15B6C
331
15B83
331
15B84
331
15B77
331
15B78
331
15B8F
331
15B90
331
15B9D
331
15B9E
331
15BAA
331
15B20
102
}
 70
     0
280
     1
281
     0
  0
BLOCK_RECORD
  5
15ADE
330
1
100
AcDbSymbolTableRecord
100
AcDbBlockTableRecord
  2
*D17
340
0
 70
     0
280
     1
281
     0
  0
BLOCK_RECORD
  5
15AE8
330
1
100
AcDbSymbolTableRecord
100
AcDbBlockTableRecord
  2
*D18
340
0
 70
     0
280
     1
281
     0
  0
BLOCK_RECORD
  5
15AF5
330
1
100
AcDbSymbolTableRecord
100
AcDbBlockTableRecord
  2
*D19
340
0
 70
     0
280
     1
281
     0
  0
BLOCK_RECORD
  5
15B02
330
1
100
AcDbSymbolTableRecord
100
AcDbBlockTableRecord
  2
*D20
340
0
 70
     0
280
     1
281
     0
  0
BLOCK_RECORD
  5
15B0F
330
1
100
AcDbSymbolTableRecord
100
AcDbBlockTableRecord
  2
*D21
340
0
 70
     0
280
     1
281
     0
  0
BLOCK_RECORD
  5
15B1C
330
1
100
AcDbSymbolTableRecord
100
AcDbBlockTableRecord
  2
*D22
340
0
 70
     0
280
     1
281
     0
  0
BLOCK_RECORD
  5
15B26
330
1
100
AcDbSymbolTableRecord
100
AcDbBlockTableRecord
  2
*D23
340
0
 70
     0
280
     1
281
     0
  0
BLOCK_RECORD
  5
15B32
330
1
100
AcDbSymbolTableRecord
100
AcDbBlockTableRecord
  2
*D24
340
0
 70
     0
280
     1
281
     0
  0
BLOCK_RECORD
  5
15B3F
330
1
100
AcDbSymbolTableRecord
100
AcDbBlockTableRecord
  2
*D25
340
0
 70
     0
280
     1
281
     0
  0
BLOCK_RECORD
  5
15B4B
330
1
100
AcDbSymbolTableRecord
100
AcDbBlockTableRecord
  2
*D26
340
0
 70
     0
280
     1
281
     0
  0
BLOCK_RECORD
  5
15B58
330
1
100
AcDbSymbolTableRecord
100
AcDbBlockTableRecord
  2
*D27
340
0
 70
     0
280
     1
281
     0
  0
BLOCK_RECORD
  5
15B65
330
1
100
AcDbSymbolTableRecord
100
AcDbBlockTableRecord
  2
*D28
340
0
 70
     0
280
     1
281
     0
  0
BLOCK_RECORD
  5
15B72
330
1
100
AcDbSymbolTableRecord
100
AcDbBlockTableRecord
  2
*D29
340
0
 70
     0
280
     1
281
     0
  0
BLOCK_RECORD
  5
15B7E
330
1
100
AcDbSymbolTableRecord
100
AcDbBlockTableRecord
  2
*D30
340
0
 70
     0
280
     1
281
     0
  0
BLOCK_RECORD
  5
15B8A
330
1
100
AcDbSymbolTableRecord
100
AcDbBlockTableRecord
  2
*D31
340
0
 70
     0
280
     1
281
     0
  0
BLOCK_RECORD
  5
15B98
330
1
100
AcDbSymbolTableRecord
100
AcDbBlockTableRecord
  2
*D32
340
0
 70
     0
280
     1
281
     0
  0
BLOCK_RECORD
  5
15BA6
330
1
100
AcDbSymbolTableRecord
100
AcDbBlockTableRecord
  2
*D33
340
0
 70
     0
280
     1
281
     0
  0
BLOCK_RECORD
  5
15D01
330
1
100
AcDbSymbolTableRecord
100
AcDbBlockTableRecord
  2
*D34
340
0
 70
     0
280
     1
281
     0
  0
BLOCK_RECORD
  5
15D0B
330
1
100
AcDbSymbolTableRecord
100
AcDbBlockTableRecord
  2
*D35
340
0
 70
     0
280
     1
281
     0
  0
BLOCK_RECORD
  5
15D18
330
1
100
AcDbSymbolTableRecord
100
AcDbBlockTableRecord
  2
*D36
340
0
 70
     0
280
     1
281
     0
  0
BLOCK_RECORD
  5
15D25
330
1
100
AcDbSymbolTableRecord
100
AcDbBlockTableRecord
  2
*D37
340
0
 70
     0
280
     1
281
     0
  0
BLOCK_RECORD
  5
15D32
330
1
100
AcDbSymbolTableRecord
100
AcDbBlockTableRecord
  2
*D38
340
0
 70
     0
280
     1
281
     0
  0
BLOCK_RECORD
  5
15D3F
330
1
100
AcDbSymbolTableRecord
100
AcDbBlockTableRecord
  2
*D39
340
0
 70
     0
280
     1
281
     0
  0
BLOCK_RECORD
  5
15D49
330
1
100
AcDbSymbolTableRecord
100
AcDbBlockTableRecord
  2
*D40
340
0
 70
     0
280
     1
281
     0
  0
BLOCK_RECORD
  5
15D55
330
1
100
AcDbSymbolTableRecord
100
AcDbBlockTableRecord
  2
*D41
340
0
 70
     0
280
     1
281
     0
  0
BLOCK_RECORD
  5
15D62
330
1
100
AcDbSymbolTableRecord
100
AcDbBlockTableRecord
  2
*D42
340
0
 70
     0
280
     1
281
     0
  0
BLOCK_RECORD
  5
15D6E
330
1
100
AcDbSymbolTableRecord
100
AcDbBlockTableRecord
  2
*D43
340
0
 70
     0
280
     1
281
     0
  0
BLOCK_RECORD
  5
15D7B
330
1
100
AcDbSymbolTableRecord
100
AcDbBlockTableRecord
  2
*D44
340
0
 70
     0
280
     1
281
     0
  0
BLOCK_RECORD
  5
15D88
330
1
100
AcDbSymbolTableRecord
100
AcDbBlockTableRecord
  2
*D45
340
0
 70
     0
280
     1
281
     0
  0
BLOCK_RECORD
  5
15D95
330
1
100
AcDbSymbolTableRecord
100
AcDbBlockTableRecord
  2
*D46
340
0
 70
     0
280
     1
281
     0
  0
BLOCK_RECORD
  5
15DA1
330
1
100
AcDbSymbolTableRecord
100
AcDbBlockTableRecord
  2
*D47
340
0
 70
     0
280
     1
281
     0
  0
BLOCK_RECORD
  5
15DAD
330
1
100
AcDbSymbolTableRecord
100
AcDbBlockTableRecord
  2
*D48
340
0
 70
     0
280
     1
281
     0
  0
BLOCK_RECORD
  5
15DBC
330
1
100
AcDbSymbolTableRecord
100
AcDbBlockTableRecord
  2
*D49
340
0
 70
     0
280
     1
281
     0
  0
BLOCK_RECORD
  5
15DCB
330
1
100
AcDbSymbolTableRecord
100
AcDbBlockTableRecord
  2
*D50
340
0
 70
     0
280
     1
281
     0
  0
BLOCK_RECORD
  5
15E5D
330
1
100
AcDbSymbolTableRecord
100
AcDbBlockTableRecord
  2
*D51
340
0
 70
     0
280
     1
281
     0
  0
BLOCK_RECORD
  5
16057
330
1
100
AcDbSymbolTableRecord
100
AcDbBlockTableRecord
  2
*D52
340
0
 70
     0
280
     1
281
     0
  0
BLOCK_RECORD
  5
16064
330
1
100
AcDbSymbolTableRecord
100
AcDbBlockTableRecord
  2
*D53
340
0
 70
     0
280
     1
281
     0
  0
BLOCK_RECORD
  5
16071
330
1
100
AcDbSymbolTableRecord
100
AcDbBlockTableRecord
  2
*D54
340
0
 70
     0
280
     1
281
     0
  0
BLOCK_RECORD
  5
1607F
330
1
100
AcDbSymbolTableRecord
100
AcDbBlockTableRecord
  2
*D55
340
0
 70
     0
280
     1
281
     0
  0
BLOCK_RECORD
  5
16097
330
1
100
AcDbSymbolTableRecord
100
AcDbBlockTableRecord
  2
*D56
340
0
 70
     0
280
     1
281
     0
  0
ENDTAB
  0
ENDSEC
  0
SECTION
  2
BLOCKS
  0
BLOCK
  5
20
330
1F
100
AcDbEntity
  8
0
100
AcDbBlockBegin
  2
*Model_Space
 70
     0
 10
0.0
 20
0.0
 30
0.0
  3
*Model_Space
  1

  0
ENDBLK
  5
21
330
1F
100
AcDbEntity
  8
0
100
AcDbBlockEnd
  0
BLOCK
  5
1C
330
1B
100
AcDbEntity
 67
     1
  8
0
100
AcDbBlockBegin
  2
*Paper_Space
 70
     0
 10
0.0
 20
0.0
 30
0.0
  3
*Paper_Space
  1

  0
ENDBLK
  5
1D
330
1B
100
AcDbEntity
 67
     1
  8
0
100
AcDbBlockEnd
  0
BLOCK
  5
24
330
23
100
AcDbEntity
 67
     1
  8
0
100
AcDbBlockBegin
  2
*Paper_Space0
 70
     0
 10
0.0
 20
0.0
 30
0.0
  3
*Paper_Space0
  1

  0
ENDBLK
  5
25
330
23
100
AcDbEntity
 67
     1
  8
0
100
AcDbBlockEnd
  0
BLOCK
  5
15411
330
15410
100
AcDbEntity
  8
0
100
AcDbBlockBegin
  2
*D1
 70
     1
 10
0.0
 20
0.0
 30
0.0
  3
*D1
  1

  0
LINE
  5
1575E
330
15410
100
AcDbEntity
  8
DIM
 62
     6
370
    -2
100
AcDbLine
 10
414.7550013436426
 20
351.6890820402788
 30
0.0
 11
414.7550013436426
 21
342.2082351617925
 31
0.0
  0
LINE
  5
1575F
330
15410
100
AcDbEntity
  8
DIM
 62
     6
370
    -2
100
AcDbLine
 10
444.2550013436425
 20
350.8975394599701
 30
0.0
 11
444.2550013436425
 21
342.2082351617925
 31
0.0
  0
LINE
  5
15760
330
15410
100
AcDbEntity
  8
DIM
 62
     1
370
    -2
100
AcDbLine
 10
416.2550013436426
 20
342.7082351617924
 30
0.0
 11
442.7550013436427
 21
342.7082351617924
 31
0.0
  0
SOLID
  5
15761
330
15410
100
AcDbEntity
  8
DIM
 62
     1
100
AcDbTrace
 10
416.2550013436426
 20
342.9582351617924
 30
0.0
 11
416.2550013436426
 21
342.4582351617925
 31
0.0
 12
414.7550013436426
 22
342.7082351617924
 32
0.0
 13
414.7550013436426
 23
342.7082351617924
 33
0.0
  0
SOLID
  5
15762
330
15410
100
AcDbEntity
  8
DIM
 62
     1
100
AcDbTrace
 10
442.7550013436427
 20
342.9582351617924
 30
0.0
 11
442.7550013436427
 21
342.4582351617925
 31
0.0
 12
444.2550013436425
 22
342.7082351617924
 32
0.0
 13
444.2550013436425
 23
342.7082351617924
 33
0.0
  0
MTEXT
  5
15763
330
15410
100
AcDbEntity
  8
DIM
 62
     4
100
AcDbMText
 10
429.5050013436426
 20
344.2082351617925
 30
0.0
 40
2.0
 41
0.0
 46
0.0
 71
     5
 72
     1
  1
\A1;29.5
  7
Romans字体
 73
     1
 44
1.0
  0
POINT
  5
15764
330
15410
100
AcDbEntity
  8
Defpoints
 62
     0
100
AcDbPoint
 10
414.7550013436426
 20
351.8890820402788
 30
0.0
  0
POINT
  5
15765
330
15410
100
AcDbEntity
  8
Defpoints
 62
     0
100
AcDbPoint
 10
444.2550013436425
 20
351.0975394599701
 30
0.0
  0
POINT
  5
15766
330
15410
100
AcDbEntity
  8
Defpoints
 62
     0
100
AcDbPoint
 10
444.2550013436425
 20
342.7082351617924
 30
0.0
  0
ENDBLK
  5
15412
330
15410
100
AcDbEntity
  8
0
100
AcDbBlockEnd
  0
BLOCK
  5
1541E
330
1541D
100
AcDbEntity
  8
0
100
AcDbBlockBegin
  2
*D2
 70
     1
 10
0.0
 20
0.0
 30
0.0
  3
*D2
  1

  0
LINE
  5
15767
330
1541D
100
AcDbEntity
  8
DIM
 62
     6
370
    -2
100
AcDbLine
 10
419.5549993436426
 20
353.639082040279
 30
0.0
 11
407.6687280109901
 21
353.639082040279
 31
0.0
  0
LINE
  5
15768
330
1541D
100
AcDbEntity
  8
DIM
 62
     6
370
    -2
100
AcDbLine
 10
419.5550013436426
 20
350.1390820402788
 30
0.0
 11
407.6687280109901
 21
350.1390820402788
 31
0.0
  0
LINE
  5
15769
330
1541D
100
AcDbEntity
  8
DIM
 62
     1
370
    -2
100
AcDbLine
 10
408.1687280109902
 20
355.1390820402789
 30
0.0
 11
408.1687280109902
 21
356.6390820402789
 31
0.0
  0
LINE
  5
1576A
330
1541D
100
AcDbEntity
  8
DIM
 62
     1
370
    -2
100
AcDbLine
 10
408.1687280109902
 20
348.6390820402788
 30
0.0
 11
408.1687280109902
 21
341.6390820402788
 31
0.0
  0
SOLID
  5
1576B
330
1541D
100
AcDbEntity
  8
DIM
 62
     1
100
AcDbTrace
 10
407.9187280109898
 20
355.1390820402789
 30
0.0
 11
408.4187280109897
 21
355.1390820402789
 31
0.0
 12
408.1687280109902
 22
353.639082040279
 32
0.0
 13
408.1687280109902
 23
353.639082040279
 33
0.0
  0
SOLID
  5
1576C
330
1541D
100
AcDbEntity
  8
DIM
 62
     1
100
AcDbTrace
 10
407.9187280109898
 20
348.6390820402788
 30
0.0
 11
408.4187280109897
 21
348.6390820402788
 31
0.0
 12
408.1687280109902
 22
350.1390820402788
 32
0.0
 13
408.1687280109902
 23
350.1390820402788
 33
0.0
  0
MTEXT
  5
1576D
330
1541D
100
AcDbEntity
  8
DIM
 62
     4
100
AcDbMText
 10
406.6687280109896
 20
344.3890820402789
 30
0.0
 40
2.0
 41
0.0
 46
0.0
 71
     5
 72
     1
  1
\A1;%%C3.5
  7
Romans字体
 11
0.0000000000000001
 21
1.0
 31
0.0
 73
     1
 44
1.0
  0
POINT
  5
1576E
330
1541D
100
AcDbEntity
  8
Defpoints
 62
     0
100
AcDbPoint
 10
419.7549993436425
 20
353.639082040279
 30
0.0
  0
POINT
  5
1576F
330
1541D
100
AcDbEntity
  8
Defpoints
 62
     0
100
AcDbPoint
 10
419.7550013436423
 20
350.1390820402788
 30
0.0
  0
POINT
  5
15770
330
1541D
100
AcDbEntity
  8
Defpoints
 62
     0
100
AcDbPoint
 10
408.1687280109902
 20
350.1390820402788
 30
0.0
  0
ENDBLK
  5
1541F
330
1541D
100
AcDbEntity
  8
0
100
AcDbBlockEnd
  0
BLOCK
  5
1542C
330
1542B
100
AcDbEntity
  8
0
100
AcDbBlockBegin
  2
*D3
 70
     1
 10
0.0
 20
0.0
 30
0.0
  3
*D3
  1

  0
LINE
  5
15771
330
1542B
100
AcDbEntity
  8
DIM
 62
     6
370
    -2
100
AcDbLine
 10
415.5491060436686
 20
352.3890820402789
 30
0.0
 11
411.4941052557535
 21
352.3890820402789
 31
0.0
  0
LINE
  5
15772
330
1542B
100
AcDbEntity
  8
DIM
 62
     6
370
    -2
100
AcDbLine
 10
415.5491060436686
 20
351.3890820402788
 30
0.0
 11
411.4941052557535
 21
351.3890820402788
 31
0.0
  0
LINE
  5
15773
330
1542B
100
AcDbEntity
  8
DIM
 62
     1
370
    -2
100
AcDbLine
 10
411.9941052557535
 20
353.889082040279
 30
0.0
 11
411.9941052557535
 21
355.3890820402789
 31
0.0
  0
LINE
  5
15774
330
1542B
100
AcDbEntity
  8
DIM
 62
     1
370
    -2
100
AcDbLine
 10
411.9941052557535
 20
349.8890820402788
 30
0.0
 11
411.9941052557535
 21
345.4605106117074
 31
0.0
  0
SOLID
  5
15775
330
1542B
100
AcDbEntity
  8
DIM
 62
     1
100
AcDbTrace
 10
411.7441052557534
 20
353.889082040279
 30
0.0
 11
412.2441052557534
 21
353.889082040279
 31
0.0
 12
411.9941052557535
 22
352.3890820402789
 32
0.0
 13
411.9941052557535
 23
352.3890820402789
 33
0.0
  0
SOLID
  5
15776
330
1542B
100
AcDbEntity
  8
DIM
 62
     1
100
AcDbTrace
 10
411.7441052557534
 20
349.8890820402788
 30
0.0
 11
412.2441052557534
 21
349.8890820402788
 31
0.0
 12
411.9941052557535
 22
351.3890820402788
 32
0.0
 13
411.9941052557535
 23
351.3890820402788
 33
0.0
  0
MTEXT
  5
15777
330
1542B
100
AcDbEntity
  8
DIM
 62
     4
100
AcDbMText
 10
410.4941052557534
 20
346.9247963259932
 30
0.0
 40
2.0
 41
0.0
 46
0.0
 71
     5
 72
     1
  1
\A1;%%C1
  7
Romans字体
 11
0.0000000000000001
 21
1.0
 31
0.0
 73
     1
 44
1.0
  0
POINT
  5
15778
330
1542B
100
AcDbEntity
  8
Defpoints
 62
     0
100
AcDbPoint
 10
415.7491060436687
 20
352.3890820402789
 30
0.0
  0
POINT
  5
15779
330
1542B
100
AcDbEntity
  8
Defpoints
 62
     0
100
AcDbPoint
 10
415.7491060436687
 20
351.3890820402788
 30
0.0
  0
POINT
  5
1577A
330
1542B
100
AcDbEntity
  8
Defpoints
 62
     0
100
AcDbPoint
 10
411.9941052557535
 20
351.3890820402788
 30
0.0
  0
ENDBLK
  5
1542D
330
1542B
100
AcDbEntity
  8
0
100
AcDbBlockEnd
  0
BLOCK
  5
1543A
330
15439
100
AcDbEntity
  8
0
100
AcDbBlockBegin
  2
*D4
 70
     1
 10
0.0
 20
0.0
 30
0.0
  3
*D4
  1

  0
LINE
  5
1577B
330
15439
100
AcDbEntity
  8
DIM
 62
     6
370
    -2
100
AcDbLine
 10
414.7550013436426
 20
347.2002733376803
 30
0.0
 11
414.7550013436426
 21
345.8945058511122
 31
0.0
  0
LINE
  5
1577C
330
15439
100
AcDbEntity
  8
DIM
 62
     6
370
    -2
100
AcDbLine
 10
419.7549993436425
 20
349.9390820402788
 30
0.0
 11
419.7549993436425
 21
345.8945058511122
 31
0.0
  0
LINE
  5
1577D
330
15439
100
AcDbEntity
  8
DIM
 62
     1
370
    -2
100
AcDbLine
 10
416.2550013436426
 20
346.3945058511122
 30
0.0
 11
418.2549993436427
 21
346.3945058511122
 31
0.0
  0
SOLID
  5
1577E
330
15439
100
AcDbEntity
  8
DIM
 62
     1
100
AcDbTrace
 10
416.2550013436426
 20
346.6445058511122
 30
0.0
 11
416.2550013436426
 21
346.1445058511122
 31
0.0
 12
414.7550013436426
 22
346.3945058511122
 32
0.0
 13
414.7550013436426
 23
346.3945058511122
 33
0.0
  0
SOLID
  5
1577F
330
15439
100
AcDbEntity
  8
DIM
 62
     1
100
AcDbTrace
 10
418.2549993436427
 20
346.6445058511122
 30
0.0
 11
418.2549993436427
 21
346.1445058511122
 31
0.0
 12
419.7549993436425
 22
346.3945058511122
 32
0.0
 13
419.7549993436425
 23
346.3945058511122
 33
0.0
  0
MTEXT
  5
15780
330
15439
100
AcDbEntity
  8
DIM
 62
     4
100
AcDbMText
 10
417.2550003436426
 20
347.8945058511123
 30
0.0
 40
2.0
 41
0.0
 46
0.0
 71
     5
 72
     1
  1
\A1;5
  7
Romans字体
 73
     1
 44
1.0
  0
POINT
  5
15781
330
15439
100
AcDbEntity
  8
Defpoints
 62
     0
100
AcDbPoint
 10
414.7550013436426
 20
347.4002733376803
 30
0.0
  0
POINT
  5
15782
330
15439
100
AcDbEntity
  8
Defpoints
 62
     0
100
AcDbPoint
 10
419.7549993436425
 20
350.1390820402788
 30
0.0
  0
POINT
  5
15783
330
15439
100
AcDbEntity
  8
Defpoints
 62
     0
100
AcDbPoint
 10
419.7549993436425
 20
346.3945058511122
 30
0.0
  0
ENDBLK
  5
1543B
330
15439
100
AcDbEntity
  8
0
100
AcDbBlockEnd
  0
BLOCK
  5
156B7
330
156B5
100
AcDbEntity
  8
0
100
AcDbBlockBegin
  2
A4图框-NEW
 70
     0
 10
0.0
 20
0.0
 30
0.0
  3
A4图框-NEW
  1

  0
MTEXT
  5
161D1
102
{ACAD_XDICTIONARY
360
162C9
102
}
330
156B5
100
AcDbEntity
  8
图框
 62
     3
100
AcDbMText
 10
967.6594956750133
 20
499.7664151964293
 30
0.0
 40
2.985513575034151
 41
15.50176341157864
 46
6.292658374511018
 71
     5
 72
     5
  1
BQ LUO
  7
Romans字体
 73
     1
 44
1.0
1001
AcDbBlockRepETag
1070
     1
1071
        0
1005
161D1
1001
ACAD
1000
ACAD_MTEXT_DEFINED_HEIGHT_BEGIN
1070
    46
1040
6.292658374511018
1000
ACAD_MTEXT_DEFINED_HEIGHT_END
  0
MTEXT
  5
161D2
330
156B5
100
AcDbEntity
  8
图框
 62
     3
100
AcDbMText
 10
983.041569333247
 20
499.7664151964293
 30
0.0
 40
2.487927979195124
 41
15.26238390489062
 46
6.292658374511042
 71
     5
 72
     5
  1
{\W0.7;18.10.2010}
  7
Romans字体
 73
     1
 44
1.0
1001
AcDbBlockRepETag
1070
     1
1071
        1
1005
161D2
1001
ACAD
1000
ACAD_MTEXT_DEFINED_HEIGHT_BEGIN
1070
    46
1040
6.292658374511042
1000
ACAD_MTEXT_DEFINED_HEIGHT_END
  0
MTEXT
  5
161D3
330
156B5
100
AcDbEntity
  8
图框
 62
     3
100
AcDbMText
 10
1012.477254728976
 20
487.1810984474071
 30
0.0
 40
2.985513575034151
 41
17.64876416884615
 46
6.292658374511455
 71
     5
 72
     5
  1
YY LIN
  7
Romans字体
 73
     1
 44
1.0
1001
AcDbBlockRepETag
1070
     1
1071
        2
1005
161D3
1001
ACAD
1000
ACAD_MTEXT_DEFINED_HEIGHT_BEGIN
1070
    46
1040
6.292658374511455
1000
ACAD_MTEXT_DEFINED_HEIGHT_END
  0
MTEXT
  5
161D4
330
156B5
100
AcDbEntity
  8
图框
 62
     3
100
AcDbMText
 10
1028.977802139886
 20
487.1810984474071
 30
0.0
 40
2.487927979195124
 41
15.35233065297276
 46
6.292658374511495
 71
     5
 72
     5
  1
{\W0.7;18.10.2010}
  7
Romans字体
 73
     1
 44
1.0
1001
AcDbBlockRepETag
1070
     1
1071
        3
1005
161D4
1001
ACAD
1000
ACAD_MTEXT_DEFINED_HEIGHT_BEGIN
1070
    46
1040
6.292658374511495
1000
ACAD_MTEXT_DEFINED_HEIGHT_END
  0
MTEXT
  5
161D5
330
156B5
100
AcDbEntity
  8
图框
 62
     3
100
AcDbMText
 10
1063.722665487208
 20
525.4145966538831
 30
0.0
 40
2.985513575034151
 41
32.4973914334545
 46
11.82914190181707
 71
     5
 72
     5
  1
-
  7
Romans字体
 73
     1
 44
1.0
1001
AcDbBlockRepETag
1070
     1
1071
        4
1005
161D5
1001
ACAD
1000
ACAD_MTEXT_DEFINED_HEIGHT_BEGIN
1070
    46
1040
11.82914190181707
1000
ACAD_MTEXT_DEFINED_HEIGHT_END
  0
MTEXT
  5
161D6
330
156B5
100
AcDbEntity
  8
图框
 62
     3
100
AcDbMText
 10
1063.727338552349
 20
513.5854547520641
 30
0.0
 40
2.985513575034151
 41
32.48804530317308
 46
11.82914190182139
 71
     5
 72
     5
  1
-
  7
Romans字体
 73
     1
 44
1.0
1001
AcDbBlockRepETag
1070
     1
1071
        5
1005
161D6
1001
ACAD
1000
ACAD_MTEXT_DEFINED_HEIGHT_BEGIN
1070
    46
1040
11.82914190182139
1000
ACAD_MTEXT_DEFINED_HEIGHT_END
  0
MTEXT
  5
161D7
330
156B5
100
AcDbEntity
  8
图框
 62
     3
100
AcDbMText
 10
1110.122306614152
 20
526.8006839312707
 30
0.0
 40
2.985513575034151
 41
33.61239199242139
 46
9.05696734704178
 71
     5
 72
     5
  1
-
  7
Romans字体
 73
     1
 44
1.0
1001
AcDbBlockRepETag
1070
     1
1071
        6
1005
161D7
1001
ACAD
1000
ACAD_MTEXT_DEFINED_HEIGHT_BEGIN
1070
    46
1040
9.05696734704178
1000
ACAD_MTEXT_DEFINED_HEIGHT_END
  0
MTEXT
  5
161D8
330
156B5
100
AcDbEntity
  8
图框
 62
     3
100
AcDbMText
 10
1110.122306614152
 20
500.2775205517162
 30
0.0
 40
2.985513575034151
 41
33.61239199242139
 46
8.871557304763419
 71
     5
 72
     5
  1
-
  7
Romans字体
 73
     1
 44
1.0
1001
AcDbBlockRepETag
1070
     1
1071
        7
1005
161D8
1001
ACAD
1000
ACAD_MTEXT_DEFINED_HEIGHT_BEGIN
1070
    46
1040
8.871557304763419
1000
ACAD_MTEXT_DEFINED_HEIGHT_END
  0
MTEXT
  5
161D9
330
156B5
100
AcDbEntity
  8
图框
 62
     3
100
AcDbMText
 10
967.6594956750133
 20
493.4737568219182
 30
0.0
 40
2.985513575034151
 41
15.50176341157864
 46
6.292658374510335
 71
     5
 72
     5
  1
P RAO
  7
Romans字体
 73
     1
 44
1.0
1001
AcDbBlockRepETag
1070
     1
1071
        8
1005
161D9
1001
ACAD
1000
ACAD_MTEXT_DEFINED_HEIGHT_BEGIN
1070
    46
1040
6.292658374510335
1000
ACAD_MTEXT_DEFINED_HEIGHT_END
  0
MTEXT
  5
161DA
330
156B5
100
AcDbEntity
  8
图框
 62
     3
100
AcDbMText
 10
983.041569333247
 20
493.2441970450405
 30
0.0
 40
2.487927979195124
 41
15.26238390489051
 46
6.751777928266487
 71
     5
 72
     5
  1
{\W0.7;18.10.2010}
  7
Romans字体
 73
     1
 44
1.0
1001
AcDbBlockRepETag
1070
     1
1071
        9
1005
161DA
1001
ACAD
1000
ACAD_MTEXT_DEFINED_HEIGHT_BEGIN
1070
    46
1040
6.751777928266487
1000
ACAD_MTEXT_DEFINED_HEIGHT_END
  0
MTEXT
  5
161DB
330
156B5
100
AcDbEntity
  8
图框
 62
     3
100
AcDbMText
 10
1012.477254728976
 20
499.7664151964291
 30
0.0
 40
2.985513575034151
 41
17.64876416884615
 46
6.292658374511397
 71
     5
 72
     5
  1
-
  7
Romans字体
 73
     1
 44
1.0
1001
AcDbBlockRepETag
1070
     1
1071
       10
1005
161DB
1001
ACAD
1000
ACAD_MTEXT_DEFINED_HEIGHT_BEGIN
1070
    46
1040
6.292658374511397
1000
ACAD_MTEXT_DEFINED_HEIGHT_END
  0
MTEXT
  5
161DC
330
156B5
100
AcDbEntity
  8
图框
 62
     3
100
AcDbMText
 10
1028.977802139886
 20
499.7664151964289
 30
0.0
 40
2.487927979195124
 41
15.35233065297265
 46
6.292658374511382
 71
     5
 72
     5
  1
-
  7
Romans字体
 73
     1
 44
1.0
1001
AcDbBlockRepETag
1070
     1
1071
       11
1005
161DC
1001
ACAD
1000
ACAD_MTEXT_DEFINED_HEIGHT_BEGIN
1070
    46
1040
6.292658374511382
1000
ACAD_MTEXT_DEFINED_HEIGHT_END
  0
MTEXT
  5
161DD
330
156B5
100
AcDbEntity
  8
图框
 62
     3
100
AcDbMText
 10
967.6594956750133
 20
487.1810984474071
 30
0.0
 40
2.985513575034151
 41
15.50176341157863
 46
6.292658374511478
 71
     5
 72
     5
  1
-
  7
Romans字体
 73
     1
 44
1.0
1001
AcDbBlockRepETag
1070
     1
1071
       12
1005
161DD
1001
ACAD
1000
ACAD_MTEXT_DEFINED_HEIGHT_BEGIN
1070
    46
1040
6.292658374511478
1000
ACAD_MTEXT_DEFINED_HEIGHT_END
  0
MTEXT
  5
161DE
330
156B5
100
AcDbEntity
  8
图框
 62
     3
100
AcDbMText
 10
983.041569333247
 20
487.1810984474071
 30
0.0
 40
2.487927979195124
 41
15.26238390489062
 46
6.292658374511495
 71
     5
 72
     5
  1
-
  7
Romans字体
 73
     1
 44
1.0
1001
AcDbBlockRepETag
1070
     1
1071
       13
1005
161DE
1001
ACAD
1000
ACAD_MTEXT_DEFINED_HEIGHT_BEGIN
1070
    46
1040
6.292658374511495
1000
ACAD_MTEXT_DEFINED_HEIGHT_END
  0
MTEXT
  5
161DF
330
156B5
100
AcDbEntity
  8
图框
 62
     3
100
AcDbMText
 10
1074.556686986741
 20
495.8417418993361
 30
0.0
 40
2.985513575034151
 41
10.82934843438978
 46
7.886094601210427
 71
     5
 72
     5
  1
-
  7
Romans字体
 73
     1
 44
1.0
1001
AcDbBlockRepETag
1070
     1
1071
       14
1005
161DF
1001
ACAD
1000
ACAD_MTEXT_DEFINED_HEIGHT_BEGIN
1070
    46
1040
7.886094601210427
1000
ACAD_MTEXT_DEFINED_HEIGHT_END
  0
LINE
  5
161E0
330
156B5
100
AcDbEntity
  8
图框
370
    -3
100
AcDbLine
 10
1036.653967466372
 20
499.7847891999413
 30
0.0
 11
1079.971361203936
 21
499.7847891999413
 31
0.0
1001
AcDbBlockRepETag
1070
     1
1071
       15
1005
161E0
  0
MTEXT
  5
161E1
330
156B5
100
AcDbEntity
  8
图框
 62
     1
370
    20
100
AcDbMText
 10
1108.26336443907
 20
491.5162596080882
 30
0.0
 40
2.699054613030988
 41
82.30831305643079
 46
0.0
 71
     5
 72
     5
  1
{\fSimHei|b0|i0|c134|p2;厦门唯恩电气有限公司}
 73
     1
 44
1.0
1001
AcDbBlockRepETag
1070
     1
1071
       16
1005
161E1
  0
MTEXT
  5
161E2
330
156B5
100
AcDbEntity
  8
图框
 62
     3
370
    20
100
AcDbMText
 10
1108.435451459908
 20
487.298967726064
 30
0.0
 40
1.652482416141417
 41
68.08558693693567
 46
0.0
 71
     5
 72
     5
  1
{\fArial Narrow|b0|i0|c0|p34;XIAMEN WAIN ELECTRICAL CO.LTD}
  7
工程字
 73
     1
 44
1.0
1001
AcDbBlockRepETag
1070
     1
1071
       17
1005
161E2
  0
MTEXT
  5
161E3
330
156B5
100
AcDbEntity
  8
图框
 62
     1
370
    20
100
AcDbMText
 10
1085.711816899387
 20
491.0944802995856
 30
0.0
 40
2.005930044038334
 41
5.047240019334847
 46
0.0
 71
     1
 72
     5
  1
{\fArial|b0|i0|c0|p34;A}
  7
Chinese
 73
     1
 44
1.0
1001
AcDbBlockRepETag
1070
     1
1071
       18
1005
161E3
  0
MTEXT
  5
161E4
330
156B5
100
AcDbEntity
  8
图框
 62
     1
370
    20
100
AcDbMText
 10
1088.213485935716
 20
491.0944802995856
 30
0.0
 40
2.005930044038334
 41
5.047240019334847
 46
0.0
 71
     1
 72
     5
  1
{\fArial|b0|i0|c0|p34;I}
  7
Chinese
 73
     1
 44
1.0
1001
AcDbBlockRepETag
1070
     1
1071
       19
1005
161E4
  0
MTEXT
  5
161E5
330
156B5
100
AcDbEntity
  8
图框
 62
     1
370
    20
100
AcDbMText
 10
1089.142375222864
 20
491.0822866326808
 30
0.0
 40
2.005930044038334
 41
5.047240019334847
 46
0.0
 71
     1
 72
     5
  1
{\fArial|b0|i0|c0|p34;N}
  7
Chinese
 73
     1
 44
1.0
1001
AcDbBlockRepETag
1070
     1
1071
       20
1005
161E5
  0
MTEXT
  5
161E6
330
156B5
100
AcDbEntity
  8
图框
100
AcDbMText
 10
1069.142012769545
 20
487.9667319294409
 30
0.0
 40
2.252848170144607
 41
21.65869686878327
 46
7.863925338579296
 71
     5
 72
     5
  1
{\W0.5;\C1;All Dimensions in mm\POriginal Size DIN A 4}
  7
Romans字体
 73
     1
 44
1.0
1001
AcDbBlockRepETag
1070
     1
1071
       21
1005
161E6
1001
ACAD
1000
ACAD_MTEXT_DEFINED_HEIGHT_BEGIN
1070
    46
1040
7.863925338579296
1000
ACAD_MTEXT_DEFINED_HEIGHT_END
  0
MTEXT
  5
161E7
330
156B5
100
AcDbEntity
  8
图框
  6
ByBlock
 62
     6
370
    18
100
AcDbMText
 10
1127.40434942308
 20
508.7896535755975
 30
0.0
 40
2.651776162684904
 41
2.557913877927211
 46
0.0
 71
     1
 72
     5
  1
A
  7
Romans字体
 11
0.0000000000000001
 21
1.0
 31
0.0
 73
     1
 44
1.0
1001
AcDbBlockRepETag
1070
     1
1071
       22
1005
161E7
  0
MTEXT
  5
161E8
330
156B5
100
AcDbEntity
  8
图框
 62
     6
100
AcDbMText
 10
1127.40434942308
 20
556.3746573232886
 30
0.0
 40
2.651776162684904
 41
2.557913877927211
 46
0.0
 71
     1
 72
     5
  1
B
  7
Romans字体
 11
0.0000000000000001
 21
1.0
 31
0.0
 73
     1
 44
1.0
1001
AcDbBlockRepETag
1070
     1
1071
       23
1005
161E8
  0
MTEXT
  5
161E9
330
156B5
100
AcDbEntity
  8
图框
 62
     6
100
AcDbMText
 10
1127.40434942308
 20
607.5539372630998
 30
0.0
 40
2.651776162684904
 41
2.557913877927211
 46
0.0
 71
     1
 72
     5
  1
C
  7
Romans字体
 11
0.0000000000000001
 21
1.0
 31
0.0
 73
     1
 44
1.0
1001
AcDbBlockRepETag
1070
     1
1071
       24
1005
161E9
  0
MTEXT
  5
161EA
330
156B5
100
AcDbEntity
  8
图框
 62
     6
100
AcDbMText
 10
1127.40434942308
 20
658.7332172029115
 30
0.0
 40
2.651776162684904
 41
2.557913877927211
 46
0.0
 71
     1
 72
     5
  1
D
  7
Romans字体
 11
0.0000000000000001
 21
1.0
 31
0.0
 73
     1
 44
1.0
1001
AcDbBlockRepETag
1070
     1
1071
       25
1005
161EA
  0
LINE
  5
161EB
330
156B5
100
AcDbEntity
  8
图框
 62
     6
100
AcDbLine
 10
1130.411601781241
 20
634.0726090796082
 30
0.0
 11
1126.928502610363
 21
634.0726090796082
 31
0.0
1001
AcDbBlockRepETag
1070
     1
1071
       26
1005
161EB
  0
LINE
  5
161EC
330
156B5
100
AcDbEntity
  8
图框
 62
     6
100
AcDbLine
 10
1130.411601781241
 20
582.89332913979
 30
0.0
 11
1126.928502610363
 21
582.89332913979
 31
0.0
1001
AcDbBlockRepETag
1070
     1
1071
       27
1005
161EC
  0
MTEXT
  5
161ED
330
156B5
100
AcDbEntity
  8
图框
 62
     6
100
AcDbMText
 10
1105.329704038389
 20
483.6164543011163
 30
0.0
 40
2.651776162684904
 41
2.557913877927211
 46
0.0
 71
     1
 72
     5
  1
6
  7
Romans字体
 73
     1
 44
1.0
1001
AcDbBlockRepETag
1070
     1
1071
       28
1005
161ED
  0
LINE
  5
161EE
330
156B5
100
AcDbEntity
  8
图框
 62
     6
100
AcDbLine
 10
1081.088565155284
 20
484.0347692601515
 30
0.0
 11
1081.088565155284
 21
480.5347692601475
 31
0.0
1001
AcDbBlockRepETag
1070
     1
1071
       29
1005
161EE
  0
MTEXT
  5
161EF
330
156B5
100
AcDbEntity
  8
图框
 62
     6
100
AcDbMText
 10
1055.900596365941
 20
483.520053108993
 30
0.0
 40
2.651776162684904
 41
2.557913877927211
 46
0.0
 71
     1
 72
     5
  1
5
  7
Romans字体
 73
     1
 44
1.0
1001
AcDbBlockRepETag
1070
     1
1071
       30
1005
161EF
  0
LINE
  5
161F0
330
156B5
100
AcDbEntity
  8
图框
 62
     6
100
AcDbLine
 10
1031.553386436349
 20
484.0347692601515
 30
0.0
 11
1031.553386436349
 21
480.5347692601475
 31
0.0
1001
AcDbBlockRepETag
1070
     1
1071
       31
1005
161F0
  0
MTEXT
  5
161F1
330
156B5
100
AcDbEntity
  8
图框
 62
     6
100
AcDbMText
 10
1006.383180575197
 20
483.5687958215896
 30
0.0
 40
2.651776162684904
 41
2.557913877927211
 46
0.0
 71
     1
 72
     5
  1
4
  7
Romans字体
 73
     1
 44
1.0
1001
AcDbBlockRepETag
1070
     1
1071
       32
1005
161F1
  0
LINE
  5
161F2
330
156B5
100
AcDbEntity
  8
图框
 62
     6
100
AcDbLine
 10
982.0182077173887
 20
484.0347692601515
 30
0.0
 11
982.0182077173887
 21
480.5347692601475
 31
0.0
1001
AcDbBlockRepETag
1070
     1
1071
       33
1005
161F2
  0
MTEXT
  5
161F3
330
156B5
100
AcDbEntity
  8
图框
 62
     6
100
AcDbMText
 10
956.8302389280352
 20
483.5989680297948
 30
0.0
 40
2.651776162684904
 41
2.557913877927211
 46
0.0
 71
     1
 72
     5
  1
3
  7
Romans字体
 73
     1
 44
1.0
1001
AcDbBlockRepETag
1070
     1
1071
       34
1005
161F3
  0
LINE
  5
161F4
330
156B5
100
AcDbEntity
  8
图框
 62
     6
100
AcDbLine
 10
932.4830289984245
 20
484.0347692601515
 30
0.0
 11
932.4830289984245
 21
480.5347692601475
 31
0.0
1001
AcDbBlockRepETag
1070
     1
1071
       35
1005
161F4
  0
MTEXT
  5
161F5
330
156B5
100
AcDbEntity
  8
图框
 62
     6
100
AcDbMText
 10
906.0252349826365
 20
483.6475250013156
 30
0.0
 40
2.651776162684904
 41
2.557913877927211
 46
0.0
 71
     1
 72
     5
  1
2
  7
Romans字体
 73
     1
 44
1.0
1001
AcDbBlockRepETag
1070
     1
1071
       36
1005
161F5
  0
LINE
  5
161F6
330
156B5
100
AcDbEntity
  8
图框
 62
     6
100
AcDbLine
 10
882.9478502794648
 20
484.0347692601515
 30
0.0
 11
882.9478502794648
 21
480.5347692601475
 31
0.0
1001
AcDbBlockRepETag
1070
     1
1071
       37
1005
161F6
  0
MTEXT
  5
161F7
330
156B5
100
AcDbEntity
  8
图框
 62
     6
100
AcDbMText
 10
857.7598814901191
 20
483.651829494754
 30
0.0
 40
2.651776162684904
 41
2.557913877927211
 46
0.0
 71
     1
 72
     5
  1
1
  7
Romans字体
 73
     1
 44
1.0
1001
AcDbBlockRepETag
1070
     1
1071
       38
1005
161F7
  0
LINE
  5
161F8
330
156B5
100
AcDbEntity
  8
图框
370
    50
100
AcDbLine
 10
836.8548209370597
 20
484.0347692601515
 30
0.0
 11
1126.928502610363
 21
484.0347692601515
 31
0.0
1001
AcDbBlockRepETag
1070
     1
1071
       39
1005
161F8
  0
LINE
  5
161F9
330
156B5
100
AcDbEntity
  8
图框
370
    50
100
AcDbLine
 10
836.9128518455362
 20
484.0178684310246
 30
0.0
 11
836.9128518455394
 21
675.0207195125422
 31
0.0
1001
AcDbBlockRepETag
1070
     1
1071
       40
1005
161F9
  0
MTEXT
  5
161FA
330
156B5
100
AcDbEntity
  8
图框
 62
     6
100
AcDbMText
 10
833.8475685789031
 20
658.7332172029115
 30
0.0
 40
2.651776162684904
 41
2.557913877927211
 46
0.0
 71
     1
 72
     5
  1
D
  7
Romans字体
 11
0.0000000000000001
 21
1.0
 31
0.0
 73
     1
 44
1.0
1001
AcDbBlockRepETag
1070
     1
1071
       41
1005
161FA
  0
LINE
  5
161FB
330
156B5
100
AcDbEntity
  8
图框
 62
     6
100
AcDbLine
 10
836.9128518455386
 20
634.0726090796082
 30
0.0
 11
833.4128518455365
 21
634.0726090796082
 31
0.0
1001
AcDbBlockRepETag
1070
     1
1071
       42
1005
161FB
  0
MTEXT
  5
161FC
330
156B5
100
AcDbEntity
  8
图框
 62
     6
100
AcDbMText
 10
833.9039177480142
 20
607.5539372630998
 30
0.0
 40
2.651776162684904
 41
2.557913877927211
 46
0.0
 71
     1
 72
     5
  1
C
  7
Romans字体
 11
0.0000000000000001
 21
1.0
 31
0.0
 73
     1
 44
1.0
1001
AcDbBlockRepETag
1070
     1
1071
       43
1005
161FC
  0
LINE
  5
161FD
330
156B5
100
AcDbEntity
  8
图框
 62
     6
100
AcDbLine
 10
836.9128518455378
 20
582.89332913979
 30
0.0
 11
833.4128518455365
 21
582.89332913979
 31
0.0
1001
AcDbBlockRepETag
1070
     1
1071
       44
1005
161FD
  0
MTEXT
  5
161FE
330
156B5
100
AcDbEntity
  8
图框
 62
     6
100
AcDbMText
 10
833.9039177480142
 20
556.3746573232886
 30
0.0
 40
2.651776162684904
 41
2.557913877927211
 46
0.0
 71
     1
 72
     5
  1
B
  7
Romans字体
 11
0.0000000000000001
 21
1.0
 31
0.0
 73
     1
 44
1.0
1001
AcDbBlockRepETag
1070
     1
1071
       45
1005
161FE
  0
LINE
  5
161FF
330
156B5
100
AcDbEntity
  8
图框
 62
     6
100
AcDbLine
 10
836.9128518455367
 20
531.714049199969
 30
0.0
 11
833.4128518455365
 21
531.714049199969
 31
0.0
1001
AcDbBlockRepETag
1070
     1
1071
       46
1005
161FF
  0
MTEXT
  5
16200
330
156B5
100
AcDbEntity
  8
图框
 62
     6
100
AcDbMText
 10
833.9039177480142
 20
508.7896535755975
 30
0.0
 40
2.651776162684904
 41
2.557913877927211
 46
0.0
 71
     1
 72
     5
  1
A
  7
Romans字体
 11
0.0000000000000001
 21
1.0
 31
0.0
 73
     1
 44
1.0
1001
AcDbBlockRepETag
1070
     1
1071
       47
1005
16200
  0
LINE
  5
16201
330
156B5
100
AcDbEntity
  8
图框
370
    -3
100
AcDbLine
 10
836.9128518455394
 20
675.0207195125422
 30
0.0
 11
836.9128518455394
 21
684.5021384922564
 31
0.0
1001
AcDbBlockRepETag
1070
     1
1071
       48
1005
16201
  0
LINE
  5
16202
330
156B5
100
AcDbEntity
  8
图框
370
    -3
100
AcDbLine
 10
842.6237321475781
 20
675.5347692601515
 30
0.0
 11
842.6237321475781
 21
685.0161882398658
 31
0.0
1001
AcDbBlockRepETag
1070
     1
1071
       49
1005
16202
  0
LINE
  5
16203
330
156B5
100
AcDbEntity
  8
图框
370
    -3
100
AcDbLine
 10
848.3346124496179
 20
675.5347692601515
 30
0.0
 11
848.3346124496179
 21
685.0161882398658
 31
0.0
1001
AcDbBlockRepETag
1070
     1
1071
       50
1005
16203
  0
LINE
  5
16204
330
156B5
100
AcDbEntity
  8
图框
370
    -3
100
AcDbLine
 10
854.0454927516588
 20
675.5347692601515
 30
0.0
 11
854.0454927516588
 21
685.0161882398658
 31
0.0
1001
AcDbBlockRepETag
1070
     1
1071
       51
1005
16204
  0
LINE
  5
16205
330
156B5
100
AcDbEntity
  8
图框
370
    -3
100
AcDbLine
 10
861.5351874539182
 20
675.5347692601515
 30
0.0
 11
861.5351874539182
 21
686.7901958362482
 31
0.0
1001
AcDbBlockRepETag
1070
     1
1071
       52
1005
16205
  0
MTEXT
  5
16206
330
156B5
100
AcDbEntity
  8
图框
 62
     6
100
AcDbMText
 10
1105.329704038389
 20
678.859919059449
 30
0.0
 40
2.651776162684904
 41
2.557913877927211
 46
0.0
 71
     1
 72
     5
  1
6
  7
Romans字体
 73
     1
 44
1.0
1001
AcDbBlockRepETag
1070
     1
1071
       53
1005
16206
  0
LINE
  5
16207
330
156B5
100
AcDbEntity
  8
图框
 62
     6
100
AcDbLine
 10
1081.088565155284
 20
679.0347692601516
 30
0.0
 11
1081.088565155284
 21
675.5347692601515
 31
0.0
1001
AcDbBlockRepETag
1070
     1
1071
       54
1005
16207
  0
MTEXT
  5
16208
330
156B5
100
AcDbEntity
  8
图框
 62
     6
100
AcDbMText
 10
1055.900596365941
 20
678.859919059449
 30
0.0
 40
2.651776162684904
 41
2.557913877927211
 46
0.0
 71
     1
 72
     5
  1
5
  7
Romans字体
 73
     1
 44
1.0
1001
AcDbBlockRepETag
1070
     1
1071
       55
1005
16208
  0
LINE
  5
16209
330
156B5
100
AcDbEntity
  8
图框
 62
     6
100
AcDbLine
 10
1031.553386436349
 20
679.0347692601516
 30
0.0
 11
1031.553386436349
 21
675.5347692601515
 31
0.0
1001
AcDbBlockRepETag
1070
     1
1071
       56
1005
16209
  0
MTEXT
  5
1620A
330
156B5
100
AcDbEntity
  8
图框
 62
     6
100
AcDbMText
 10
1006.36541764698
 20
678.7312083656147
 30
0.0
 40
2.651776162684904
 41
2.557913877927211
 46
0.0
 71
     1
 72
     5
  1
4
  7
Romans字体
 73
     1
 44
1.0
1001
AcDbBlockRepETag
1070
     1
1071
       57
1005
1620A
  0
LINE
  5
1620B
330
156B5
100
AcDbEntity
  8
图框
 62
     6
100
AcDbLine
 10
982.0182077173887
 20
679.0347692601516
 30
0.0
 11
982.0182077173887
 21
675.5347692601515
 31
0.0
1001
AcDbBlockRepETag
1070
     1
1071
       58
1005
1620B
  0
MTEXT
  5
1620C
330
156B5
100
AcDbEntity
  8
图框
 62
     6
100
AcDbMText
 10
956.8302389280352
 20
678.859919059449
 30
0.0
 40
2.651776162684904
 41
2.557913877927211
 46
0.0
 71
     1
 72
     5
  1
3
  7
Romans字体
 73
     1
 44
1.0
1001
AcDbBlockRepETag
1070
     1
1071
       59
1005
1620C
  0
LINE
  5
1620D
330
156B5
100
AcDbEntity
  8
图框
 62
     6
100
AcDbLine
 10
932.4830289984245
 20
679.0347692601516
 30
0.0
 11
932.4830289984245
 21
675.5347692601515
 31
0.0
1001
AcDbBlockRepETag
1070
     1
1071
       60
1005
1620D
  0
MTEXT
  5
1620E
330
156B5
100
AcDbEntity
  8
图框
 62
     6
100
AcDbMText
 10
907.295060209082
 20
678.859919059449
 30
0.0
 40
2.651776162684904
 41
2.557913877927211
 46
0.0
 71
     1
 72
     5
  1
2
  7
Romans字体
 73
     1
 44
1.0
1001
AcDbBlockRepETag
1070
     1
1071
       61
1005
1620E
  0
LINE
  5
1620F
330
156B5
100
AcDbEntity
  8
图框
 62
     6
100
AcDbLine
 10
882.9478502794648
 20
678.7962435131815
 30
0.0
 11
882.9478502794648
 21
675.5347692601515
 31
0.0
1001
AcDbBlockRepETag
1070
     1
1071
       62
1005
1620F
  0
MTEXT
  5
16210
330
156B5
100
AcDbEntity
  8
图框
 62
     6
100
AcDbMText
 10
862.6286629643733
 20
678.859919059449
 30
0.0
 40
2.651776162684904
 41
2.557913877927211
 46
0.0
 71
     1
 72
     5
  1
1
  7
Romans字体
 73
     1
 44
1.0
1001
AcDbBlockRepETag
1070
     1
1071
       63
1005
16210
  0
LINE
  5
16211
330
156B5
100
AcDbEntity
  8
图框
370
    -3
100
AcDbLine
 10
836.9128518455394
 20
675.0207195125422
 30
0.0
 11
836.9128518455394
 21
686.7901958362482
 31
0.0
1001
AcDbBlockRepETag
1070
     1
1071
       64
1005
16211
  0
LINE
  5
16212
330
156B5
100
AcDbEntity
  8
图框
370
    50
100
AcDbLine
 10
836.9128518455394
 20
675.5347692601515
 30
0.0
 11
1126.928502610363
 21
675.5347692601515
 31
0.0
1001
AcDbBlockRepETag
1070
     1
1071
       65
1005
16212
  0
LINE
  5
16213
330
156B5
100
AcDbEntity
  8
图框
370
    -3
100
AcDbLine
 10
842.6237321475781
 20
675.5347692601515
 30
0.0
 11
842.6237321475781
 21
686.7901958362482
 31
0.0
1001
AcDbBlockRepETag
1070
     1
1071
       66
1005
16213
  0
LINE
  5
16214
330
156B5
100
AcDbEntity
  8
图框
370
    -3
100
AcDbLine
 10
848.3346124496179
 20
675.5347692601515
 30
0.0
 11
848.3346124496179
 21
686.7901958362482
 31
0.0
1001
AcDbBlockRepETag
1070
     1
1071
       67
1005
16214
  0
MTEXT
  5
16215
102
{ACAD_XDICTIONARY
360
162CB
102
}
330
156B5
100
AcDbEntity
  8
图框
100
AcDbMText
 10
857.7903401027889
 20
686.7901958362482
 30
0.0
 40
1.958998408821398
 41
11.25542657609672
 46
7.489694702258906
 71
     4
 72
     5
  1
\pi2.6646;{\fSimSun|b0|i0|c134|p2;档案员\fFangSong_GB2312|b0|i0|c134|p49;\H0.7x;\P\pi1.4159;\Fromans|c134;Filing Clerk\fFangSong_GB2312|b0|i0|c134|p49; }
 11
-0.0000000000000002
 21
-1.0
 31
0.0
 73
     1
 44
1.0
1001
AcDbBlockRepETag
1070
     1
1071
       68
1005
16215
1001
ACAD
1000
ACAD_MTEXT_DEFINED_HEIGHT_BEGIN
1070
    46
1040
7.489694702258906
1000
ACAD_MTEXT_DEFINED_HEIGHT_END
  0
MTEXT
  5
16216
102
{ACAD_XDICTIONARY
360
162CD
102
}
330
156B5
100
AcDbEntity
  8
图框
100
AcDbMText
 10
845.479172298598
 20
686.7901958362482
 30
0.0
 40
1.958998408821398
 41
11.25542657609672
 46
5.710880302039671
 71
     4
 72
     5
  1
\pi0.63465;{\fSimSun|b0|i0|c134|p2;日期\Fromans|c134;/Date}
 11
-0.0000000000000002
 21
-1.0
 31
0.0
 73
     1
 44
1.0
1001
AcDbBlockRepETag
1070
     1
1071
       69
1005
16216
1001
ACAD
1000
ACAD_MTEXT_DEFINED_HEIGHT_BEGIN
1070
    46
1040
5.710880302039671
1000
ACAD_MTEXT_DEFINED_HEIGHT_END
  0
LINE
  5
16217
330
156B5
100
AcDbEntity
  8
图框
370
    -3
100
AcDbLine
 10
854.0454927516588
 20
675.5347692601515
 30
0.0
 11
854.0454927516588
 21
686.7901958362482
 31
0.0
1001
AcDbBlockRepETag
1070
     1
1071
       70
1005
16217
  0
LINE
  5
16218
330
156B5
100
AcDbEntity
  8
图框
370
    -3
100
AcDbLine
 10
1036.653967466372
 20
531.3291676047914
 30
0.0
 11
1036.653967466372
 21
484.0126019753161
 31
0.0
1001
AcDbBlockRepETag
1070
     1
1071
       71
1005
16218
  0
LINE
  5
16219
330
156B5
100
AcDbEntity
  8
图框
370
    -3
100
AcDbLine
 10
1047.483315900763
 20
507.6708838011533
 30
0.0
 11
1047.483315900763
 21
491.8986945987308
 31
0.0
1001
AcDbBlockRepETag
1070
     1
1071
       72
1005
16219
  0
LINE
  5
1621A
330
156B5
100
AcDbEntity
  8
图框
370
    -3
100
AcDbLine
 10
1058.312664335153
 20
507.6708838011533
 30
0.0
 11
1058.312664335153
 21
484.0347692601515
 31
0.0
1001
AcDbBlockRepETag
1070
     1
1071
       73
1005
1621A
  0
LINE
  5
1621B
330
156B5
100
AcDbEntity
  8
图框
370
    25
100
AcDbLine
 10
1048.474135214456
 20
488.1095628329926
 30
0.0
 11
1054.946420288459
 21
488.1095628329926
 31
0.0
1001
AcDbBlockRepETag
1070
     1
1071
       74
1005
1621B
  0
LINE
  5
1621C
330
156B5
100
AcDbEntity
  8
图框
370
    25
100
AcDbLine
 10
1054.232527365989
 20
487.0761716842634
 30
0.0
 11
1049.156490914508
 21
486.4576273751
 31
0.0
1001
AcDbBlockRepETag
1070
     1
1071
       75
1005
1621C
  0
LINE
  5
1621D
330
156B5
100
AcDbEntity
  8
图框
370
    25
100
AcDbLine
 10
1054.232527365989
 20
489.1429539817209
 30
0.0
 11
1049.156490914508
 21
489.7614982908846
 31
0.0
1001
AcDbBlockRepETag
1070
     1
1071
       76
1005
1621D
  0
LINE
  5
1621E
330
156B5
100
AcDbEntity
  8
图框
370
    25
100
AcDbLine
 10
1049.156490914508
 20
489.7614982908846
 30
0.0
 11
1049.156490914508
 21
486.4576273751
 31
0.0
1001
AcDbBlockRepETag
1070
     1
1071
       77
1005
1621E
  0
LINE
  5
1621F
330
156B5
100
AcDbEntity
  8
图框
370
    25
100
AcDbLine
 10
1054.232527365989
 20
489.1429539817209
 30
0.0
 11
1054.232527365989
 21
487.0761716842634
 31
0.0
1001
AcDbBlockRepETag
1070
     1
1071
       78
1005
1621F
  0
CIRCLE
  5
16220
330
156B5
100
AcDbEntity
  8
图框
370
    25
100
AcDbCircle
 10
1042.502700458579
 20
488.1095628329926
 30
0.0
 40
1.651935457891863
1001
AcDbBlockRepETag
1070
     1
1071
       79
1005
16220
  0
CIRCLE
  5
16221
330
156B5
100
AcDbEntity
  8
图框
370
    25
100
AcDbCircle
 10
1042.502700458579
 20
488.1095628329926
 30
0.0
 40
1.033391148728775
1001
AcDbBlockRepETag
1070
     1
1071
       80
1005
16221
  0
LINE
  5
16222
330
156B5
100
AcDbEntity
  8
图框
370
    25
100
AcDbLine
 10
1040.136872078216
 20
488.1095628329926
 30
0.0
 11
1044.868528838943
 21
488.1095628329926
 31
0.0
1001
AcDbBlockRepETag
1070
     1
1071
       81
1005
16222
  0
LINE
  5
16223
330
156B5
100
AcDbEntity
  8
图框
370
    25
100
AcDbLine
 10
1042.502700458579
 20
490.475391213355
 30
0.0
 11
1042.502700458579
 21
485.743734452629
 31
0.0
1001
AcDbBlockRepETag
1070
     1
1071
       82
1005
16223
  0
LINE
  5
16224
330
156B5
100
AcDbEntity
  8
图框
370
    -3
100
AcDbLine
 10
1069.142012769546
 20
507.6708838011533
 30
0.0
 11
1069.142012769546
 21
491.8986945987308
 31
0.0
1001
AcDbBlockRepETag
1070
     1
1071
       83
1005
16224
  0
MTEXT
  5
16225
330
156B5
100
AcDbEntity
  8
图框
100
AcDbMText
 10
1086.643735910939
 20
526.8006839312707
 30
0.0
 40
2.154898249703542
 41
13.34474941400573
 46
9.056967347041775
 71
     5
 72
     5
  1
图号{\Ftxt|c134;\P\Fromans|c134;\W0.65;Drawing No.}
 73
     1
 44
1.0
1001
AcDbBlockRepETag
1070
     1
1071
       84
1005
16225
1001
ACAD
1000
ACAD_MTEXT_DEFINED_HEIGHT_BEGIN
1070
    46
1040
9.056967347041775
1000
ACAD_MTEXT_DEFINED_HEIGHT_END
  0
LINE
  5
16226
330
156B5
100
AcDbEntity
  8
图框
370
    -3
100
AcDbLine
 10
1093.316110617942
 20
531.3291676047914
 30
0.0
 11
1093.316110617942
 21
495.8417418993347
 31
0.0
1001
AcDbBlockRepETag
1070
     1
1071
       85
1005
16226
  0
LINE
  5
16227
330
156B5
100
AcDbEntity
  8
图框
370
    -3
100
AcDbLine
 10
1047.473969770481
 20
531.3291676047914
 30
0.0
 11
1047.473969770481
 21
507.6708838011533
 31
0.0
1001
AcDbBlockRepETag
1070
     1
1071
       86
1005
16227
  0
MTEXT
  5
16228
330
156B5
100
AcDbEntity
  8
图框
100
AcDbMText
 10
1063.72733855235
 20
503.7278365005473
 30
0.0
 40
2.252848170144607
 41
10.82934843439208
 46
7.886094601212128
 71
     5
 72
     5
  1
重量\P{\Fromans|c134;Weight}
 73
     1
 44
1.0
1001
AcDbBlockRepETag
1070
     1
1071
       87
1005
16228
1001
ACAD
1000
ACAD_MTEXT_DEFINED_HEIGHT_BEGIN
1070
    46
1040
7.886094601212128
1000
ACAD_MTEXT_DEFINED_HEIGHT_END
  0
LINE
  5
16229
330
156B5
100
AcDbEntity
  8
图框
370
    -3
100
AcDbLine
 10
1036.653967466372
 20
519.5000257029746
 30
0.0
 11
1079.971361203936
 21
519.5000257029746
 31
0.0
1001
AcDbBlockRepETag
1070
     1
1071
       88
1005
16229
  0
MTEXT
  5
1622A
330
156B5
100
AcDbEntity
  8
图框
100
AcDbMText
 10
1074.556686986741
 20
503.7278365005473
 30
0.0
 40
2.252848170144607
 41
10.82934843438984
 46
7.886094601212141
 71
     5
 72
     5
  1
数量\P{\Fromans|c134;Qty.}
 73
     1
 44
1.0
1001
AcDbBlockRepETag
1070
     1
1071
       89
1005
1622A
1001
ACAD
1000
ACAD_MTEXT_DEFINED_HEIGHT_BEGIN
1070
    46
1040
7.886094601212141
1000
ACAD_MTEXT_DEFINED_HEIGHT_END
  0
LINE
  5
1622B
330
156B5
100
AcDbEntity
  8
图框
370
    -3
100
AcDbLine
 10
1079.971361203936
 20
495.8417418993347
 30
0.0
 11
1126.928502610363
 21
495.8417418993342
 31
0.0
1001
AcDbBlockRepETag
1070
     1
1071
       90
1005
1622B
  0
LINE
  5
1622C
330
156B5
100
AcDbEntity
  8
图框
370
    -3
100
AcDbLine
 10
1079.971361203936
 20
504.7132992040975
 30
0.0
 11
1126.928502610363
 21
504.7132992040975
 31
0.0
1001
AcDbBlockRepETag
1070
     1
1071
       91
1005
1622C
  0
MTEXT
  5
1622D
330
156B5
100
AcDbEntity
  8
图框
100
AcDbMText
 10
1052.893317052817
 20
503.7278365005473
 30
0.0
 40
2.252848170144607
 41
10.83869456467139
 46
7.886094601212101
 71
     5
 72
     5
  1
版本\P{\Fromans|c134;REV.}
 73
     1
 44
1.0
1001
AcDbBlockRepETag
1070
     1
1071
       92
1005
1622D
1001
ACAD
1000
ACAD_MTEXT_DEFINED_HEIGHT_BEGIN
1070
    46
1040
7.886094601212101
1000
ACAD_MTEXT_DEFINED_HEIGHT_END
  0
MTEXT
  5
1622E
330
156B5
100
AcDbEntity
  8
图框
100
AcDbMText
 10
1042.068641683568
 20
503.7278365005473
 30
0.0
 40
2.252848170144607
 41
10.8293484343908
 46
7.886094601212136
 71
     5
 72
     5
  1
比例\P{\Fromans|c134;Scale}
 73
     1
 44
1.0
1001
AcDbBlockRepETag
1070
     1
1071
       93
1005
1622E
1001
ACAD
1000
ACAD_MTEXT_DEFINED_HEIGHT_BEGIN
1070
    46
1040
7.886094601212136
1000
ACAD_MTEXT_DEFINED_HEIGHT_END
  0
LINE
  5
1622F
330
156B5
100
AcDbEntity
  8
图框
370
    -3
100
AcDbLine
 10
1036.653967466372
 20
507.6708838011533
 30
0.0
 11
1079.971361203936
 21
507.6708838011533
 31
0.0
1001
AcDbBlockRepETag
1070
     1
1071
       94
1005
1622F
  0
LINE
  5
16230
330
156B5
100
AcDbEntity
  8
图框
370
    -3
100
AcDbLine
 10
1036.653967466372
 20
491.8986945987308
 30
0.0
 11
1079.971361203936
 21
491.8986945987308
 31
0.0
1001
AcDbBlockRepETag
1070
     1
1071
       95
1005
16230
  0
LINE
  5
16231
330
156B5
100
AcDbEntity
  8
图框
370
    -3
100
AcDbLine
 10
1079.971361203936
 20
531.3291676047914
 30
0.0
 11
1079.971361203936
 21
484.0125999975168
 31
0.0
1001
AcDbBlockRepETag
1070
     1
1071
       96
1005
16231
  0
MTEXT
  5
16232
330
156B5
100
AcDbEntity
  8
图框
100
AcDbMText
 10
1042.063968618426
 20
525.4145966538832
 30
0.0
 40
2.252848170144607
 41
10.82000230410933
 46
11.82914190181708
 71
     5
 72
     5
  1
表面处理\P{\Fromans|c134;Finish}
 73
     1
 44
1.0
1001
AcDbBlockRepETag
1070
     1
1071
       97
1005
16232
1001
ACAD
1000
ACAD_MTEXT_DEFINED_HEIGHT_BEGIN
1070
    46
1040
11.82914190181708
1000
ACAD_MTEXT_DEFINED_HEIGHT_END
  0
MTEXT
  5
16233
330
156B5
100
AcDbEntity
  8
图框
100
AcDbMText
 10
1042.063968618426
 20
513.5854547520639
 30
0.0
 40
2.252848170144607
 41
10.82000230410933
 46
11.8291419018212
 71
     5
 72
     5
  1
材料\P{\Fromans|c134;Material}
 73
     1
 44
1.0
1001
AcDbBlockRepETag
1070
     1
1071
       98
1005
16233
1001
ACAD
1000
ACAD_MTEXT_DEFINED_HEIGHT_BEGIN
1070
    46
1040
11.8291419018212
1000
ACAD_MTEXT_DEFINED_HEIGHT_END
  0
LINE
  5
16234
330
156B5
100
AcDbEntity
  8
图框
370
    -3
100
AcDbLine
 10
1079.971361203936
 20
522.27220025775
 30
0.0
 11
1126.928502610363
 21
522.27220025775
 31
0.0
1001
AcDbBlockRepETag
1070
     1
1071
       99
1005
16234
  0
LINE
  5
16235
330
156B5
100
AcDbEntity
  8
图框
370
    -3
100
AcDbLine
 10
1079.971361203936
 20
513.5854547520641
 30
0.0
 11
1126.928502610363
 21
513.5854547520639
 31
0.0
1001
AcDbBlockRepETag
1070
     1
1071
      100
1005
16235
  0
MTEXT
  5
16236
330
156B5
100
AcDbEntity
  8
图框
100
AcDbMText
 10
1086.643735910939
 20
517.9288275049072
 30
0.0
 40
1.958998408821398
 41
13.34474941400573
 46
8.686745505685811
 71
     5
 72
     5
  1
产品代号\P{\Fromans|c134;Part Code}
 73
     1
 44
1.0
1001
AcDbBlockRepETag
1070
     1
1071
      101
1005
16236
1001
ACAD
1000
ACAD_MTEXT_DEFINED_HEIGHT_BEGIN
1070
    46
1040
8.686745505685811
1000
ACAD_MTEXT_DEFINED_HEIGHT_END
  0
LINE
  5
16237
330
156B5
100
AcDbEntity
  8
图框
370
    -3
100
AcDbLine
 10
946.9285026103634
 20
525.7982263931411
 30
0.0
 11
1036.653967466372
 21
525.7982263931411
 31
0.0
1001
AcDbBlockRepETag
1070
     1
1071
      102
1005
16237
  0
LINE
  5
16238
330
156B5
100
AcDbEntity
  8
图框
370
    -3
100
AcDbLine
 10
946.9285026103634
 20
520.2672851814959
 30
0.0
 11
1036.653967466372
 21
520.2672851814959
 31
0.0
1001
AcDbBlockRepETag
1070
     1
1071
      103
1005
16238
  0
LINE
  5
16239
330
156B5
100
AcDbEntity
  8
图框
370
    35
100
AcDbLine
 10
946.9285026103634
 20
531.3291676047914
 30
0.0
 11
1126.928502610363
 21
531.3291676047914
 31
0.0
1001
AcDbBlockRepETag
1070
     1
1071
      104
1005
16239
  0
LINE
  5
1623A
330
156B5
100
AcDbEntity
  8
图框
370
    -3
100
AcDbLine
 10
990.6727612856927
 20
509.2054027581959
 30
0.0
 11
990.6727612856927
 21
484.0347692601515
 31
0.0
1001
AcDbBlockRepETag
1070
     1
1071
      105
1005
1623A
  0
MTEXT
  5
1623B
102
{ACAD_XDICTIONARY
360
162CF
102
}
330
156B5
100
AcDbEntity
  8
图框
100
AcDbMText
 10
997.1628169651232
 20
499.816589978722
 30
0.0
 40
2.252848170144607
 41
12.98011135886052
 46
6.19230880992475
 71
     5
 72
     5
  1
{\fSimSun|b0|i0|c134|p2;标准化}\PStand.
  7
Romans字体
 73
     1
 44
1.0
1001
AcDbBlockRepETag
1070
     1
1071
      106
1005
1623B
1001
ACAD
1000
ACAD_MTEXT_DEFINED_HEIGHT_BEGIN
1070
    46
1040
6.19230880992475
1000
ACAD_MTEXT_DEFINED_HEIGHT_END
  0
LINE
  5
1623C
330
156B5
100
AcDbEntity
  8
图框
370
    -3
100
AcDbLine
 10
975.4103773808022
 20
509.2054027581959
 30
0.0
 11
975.4103773808022
 21
484.0347692601515
 31
0.0
1001
AcDbBlockRepETag
1070
     1
1071
      107
1005
1623C
  0
MTEXT
  5
1623D
330
156B5
100
AcDbEntity
  8
图框
100
AcDbMText
 10
984.5089229802068
 20
511.9708733640202
 30
0.0
 40
2.448748011026752
 41
38.287899328693
 46
5.530941211648832
 71
     5
 72
     5
  1
  变更描述{\Fromans|c134;/Description}
 73
     1
 44
1.0
1001
AcDbBlockRepETag
1070
     1
1071
      108
1005
1623D
1001
ACAD
1000
ACAD_MTEXT_DEFINED_HEIGHT_BEGIN
1070
    46
1040
5.530941211648832
1000
ACAD_MTEXT_DEFINED_HEIGHT_END
  0
MTEXT
  5
1623E
102
{ACAD_XDICTIONARY
360
162D1
102
}
330
156B5
100
AcDbEntity
  8
图框
100
AcDbMText
 10
1012.466086049227
 20
511.9708733640202
 30
0.0
 40
1.958998408821398
 41
17.6264268093469
 46
5.530941211648825
 71
     5
 72
     5
  1
{\fSimSun|b0|i0|c134|p2;签名\P\Fromans|c134;Signature} 
 73
     1
 44
1.0
1001
AcDbBlockRepETag
1070
     1
1071
      109
1005
1623E
1001
ACAD
1000
ACAD_MTEXT_DEFINED_HEIGHT_BEGIN
1070
    46
1040
5.530941211648825
1000
ACAD_MTEXT_DEFINED_HEIGHT_END
  0
MTEXT
  5
1623F
102
{ACAD_XDICTIONARY
360
162D3
102
}
330
156B5
100
AcDbEntity
  8
图框
100
AcDbMText
 10
960.7558556394856
 20
511.9708733640202
 30
0.0
 40
1.958998408821398
 41
9.218235352749283
 46
5.530941211648841
 71
     5
 72
     5
  1
{\fSimSun|b0|i0|c134|p2;处数\P\Fromans|c134;Number }
 73
     1
 44
1.0
1001
AcDbBlockRepETag
1070
     1
1071
      110
1005
1623F
1001
ACAD
1000
ACAD_MTEXT_DEFINED_HEIGHT_BEGIN
1070
    46
1040
5.530941211648841
1000
ACAD_MTEXT_DEFINED_HEIGHT_END
  0
LINE
  5
16240
330
156B5
100
AcDbEntity
  8
图框
370
    -3
100
AcDbLine
 10
946.9285026103634
 20
514.7363439698449
 30
0.0
 11
1036.653967466372
 21
514.7363439698449
 31
0.0
1001
AcDbBlockRepETag
1070
     1
1071
      111
1005
16240
  0
LINE
  5
16241
330
156B5
100
AcDbEntity
  8
图框
370
    -3
100
AcDbLine
 10
946.9285026103634
 20
509.2054027581959
 30
0.0
 11
1036.653967466372
 21
509.2054027581959
 31
0.0
1001
AcDbBlockRepETag
1070
     1
1071
      112
1005
16241
  0
LINE
  5
16242
330
156B5
100
AcDbEntity
  8
图框
370
    -3
100
AcDbLine
 10
946.9285026103634
 20
502.9127443836848
 30
0.0
 11
1036.653967466372
 21
502.9127443836848
 31
0.0
1001
AcDbBlockRepETag
1070
     1
1071
      113
1005
16242
  0
LINE
  5
16243
330
156B5
100
AcDbEntity
  8
图框
370
    -3
100
AcDbLine
 10
946.9285026103634
 20
496.620086009173
 30
0.0
 11
1036.653967466372
 21
496.620086009173
 31
0.0
1001
AcDbBlockRepETag
1070
     1
1071
      114
1005
16243
  0
LINE
  5
16244
330
156B5
100
AcDbEntity
  8
图框
370
    35
380
     1
100
AcDbLine
 10
946.9285026103634
 20
531.3291676047914
 30
0.0
 11
946.9285026103634
 21
484.0347692601515
 31
0.0
1001
AcDbBlockRepETag
1070
     1
1071
      115
1005
16244
  0
LINE
  5
16245
330
156B5
100
AcDbEntity
  8
图框
370
    -3
100
AcDbLine
 10
1021.301636813399
 20
531.3291676047914
 30
0.0
 11
1021.301636813399
 21
484.0347692601515
 31
0.0
1001
AcDbBlockRepETag
1070
     1
1071
      116
1005
16245
  0
LINE
  5
16246
330
156B5
100
AcDbEntity
  8
图框
370
    -3
100
AcDbLine
 10
1003.652872644553
 20
531.3291676047914
 30
0.0
 11
1003.652872644553
 21
484.0347692601515
 31
0.0
1001
AcDbBlockRepETag
1070
     1
1071
      117
1005
16246
  0
LINE
  5
16247
330
156B5
100
AcDbEntity
  8
图框
370
    -3
100
AcDbLine
 10
965.3649733158603
 20
531.3291676047914
 30
0.0
 11
965.3649733158603
 21
509.2054027581959
 31
0.0
1001
AcDbBlockRepETag
1070
     1
1071
      118
1005
16247
  0
LINE
  5
16248
330
156B5
100
AcDbEntity
  8
图框
370
    -3
100
AcDbLine
 10
956.1467379631109
 20
531.3291676047914
 30
0.0
 11
956.1467379631109
 21
509.2054027581959
 31
0.0
1001
AcDbBlockRepETag
1070
     1
1071
      119
1005
16248
  0
MTEXT
  5
16249
102
{ACAD_XDICTIONARY
360
162D5
102
}
330
156B5
100
AcDbEntity
  8
图框
100
AcDbMText
 10
951.537620286737
 20
511.9708733640202
 30
0.0
 40
1.958998408821398
 41
9.218235352747692
 46
5.530941211648832
 71
     5
 72
     5
  1
{\fSimSun|b0|i0|c134|p2;标记\P\Fromans|c134;Mark}
 73
     1
 44
1.0
1001
AcDbBlockRepETag
1070
     1
1071
      120
1005
16249
1001
ACAD
1000
ACAD_MTEXT_DEFINED_HEIGHT_BEGIN
1070
    46
1040
5.530941211648832
1000
ACAD_MTEXT_DEFINED_HEIGHT_END
  0
MTEXT
  5
1624A
102
{ACAD_XDICTIONARY
360
162D7
102
}
330
156B5
100
AcDbEntity
  8
图框
100
AcDbMText
 10
953.4185582897936
 20
493.4737568219182
 30
0.0
 40
2.252848170144607
 41
12.98011135886041
 46
6.292658374510382
 71
     5
 72
     5
  1
{\fSimSun|b0|i0|c134|p2;审核\P\Fromans|c134;Checked}
 73
     1
 44
1.0
1001
AcDbBlockRepETag
1070
     1
1071
      121
1005
1624A
1001
ACAD
1000
ACAD_MTEXT_DEFINED_HEIGHT_BEGIN
1070
    46
1040
6.292658374510382
1000
ACAD_MTEXT_DEFINED_HEIGHT_END
  0
MTEXT
  5
1624B
102
{ACAD_XDICTIONARY
360
162D9
102
}
330
156B5
100
AcDbEntity
  8
图框
100
AcDbMText
 10
953.4185582897936
 20
499.8775635376777
 30
0.0
 40
2.252848170144607
 41
12.98011135886041
 46
6.070361692014189
 71
     5
 72
     5
  1
{\fSimSun|b0|i0|c134|p2;绘图\P\Fromans|c134;Drawn\Ftxt|c134; }
 73
     1
 44
1.0
1001
AcDbBlockRepETag
1070
     1
1071
      122
1005
1624B
1001
ACAD
1000
ACAD_MTEXT_DEFINED_HEIGHT_BEGIN
1070
    46
1040
6.070361692014189
1000
ACAD_MTEXT_DEFINED_HEIGHT_END
  0
ARC
  5
1624C
330
156B5
100
AcDbEntity
  8
图框
 62
     4
370
    35
100
AcDbCircle
 10
1086.900627017421
 20
490.0179944151195
 30
0.0
 40
4.063310408393665
100
AcDbArc
 50
18.95237904564806
 51
161.0476209543519
1001
AcDbBlockRepETag
1070
     1
1071
      123
1005
1624C
  0
ARC
  5
1624D
330
156B5
100
AcDbEntity
  8
图框
 62
     4
370
    35
100
AcDbCircle
 10
1086.900627017421
 20
490.0179944151195
 30
0.0
 40
4.063310408393665
100
AcDbArc
 50
198.952379045648
 51
341.0476209543519
1001
AcDbBlockRepETag
1070
     1
1071
      124
1005
1624D
  0
LINE
  5
1624E
330
156B5
100
AcDbEntity
  8
图框
 62
     4
370
    35
100
AcDbLine
 10
1083.057593369548
 20
488.6983035966752
 30
0.0
 11
1090.74366066529
 21
488.6983035966752
 31
0.0
1001
AcDbBlockRepETag
1070
     1
1071
      125
1005
1624E
  0
LINE
  5
1624F
330
156B5
100
AcDbEntity
  8
图框
 62
     4
370
    35
100
AcDbLine
 10
1083.057593369548
 20
491.3376852335652
 30
0.0
 11
1090.74366066529
 21
491.3376852335652
 31
0.0
1001
AcDbBlockRepETag
1070
     1
1071
      126
1005
1624F
  0
MTEXT
  5
16250
330
156B5
100
AcDbEntity
  8
图框
 62
     1
370
    20
100
AcDbMText
 10
1083.034582879669
 20
491.0506288081688
 30
0.0
 40
2.005930044038334
 41
5.047240019334847
 46
0.0
 71
     1
 72
     5
  1
{\fArial|b0|i0|c0|p34;W}
  7
Chinese
 73
     1
 44
1.0
1001
AcDbBlockRepETag
1070
     1
1071
      127
1005
16250
  0
LINE
  5
16251
330
156B5
100
AcDbEntity
  8
图框
370
    -3
100
AcDbLine
 10
946.9285026103634
 20
490.327427634663
 30
0.0
 11
1036.653967466372
 21
490.327427634663
 31
0.0
1001
AcDbBlockRepETag
1070
     1
1071
      128
1005
16251
  0
LINE
  5
16252
330
156B5
100
AcDbEntity
  8
图框
370
    -3
100
AcDbLine
 10
959.9086139692238
 20
509.2054027581959
 30
0.0
 11
959.9086139692238
 21
484.0347692601515
 31
0.0
1001
AcDbBlockRepETag
1070
     1
1071
      129
1005
16252
  0
MTEXT
  5
16253
330
156B5
100
AcDbEntity
  8
图框
100
AcDbMText
 10
967.6594956750129
 20
506.0590735709403
 30
0.0
 40
2.252848170144607
 41
15.50176341157869
 46
6.292658374511246
 71
     5
 72
     5
  1
姓名{\Fromans|c134;/Name\Ftxt|c134; }
 73
     1
 44
1.0
1001
AcDbBlockRepETag
1070
     1
1071
      130
1005
16253
1001
ACAD
1000
ACAD_MTEXT_DEFINED_HEIGHT_BEGIN
1070
    46
1040
6.292658374511246
1000
ACAD_MTEXT_DEFINED_HEIGHT_END
  0
MTEXT
  5
16254
330
156B5
100
AcDbEntity
  8
图框
100
AcDbMText
 10
983.0415693332477
 20
506.0590735709403
 30
0.0
 40
2.252848170144607
 41
15.26238390489042
 46
6.2926583745112
 71
     5
 72
     5
  1
日期{\Fromans|c134;/Date}
 73
     1
 44
1.0
1001
AcDbBlockRepETag
1070
     1
1071
      131
1005
16254
1001
ACAD
1000
ACAD_MTEXT_DEFINED_HEIGHT_BEGIN
1070
    46
1040
6.2926583745112
1000
ACAD_MTEXT_DEFINED_HEIGHT_END
  0
LINE
  5
16255
330
156B5
100
AcDbEntity
  8
图框
370
    -3
100
AcDbLine
 10
946.9285026103634
 20
509.2054027581959
 30
0.0
 11
959.9086139692238
 21
502.9127443836848
 31
0.0
1001
AcDbBlockRepETag
1070
     1
1071
      132
1005
16255
  0
MTEXT
  5
16256
330
156B5
100
AcDbEntity
  8
图框
100
AcDbMText
 10
1012.931405110086
 20
506.0185715840725
 30
0.0
 40
2.252848170144607
 41
16.93492221063566
 46
0.0
 71
     5
 72
     5
  1
姓名{\Fromans|c134;/Name}
 73
     1
 44
1.0
1001
AcDbBlockRepETag
1070
     1
1071
      133
1005
16256
  0
MTEXT
  5
16257
330
156B5
100
AcDbEntity
  8
图框
100
AcDbMText
 10
1028.977802139886
 20
506.0590735709403
 30
0.0
 40
2.252848170144607
 41
15.35233065297283
 46
6.292658374511256
 71
     5
 72
     5
  1
日期{\Fromans|c134;/Date}
 73
     1
 44
1.0
1001
AcDbBlockRepETag
1070
     1
1071
      134
1005
16257
1001
ACAD
1000
ACAD_MTEXT_DEFINED_HEIGHT_BEGIN
1070
    46
1040
6.292658374511256
1000
ACAD_MTEXT_DEFINED_HEIGHT_END
  0
LINE
  5
16258
330
156B5
100
AcDbEntity
  8
图框
370
    -3
100
AcDbLine
 10
1003.652872644553
 20
502.9127443836848
 30
0.0
 11
990.6727612856927
 21
509.2054027581959
 31
0.0
1001
AcDbBlockRepETag
1070
     1
1071
      135
1005
16258
  0
MTEXT
  5
16259
102
{ACAD_XDICTIONARY
360
162DB
102
}
330
156B5
100
AcDbEntity
  8
图框
100
AcDbMText
 10
997.1628169651232
 20
487.1810984474071
 30
0.0
 40
2.252848170144607
 41
12.98011135886052
 46
6.292658374511517
 71
     5
 72
     5
  1
{\fSimSun|b0|i0|c134|p2;批准\P\Fromans|c134;Approved}
 73
     1
 44
1.0
1001
AcDbBlockRepETag
1070
     1
1071
      136
1005
16259
1001
ACAD
1000
ACAD_MTEXT_DEFINED_HEIGHT_BEGIN
1070
    46
1040
6.292658374511517
1000
ACAD_MTEXT_DEFINED_HEIGHT_END
  0
MTEXT
  5
1625A
102
{ACAD_XDICTIONARY
360
162DD
102
}
330
156B5
100
AcDbEntity
  8
图框
100
AcDbMText
 10
953.4185582897936
 20
487.1810984474071
 30
0.0
 40
2.252848170144607
 41
12.98011135886041
 46
6.292658374511495
 71
     5
 72
     5
  1
{\fSimSun|b0|i0|c134|p2;工艺\P\Fromans|c134;Process}
 73
     1
 44
1.0
1001
AcDbBlockRepETag
1070
     1
1071
      137
1005
1625A
1001
ACAD
1000
ACAD_MTEXT_DEFINED_HEIGHT_BEGIN
1070
    46
1040
6.292658374511495
1000
ACAD_MTEXT_DEFINED_HEIGHT_END
  0
MTEXT
  5
1625B
102
{ACAD_XDICTIONARY
360
162DF
102
}
330
156B5
100
AcDbEntity
  8
图框
100
AcDbMText
 10
1028.977802139886
 20
511.8287965307664
 30
0.0
 40
1.958998408821398
 41
15.3523306529728
 46
5.246787545140668
 71
     5
 72
     5
  1
{\fSimSun|b0|i0|c134|p2;日期\P\Fromans|c134;Date}
 73
     1
 44
1.0
1001
AcDbBlockRepETag
1070
     1
1071
      138
1005
1625B
1001
ACAD
1000
ACAD_MTEXT_DEFINED_HEIGHT_BEGIN
1070
    46
1040
5.246787545140668
1000
ACAD_MTEXT_DEFINED_HEIGHT_END
  0
MTEXT
  5
1625C
330
156B5
100
AcDbEntity
  8
图框
100
AcDbMText
 10
1086.643735910939
 20
509.1493769780809
 30
0.0
 40
2.154898249703542
 41
13.34474941400573
 46
8.87215554796615
 71
     5
 72
     5
  1
产品料号\P{\Fromans|c134;Part No.}
 73
     1
 44
1.0
1001
AcDbBlockRepETag
1070
     1
1071
      139
1005
1625C
1001
ACAD
1000
ACAD_MTEXT_DEFINED_HEIGHT_BEGIN
1070
    46
1040
8.87215554796615
1000
ACAD_MTEXT_DEFINED_HEIGHT_END
  0
MTEXT
  5
1625D
330
156B5
100
AcDbEntity
  8
图框
100
AcDbMText
 10
1086.643735910939
 20
500.2775205517163
 30
0.0
 40
1.958998408821398
 41
13.34474941400573
 46
8.871557304763321
 71
     5
 72
     5
  1
产品名称\P{\Fromans|c134;Part Name}
 73
     1
 44
1.0
1001
AcDbBlockRepETag
1070
     1
1071
      140
1005
1625D
1001
ACAD
1000
ACAD_MTEXT_DEFINED_HEIGHT_BEGIN
1070
    46
1040
8.871557304763321
1000
ACAD_MTEXT_DEFINED_HEIGHT_END
  0
LINE
  5
1625E
330
156B5
100
AcDbEntity
  8
图框
 62
     1
370
    18
100
AcDbLine
 10
833.4128518455365
 20
690.5347692601515
 30
0.0
 11
833.4128518455365
 21
480.5347692601515
 31
0.0
1001
AcDbBlockRepETag
1070
     1
1071
      141
1005
1625E
  0
LINE
  5
1625F
330
156B5
100
AcDbEntity
  8
图框
 62
     1
370
    18
100
AcDbLine
 10
833.4128518455365
 20
480.5347692601515
 30
0.0
 11
1130.411601781236
 21
480.5347692601515
 31
0.0
1001
AcDbBlockRepETag
1070
     1
1071
      142
1005
1625F
  0
LINE
  5
16260
330
156B5
100
AcDbEntity
  8
图框
 62
     1
370
    18
100
AcDbLine
 10
833.4128518455365
 20
690.5347692601515
 30
0.0
 11
1130.411601781236
 21
690.5347692601515
 31
0.0
1001
AcDbBlockRepETag
1070
     1
1071
      143
1005
16260
  0
LINE
  5
16261
330
156B5
100
AcDbEntity
  8
图框
 62
     1
370
    18
100
AcDbLine
 10
1130.411601781236
 20
480.5347692601515
 30
0.0
 11
1130.411601781236
 21
690.5347692601515
 31
0.0
1001
AcDbBlockRepETag
1070
     1
1071
      144
1005
16261
  0
LINE
  5
16262
330
156B5
100
AcDbEntity
  8
图框
370
    18
100
AcDbLine
 10
836.9128518455394
 20
686.7901958362482
 30
0.0
 11
861.5351874539182
 21
686.7901958362482
 31
0.0
1001
AcDbBlockRepETag
1070
     1
1071
      145
1005
16262
  0
LINE
  5
16263
330
156B5
100
AcDbEntity
  8
图框
370
    50
100
AcDbLine
 10
1126.928502610363
 20
484.3410054693078
 30
0.0
 11
1126.928502610363
 21
675.5347692601515
 31
0.0
1001
AcDbBlockRepETag
1070
     1
1071
      146
1005
16263
  0
MTEXT
  5
16264
330
156B5
100
AcDbEntity
  8
图框
 62
     3
100
AcDbMText
 10
1052.897990117958
 20
495.8417418993364
 30
0.0
 40
2.985513575034151
 41
10.82934843439114
 46
7.886094601211307
 71
     5
 72
     5
  1
V1.1
  7
Romans字体
 73
     1
 44
1.0
1001
AcDbBlockRepETag
1070
     1
1071
      147
1005
16264
1001
ACAD
1000
ACAD_MTEXT_DEFINED_HEIGHT_BEGIN
1070
    46
1040
7.886094601211307
1000
ACAD_MTEXT_DEFINED_HEIGHT_END
  0
LINE
  5
16265
330
156B5
100
AcDbEntity
  8
图框
 62
     6
100
AcDbLine
 10
1126.911601781236
 20
531.714049199969
 30
0.0
 11
1130.411601781236
 21
531.714049199969
 31
0.0
1001
AcDbBlockRepETag
1070
     1
1071
      148
1005
16265
  0
ENDBLK
  5
1574D
330
156B5
100
AcDbEntity
  8
0
100
AcDbBlockEnd
  0
BLOCK
  5
157DF
330
157DE
100
AcDbEntity
  8
0
100
AcDbBlockBegin
  2
*D6
 70
     1
 10
0.0
 20
0.0
 30
0.0
  3
*D6
  1

  0
LINE
  5
157E0
330
157DE
100
AcDbEntity
  8
DIM
 62
     6
370
    -2
100
AcDbLine
 10
831.3177651599172
 20
220.4788945215835
 30
0.0
 11
836.5996681599176
 21
220.4788945215835
 31
0.0
  0
LINE
  5
157E1
330
157DE
100
AcDbEntity
  8
DIM
 62
     6
370
    -2
100
AcDbLine
 10
831.3177651599172
 20
218.8938945215835
 30
0.0
 11
836.5996681599176
 21
218.8938945215835
 31
0.0
  0
LINE
  5
157E2
330
157DE
100
AcDbEntity
  8
DIM
 62
     1
370
    -2
100
AcDbLine
 10
836.0996681599173
 20
217.3938945215835
 30
0.0
 11
836.0996681599173
 21
215.8938945215835
 31
0.0
  0
LINE
  5
157E3
330
157DE
100
AcDbEntity
  8
DIM
 62
     1
370
    -2
100
AcDbLine
 10
836.0996681599173
 20
221.9788945215835
 30
0.0
 11
836.0996681599173
 21
229.1217516644406
 31
0.0
  0
SOLID
  5
157E4
330
157DE
100
AcDbEntity
  8
DIM
 62
     1
100
AcDbTrace
 10
835.8496681599174
 20
217.3938945215835
 30
0.0
 11
836.3496681599174
 21
217.3938945215835
 31
0.0
 12
836.0996681599173
 22
218.8938945215835
 32
0.0
 13
836.0996681599173
 23
218.8938945215835
 33
0.0
  0
SOLID
  5
157E5
330
157DE
100
AcDbEntity
  8
DIM
 62
     1
100
AcDbTrace
 10
835.8496681599174
 20
221.9788945215835
 30
0.0
 11
836.3496681599174
 21
221.9788945215835
 31
0.0
 12
836.0996681599173
 22
220.4788945215835
 32
0.0
 13
836.0996681599173
 23
220.4788945215835
 33
0.0
  0
MTEXT
  5
157E6
330
157DE
100
AcDbEntity
  8
DIM
 62
     4
100
AcDbMText
 10
834.5996681599174
 20
226.3003230930122
 30
0.0
 40
2.0
 41
0.0
 46
0.0
 71
     5
 72
     1
  1
\A1;{\Fromand,hztxt|c134;%%C1.6}
  7
Romans字体
 11
0.0000000000000001
 21
1.0
 31
0.0
 73
     1
 44
1.0
  0
POINT
  5
157E7
330
157DE
100
AcDbEntity
  8
Defpoints
 62
     0
100
AcDbPoint
 10
831.1177651599171
 20
220.4788945215835
 30
0.0
  0
POINT
  5
157E8
330
157DE
100
AcDbEntity
  8
Defpoints
 62
     0
100
AcDbPoint
 10
831.1177651599171
 20
218.8938945215835
 30
0.0
  0
POINT
  5
157E9
330
157DE
100
AcDbEntity
  8
Defpoints
 62
     0
100
AcDbPoint
 10
836.0996681599173
 20
218.8938945215835
 30
0.0
  0
ENDBLK
  5
157EA
330
157DE
100
AcDbEntity
  8
0
100
AcDbBlockEnd
  0
BLOCK
  5
157EC
330
157EB
100
AcDbEntity
  8
0
100
AcDbBlockBegin
  2
*D7
 70
     1
 10
0.0
 20
0.0
 30
0.0
  3
*D7
  1

  0
LINE
  5
157ED
330
157EB
100
AcDbEntity
  8
DIM
 62
     6
370
    -2
100
AcDbLine
 10
802.9425261599172
 20
220.1863945215835
 30
0.0
 11
799.2210428091574
 21
220.1863945215835
 31
0.0
  0
LINE
  5
157EE
330
157EB
100
AcDbEntity
  8
DIM
 62
     6
370
    -2
100
AcDbLine
 10
802.9425261599172
 20
219.1863945215835
 30
0.0
 11
799.2210428091574
 21
219.1863945215835
 31
0.0
  0
LINE
  5
157EF
330
157EB
100
AcDbEntity
  8
DIM
 62
     1
370
    -2
100
AcDbLine
 10
799.7210428091574
 20
217.6863945215835
 30
0.0
 11
799.7210428091574
 21
216.1863945215835
 31
0.0
  0
LINE
  5
157F0
330
157EB
100
AcDbEntity
  8
DIM
 62
     1
370
    -2
100
AcDbLine
 10
799.7210428091574
 20
221.6863945215835
 30
0.0
 11
799.7210428091574
 21
226.1863945215835
 31
0.0
  0
SOLID
  5
157F1
330
157EB
100
AcDbEntity
  8
DIM
 62
     1
100
AcDbTrace
 10
799.4710428091574
 20
217.6863945215835
 30
0.0
 11
799.9710428091574
 21
217.6863945215835
 31
0.0
 12
799.7210428091574
 22
219.1863945215835
 32
0.0
 13
799.7210428091574
 23
219.1863945215835
 33
0.0
  0
SOLID
  5
157F2
330
157EB
100
AcDbEntity
  8
DIM
 62
     1
100
AcDbTrace
 10
799.4710428091574
 20
221.6863945215835
 30
0.0
 11
799.9710428091574
 21
221.6863945215835
 31
0.0
 12
799.7210428091574
 22
220.1863945215835
 32
0.0
 13
799.7210428091574
 23
220.1863945215835
 33
0.0
  0
MTEXT
  5
157F3
330
157EB
100
AcDbEntity
  8
DIM
 62
     4
100
AcDbMText
 10
798.2210428091574
 20
224.6863945215836
 30
0.0
 40
2.0
 41
0.0
 46
0.0
 71
     5
 72
     1
  1
\A1;{\Fromand,hztxt|c134;%%C}1
  7
Romans字体
 11
0.0000000000000001
 21
1.0
 31
0.0
 73
     1
 44
1.0
  0
POINT
  5
157F4
330
157EB
100
AcDbEntity
  8
Defpoints
 62
     0
100
AcDbPoint
 10
803.1425261599173
 20
220.1863945215835
 30
0.0
  0
POINT
  5
157F5
330
157EB
100
AcDbEntity
  8
Defpoints
 62
     0
100
AcDbPoint
 10
803.1425261599173
 20
219.1863945215835
 30
0.0
  0
POINT
  5
157F6
330
157EB
100
AcDbEntity
  8
Defpoints
 62
     0
100
AcDbPoint
 10
799.7210428091574
 20
219.1863945215835
 30
0.0
  0
ENDBLK
  5
157F7
330
157EB
100
AcDbEntity
  8
0
100
AcDbBlockEnd
  0
BLOCK
  5
157F9
330
157F8
100
AcDbEntity
  8
0
100
AcDbBlockBegin
  2
*D8
 70
     1
 10
0.0
 20
0.0
 30
0.0
  3
*D8
  1

  0
LINE
  5
157FA
330
157F8
100
AcDbEntity
  8
DIM
 62
     6
370
    -2
100
AcDbLine
 10
807.4425261599172
 20
221.2813945215835
 30
0.0
 11
796.965547054311
 21
221.2813945215835
 31
0.0
  0
LINE
  5
157FB
330
157F8
100
AcDbEntity
  8
DIM
 62
     6
370
    -2
100
AcDbLine
 10
807.4425261599172
 20
218.0913945215835
 30
0.0
 11
796.965547054311
 21
218.0913945215835
 31
0.0
  0
LINE
  5
157FC
330
157F8
100
AcDbEntity
  8
DIM
 62
     1
370
    -2
100
AcDbLine
 10
797.465547054311
 20
216.5913945215835
 30
0.0
 11
797.465547054311
 21
215.0913945215835
 31
0.0
  0
LINE
  5
157FD
330
157F8
100
AcDbEntity
  8
DIM
 62
     1
370
    -2
100
AcDbLine
 10
797.465547054311
 20
222.7813945215835
 30
0.0
 11
797.465547054311
 21
229.9242516644407
 31
0.0
  0
SOLID
  5
157FE
330
157F8
100
AcDbEntity
  8
DIM
 62
     1
100
AcDbTrace
 10
797.2155470543111
 20
216.5913945215835
 30
0.0
 11
797.715547054311
 21
216.5913945215835
 31
0.0
 12
797.465547054311
 22
218.0913945215835
 32
0.0
 13
797.465547054311
 23
218.0913945215835
 33
0.0
  0
SOLID
  5
157FF
330
157F8
100
AcDbEntity
  8
DIM
 62
     1
100
AcDbTrace
 10
797.2155470543111
 20
222.7813945215835
 30
0.0
 11
797.715547054311
 21
222.7813945215835
 31
0.0
 12
797.465547054311
 22
221.2813945215835
 32
0.0
 13
797.465547054311
 23
221.2813945215835
 33
0.0
  0
MTEXT
  5
15800
330
157F8
100
AcDbEntity
  8
DIM
 62
     4
100
AcDbMText
 10
795.965547054311
 20
227.1028230930122
 30
0.0
 40
2.0
 41
0.0
 46
0.0
 71
     5
 72
     1
  1
\A1;{\Fromand,hztxt|c134;%%C3.2}
  7
Romans字体
 11
0.0000000000000001
 21
1.0
 31
0.0
 73
     1
 44
1.0
  0
POINT
  5
15801
330
157F8
100
AcDbEntity
  8
Defpoints
 62
     0
100
AcDbPoint
 10
807.6425261599172
 20
221.2813945215835
 30
0.0
  0
POINT
  5
15802
330
157F8
100
AcDbEntity
  8
Defpoints
 62
     0
100
AcDbPoint
 10
807.6425261599172
 20
218.0913945215835
 30
0.0
  0
POINT
  5
15803
330
157F8
100
AcDbEntity
  8
Defpoints
 62
     0
100
AcDbPoint
 10
797.465547054311
 20
218.0913945215835
 30
0.0
  0
ENDBLK
  5
15804
330
157F8
100
AcDbEntity
  8
0
100
AcDbBlockEnd
  0
BLOCK
  5
15806
330
15805
100
AcDbEntity
  8
0
100
AcDbBlockBegin
  2
*D9
 70
     1
 10
0.0
 20
0.0
 30
0.0
  3
*D9
  1

  0
LINE
  5
15807
330
15805
100
AcDbEntity
  8
DIM
 62
     6
370
    -2
100
AcDbLine
 10
807.6425261599172
 20
217.8913945215835
 30
0.0
 11
807.6425261599172
 21
215.5743495215835
 31
0.0
  0
LINE
  5
15808
330
15805
100
AcDbEntity
  8
DIM
 62
     6
370
    -2
100
AcDbLine
 10
802.6425261599174
 20
219.4863945215835
 30
0.0
 11
802.6425261599174
 21
215.5743495215835
 31
0.0
  0
LINE
  5
15809
330
15805
100
AcDbEntity
  8
DIM
 62
     1
370
    -2
100
AcDbLine
 10
806.1425261599174
 20
216.0743495215835
 30
0.0
 11
804.1425261599172
 21
216.0743495215835
 31
0.0
  0
SOLID
  5
1580A
330
15805
100
AcDbEntity
  8
DIM
 62
     1
100
AcDbTrace
 10
806.1425261599174
 20
216.3243495215835
 30
0.0
 11
806.1425261599174
 21
215.8243495215835
 31
0.0
 12
807.6425261599172
 22
216.0743495215835
 32
0.0
 13
807.6425261599172
 23
216.0743495215835
 33
0.0
  0
SOLID
  5
1580B
330
15805
100
AcDbEntity
  8
DIM
 62
     1
100
AcDbTrace
 10
804.1425261599172
 20
216.3243495215835
 30
0.0
 11
804.1425261599172
 21
215.8243495215835
 31
0.0
 12
802.6425261599174
 22
216.0743495215835
 32
0.0
 13
802.6425261599174
 23
216.0743495215835
 33
0.0
  0
MTEXT
  5
1580C
330
15805
100
AcDbEntity
  8
DIM
 62
     4
100
AcDbMText
 10
805.0958031599174
 20
217.5743495215835
 30
0.0
 40
2.0
 41
0.0
 46
0.0
 71
     5
 72
     1
  1
\A1;5
  7
Romans字体
 73
     1
 44
1.0
  0
POINT
  5
1580D
330
15805
100
AcDbEntity
  8
Defpoints
 62
     0
100
AcDbPoint
 10
807.6425261599172
 20
218.0913945215835
 30
0.0
  0
POINT
  5
1580E
330
15805
100
AcDbEntity
  8
Defpoints
 62
     0
100
AcDbPoint
 10
802.6425261599174
 20
219.6863945215835
 30
0.0
  0
POINT
  5
1580F
330
15805
100
AcDbEntity
  8
Defpoints
 62
     0
100
AcDbPoint
 10
802.6425261599174
 20
216.0743495215835
 30
0.0
  0
ENDBLK
  5
15810
330
15805
100
AcDbEntity
  8
0
100
AcDbBlockEnd
  0
BLOCK
  5
15812
330
15811
100
AcDbEntity
  8
0
100
AcDbBlockBegin
  2
*D10
 70
     1
 10
0.0
 20
0.0
 30
0.0
  3
*D10
  1

  0
LINE
  5
15813
330
15811
100
AcDbEntity
  8
DIM
 62
     6
370
    -2
100
AcDbLine
 10
802.6425261599174
 20
219.4863945215835
 30
0.0
 11
802.6425261599174
 21
213.1861048321741
 31
0.0
  0
LINE
  5
15814
330
15811
100
AcDbEntity
  8
DIM
 62
     6
370
    -2
100
AcDbLine
 10
832.6394181599175
 20
219.4863945215835
 30
0.0
 11
832.6394181599175
 21
213.1861048321741
 31
0.0
  0
LINE
  5
15815
330
15811
100
AcDbEntity
  8
DIM
 62
     1
370
    -2
100
AcDbLine
 10
804.1425261599172
 20
213.686104832174
 30
0.0
 11
831.1394181599174
 21
213.686104832174
 31
0.0
  0
SOLID
  5
15816
330
15811
100
AcDbEntity
  8
DIM
 62
     1
100
AcDbTrace
 10
804.1425261599172
 20
213.9361048321741
 30
0.0
 11
804.1425261599172
 21
213.4361048321741
 31
0.0
 12
802.6425261599174
 22
213.686104832174
 32
0.0
 13
802.6425261599174
 23
213.686104832174
 33
0.0
  0
SOLID
  5
15817
330
15811
100
AcDbEntity
  8
DIM
 62
     1
100
AcDbTrace
 10
831.1394181599174
 20
213.9361048321741
 30
0.0
 11
831.1394181599174
 21
213.4361048321741
 31
0.0
 12
832.6394181599175
 22
213.686104832174
 32
0.0
 13
832.6394181599175
 23
213.686104832174
 33
0.0
  0
MTEXT
  5
15818
330
15811
100
AcDbEntity
  8
DIM
 62
     4
100
AcDbMText
 10
817.6270230101202
 20
215.1861048321741
 30
0.0
 40
2.0
 41
0.0
 46
0.0
 71
     5
 72
     1
  1
\A1;30
  7
Romans字体
 73
     1
 44
1.0
  0
POINT
  5
15819
330
15811
100
AcDbEntity
  8
Defpoints
 62
     0
100
AcDbPoint
 10
802.6425261599174
 20
219.6863945215835
 30
0.0
  0
POINT
  5
1581A
330
15811
100
AcDbEntity
  8
Defpoints
 62
     0
100
AcDbPoint
 10
832.6394181599175
 20
219.6863945215835
 30
0.0
  0
POINT
  5
1581B
330
15811
100
AcDbEntity
  8
Defpoints
 62
     0
100
AcDbPoint
 10
832.6394181599175
 20
213.686104832174
 30
0.0
  0
ENDBLK
  5
1581C
330
15811
100
AcDbEntity
  8
0
100
AcDbBlockEnd
  0
BLOCK
  5
1590C
330
1590B
100
AcDbEntity
  8
0
100
AcDbBlockBegin
  2
*D11
 70
     1
 10
0.0
 20
0.0
 30
0.0
  3
*D11
  1

  0
LINE
  5
15A2B
330
1590B
100
AcDbEntity
  8
DIM
 62
     6
370
    -2
100
AcDbLine
 10
444.6970766956876
 20
348.5549987465148
 30
0.0
 11
449.9789796956881
 21
348.5549987465148
 31
0.0
  0
LINE
  5
15A2C
330
1590B
100
AcDbEntity
  8
DIM
 62
     6
370
    -2
100
AcDbLine
 10
444.6970766956876
 20
346.9699987465148
 30
0.0
 11
449.9789796956881
 21
346.9699987465148
 31
0.0
  0
LINE
  5
15A2D
330
1590B
100
AcDbEntity
  8
DIM
 62
     1
370
    -2
100
AcDbLine
 10
449.4789796956879
 20
345.4699987465148
 30
0.0
 11
449.4789796956879
 21
343.9699987465147
 31
0.0
  0
LINE
  5
15A2E
330
1590B
100
AcDbEntity
  8
DIM
 62
     1
370
    -2
100
AcDbLine
 10
449.4789796956879
 20
350.0549987465148
 30
0.0
 11
449.4789796956879
 21
357.0549987465148
 31
0.0
  0
SOLID
  5
15A2F
330
1590B
100
AcDbEntity
  8
DIM
 62
     1
100
AcDbTrace
 10
449.2289796956881
 20
345.4699987465148
 30
0.0
 11
449.7289796956882
 21
345.4699987465148
 31
0.0
 12
449.4789796956879
 22
346.9699987465148
 32
0.0
 13
449.4789796956879
 23
346.9699987465148
 33
0.0
  0
SOLID
  5
15A30
330
1590B
100
AcDbEntity
  8
DIM
 62
     1
100
AcDbTrace
 10
449.2289796956881
 20
350.0549987465148
 30
0.0
 11
449.7289796956882
 21
350.0549987465148
 31
0.0
 12
449.4789796956879
 22
348.5549987465148
 32
0.0
 13
449.4789796956879
 23
348.5549987465148
 33
0.0
  0
MTEXT
  5
15A31
330
1590B
100
AcDbEntity
  8
DIM
 62
     4
100
AcDbMText
 10
447.9789796956882
 20
354.3049987465149
 30
0.0
 40
2.0
 41
0.0
 46
0.0
 71
     5
 72
     1
  1
\A1;%%C1.6
  7
Romans字体
 11
0.0000000000000001
 21
1.0
 31
0.0
 73
     1
 44
1.0
  0
POINT
  5
15A32
330
1590B
100
AcDbEntity
  8
Defpoints
 62
     0
100
AcDbPoint
 10
444.4970766956877
 20
348.5549987465148
 30
0.0
  0
POINT
  5
15A33
330
1590B
100
AcDbEntity
  8
Defpoints
 62
     0
100
AcDbPoint
 10
444.4970766956877
 20
346.9699987465148
 30
0.0
  0
POINT
  5
15A34
330
1590B
100
AcDbEntity
  8
Defpoints
 62
     0
100
AcDbPoint
 10
449.4789796956879
 20
346.9699987465148
 30
0.0
  0
ENDBLK
  5
1590D
330
1590B
100
AcDbEntity
  8
0
100
AcDbBlockEnd
  0
BLOCK
  5
15919
330
15918
100
AcDbEntity
  8
0
100
AcDbBlockBegin
  2
*D12
 70
     1
 10
0.0
 20
0.0
 30
0.0
  3
*D12
  1

  0
LINE
  5
15A35
330
15918
100
AcDbEntity
  8
DIM
 62
     6
370
    -2
100
AcDbLine
 10
416.3218376956876
 20
348.2624987465148
 30
0.0
 11
412.6003543449279
 21
348.2624987465148
 31
0.0
  0
LINE
  5
15A36
330
15918
100
AcDbEntity
  8
DIM
 62
     6
370
    -2
100
AcDbLine
 10
416.3218376956876
 20
347.2624987465148
 30
0.0
 11
412.6003543449279
 21
347.2624987465148
 31
0.0
  0
LINE
  5
15A37
330
15918
100
AcDbEntity
  8
DIM
 62
     1
370
    -2
100
AcDbLine
 10
413.100354344928
 20
345.7624987465148
 30
0.0
 11
413.100354344928
 21
344.2624987465148
 31
0.0
  0
LINE
  5
15A38
330
15918
100
AcDbEntity
  8
DIM
 62
     1
370
    -2
100
AcDbLine
 10
413.100354344928
 20
349.7624987465148
 30
0.0
 11
413.100354344928
 21
354.298213032229
 31
0.0
  0
SOLID
  5
15A39
330
15918
100
AcDbEntity
  8
DIM
 62
     1
100
AcDbTrace
 10
412.8503543449278
 20
345.7624987465148
 30
0.0
 11
413.3503543449278
 21
345.7624987465148
 31
0.0
 12
413.100354344928
 22
347.2624987465148
 32
0.0
 13
413.100354344928
 23
347.2624987465148
 33
0.0
  0
SOLID
  5
15A3A
330
15918
100
AcDbEntity
  8
DIM
 62
     1
100
AcDbTrace
 10
412.8503543449278
 20
349.7624987465148
 30
0.0
 11
413.3503543449278
 21
349.7624987465148
 31
0.0
 12
413.100354344928
 22
348.2624987465148
 32
0.0
 13
413.100354344928
 23
348.2624987465148
 33
0.0
  0
MTEXT
  5
15A3B
330
15918
100
AcDbEntity
  8
DIM
 62
     4
100
AcDbMText
 10
411.6003543449279
 20
352.8339273179434
 30
0.0
 40
2.0
 41
0.0
 46
0.0
 71
     5
 72
     1
  1
\A1;%%C1
  7
Romans字体
 11
0.0000000000000001
 21
1.0
 31
0.0
 73
     1
 44
1.0
  0
POINT
  5
15A3C
330
15918
100
AcDbEntity
  8
Defpoints
 62
     0
100
AcDbPoint
 10
416.5218376956877
 20
348.2624987465148
 30
0.0
  0
POINT
  5
15A3D
330
15918
100
AcDbEntity
  8
Defpoints
 62
     0
100
AcDbPoint
 10
416.5218376956877
 20
347.2624987465148
 30
0.0
  0
POINT
  5
15A3E
330
15918
100
AcDbEntity
  8
Defpoints
 62
     0
100
AcDbPoint
 10
413.100354344928
 20
347.2624987465148
 30
0.0
  0
ENDBLK
  5
1591A
330
15918
100
AcDbEntity
  8
0
100
AcDbBlockEnd
  0
BLOCK
  5
15926
330
15925
100
AcDbEntity
  8
0
100
AcDbBlockBegin
  2
*D13
 70
     1
 10
0.0
 20
0.0
 30
0.0
  3
*D13
  1

  0
LINE
  5
15A3F
330
15925
100
AcDbEntity
  8
DIM
 62
     6
370
    -2
100
AcDbLine
 10
420.8218376956876
 20
349.3574987465148
 30
0.0
 11
408.7345326387493
 21
349.3574987465148
 31
0.0
  0
LINE
  5
15A40
330
15925
100
AcDbEntity
  8
DIM
 62
     6
370
    -2
100
AcDbLine
 10
420.8218376956876
 20
346.1674987465148
 30
0.0
 11
408.7345326387493
 21
346.1674987465148
 31
0.0
  0
LINE
  5
15A41
330
15925
100
AcDbEntity
  8
DIM
 62
     1
370
    -2
100
AcDbLine
 10
409.2345326387492
 20
344.6674987465148
 30
0.0
 11
409.2345326387492
 21
343.1674987465147
 31
0.0
  0
LINE
  5
15A42
330
15925
100
AcDbEntity
  8
DIM
 62
     1
370
    -2
100
AcDbLine
 10
409.2345326387492
 20
350.8574987465148
 30
0.0
 11
409.2345326387492
 21
357.8574987465148
 31
0.0
  0
SOLID
  5
15A43
330
15925
100
AcDbEntity
  8
DIM
 62
     1
100
AcDbTrace
 10
408.9845326387491
 20
344.6674987465148
 30
0.0
 11
409.4845326387491
 21
344.6674987465148
 31
0.0
 12
409.2345326387492
 22
346.1674987465148
 32
0.0
 13
409.2345326387492
 23
346.1674987465148
 33
0.0
  0
SOLID
  5
15A44
330
15925
100
AcDbEntity
  8
DIM
 62
     1
100
AcDbTrace
 10
408.9845326387491
 20
350.8574987465148
 30
0.0
 11
409.4845326387491
 21
350.8574987465148
 31
0.0
 12
409.2345326387492
 22
349.3574987465148
 32
0.0
 13
409.2345326387492
 23
349.3574987465148
 33
0.0
  0
MTEXT
  5
15A45
330
15925
100
AcDbEntity
  8
DIM
 62
     4
100
AcDbMText
 10
407.7345326387491
 20
355.1074987465149
 30
0.0
 40
2.0
 41
0.0
 46
0.0
 71
     5
 72
     1
  1
\A1;%%C3.2
  7
Romans字体
 11
0.0000000000000001
 21
1.0
 31
0.0
 73
     1
 44
1.0
  0
POINT
  5
15A46
330
15925
100
AcDbEntity
  8
Defpoints
 62
     0
100
AcDbPoint
 10
421.0218376956878
 20
349.3574987465148
 30
0.0
  0
POINT
  5
15A47
330
15925
100
AcDbEntity
  8
Defpoints
 62
     0
100
AcDbPoint
 10
421.0218376956878
 20
346.1674987465148
 30
0.0
  0
POINT
  5
15A48
330
15925
100
AcDbEntity
  8
Defpoints
 62
     0
100
AcDbPoint
 10
409.2345326387492
 20
346.1674987465148
 30
0.0
  0
ENDBLK
  5
15927
330
15925
100
AcDbEntity
  8
0
100
AcDbBlockEnd
  0
BLOCK
  5
15933
330
15932
100
AcDbEntity
  8
0
100
AcDbBlockBegin
  2
*D14
 70
     1
 10
0.0
 20
0.0
 30
0.0
  3
*D14
  1

  0
LINE
  5
15A49
330
15932
100
AcDbEntity
  8
DIM
 62
     6
370
    -2
100
AcDbLine
 10
421.0218376956878
 20
345.9674987465148
 30
0.0
 11
421.0218376956878
 21
342.0034640195317
 31
0.0
  0
LINE
  5
15A4A
330
15932
100
AcDbEntity
  8
DIM
 62
     6
370
    -2
100
AcDbLine
 10
416.0218376956877
 20
347.5624987465148
 30
0.0
 11
416.0218376956877
 21
342.0034640195317
 31
0.0
  0
LINE
  5
15A4B
330
15932
100
AcDbEntity
  8
DIM
 62
     1
370
    -2
100
AcDbLine
 10
419.5218376956877
 20
342.5034640195317
 30
0.0
 11
417.5218376956878
 21
342.5034640195317
 31
0.0
  0
SOLID
  5
15A4C
330
15932
100
AcDbEntity
  8
DIM
 62
     1
100
AcDbTrace
 10
419.5218376956877
 20
342.7534640195318
 30
0.0
 11
419.5218376956877
 21
342.2534640195317
 31
0.0
 12
421.0218376956878
 22
342.5034640195317
 32
0.0
 13
421.0218376956878
 23
342.5034640195317
 33
0.0
  0
SOLID
  5
15A4D
330
15932
100
AcDbEntity
  8
DIM
 62
     1
100
AcDbTrace
 10
417.5218376956878
 20
342.7534640195318
 30
0.0
 11
417.5218376956878
 21
342.2534640195317
 31
0.0
 12
416.0218376956877
 22
342.5034640195317
 32
0.0
 13
416.0218376956877
 23
342.5034640195317
 33
0.0
  0
MTEXT
  5
15A4E
330
15932
100
AcDbEntity
  8
DIM
 62
     4
100
AcDbMText
 10
418.4751146956878
 20
344.0034640195317
 30
0.0
 40
2.0
 41
0.0
 46
0.0
 71
     5
 72
     1
  1
\A1;5
  7
Romans字体
 73
     1
 44
1.0
  0
POINT
  5
15A4F
330
15932
100
AcDbEntity
  8
Defpoints
 62
     0
100
AcDbPoint
 10
421.0218376956878
 20
346.1674987465148
 30
0.0
  0
POINT
  5
15A50
330
15932
100
AcDbEntity
  8
Defpoints
 62
     0
100
AcDbPoint
 10
416.0218376956877
 20
347.7624987465148
 30
0.0
  0
POINT
  5
15A51
330
15932
100
AcDbEntity
  8
Defpoints
 62
     0
100
AcDbPoint
 10
416.0218376956877
 20
342.5034640195317
 30
0.0
  0
ENDBLK
  5
15934
330
15932
100
AcDbEntity
  8
0
100
AcDbBlockEnd
  0
BLOCK
  5
1593F
330
1593E
100
AcDbEntity
  8
0
100
AcDbBlockBegin
  2
*D15
 70
     1
 10
0.0
 20
0.0
 30
0.0
  3
*D15
  1

  0
LINE
  5
15A52
330
1593E
100
AcDbEntity
  8
DIM
 62
     6
370
    -2
100
AcDbLine
 10
416.0218376956877
 20
347.5624987465148
 30
0.0
 11
416.0218376956877
 21
338.0362441944435
 31
0.0
  0
LINE
  5
15A53
330
1593E
100
AcDbEntity
  8
DIM
 62
     6
370
    -2
100
AcDbLine
 10
446.0187296956878
 20
347.5624987465148
 30
0.0
 11
446.0187296956878
 21
338.0362441944435
 31
0.0
  0
LINE
  5
15A54
330
1593E
100
AcDbEntity
  8
DIM
 62
     1
370
    -2
100
AcDbLine
 10
417.5218376956878
 20
338.5362441944435
 30
0.0
 11
444.518729695688
 21
338.5362441944435
 31
0.0
  0
SOLID
  5
15A55
330
1593E
100
AcDbEntity
  8
DIM
 62
     1
100
AcDbTrace
 10
417.5218376956878
 20
338.7862441944435
 30
0.0
 11
417.5218376956878
 21
338.2862441944435
 31
0.0
 12
416.0218376956877
 22
338.5362441944435
 32
0.0
 13
416.0218376956877
 23
338.5362441944435
 33
0.0
  0
SOLID
  5
15A56
330
1593E
100
AcDbEntity
  8
DIM
 62
     1
100
AcDbTrace
 10
444.518729695688
 20
338.7862441944435
 30
0.0
 11
444.518729695688
 21
338.2862441944435
 31
0.0
 12
446.0187296956878
 22
338.5362441944435
 32
0.0
 13
446.0187296956878
 23
338.5362441944435
 33
0.0
  0
MTEXT
  5
15A57
330
1593E
100
AcDbEntity
  8
DIM
 62
     4
100
AcDbMText
 10
431.0063345458908
 20
340.0362441944435
 30
0.0
 40
2.0
 41
0.0
 46
0.0
 71
     5
 72
     1
  1
\A1;30
  7
Romans字体
 73
     1
 44
1.0
  0
POINT
  5
15A58
330
1593E
100
AcDbEntity
  8
Defpoints
 62
     0
100
AcDbPoint
 10
416.0218376956877
 20
347.7624987465148
 30
0.0
  0
POINT
  5
15A59
330
1593E
100
AcDbEntity
  8
Defpoints
 62
     0
100
AcDbPoint
 10
446.0187296956878
 20
347.7624987465148
 30
0.0
  0
POINT
  5
15A5A
330
1593E
100
AcDbEntity
  8
Defpoints
 62
     0
100
AcDbPoint
 10
446.0187296956878
 20
338.5362441944435
 30
0.0
  0
ENDBLK
  5
15940
330
1593E
100
AcDbEntity
  8
0
100
AcDbBlockEnd
  0
BLOCK
  5
15ADB
330
15ADA
100
AcDbEntity
  8
0
100
AcDbBlockBegin
  2
_FILLED
 70
     0
 10
0.0
 20
0.0
 30
0.0
  3
_FILLED
  1

  0
SOLID
  5
15ADC
330
15ADA
100
AcDbEntity
  8
0
  6
ByBlock
 62
     0
100
AcDbTrace
 10
0.0
 20
0.0
 30
0.0
 11
-1.0
 21
0.2
 31
0.0
 12
-1.0
 22
-0.2
 32
0.0
 13
-1.0
 23
-0.2
 33
0.0
  0
ENDBLK
  5
15ADD
330
15ADA
100
AcDbEntity
  8
0
  6
ByBlock
 62
     0
100
AcDbBlockEnd
  0
BLOCK
  5
15ADF
330
15ADE
100
AcDbEntity
  8
0
100
AcDbBlockBegin
  2
*D17
 70
     1
 10
0.0
 20
0.0
 30
0.0
  3
*D17
  1

  0
LINE
  5
15AE0
330
15ADE
100
AcDbEntity
  8
DIM
  6
Continuous
 62
     0
370
    -2
100
AcDbLine
 10
4416.208329578167
 20
-2170.018844960462
 30
0.0
 11
4422.095715251816
 21
-2176.640617276109
 31
0.0
  0
MTEXT
  5
15AE1
330
15ADE
100
AcDbEntity
  8
DIM
  6
Continuous
 62
     0
100
AcDbMText
 10
4421.272265441355
 20
-2172.568992243073
 30
0.0
 40
2.0
 41
0.0
 46
0.0
 71
     3
 72
     1
  1
\A1;SR0.5
 11
0.6644499448665057
 21
-0.7473327711046115
 31
0.0
 73
     1
 44
1.0
  0
INSERT
  5
15AE2
330
15ADE
100
AcDbEntity
  8
DIM
  6
Continuous
 62
     0
370
    -2
100
AcDbBlockReference
  2
_FILLED
 10
4424.421290058849
 20
-2179.256281974975
 30
0.0
 41
3.5
 42
3.5
 43
3.5
 50
311.6401404920675
  0
LINE
  5
15AE3
330
15ADE
100
AcDbEntity
  8
DIM
  6
Continuous
 62
     0
370
    -2
100
AcDbLine
 10
4425.99241492105
 20
-2181.124613902776
 30
0.0
 11
4426.172414921049
 21
-2181.124613902774
 31
0.0
  0
LINE
  5
15AE4
330
15ADE
100
AcDbEntity
  8
DIM
  6
Continuous
 62
     0
370
    -2
100
AcDbLine
 10
4426.082414921049
 20
-2181.214613902775
 30
0.0
 11
4426.082414921049
 21
-2181.034613902774
 31
0.0
  0
POINT
  5
15AE5
330
15ADE
100
AcDbEntity
  8
Defpoints
  6
Continuous
 62
     0
100
AcDbPoint
 10
4424.421290058849
 20
-2179.256281974975
 30
0.0
  0
POINT
  5
15AE6
330
15ADE
100
AcDbEntity
  8
Defpoints
  6
Continuous
 62
     0
100
AcDbPoint
 10
4426.082414921049
 20
-2181.124613902774
 30
0.0
  0
ENDBLK
  5
15AE7
330
15ADE
100
AcDbEntity
  8
0
100
AcDbBlockEnd
  0
BLOCK
  5
15AE9
330
15AE8
100
AcDbEntity
  8
0
100
AcDbBlockBegin
  2
*D18
 70
     1
 10
0.0
 20
0.0
 30
0.0
  3
*D18
  1

  0
LINE
  5
15AEA
330
15AE8
100
AcDbEntity
  8
DIM
  6
Continuous
 62
     0
370
    -2
100
AcDbLine
 10
4476.144914921049
 20
-2174.799613902774
 30
0.0
 11
4481.610299835149
 21
-2174.799613902774
 31
0.0
  0
LINE
  5
15AEB
330
15AE8
100
AcDbEntity
  8
DIM
  6
Continuous
 62
     0
370
    -2
100
AcDbLine
 10
4476.144914921049
 20
-2187.449613902775
 30
0.0
 11
4481.610299835149
 21
-2187.449613902775
 31
0.0
  0
LINE
  5
15AEC
330
15AE8
100
AcDbEntity
  8
DIM
  6
Continuous
 62
     0
370
    -2
100
AcDbLine
 10
4481.430299835149
 20
-2178.299613902774
 30
0.0
 11
4481.430299835149
 21
-2183.949613902775
 31
0.0
  0
LINE
  5
15AED
330
15AE8
100
AcDbEntity
  8
DIM
  6
Continuous
 62
     0
370
    -2
100
AcDbLine
 10
4481.430299835149
 20
-2187.449613902775
 30
0.0
 11
4481.430299835149
 21
-2204.383667956829
 31
0.0
  0
INSERT
  5
15AEE
330
15AE8
100
AcDbEntity
  8
DIM
  6
Continuous
 62
     0
370
    -2
100
AcDbBlockReference
  2
_FILLED
 10
4481.430299835149
 20
-2174.799613902774
 30
0.0
 41
3.5
 42
3.5
 43
3.5
 50
90.0
  0
INSERT
  5
15AEF
330
15AE8
100
AcDbEntity
  8
DIM
  6
Continuous
 62
     0
370
    -2
100
AcDbBlockReference
  2
_FILLED
 10
4481.430299835149
 20
-2187.449613902775
 30
0.0
 41
3.5
 42
3.5
 43
3.5
 50
270.0
  0
MTEXT
  5
15AF0
330
15AE8
100
AcDbEntity
  8
DIM
  6
Continuous
 62
     0
100
AcDbMText
 10
4479.34029983515
 20
-2191.039613902774
 30
0.0
 40
2.0
 41
0.0
 46
0.0
 71
     3
 72
     1
  1
\A1;*%%c2.53±0.03
 11
0.0000000000000001
 21
1.0
 31
0.0
 73
     1
 44
1.0
  0
POINT
  5
15AF1
330
15AE8
100
AcDbEntity
  8
Defpoints
  6
Continuous
 62
     0
100
AcDbPoint
 10
4476.082414921049
 20
-2174.799613902774
 30
0.0
  0
POINT
  5
15AF2
330
15AE8
100
AcDbEntity
  8
Defpoints
  6
Continuous
 62
     0
100
AcDbPoint
 10
4476.082414921049
 20
-2187.449613902775
 30
0.0
  0
POINT
  5
15AF3
330
15AE8
100
AcDbEntity
  8
Defpoints
  6
Continuous
 62
     0
100
AcDbPoint
 10
4481.430299835149
 20
-2187.449613902775
 30
0.0
  0
ENDBLK
  5
15AF4
330
15AE8
100
AcDbEntity
  8
0
100
AcDbBlockEnd
  0
BLOCK
  5
15AF6
330
15AF5
100
AcDbEntity
  8
0
100
AcDbBlockBegin
  2
*D19
 70
     1
 10
0.0
 20
0.0
 30
0.0
  3
*D19
  1

  0
LINE
  5
15AF7
330
15AF5
100
AcDbEntity
  8
DIM
  6
Continuous
 62
     0
370
    -2
100
AcDbLine
 10
4490.718951842346
 20
-2176.624613902774
 30
0.0
 11
4490.601451842347
 21
-2176.624613902774
 31
0.0
  0
LINE
  5
15AF8
330
15AF5
100
AcDbEntity
  8
DIM
  6
Continuous
 62
     0
370
    -2
100
AcDbLine
 10
4490.718951842346
 20
-2185.624613902774
 30
0.0
 11
4490.601451842347
 21
-2185.624613902774
 31
0.0
  0
LINE
  5
15AF9
330
15AF5
100
AcDbEntity
  8
DIM
  6
Continuous
 62
     0
370
    -2
100
AcDbLine
 10
4490.781451842346
 20
-2180.124613902775
 30
0.0
 11
4490.781451842346
 21
-2182.124613902775
 31
0.0
  0
LINE
  5
15AFA
330
15AF5
100
AcDbEntity
  8
DIM
  6
Continuous
 62
     0
370
    -2
100
AcDbLine
 10
4490.781451842346
 20
-2185.624613902774
 30
0.0
 11
4490.781451842346
 21
-2198.019038360542
 31
0.0
  0
INSERT
  5
15AFB
330
15AF5
100
AcDbEntity
  8
DIM
  6
Continuous
 62
     0
370
    -2
100
AcDbBlockReference
  2
_FILLED
 10
4490.781451842346
 20
-2176.624613902774
 30
0.0
 41
3.5
 42
3.5
 43
3.5
 50
90.0
  0
INSERT
  5
15AFC
330
15AF5
100
AcDbEntity
  8
DIM
  6
Continuous
 62
     0
370
    -2
100
AcDbBlockReference
  2
_FILLED
 10
4490.781451842346
 20
-2185.624613902774
 30
0.0
 41
3.5
 42
3.5
 43
3.5
 50
270.0
  0
MTEXT
  5
15AFD
330
15AF5
100
AcDbEntity
  8
DIM
  6
Continuous
 62
     0
100
AcDbMText
 10
4488.008208599103
 20
-2190.868281603785
 30
0.0
 40
2.0
 41
0.0
 46
0.0
 71
     3
 72
     1
  1
\A1;%%c1.8{\H1.200000;\S+0^ -0.1;}
 11
0.0000000000000001
 21
1.0
 31
0.0
 73
     1
 44
1.0
  0
POINT
  5
15AFE
330
15AF5
100
AcDbEntity
  8
Defpoints
  6
Continuous
 62
     0
100
AcDbPoint
 10
4490.781451842346
 20
-2176.624613902774
 30
0.0
  0
POINT
  5
15AFF
330
15AF5
100
AcDbEntity
  8
Defpoints
  6
Continuous
 62
     0
100
AcDbPoint
 10
4490.781451842346
 20
-2185.624613902774
 30
0.0
  0
POINT
  5
15B00
330
15AF5
100
AcDbEntity
  8
Defpoints
  6
Continuous
 62
     0
100
AcDbPoint
 10
4490.781451842346
 20
-2185.624613902774
 30
0.0
  0
ENDBLK
  5
15B01
330
15AF5
100
AcDbEntity
  8
0
100
AcDbBlockEnd
  0
BLOCK
  5
15B03
330
15B02
100
AcDbEntity
  8
0
100
AcDbBlockBegin
  2
*D20
 70
     1
 10
0.0
 20
0.0
 30
0.0
  3
*D20
  1

  0
LINE
  5
15B04
330
15B02
100
AcDbEntity
  8
DIM
  6
Continuous
 62
     0
370
    -2
100
AcDbLine
 10
4498.994914921047
 20
-2174.999613902774
 30
0.0
 11
4504.889311013747
 21
-2174.999613902774
 31
0.0
  0
LINE
  5
15B05
330
15B02
100
AcDbEntity
  8
DIM
  6
Continuous
 62
     0
370
    -2
100
AcDbLine
 10
4498.994914921047
 20
-2187.249613902775
 30
0.0
 11
4504.889311013747
 21
-2187.249613902775
 31
0.0
  0
LINE
  5
15B06
330
15B02
100
AcDbEntity
  8
DIM
  6
Continuous
 62
     0
370
    -2
100
AcDbLine
 10
4504.709311013747
 20
-2178.499613902774
 30
0.0
 11
4504.709311013747
 21
-2183.749613902774
 31
0.0
  0
LINE
  5
15B07
330
15B02
100
AcDbEntity
  8
DIM
  6
Continuous
 62
     0
370
    -2
100
AcDbLine
 10
4504.709311013747
 20
-2187.249613902775
 30
0.0
 11
4504.709311013747
 21
-2205.607607631671
 31
0.0
  0
INSERT
  5
15B08
330
15B02
100
AcDbEntity
  8
DIM
  6
Continuous
 62
     0
370
    -2
100
AcDbBlockReference
  2
_FILLED
 10
4504.709311013747
 20
-2174.999613902774
 30
0.0
 41
3.5
 42
3.5
 43
3.5
 50
90.0
  0
INSERT
  5
15B09
330
15B02
100
AcDbEntity
  8
DIM
  6
Continuous
 62
     0
370
    -2
100
AcDbBlockReference
  2
_FILLED
 10
4504.709311013747
 20
-2187.249613902775
 30
0.0
 41
3.5
 42
3.5
 43
3.5
 50
270.0
  0
MTEXT
  5
15B0A
330
15B02
100
AcDbEntity
  8
DIM
  6
Continuous
 62
     0
100
AcDbMText
 10
4502.619311013748
 20
-2193.323013037076
 30
0.0
 40
2.0
 41
0.0
 46
0.0
 71
     3
 72
     1
  1
\A1;%%c2.45±0.03
 11
0.0000000000000001
 21
1.0
 31
0.0
 73
     1
 44
1.0
  0
POINT
  5
15B0B
330
15B02
100
AcDbEntity
  8
Defpoints
  6
Continuous
 62
     0
100
AcDbPoint
 10
4498.932414921049
 20
-2174.999613902774
 30
0.0
  0
POINT
  5
15B0C
330
15B02
100
AcDbEntity
  8
Defpoints
  6
Continuous
 62
     0
100
AcDbPoint
 10
4498.932414921049
 20
-2187.249613902775
 30
0.0
  0
POINT
  5
15B0D
330
15B02
100
AcDbEntity
  8
Defpoints
  6
Continuous
 62
     0
100
AcDbPoint
 10
4504.709311013747
 20
-2187.249613902775
 30
0.0
  0
ENDBLK
  5
15B0E
330
15B02
100
AcDbEntity
  8
0
100
AcDbBlockEnd
  0
BLOCK
  5
15B10
330
15B0F
100
AcDbEntity
  8
0
100
AcDbBlockBegin
  2
*D21
 70
     1
 10
0.0
 20
0.0
 30
0.0
  3
*D21
  1

  0
LINE
  5
15B11
330
15B0F
100
AcDbEntity
  8
DIM
  6
Continuous
 62
     0
370
    -2
100
AcDbLine
 10
4559.087202275548
 20
-2177.174613902775
 30
0.0
 11
4572.708434416045
 21
-2177.174613902775
 31
0.0
  0
LINE
  5
15B12
330
15B0F
100
AcDbEntity
  8
DIM
  6
Continuous
 62
     0
370
    -2
100
AcDbLine
 10
4559.087202275548
 20
-2185.074613902775
 30
0.0
 11
4572.708434416045
 21
-2185.074613902775
 31
0.0
  0
LINE
  5
15B13
330
15B0F
100
AcDbEntity
  8
DIM
  6
Continuous
 62
     0
370
    -2
100
AcDbLine
 10
4572.528434416046
 20
-2180.674613902775
 30
0.0
 11
4572.528434416046
 21
-2181.574613902775
 31
0.0
  0
LINE
  5
15B14
330
15B0F
100
AcDbEntity
  8
DIM
  6
Continuous
 62
     0
370
    -2
100
AcDbLine
 10
4572.528434416046
 20
-2185.074613902775
 30
0.0
 11
4572.528434416046
 21
-2199.595593510068
 31
0.0
  0
INSERT
  5
15B15
330
15B0F
100
AcDbEntity
  8
DIM
  6
Continuous
 62
     0
370
    -2
100
AcDbBlockReference
  2
_FILLED
 10
4572.528434416046
 20
-2177.174613902775
 30
0.0
 41
3.5
 42
3.5
 43
3.5
 50
90.0
  0
INSERT
  5
15B16
330
15B0F
100
AcDbEntity
  8
DIM
  6
Continuous
 62
     0
370
    -2
100
AcDbBlockReference
  2
_FILLED
 10
4572.528434416046
 20
-2185.074613902775
 30
0.0
 41
3.5
 42
3.5
 43
3.5
 50
270.0
  0
MTEXT
  5
15B17
330
15B0F
100
AcDbEntity
  8
DIM
  6
Continuous
 62
     0
100
AcDbMText
 10
4569.755191172804
 20
-2190.637269185744
 30
0.0
 40
2.0
 41
0.0
 46
0.0
 71
     3
 72
     1
  1
\A1;%%c1.58{\H1.200000;\S+0^ -0.02;}
 11
0.0000000000000001
 21
1.0
 31
0.0
 73
     1
 44
1.0
  0
POINT
  5
15B18
330
15B0F
100
AcDbEntity
  8
Defpoints
  6
Continuous
 62
     0
100
AcDbPoint
 10
4559.024702275548
 20
-2177.174613902775
 30
0.0
  0
POINT
  5
15B19
330
15B0F
100
AcDbEntity
  8
Defpoints
  6
Continuous
 62
     0
100
AcDbPoint
 10
4559.024702275548
 20
-2185.074613902775
 30
0.0
  0
POINT
  5
15B1A
330
15B0F
100
AcDbEntity
  8
Defpoints
  6
Continuous
 62
     0
100
AcDbPoint
 10
4572.528434416046
 20
-2185.074613902775
 30
0.0
  0
ENDBLK
  5
15B1B
330
15B0F
100
AcDbEntity
  8
0
100
AcDbBlockEnd
  0
BLOCK
  5
15B1D
330
15B1C
100
AcDbEntity
  8
0
100
AcDbBlockBegin
  2
*D22
 70
     1
 10
0.0
 20
0.0
 30
0.0
  3
*D22
  1

  0
LINE
  5
15B1E
330
15B1C
100
AcDbEntity
  8
DIM
  6
Continuous
 62
     0
370
    -2
100
AcDbLine
 10
4576.216705824257
 20
-2226.222011421097
 30
0.0
 11
4568.589833618798
 21
-2231.912701965853
 31
0.0
  0
MTEXT
  5
15B1F
330
15B1C
100
AcDbEntity
  8
DIM
  6
Continuous
 62
     0
100
AcDbMText
 10
4570.701008148307
 20
-2227.729813180397
 30
0.0
 40
2.0
 41
0.0
 46
0.0
 71
     1
 72
     1
  1
\A1;SR0.3
 11
0.8014837395573762
 21
0.5980165676844781
 31
0.0
 73
     1
 44
1.0
  0
INSERT
  5
15B20
330
15B1C
100
AcDbEntity
  8
DIM
  6
Continuous
 62
     0
370
    -2
100
AcDbBlockReference
  2
_FILLED
 10
4565.784640530348
 20
-2234.005759952749
 30
0.0
 41
3.5
 42
3.5
 43
3.5
 50
216.727976451494
  0
LINE
  5
15B21
330
15B1C
100
AcDbEntity
  8
DIM
  6
Continuous
 62
     0
370
    -2
100
AcDbLine
 10
4564.492414921047
 20
-2234.902784804249
 30
0.0
 11
4564.672414921047
 21
-2234.902784804249
 31
0.0
  0
LINE
  5
15B22
330
15B1C
100
AcDbEntity
  8
DIM
  6
Continuous
 62
     0
370
    -2
100
AcDbLine
 10
4564.582414921047
 20
-2234.99278480425
 30
0.0
 11
4564.582414921047
 21
-2234.812784804249
 31
0.0
  0
POINT
  5
15B23
330
15B1C
100
AcDbEntity
  8
Defpoints
  6
Continuous
 62
     0
100
AcDbPoint
 10
4565.784640530348
 20
-2234.005759952749
 30
0.0
  0
POINT
  5
15B24
330
15B1C
100
AcDbEntity
  8
Defpoints
  6
Continuous
 62
     0
100
AcDbPoint
 10
4564.582414921047
 20
-2234.902784804249
 30
0.0
  0
ENDBLK
  5
15B25
330
15B1C
100
AcDbEntity
  8
0
100
AcDbBlockEnd
  0
BLOCK
  5
15B27
330
15B26
100
AcDbEntity
  8
0
100
AcDbBlockBegin
  2
*D23
 70
     1
 10
0.0
 20
0.0
 30
0.0
  3
*D23
  1

  0
LINE
  5
15B28
330
15B26
100
AcDbEntity
  8
DIM
  6
Continuous
 62
     0
370
    -2
100
AcDbLine
 10
4459.518729976547
 20
-2173.124613902774
 30
0.0
 11
4459.401229976548
 21
-2173.124613902774
 31
0.0
  0
LINE
  5
15B29
330
15B26
100
AcDbEntity
  8
DIM
  6
Continuous
 62
     0
370
    -2
100
AcDbLine
 10
4459.518729976547
 20
-2189.124613902774
 30
0.0
 11
4459.401229976548
 21
-2189.124613902774
 31
0.0
  0
LINE
  5
15B2A
330
15B26
100
AcDbEntity
  8
DIM
  6
Continuous
 62
     0
370
    -2
100
AcDbLine
 10
4459.581229976548
 20
-2176.624613902774
 30
0.0
 11
4459.581229976548
 21
-2185.624613902774
 31
0.0
  0
INSERT
  5
15B2B
330
15B26
100
AcDbEntity
  8
DIM
  6
Continuous
 62
     0
370
    -2
100
AcDbBlockReference
  2
_FILLED
 10
4459.581229976548
 20
-2173.124613902774
 30
0.0
 41
3.5
 42
3.5
 43
3.5
 50
90.0
  0
INSERT
  5
15B2C
330
15B26
100
AcDbEntity
  8
DIM
  6
Continuous
 62
     0
370
    -2
100
AcDbBlockReference
  2
_FILLED
 10
4459.581229976548
 20
-2189.124613902774
 30
0.0
 41
3.5
 42
3.5
 43
3.5
 50
270.0
  0
MTEXT
  5
15B2D
330
15B26
100
AcDbEntity
  8
DIM
  6
Continuous
 62
     0
100
AcDbMText
 10
4456.807986733305
 20
-2176.714235524396
 30
0.0
 40
2.0
 41
0.0
 46
0.0
 71
     3
 72
     1
  1
\A1;*%%c3.2{\H1.200000;\S+0.01^ -0.02;}
 11
0.0000000000000001
 21
1.0
 31
0.0
 73
     1
 44
1.0
  0
POINT
  5
15B2E
330
15B26
100
AcDbEntity
  8
Defpoints
  6
Continuous
 62
     0
100
AcDbPoint
 10
4459.581229976548
 20
-2173.124613902774
 30
0.0
  0
POINT
  5
15B2F
330
15B26
100
AcDbEntity
  8
Defpoints
  6
Continuous
 62
     0
100
AcDbPoint
 10
4459.581229976548
 20
-2189.124613902774
 30
0.0
  0
POINT
  5
15B30
330
15B26
100
AcDbEntity
  8
Defpoints
  6
Continuous
 62
     0
100
AcDbPoint
 10
4459.581229976548
 20
-2189.124613902774
 30
0.0
  0
ENDBLK
  5
15B31
330
15B26
100
AcDbEntity
  8
0
100
AcDbBlockEnd
  0
BLOCK
  5
15B33
330
15B32
100
AcDbEntity
  8
0
100
AcDbBlockBegin
  2
*D24
 70
     1
 10
0.0
 20
0.0
 30
0.0
  3
*D24
  1

  0
LINE
  5
15B34
330
15B32
100
AcDbEntity
  8
DIM
  6
Continuous
 62
     0
370
    -2
100
AcDbLine
 10
4426.144914921049
 20
-2178.624613902774
 30
0.0
 11
4432.854169486847
 21
-2178.624613902774
 31
0.0
  0
LINE
  5
15B35
330
15B32
100
AcDbEntity
  8
DIM
  6
Continuous
 62
     0
370
    -2
100
AcDbLine
 10
4426.144914921049
 20
-2183.624613902774
 30
0.0
 11
4432.854169486847
 21
-2183.624613902774
 31
0.0
  0
LINE
  5
15B36
330
15B32
100
AcDbEntity
  8
DIM
  6
Continuous
 62
     0
370
    -2
100
AcDbLine
 10
4432.674169486847
 20
-2175.124613902775
 30
0.0
 11
4432.674169486847
 21
-2171.624613902775
 31
0.0
  0
LINE
  5
15B37
330
15B32
100
AcDbEntity
  8
DIM
  6
Continuous
 62
     0
370
    -2
100
AcDbLine
 10
4432.674169486847
 20
-2187.124613902774
 30
0.0
 11
4432.674169486847
 21
-2196.351857146018
 31
0.0
  0
INSERT
  5
15B38
330
15B32
100
AcDbEntity
  8
DIM
  6
Continuous
 62
     0
370
    -2
100
AcDbBlockReference
  2
_FILLED
 10
4432.674169486847
 20
-2178.624613902774
 30
0.0
 41
3.5
 42
3.5
 43
3.5
 50
270.0
  0
INSERT
  5
15B39
330
15B32
100
AcDbEntity
  8
DIM
  6
Continuous
 62
     0
370
    -2
100
AcDbBlockReference
  2
_FILLED
 10
4432.674169486847
 20
-2183.624613902774
 30
0.0
 41
3.5
 42
3.5
 43
3.5
 50
90.0
  0
MTEXT
  5
15B3A
330
15B32
100
AcDbEntity
  8
DIM
  6
Continuous
 62
     0
100
AcDbMText
 10
4429.900926243603
 20
-2190.714613902774
 30
0.0
 40
2.0
 41
0.0
 46
0.0
 71
     3
 72
     1
  1
\A1;%%c1{\H1.200000;\S+0^ -0.02;}
 11
0.0000000000000001
 21
1.0
 31
0.0
 73
     1
 44
1.0
  0
POINT
  5
15B3B
330
15B32
100
AcDbEntity
  8
Defpoints
  6
Continuous
 62
     0
100
AcDbPoint
 10
4426.082414921049
 20
-2178.624613902774
 30
0.0
  0
POINT
  5
15B3C
330
15B32
100
AcDbEntity
  8
Defpoints
  6
Continuous
 62
     0
100
AcDbPoint
 10
4426.082414921049
 20
-2183.624613902774
 30
0.0
  0
POINT
  5
15B3D
330
15B32
100
AcDbEntity
  8
Defpoints
  6
Continuous
 62
     0
100
AcDbPoint
 10
4432.674169486847
 20
-2183.624613902774
 30
0.0
  0
ENDBLK
  5
15B3E
330
15B32
100
AcDbEntity
  8
0
100
AcDbBlockEnd
  0
BLOCK
  5
15B40
330
15B3F
100
AcDbEntity
  8
0
100
AcDbBlockBegin
  2
*D25
 70
     1
 10
0.0
 20
0.0
 30
0.0
  3
*D25
  1

  0
LINE
  5
15B41
330
15B3F
100
AcDbEntity
  8
DIM
  6
Continuous
 62
     0
370
    -2
100
AcDbLine
 10
4448.582414921049
 20
-2244.09787487685
 30
0.0
 11
4448.582414921049
 21
-2246.60368491965
 31
0.0
  0
LINE
  5
15B42
330
15B3F
100
AcDbEntity
  8
DIM
  6
Continuous
 62
     0
370
    -2
100
AcDbLine
 10
4423.582414921049
 20
-2236.09787487685
 30
0.0
 11
4423.582414921049
 21
-2246.60368491965
 31
0.0
  0
LINE
  5
15B43
330
15B3F
100
AcDbEntity
  8
DIM
  6
Continuous
 62
     0
370
    -2
100
AcDbLine
 10
4445.082414921049
 20
-2246.42368491965
 30
0.0
 11
4427.082414921049
 21
-2246.42368491965
 31
0.0
  0
INSERT
  5
15B44
330
15B3F
100
AcDbEntity
  8
DIM
  6
Continuous
 62
     0
370
    -2
100
AcDbBlockReference
  2
_FILLED
 10
4448.582414921049
 20
-2246.42368491965
 30
0.0
 41
3.5
 42
3.5
 43
3.5
  0
INSERT
  5
15B45
330
15B3F
100
AcDbEntity
  8
DIM
  6
Continuous
 62
     0
370
    -2
100
AcDbBlockReference
  2
_FILLED
 10
4423.582414921049
 20
-2246.42368491965
 30
0.0
 41
3.5
 42
3.5
 43
3.5
 50
180.0
  0
MTEXT
  5
15B46
330
15B3F
100
AcDbEntity
  8
DIM
  6
Continuous
 62
     0
100
AcDbMText
 10
4435.232414921048
 20
-2244.33368491965
 30
0.0
 40
2.0
 41
0.0
 46
0.0
 71
     2
 72
     1
  1
\A1;5
 73
     1
 44
1.0
  0
POINT
  5
15B47
330
15B3F
100
AcDbEntity
  8
Defpoints
  6
Continuous
 62
     0
100
AcDbPoint
 10
4448.582414921049
 20
-2244.03537487685
 30
0.0
  0
POINT
  5
15B48
330
15B3F
100
AcDbEntity
  8
Defpoints
  6
Continuous
 62
     0
100
AcDbPoint
 10
4423.582414921049
 20
-2236.03537487685
 30
0.0
  0
POINT
  5
15B49
330
15B3F
100
AcDbEntity
  8
Defpoints
  6
Continuous
 62
     0
100
AcDbPoint
 10
4423.582414921049
 20
-2246.42368491965
 30
0.0
  0
ENDBLK
  5
15B4A
330
15B3F
100
AcDbEntity
  8
0
100
AcDbBlockEnd
  0
BLOCK
  5
15B4C
330
15B4B
100
AcDbEntity
  8
0
100
AcDbBlockBegin
  2
*D26
 70
     1
 10
0.0
 20
0.0
 30
0.0
  3
*D26
  1

  0
LINE
  5
15B4D
330
15B4B
100
AcDbEntity
  8
DIM
  6
Continuous
 62
     0
370
    -2
100
AcDbLine
 10
4476.082414921049
 20
-2225.97287487685
 30
0.0
 11
4476.082414921049
 21
-2217.262063190151
 31
0.0
  0
LINE
  5
15B4E
330
15B4B
100
AcDbEntity
  8
DIM
  6
Continuous
 62
     0
370
    -2
100
AcDbLine
 10
4486.082414921049
 20
-2227.64787487685
 30
0.0
 11
4486.082414921049
 21
-2217.262063190151
 31
0.0
  0
LINE
  5
15B4F
330
15B4B
100
AcDbEntity
  8
DIM
  6
Continuous
 62
     0
370
    -2
100
AcDbLine
 10
4482.58241492105
 20
-2217.442063190151
 30
0.0
 11
4479.58241492105
 21
-2217.442063190151
 31
0.0
  0
LINE
  5
15B50
330
15B4B
100
AcDbEntity
  8
DIM
  6
Continuous
 62
     0
370
    -2
100
AcDbLine
 10
4476.082414921049
 20
-2217.442063190151
 30
0.0
 11
4462.496567365809
 21
-2217.442063190151
 31
0.0
  0
INSERT
  5
15B51
330
15B4B
100
AcDbEntity
  8
DIM
  6
Continuous
 62
     0
370
    -2
100
AcDbBlockReference
  2
_FILLED
 10
4486.082414921049
 20
-2217.442063190151
 30
0.0
 41
3.5
 42
3.5
 43
3.5
  0
INSERT
  5
15B52
330
15B4B
100
AcDbEntity
  8
DIM
  6
Continuous
 62
     0
370
    -2
100
AcDbBlockReference
  2
_FILLED
 10
4476.082414921049
 20
-2217.442063190151
 30
0.0
 41
3.5
 42
3.5
 43
3.5
 50
180.0
  0
MTEXT
  5
15B53
330
15B4B
100
AcDbEntity
  8
DIM
  6
Continuous
 62
     0
100
AcDbMText
 10
4466.67564844689
 20
-2214.668819946907
 30
0.0
 40
2.0
 41
0.0
 46
0.0
 71
     3
 72
     1
  1
\A1;2{\H1.200000;\S+0.05^ -0;}
 73
     1
 44
1.0
  0
POINT
  5
15B54
330
15B4B
100
AcDbEntity
  8
Defpoints
  6
Continuous
 62
     0
100
AcDbPoint
 10
4476.082414921049
 20
-2226.03537487685
 30
0.0
  0
POINT
  5
15B55
330
15B4B
100
AcDbEntity
  8
Defpoints
  6
Continuous
 62
     0
100
AcDbPoint
 10
4486.082414921049
 20
-2227.71037487685
 30
0.0
  0
POINT
  5
15B56
330
15B4B
100
AcDbEntity
  8
Defpoints
  6
Continuous
 62
     0
100
AcDbPoint
 10
4486.082414921049
 20
-2217.442063190151
 30
0.0
  0
ENDBLK
  5
15B57
330
15B4B
100
AcDbEntity
  8
0
100
AcDbBlockEnd
  0
BLOCK
  5
15B59
330
15B58
100
AcDbEntity
  8
0
100
AcDbBlockBegin
  2
*D27
 70
     1
 10
0.0
 20
0.0
 30
0.0
  3
*D27
  1

  0
LINE
  5
15B5A
330
15B58
100
AcDbEntity
  8
DIM
  6
Continuous
 62
     0
370
    -2
100
AcDbLine
 10
4486.082414921049
 20
-2242.42287487685
 30
0.0
 11
4486.082414921049
 21
-2249.10131824795
 31
0.0
  0
LINE
  5
15B5B
330
15B58
100
AcDbEntity
  8
DIM
  6
Continuous
 62
     0
370
    -2
100
AcDbLine
 10
4496.082414921049
 20
-2242.22287487685
 30
0.0
 11
4496.082414921049
 21
-2249.10131824795
 31
0.0
  0
LINE
  5
15B5C
330
15B58
100
AcDbEntity
  8
DIM
  6
Continuous
 62
     0
370
    -2
100
AcDbLine
 10
4489.582414921049
 20
-2248.92131824795
 30
0.0
 11
4492.582414921049
 21
-2248.92131824795
 31
0.0
  0
LINE
  5
15B5D
330
15B58
100
AcDbEntity
  8
DIM
  6
Continuous
 62
     0
370
    -2
100
AcDbLine
 10
4496.082414921049
 20
-2248.92131824795
 30
0.0
 11
4508.172842253989
 21
-2248.92131824795
 31
0.0
  0
INSERT
  5
15B5E
330
15B58
100
AcDbEntity
  8
DIM
  6
Continuous
 62
     0
370
    -2
100
AcDbBlockReference
  2
_FILLED
 10
4486.082414921049
 20
-2248.92131824795
 30
0.0
 41
3.5
 42
3.5
 43
3.5
 50
180.0
  0
INSERT
  5
15B5F
330
15B58
100
AcDbEntity
  8
DIM
  6
Continuous
 62
     0
370
    -2
100
AcDbBlockReference
  2
_FILLED
 10
4496.082414921049
 20
-2248.92131824795
 30
0.0
 41
3.5
 42
3.5
 43
3.5
  0
MTEXT
  5
15B60
330
15B58
100
AcDbEntity
  8
DIM
  6
Continuous
 62
     0
100
AcDbMText
 10
4503.993761172909
 20
-2246.148075004708
 30
0.0
 40
2.0
 41
0.0
 46
0.0
 71
     1
 72
     1
  1
\A1;2{\H1.200000;\S+0.05^ -0;}
 73
     1
 44
1.0
  0
POINT
  5
15B61
330
15B58
100
AcDbEntity
  8
Defpoints
  6
Continuous
 62
     0
100
AcDbPoint
 10
4486.082414921049
 20
-2242.36037487685
 30
0.0
  0
POINT
  5
15B62
330
15B58
100
AcDbEntity
  8
Defpoints
  6
Continuous
 62
     0
100
AcDbPoint
 10
4496.082414921049
 20
-2242.160374876851
 30
0.0
  0
POINT
  5
15B63
330
15B58
100
AcDbEntity
  8
Defpoints
  6
Continuous
 62
     0
100
AcDbPoint
 10
4496.082414921049
 20
-2248.92131824795
 30
0.0
  0
ENDBLK
  5
15B64
330
15B58
100
AcDbEntity
  8
0
100
AcDbBlockEnd
  0
BLOCK
  5
15B66
330
15B65
100
AcDbEntity
  8
0
100
AcDbBlockBegin
  2
*D28
 70
     1
 10
0.0
 20
0.0
 30
0.0
  3
*D28
  1

  0
LINE
  5
15B67
330
15B65
100
AcDbEntity
  8
DIM
  6
Continuous
 62
     0
370
    -2
100
AcDbLine
 10
4496.082414921049
 20
-2227.84787487685
 30
0.0
 11
4496.082414921049
 21
-2215.94715649695
 31
0.0
  0
LINE
  5
15B68
330
15B65
100
AcDbEntity
  8
DIM
  6
Continuous
 62
     0
370
    -2
100
AcDbLine
 10
4500.107414921049
 20
-2230.02287487685
 30
0.0
 11
4500.107414921049
 21
-2215.94715649695
 31
0.0
  0
LINE
  5
15B69
330
15B65
100
AcDbEntity
  8
DIM
  6
Continuous
 62
     0
370
    -2
100
AcDbLine
 10
4492.582414921049
 20
-2216.12715649695
 30
0.0
 11
4489.082414921049
 21
-2216.12715649695
 31
0.0
  0
LINE
  5
15B6A
330
15B65
100
AcDbEntity
  8
DIM
  6
Continuous
 62
     0
370
    -2
100
AcDbLine
 10
4503.607414921049
 20
-2216.12715649695
 30
0.0
 11
4511.814798807693
 21
-2216.12715649695
 31
0.0
  0
INSERT
  5
15B6B
330
15B65
100
AcDbEntity
  8
DIM
  6
Continuous
 62
     0
370
    -2
100
AcDbBlockReference
  2
_FILLED
 10
4496.082414921049
 20
-2216.12715649695
 30
0.0
 41
3.5
 42
3.5
 43
3.5
  0
INSERT
  5
15B6C
330
15B65
100
AcDbEntity
  8
DIM
  6
Continuous
 62
     0
370
    -2
100
AcDbBlockReference
  2
_FILLED
 10
4500.107414921049
 20
-2216.12715649695
 30
0.0
 41
3.5
 42
3.5
 43
3.5
 50
180.0
  0
MTEXT
  5
15B6D
330
15B65
100
AcDbEntity
  8
DIM
  6
Continuous
 62
     0
100
AcDbMText
 10
4507.798312321205
 20
-2214.03715649695
 30
0.0
 40
2.0
 41
0.0
 46
0.0
 71
     1
 72
     1
  1
\A1;0.81
 73
     1
 44
1.0
  0
POINT
  5
15B6E
330
15B65
100
AcDbEntity
  8
Defpoints
  6
Continuous
 62
     0
100
AcDbPoint
 10
4496.082414921049
 20
-2227.91037487685
 30
0.0
  0
POINT
  5
15B6F
330
15B65
100
AcDbEntity
  8
Defpoints
  6
Continuous
 62
     0
100
AcDbPoint
 10
4500.107414921049
 20
-2230.08537487685
 30
0.0
  0
POINT
  5
15B70
330
15B65
100
AcDbEntity
  8
Defpoints
  6
Continuous
 62
     0
100
AcDbPoint
 10
4500.107414921049
 20
-2216.12715649695
 30
0.0
  0
ENDBLK
  5
15B71
330
15B65
100
AcDbEntity
  8
0
100
AcDbBlockEnd
  0
BLOCK
  5
15B73
330
15B72
100
AcDbEntity
  8
0
100
AcDbBlockBegin
  2
*D29
 70
     1
 10
0.0
 20
0.0
 30
0.0
  3
*D29
  1

  0
LINE
  5
15B74
330
15B72
100
AcDbEntity
  8
DIM
  6
Continuous
 62
     0
370
    -2
100
AcDbLine
 10
4423.582414921049
 20
-2236.09787487685
 30
0.0
 11
4423.582414921049
 21
-2257.329378074317
 31
0.0
  0
LINE
  5
15B75
330
15B72
100
AcDbEntity
  8
DIM
  6
Continuous
 62
     0
370
    -2
100
AcDbLine
 10
4566.082414921049
 20
-2236.23046494935
 30
0.0
 11
4566.082414921049
 21
-2257.329378074317
 31
0.0
  0
LINE
  5
15B76
330
15B72
100
AcDbEntity
  8
DIM
  6
Continuous
 62
     0
370
    -2
100
AcDbLine
 10
4427.082414921049
 20
-2257.149378074317
 30
0.0
 11
4562.582414921049
 21
-2257.149378074317
 31
0.0
  0
INSERT
  5
15B77
330
15B72
100
AcDbEntity
  8
DIM
  6
Continuous
 62
     0
370
    -2
100
AcDbBlockReference
  2
_FILLED
 10
4423.582414921049
 20
-2257.149378074317
 30
0.0
 41
3.5
 42
3.5
 43
3.5
 50
180.0
  0
INSERT
  5
15B78
330
15B72
100
AcDbEntity
  8
DIM
  6
Continuous
 62
     0
370
    -2
100
AcDbBlockReference
  2
_FILLED
 10
4566.082414921049
 20
-2257.149378074317
 30
0.0
 41
3.5
 42
3.5
 43
3.5
  0
MTEXT
  5
15B79
330
15B72
100
AcDbEntity
  8
DIM
  6
Continuous
 62
     0
100
AcDbMText
 10
4494.261269440776
 20
-2255.059378074317
 30
0.0
 40
2.0
 41
0.0
 46
0.0
 71
     2
 72
     1
  1
\A1;28.5
 73
     1
 44
1.0
  0
POINT
  5
15B7A
330
15B72
100
AcDbEntity
  8
Defpoints
  6
Continuous
 62
     0
100
AcDbPoint
 10
4423.582414921049
 20
-2236.03537487685
 30
0.0
  0
POINT
  5
15B7B
330
15B72
100
AcDbEntity
  8
Defpoints
  6
Continuous
 62
     0
100
AcDbPoint
 10
4566.082414921049
 20
-2236.16796494935
 30
0.0
  0
POINT
  5
15B7C
330
15B72
100
AcDbEntity
  8
Defpoints
  6
Continuous
 62
     0
100
AcDbPoint
 10
4566.082414921049
 20
-2257.149378074317
 30
0.0
  0
ENDBLK
  5
15B7D
330
15B72
100
AcDbEntity
  8
0
100
AcDbBlockEnd
  0
BLOCK
  5
15B7F
330
15B7E
100
AcDbEntity
  8
0
100
AcDbBlockBegin
  2
*D30
 70
     1
 10
0.0
 20
0.0
 30
0.0
  3
*D30
  1

  0
LINE
  5
15B80
330
15B7E
100
AcDbEntity
  8
DIM
  6
Continuous
 62
     0
370
    -2
100
AcDbLine
 10
4496.082414921049
 20
-2227.84787487685
 30
0.0
 11
4496.082414921049
 21
-2221.963599202851
 31
0.0
  0
LINE
  5
15B81
330
15B7E
100
AcDbEntity
  8
DIM
  6
Continuous
 62
     0
370
    -2
100
AcDbLine
 10
4566.082414921049
 20
-2233.84028480425
 30
0.0
 11
4566.082414921049
 21
-2221.963599202851
 31
0.0
  0
LINE
  5
15B82
330
15B7E
100
AcDbEntity
  8
DIM
  6
Continuous
 62
     0
370
    -2
100
AcDbLine
 10
4499.582414921049
 20
-2222.14359920285
 30
0.0
 11
4562.582414921049
 21
-2222.14359920285
 31
0.0
  0
INSERT
  5
15B83
330
15B7E
100
AcDbEntity
  8
DIM
  6
Continuous
 62
     0
370
    -2
100
AcDbBlockReference
  2
_FILLED
 10
4496.082414921049
 20
-2222.14359920285
 30
0.0
 41
3.5
 42
3.5
 43
3.5
 50
180.0
  0
INSERT
  5
15B84
330
15B7E
100
AcDbEntity
  8
DIM
  6
Continuous
 62
     0
370
    -2
100
AcDbBlockReference
  2
_FILLED
 10
4566.082414921049
 20
-2222.14359920285
 30
0.0
 41
3.5
 42
3.5
 43
3.5
  0
MTEXT
  5
15B85
330
15B7E
100
AcDbEntity
  8
DIM
  6
Continuous
 62
     0
100
AcDbMText
 10
4529.382414921049
 20
-2220.05359920285
 30
0.0
 40
2.0
 41
0.0
 46
0.0
 71
     2
 72
     1
  1
\A1;14
 73
     1
 44
1.0
  0
POINT
  5
15B86
330
15B7E
100
AcDbEntity
  8
Defpoints
  6
Continuous
 62
     0
100
AcDbPoint
 10
4496.082414921049
 20
-2227.91037487685
 30
0.0
  0
POINT
  5
15B87
330
15B7E
100
AcDbEntity
  8
Defpoints
  6
Continuous
 62
     0
100
AcDbPoint
 10
4566.082414921049
 20
-2233.90278480425
 30
0.0
  0
POINT
  5
15B88
330
15B7E
100
AcDbEntity
  8
Defpoints
  6
Continuous
 62
     0
100
AcDbPoint
 10
4566.082414921049
 20
-2222.14359920285
 30
0.0
  0
ENDBLK
  5
15B89
330
15B7E
100
AcDbEntity
  8
0
100
AcDbBlockEnd
  0
BLOCK
  5
15B8B
330
15B8A
100
AcDbEntity
  8
0
100
AcDbBlockBegin
  2
*D31
 70
     1
 10
0.0
 20
0.0
 30
0.0
  3
*D31
  1

  0
LINE
  5
15B8C
330
15B8A
100
AcDbEntity
  8
DIM
 62
     0
370
    -2
100
AcDbLine
 10
4497.649713629932
 20
-2228.627673585732
 30
0.0
 11
4495.249149106196
 21
-2226.227109061998
 31
0.0
  0
LINE
  5
15B8D
330
15B8A
100
AcDbEntity
  8
DIM
 62
     0
370
    -2
100
AcDbLine
 10
4497.649713629932
 20
-2241.44307616797
 30
0.0
 11
4495.249149106196
 21
-2243.843640691703
 31
0.0
  0
ARC
  5
15B8E
330
15B8A
100
AcDbEntity
  8
DIM
 62
     0
370
    -2
100
AcDbCircle
 10
4504.057414921049
 20
-2235.03537487685
 30
0.0
 40
12.05696897635265
100
AcDbArc
 50
142.6089311442503
 51
217.391068855754
  0
INSERT
  5
15B8F
330
15B8A
100
AcDbEntity
  8
DIM
 62
     0
370
    -2
100
AcDbBlockReference
  2
_FILLED
 10
4495.531850397314
 20
-2226.509810353116
 30
0.0
 41
1.6
 42
1.6
 43
1.6
 50
48.80446557212832
  0
INSERT
  5
15B90
330
15B8A
100
AcDbEntity
  8
DIM
 62
     0
370
    -2
100
AcDbBlockReference
  2
_FILLED
 10
4495.531850397315
 20
-2243.560939400584
 30
0.0
 41
1.6
 42
1.6
 43
1.6
 50
311.195534427876
  0
MTEXT
  5
15B91
330
15B8A
100
AcDbEntity
  8
DIM
 62
     0
100
AcDbMText
 10
4490.933975944698
 20
-2235.03537487685
 30
0.0
 40
2.0
 41
0.0
 46
0.0
 71
     5
 72
     1
  1
\A1;{\H0.66667x;90\Q2;%%D}
 11
0.0000000000000001
 21
1.0
 31
0.0
 73
     1
 44
1.0
  0
POINT
  5
15B92
330
15B8A
100
AcDbEntity
  8
Defpoints
 62
     0
100
AcDbPoint
 10
4492.411277200023
 20
-2231.91480167956
 30
0.0
  0
POINT
  5
15B93
330
15B8A
100
AcDbEntity
  8
Defpoints
 62
     0
100
AcDbPoint
 10
4500.107414921049
 20
-2231.08537487685
 30
0.0
  0
POINT
  5
15B94
330
15B8A
100
AcDbEntity
  8
Defpoints
 62
     0
100
AcDbPoint
 10
4500.107414921049
 20
-2238.98537487685
 30
0.0
  0
POINT
  5
15B95
330
15B8A
100
AcDbEntity
  8
Defpoints
 62
     0
100
AcDbPoint
 10
4497.932414921049
 20
-2241.16037487685
 30
0.0
  0
POINT
  5
15B96
330
15B8A
100
AcDbEntity
  8
Defpoints
 62
     0
100
AcDbPoint
 10
4497.932414921049
 20
-2228.91037487685
 30
0.0
  0
ENDBLK
  5
15B97
330
15B8A
100
AcDbEntity
  8
0
100
AcDbBlockEnd
  0
BLOCK
  5
15B99
330
15B98
100
AcDbEntity
  8
0
100
AcDbBlockBegin
  2
*D32
 70
     1
 10
0.0
 20
0.0
 30
0.0
  3
*D32
  1

  0
LINE
  5
15B9A
330
15B98
100
AcDbEntity
  8
DIM
 62
     0
370
    -2
100
AcDbLine
 10
4563.634552688511
 20
-2232.731278024877
 30
0.0
 11
4551.993618823426
 21
-2226.668291635899
 31
0.0
  0
LINE
  5
15B9B
330
15B98
100
AcDbEntity
  8
DIM
 62
     0
370
    -2
100
AcDbLine
 10
4563.546932287155
 20
-2237.37125680339
 30
0.0
 11
4551.780812217777
 21
-2243.117501488314
 31
0.0
  0
ARC
  5
15B9C
330
15B98
100
AcDbEntity
  8
DIM
 62
     0
370
    -2
100
AcDbCircle
 10
4568.189807049358
 20
-2235.103806338176
 30
0.0
 40
17.86148202898594
100
AcDbArc
 50
157.6221696204157
 51
200.8954199432336
  0
INSERT
  5
15B9D
330
15B98
100
AcDbEntity
  8
DIM
 62
     0
370
    -2
100
AcDbBlockReference
  2
_FILLED
 10
4552.348207074262
 20
-2226.852973016572
 30
0.0
 41
1.6
 42
1.6
 43
1.6
 50
65.05508349651368
  0
INSERT
  5
15B9E
330
15B98
100
AcDbEntity
  8
DIM
 62
     0
370
    -2
100
AcDbBlockReference
  2
_FILLED
 10
4552.140059510668
 20
-2242.942055135975
 30
0.0
 41
1.6
 42
1.6
 43
1.6
 50
293.4625060671356
  0
MTEXT
  5
15B9F
330
15B98
100
AcDbEntity
  8
DIM
 62
     0
100
AcDbMText
 10
4549.263438816387
 20
-2234.858952256002
 30
0.0
 40
2.0
 41
0.0
 46
0.0
 71
     5
 72
     1
  1
\A1;{\H0.66667x;50%%D}
 11
0.0129361106684867
 21
0.9999163250196351
 31
0.0
 73
     1
 44
1.0
  0
POINT
  5
15BA0
330
15B98
100
AcDbEntity
  8
Defpoints
 62
     0
100
AcDbPoint
 10
4550.581836915249
 20
-2232.105151968609
 30
0.0
  0
POINT
  5
15BA1
330
15B98
100
AcDbEntity
  8
Defpoints
 62
     0
100
AcDbPoint
 10
4563.989140939348
 20
-2232.91595940555
 30
0.0
  0
POINT
  5
15BA2
330
15B98
100
AcDbEntity
  8
Defpoints
 62
     0
100
AcDbPoint
 10
4564.39146636525
 20
-2236.958809928051
 30
0.0
  0
POINT
  5
15BA3
330
15B98
100
AcDbEntity
  8
Defpoints
 62
     0
100
AcDbPoint
 10
4563.906179580049
 20
-2237.19581045105
 30
0.0
  0
POINT
  5
15BA4
330
15B98
100
AcDbEntity
  8
Defpoints
 62
     0
100
AcDbPoint
 10
4564.650414720048
 20
-2233.26037283305
 30
0.0
  0
ENDBLK
  5
15BA5
330
15B98
100
AcDbEntity
  8
0
100
AcDbBlockEnd
  0
BLOCK
  5
15BA7
330
15BA6
100
AcDbEntity
  8
0
100
AcDbBlockBegin
  2
*D33
 70
     1
 10
0.0
 20
0.0
 30
0.0
  3
*D33
  1

  0
LINE
  5
15BA8
330
15BA6
100
AcDbEntity
  8
DIM
 62
     0
370
    -2
100
AcDbLine
 10
4436.298770423065
 20
-2167.42926954305
 30
0.0
 11
4446.755125250875
 21
-2176.722494168497
 31
0.0
  0
MTEXT
  5
15BA9
330
15BA6
100
AcDbEntity
  8
DIM
 62
     0
100
AcDbMText
 10
4439.069285757841
 20
-2168.018849376987
 30
0.0
 40
2.0
 41
0.0
 46
0.0
 71
     5
 72
     1
  1
\A1;R2.5
 11
0.7474559220316201
 21
-0.6643114063598947
 31
0.0
 73
     1
 44
1.0
  0
INSERT
  5
15BAA
330
15BA6
100
AcDbEntity
  8
DIM
 62
     0
370
    -2
100
AcDbBlockReference
  2
_FILLED
 10
4447.951054726127
 20
-2177.785392418673
 30
0.0
 41
1.6
 42
1.6
 43
1.6
 50
318.3704799678578
  0
POINT
  5
15BAB
330
15BA6
100
AcDbEntity
  8
Defpoints
 62
     0
100
AcDbPoint
 10
4447.951054726127
 20
-2177.785392418673
 30
0.0
  0
POINT
  5
15BAC
330
15BA6
100
AcDbEntity
  8
Defpoints
 62
     0
100
AcDbPoint
 10
4446.08241492105
 20
-2176.124613902775
 30
0.0
  0
ENDBLK
  5
15BAD
330
15BA6
100
AcDbEntity
  8
0
100
AcDbBlockEnd
  0
BLOCK
  5
15D02
330
15D01
100
AcDbEntity
  8
0
100
AcDbBlockBegin
  2
*D34
 70
     1
 10
0.0
 20
0.0
 30
0.0
  3
*D34
  1

  0
LINE
  5
16027
330
15D01
100
AcDbEntity
  8
DIM
 62
     1
370
    -2
100
AcDbLine
 10
577.1095377516301
 20
332.3826714359277
 30
0.0
 11
582.8048229933423
 21
325.9769619693162
 31
0.0
  0
MTEXT
  5
16028
330
15D01
100
AcDbEntity
  8
DIM
 62
     4
100
AcDbMText
 10
583.3442550313711
 20
329.1327523736916
 30
0.0
 40
2.0
 41
0.0
 46
0.0
 71
     3
 72
     1
  1
\A1;SR0.5
  7
Romans字体
 11
0.6644499448664353
 21
-0.747332771104674
 31
0.0
 73
     1
 44
1.0
  0
SOLID
  5
16029
330
15D01
100
AcDbEntity
  8
DIM
 62
     1
100
AcDbTrace
 10
582.9916561861185
 20
326.1430744555328
 30
0.0
 11
582.617989800566
 21
325.8108494830996
 31
0.0
 12
583.8014979106417
 22
324.8559628126592
 32
0.0
 13
583.8014979106417
 23
324.8559628126592
 33
0.0
  0
POINT
  5
1602A
330
15D01
100
AcDbEntity
  8
Defpoints
 62
     0
100
AcDbPoint
 10
583.8014979106417
 20
324.8559628126592
 30
0.0
  0
POINT
  5
1602B
330
15D01
100
AcDbEntity
  8
Defpoints
 62
     0
100
AcDbPoint
 10
584.133722883082
 20
324.4822964270992
 30
0.0
  0
ENDBLK
  5
15D03
330
15D01
100
AcDbEntity
  8
0
100
AcDbBlockEnd
  0
BLOCK
  5
15D0C
330
15D0B
100
AcDbEntity
  8
0
100
AcDbBlockBegin
  2
*D35
 70
     1
 10
0.0
 20
0.0
 30
0.0
  3
*D35
  1

  0
LINE
  5
16004
330
15D0B
100
AcDbEntity
  8
DIM
 62
     6
370
    -2
100
AcDbLine
 10
594.3337228830819
 20
325.747296427099
 30
0.0
 11
595.7032998659021
 21
325.747296427099
 31
0.0
  0
LINE
  5
16005
330
15D0B
100
AcDbEntity
  8
DIM
 62
     6
370
    -2
100
AcDbLine
 10
594.3337228830819
 20
323.2172964270991
 30
0.0
 11
595.7032998659021
 21
323.2172964270991
 31
0.0
  0
LINE
  5
16006
330
15D0B
100
AcDbEntity
  8
DIM
 62
     1
370
    -2
100
AcDbLine
 10
595.203299865902
 20
327.2472964270991
 30
0.0
 11
595.203299865902
 21
328.7472964270991
 31
0.0
  0
LINE
  5
16007
330
15D0B
100
AcDbEntity
  8
DIM
 62
     1
370
    -2
100
AcDbLine
 10
595.203299865902
 20
321.7172964270991
 30
0.0
 11
595.203299865902
 21
306.5930300178326
 31
0.0
  0
SOLID
  5
16008
330
15D0B
100
AcDbEntity
  8
DIM
 62
     1
100
AcDbTrace
 10
594.953299865902
 20
327.2472964270991
 30
0.0
 11
595.453299865902
 21
327.2472964270991
 31
0.0
 12
595.203299865902
 22
325.747296427099
 32
0.0
 13
595.203299865902
 23
325.747296427099
 33
0.0
  0
SOLID
  5
16009
330
15D0B
100
AcDbEntity
  8
DIM
 62
     1
100
AcDbTrace
 10
594.953299865902
 20
321.7172964270991
 30
0.0
 11
595.453299865902
 21
321.7172964270991
 31
0.0
 12
595.203299865902
 22
323.2172964270991
 32
0.0
 13
595.203299865902
 23
323.2172964270991
 33
0.0
  0
MTEXT
  5
1600A
330
15D0B
100
AcDbEntity
  8
DIM
 62
     4
100
AcDbMText
 10
592.703299865902
 20
312.7358871606899
 30
0.0
 40
2.0
 41
0.0
 46
0.0
 71
     3
 72
     1
  1
\A1;*%%c2.5
  7
Romans字体
 11
0.0000000000000001
 21
1.0
 31
0.0
 73
     1
 44
1.0
  0
POINT
  5
1600B
330
15D0B
100
AcDbEntity
  8
Defpoints
 62
     0
100
AcDbPoint
 10
594.1337228830819
 20
325.747296427099
 30
0.0
  0
POINT
  5
1600C
330
15D0B
100
AcDbEntity
  8
Defpoints
 62
     0
100
AcDbPoint
 10
594.1337228830819
 20
323.2172964270991
 30
0.0
  0
POINT
  5
1600D
330
15D0B
100
AcDbEntity
  8
Defpoints
 62
     0
100
AcDbPoint
 10
595.203299865902
 20
323.2172964270991
 30
0.0
  0
ENDBLK
  5
15D0D
330
15D0B
100
AcDbEntity
  8
0
100
AcDbBlockEnd
  0
BLOCK
  5
15D19
330
15D18
100
AcDbEntity
  8
0
100
AcDbBlockBegin
  2
*D36
 70
     1
 10
0.0
 20
0.0
 30
0.0
  3
*D36
  1

  0
LINE
  5
15FFA
330
15D18
100
AcDbEntity
  8
DIM
 62
     6
370
    -2
100
AcDbLine
 10
597.2735302673416
 20
325.3822964270991
 30
0.0
 11
597.5735302673419
 21
325.3822964270991
 31
0.0
  0
LINE
  5
15FFB
330
15D18
100
AcDbEntity
  8
DIM
 62
     6
370
    -2
100
AcDbLine
 10
597.2735302673416
 20
323.5822964270991
 30
0.0
 11
597.5735302673419
 21
323.5822964270991
 31
0.0
  0
LINE
  5
15FFC
330
15D18
100
AcDbEntity
  8
DIM
 62
     1
370
    -2
100
AcDbLine
 10
597.0735302673419
 20
326.8822964270991
 30
0.0
 11
597.0735302673419
 21
328.3822964270991
 31
0.0
  0
LINE
  5
15FFD
330
15D18
100
AcDbEntity
  8
DIM
 62
     1
370
    -2
100
AcDbLine
 10
597.0735302673419
 20
322.0822964270991
 30
0.0
 11
597.0735302673419
 21
309.9136477784505
 31
0.0
  0
SOLID
  5
15FFE
330
15D18
100
AcDbEntity
  8
DIM
 62
     1
100
AcDbTrace
 10
596.8235302673417
 20
326.8822964270991
 30
0.0
 11
597.3235302673417
 21
326.8822964270991
 31
0.0
 12
597.0735302673419
 22
325.3822964270991
 32
0.0
 13
597.0735302673419
 23
325.3822964270991
 33
0.0
  0
SOLID
  5
15FFF
330
15D18
100
AcDbEntity
  8
DIM
 62
     1
100
AcDbTrace
 10
596.8235302673417
 20
322.0822964270991
 30
0.0
 11
597.3235302673417
 21
322.0822964270991
 31
0.0
 12
597.0735302673419
 22
323.5822964270991
 32
0.0
 13
597.0735302673419
 23
323.5822964270991
 33
0.0
  0
MTEXT
  5
16000
330
15D18
100
AcDbEntity
  8
DIM
 62
     4
100
AcDbMText
 10
594.5735302673417
 20
314.9136477784505
 30
0.0
 40
2.0
 41
0.0
 46
0.0
 71
     3
 72
     1
  1
\A1;%%c1.8
  7
Romans字体
 11
0.0000000000000001
 21
1.0
 31
0.0
 73
     1
 44
1.0
  0
POINT
  5
16001
330
15D18
100
AcDbEntity
  8
Defpoints
 62
     0
100
AcDbPoint
 10
597.0735302673415
 20
325.3822964270991
 30
0.0
  0
POINT
  5
16002
330
15D18
100
AcDbEntity
  8
Defpoints
 62
     0
100
AcDbPoint
 10
597.0735302673415
 20
323.5822964270991
 30
0.0
  0
POINT
  5
16003
330
15D18
100
AcDbEntity
  8
Defpoints
 62
     0
100
AcDbPoint
 10
597.0735302673419
 20
323.5822964270991
 30
0.0
  0
ENDBLK
  5
15D1A
330
15D18
100
AcDbEntity
  8
0
100
AcDbBlockEnd
  0
BLOCK
  5
15D26
330
15D25
100
AcDbEntity
  8
0
100
AcDbBlockBegin
  2
*D37
 70
     1
 10
0.0
 20
0.0
 30
0.0
  3
*D37
  1

  0
LINE
  5
15FF0
330
15D25
100
AcDbEntity
  8
DIM
 62
     6
370
    -2
100
AcDbLine
 10
598.9037228830817
 20
325.7072964270991
 30
0.0
 11
600.3591021016218
 21
325.7072964270991
 31
0.0
  0
LINE
  5
15FF1
330
15D25
100
AcDbEntity
  8
DIM
 62
     6
370
    -2
100
AcDbLine
 10
598.9037228830817
 20
323.2572964270991
 30
0.0
 11
600.3591021016218
 21
323.2572964270991
 31
0.0
  0
LINE
  5
15FF2
330
15D25
100
AcDbEntity
  8
DIM
 62
     1
370
    -2
100
AcDbLine
 10
599.8591021016218
 20
327.2072964270991
 30
0.0
 11
599.8591021016218
 21
328.7072964270991
 31
0.0
  0
LINE
  5
15FF3
330
15D25
100
AcDbEntity
  8
DIM
 62
     1
370
    -2
100
AcDbLine
 10
599.8591021016218
 20
321.7572964270991
 30
0.0
 11
599.8591021016218
 21
307.7010802108829
 31
0.0
  0
SOLID
  5
15FF4
330
15D25
100
AcDbEntity
  8
DIM
 62
     1
100
AcDbTrace
 10
599.6091021016218
 20
327.2072964270991
 30
0.0
 11
600.1091021016218
 21
327.2072964270991
 31
0.0
 12
599.8591021016218
 22
325.7072964270991
 32
0.0
 13
599.8591021016218
 23
325.7072964270991
 33
0.0
  0
SOLID
  5
15FF5
330
15D25
100
AcDbEntity
  8
DIM
 62
     1
100
AcDbTrace
 10
599.6091021016218
 20
321.7572964270991
 30
0.0
 11
600.1091021016218
 21
321.7572964270991
 31
0.0
 12
599.8591021016218
 22
323.2572964270991
 32
0.0
 13
599.8591021016218
 23
323.2572964270991
 33
0.0
  0
MTEXT
  5
15FF6
330
15D25
100
AcDbEntity
  8
DIM
 62
     4
100
AcDbMText
 10
597.3591021016218
 20
312.7010802108829
 30
0.0
 40
2.0
 41
0.0
 46
0.0
 71
     3
 72
     1
  1
\A1;%%c2.5
  7
Romans字体
 11
0.0000000000000001
 21
1.0
 31
0.0
 73
     1
 44
1.0
  0
POINT
  5
15FF7
330
15D25
100
AcDbEntity
  8
Defpoints
 62
     0
100
AcDbPoint
 10
598.7037228830817
 20
325.7072964270991
 30
0.0
  0
POINT
  5
15FF8
330
15D25
100
AcDbEntity
  8
Defpoints
 62
     0
100
AcDbPoint
 10
598.7037228830817
 20
323.2572964270991
 30
0.0
  0
POINT
  5
15FF9
330
15D25
100
AcDbEntity
  8
Defpoints
 62
     0
100
AcDbPoint
 10
599.8591021016218
 20
323.2572964270991
 30
0.0
  0
ENDBLK
  5
15D27
330
15D25
100
AcDbEntity
  8
0
100
AcDbBlockEnd
  0
BLOCK
  5
15D33
330
15D32
100
AcDbEntity
  8
0
100
AcDbBlockBegin
  2
*D38
 70
     1
 10
0.0
 20
0.0
 30
0.0
  3
*D38
  1

  0
LINE
  5
15FE6
330
15D32
100
AcDbEntity
  8
DIM
 62
     6
370
    -2
100
AcDbLine
 10
610.9221803539817
 20
325.2722964270991
 30
0.0
 11
613.9229267820817
 21
325.2722964270991
 31
0.0
  0
LINE
  5
15FE7
330
15D32
100
AcDbEntity
  8
DIM
 62
     6
370
    -2
100
AcDbLine
 10
610.9221803539817
 20
323.692296427099
 30
0.0
 11
613.9229267820817
 21
323.692296427099
 31
0.0
  0
LINE
  5
15FE8
330
15D32
100
AcDbEntity
  8
DIM
 62
     1
370
    -2
100
AcDbLine
 10
613.4229267820817
 20
326.7722964270991
 30
0.0
 11
613.4229267820817
 21
328.2722964270991
 31
0.0
  0
LINE
  5
15FE9
330
15D32
100
AcDbEntity
  8
DIM
 62
     1
370
    -2
100
AcDbLine
 10
613.4229267820817
 20
322.1922964270991
 30
0.0
 11
613.4229267820817
 21
309.695269400072
 31
0.0
  0
SOLID
  5
15FEA
330
15D32
100
AcDbEntity
  8
DIM
 62
     1
100
AcDbTrace
 10
613.1729267820817
 20
326.7722964270991
 30
0.0
 11
613.6729267820817
 21
326.7722964270991
 31
0.0
 12
613.4229267820817
 22
325.2722964270991
 32
0.0
 13
613.4229267820817
 23
325.2722964270991
 33
0.0
  0
SOLID
  5
15FEB
330
15D32
100
AcDbEntity
  8
DIM
 62
     1
100
AcDbTrace
 10
613.1729267820817
 20
322.1922964270991
 30
0.0
 11
613.6729267820817
 21
322.1922964270991
 31
0.0
 12
613.4229267820817
 22
323.692296427099
 32
0.0
 13
613.4229267820817
 23
323.692296427099
 33
0.0
  0
MTEXT
  5
15FEC
330
15D32
100
AcDbEntity
  8
DIM
 62
     4
100
AcDbMText
 10
610.9229267820817
 20
314.6952694000721
 30
0.0
 40
2.0
 41
0.0
 46
0.0
 71
     3
 72
     1
  1
\A1;%%c1.6
  7
Romans字体
 11
0.0000000000000001
 21
1.0
 31
0.0
 73
     1
 44
1.0
  0
POINT
  5
15FED
330
15D32
100
AcDbEntity
  8
Defpoints
 62
     0
100
AcDbPoint
 10
610.7221803539819
 20
325.2722964270991
 30
0.0
  0
POINT
  5
15FEE
330
15D32
100
AcDbEntity
  8
Defpoints
 62
     0
100
AcDbPoint
 10
610.7221803539819
 20
323.692296427099
 30
0.0
  0
POINT
  5
15FEF
330
15D32
100
AcDbEntity
  8
Defpoints
 62
     0
100
AcDbPoint
 10
613.4229267820817
 20
323.692296427099
 30
0.0
  0
ENDBLK
  5
15D34
330
15D32
100
AcDbEntity
  8
0
100
AcDbBlockEnd
  0
BLOCK
  5
15D40
330
15D3F
100
AcDbEntity
  8
0
100
AcDbBlockBegin
  2
*D39
 70
     1
 10
0.0
 20
0.0
 30
0.0
  3
*D39
  1

  0
LINE
  5
15FE1
330
15D3F
100
AcDbEntity
  8
DIM
 62
     1
370
    -2
100
AcDbLine
 10
620.1462542390545
 20
319.9289483630701
 30
0.0
 11
613.2763936142776
 21
314.8030920686309
 31
0.0
  0
MTEXT
  5
15FE2
330
15D3F
100
AcDbEntity
  8
DIM
 62
     4
100
AcDbMText
 10
613.384319674181
 20
318.0028345528933
 30
0.0
 40
2.0
 41
0.0
 46
0.0
 71
     1
 72
     1
  1
\A1;SR0.3
  7
Romans字体
 11
0.8014837395573126
 21
0.5980165676845635
 31
0.0
 73
     1
 44
1.0
  0
SOLID
  5
15FE3
330
15D3F
100
AcDbEntity
  8
DIM
 62
     1
100
AcDbTrace
 10
613.1268894723563
 20
315.0034630035202
 30
0.0
 11
613.4258977561987
 21
314.6027211337415
 31
0.0
 12
612.0741680049416
 22
313.906067217104
 32
0.0
 13
612.0741680049416
 23
313.906067217104
 33
0.0
  0
POINT
  5
15FE4
330
15D3F
100
AcDbEntity
  8
Defpoints
 62
     0
100
AcDbPoint
 10
612.0741680049416
 20
313.906067217104
 30
0.0
  0
POINT
  5
15FE5
330
15D3F
100
AcDbEntity
  8
Defpoints
 62
     0
100
AcDbPoint
 10
611.8337228830815
 20
313.726662246804
 30
0.0
  0
ENDBLK
  5
15D41
330
15D3F
100
AcDbEntity
  8
0
100
AcDbBlockEnd
  0
BLOCK
  5
15D4A
330
15D49
100
AcDbEntity
  8
0
100
AcDbBlockBegin
  2
*D40
 70
     1
 10
0.0
 20
0.0
 30
0.0
  3
*D40
  1

  0
LINE
  5
1601D
330
15D49
100
AcDbEntity
  8
DIM
 62
     6
370
    -2
100
AcDbLine
 10
591.0334858941816
 20
326.0822964270991
 30
0.0
 11
591.3334858941821
 21
326.0822964270991
 31
0.0
  0
LINE
  5
1601E
330
15D49
100
AcDbEntity
  8
DIM
 62
     6
370
    -2
100
AcDbLine
 10
591.0334858941816
 20
322.8822964270991
 30
0.0
 11
591.3334858941821
 21
322.8822964270991
 31
0.0
  0
LINE
  5
1601F
330
15D49
100
AcDbEntity
  8
DIM
 62
     1
370
    -2
100
AcDbLine
 10
590.8334858941818
 20
327.5822964270991
 30
0.0
 11
590.8334858941818
 21
329.0822964270991
 31
0.0
  0
LINE
  5
16020
330
15D49
100
AcDbEntity
  8
DIM
 62
     1
370
    -2
100
AcDbLine
 10
590.8334858941818
 20
321.3822964270991
 30
0.0
 11
590.8334858941818
 21
319.8822964270991
 31
0.0
  0
SOLID
  5
16021
330
15D49
100
AcDbEntity
  8
DIM
 62
     1
100
AcDbTrace
 10
590.5834858941821
 20
327.5822964270991
 30
0.0
 11
591.0834858941821
 21
327.5822964270991
 31
0.0
 12
590.8334858941818
 22
326.0822964270991
 32
0.0
 13
590.8334858941818
 23
326.0822964270991
 33
0.0
  0
SOLID
  5
16022
330
15D49
100
AcDbEntity
  8
DIM
 62
     1
100
AcDbTrace
 10
590.5834858941821
 20
321.3822964270991
 30
0.0
 11
591.0834858941821
 21
321.3822964270991
 31
0.0
 12
590.8334858941818
 22
322.8822964270991
 32
0.0
 13
590.8334858941818
 23
322.8822964270991
 33
0.0
  0
MTEXT
  5
16023
330
15D49
100
AcDbEntity
  8
DIM
 62
     4
100
AcDbMText
 10
588.333485894182
 20
327.3037249985277
 30
0.0
 40
2.0
 41
0.0
 46
0.0
 71
     3
 72
     1
  1
\A1;*%%c3.2
  7
Romans字体
 11
0.0000000000000001
 21
1.0
 31
0.0
 73
     1
 44
1.0
  0
POINT
  5
16024
330
15D49
100
AcDbEntity
  8
Defpoints
 62
     0
100
AcDbPoint
 10
590.8334858941818
 20
326.0822964270991
 30
0.0
  0
POINT
  5
16025
330
15D49
100
AcDbEntity
  8
Defpoints
 62
     0
100
AcDbPoint
 10
590.8334858941818
 20
322.8822964270991
 30
0.0
  0
POINT
  5
16026
330
15D49
100
AcDbEntity
  8
Defpoints
 62
     0
100
AcDbPoint
 10
590.8334858941818
 20
322.8822964270991
 30
0.0
  0
ENDBLK
  5
15D4B
330
15D49
100
AcDbEntity
  8
0
100
AcDbBlockEnd
  0
BLOCK
  5
15D56
330
15D55
100
AcDbEntity
  8
0
100
AcDbBlockBegin
  2
*D41
 70
     1
 10
0.0
 20
0.0
 30
0.0
  3
*D41
  1

  0
LINE
  5
16013
330
15D55
100
AcDbEntity
  8
DIM
 62
     6
370
    -2
100
AcDbLine
 10
584.3337228830819
 20
324.9822964270991
 30
0.0
 11
585.9520737962417
 21
324.9822964270991
 31
0.0
  0
LINE
  5
16014
330
15D55
100
AcDbEntity
  8
DIM
 62
     6
370
    -2
100
AcDbLine
 10
584.3337228830819
 20
323.9822964270991
 30
0.0
 11
585.9520737962417
 21
323.9822964270991
 31
0.0
  0
LINE
  5
16015
330
15D55
100
AcDbEntity
  8
DIM
 62
     1
370
    -2
100
AcDbLine
 10
585.4520737962417
 20
326.4822964270991
 30
0.0
 11
585.4520737962417
 21
327.9822964270991
 31
0.0
  0
LINE
  5
16016
330
15D55
100
AcDbEntity
  8
DIM
 62
     1
370
    -2
100
AcDbLine
 10
585.4520737962417
 20
322.4822964270992
 30
0.0
 11
585.4520737962417
 21
311.7899026047053
 31
0.0
  0
SOLID
  5
16017
330
15D55
100
AcDbEntity
  8
DIM
 62
     1
100
AcDbTrace
 10
585.2020737962417
 20
326.4822964270991
 30
0.0
 11
585.7020737962417
 21
326.4822964270991
 31
0.0
 12
585.4520737962417
 22
324.9822964270991
 32
0.0
 13
585.4520737962417
 23
324.9822964270991
 33
0.0
  0
SOLID
  5
16018
330
15D55
100
AcDbEntity
  8
DIM
 62
     1
100
AcDbTrace
 10
585.2020737962417
 20
322.4822964270992
 30
0.0
 11
585.7020737962417
 21
322.4822964270992
 31
0.0
 12
585.4520737962417
 22
323.9822964270991
 32
0.0
 13
585.4520737962417
 23
323.9822964270991
 33
0.0
  0
MTEXT
  5
16019
330
15D55
100
AcDbEntity
  8
DIM
 62
     4
100
AcDbMText
 10
582.9520737962416
 20
314.2184740332768
 30
0.0
 40
2.0
 41
0.0
 46
0.0
 71
     3
 72
     1
  1
\A1;%%c1
  7
Romans字体
 11
0.0000000000000001
 21
1.0
 31
0.0
 73
     1
 44
1.0
  0
POINT
  5
1601A
330
15D55
100
AcDbEntity
  8
Defpoints
 62
     0
100
AcDbPoint
 10
584.133722883082
 20
324.9822964270991
 30
0.0
  0
POINT
  5
1601B
330
15D55
100
AcDbEntity
  8
Defpoints
 62
     0
100
AcDbPoint
 10
584.133722883082
 20
323.9822964270991
 30
0.0
  0
POINT
  5
1601C
330
15D55
100
AcDbEntity
  8
Defpoints
 62
     0
100
AcDbPoint
 10
585.4520737962417
 20
323.9822964270991
 30
0.0
  0
ENDBLK
  5
15D57
330
15D55
100
AcDbEntity
  8
0
100
AcDbBlockEnd
  0
BLOCK
  5
15D63
330
15D62
100
AcDbEntity
  8
0
100
AcDbBlockBegin
  2
*D42
 70
     1
 10
0.0
 20
0.0
 30
0.0
  3
*D42
  1

  0
LINE
  5
15F39
330
15D62
100
AcDbEntity
  8
DIM
 62
     6
370
    -2
100
AcDbLine
 10
588.633722883082
 20
311.7001442322838
 30
0.0
 11
588.633722883082
 21
310.922482223724
 31
0.0
  0
LINE
  5
15F3A
330
15D62
100
AcDbEntity
  8
DIM
 62
     6
370
    -2
100
AcDbLine
 10
583.633722883082
 20
313.300144232284
 30
0.0
 11
583.633722883082
 21
310.922482223724
 31
0.0
  0
LINE
  5
15F3B
330
15D62
100
AcDbEntity
  8
DIM
 62
     1
370
    -2
100
AcDbLine
 10
587.1337228830817
 20
311.422482223724
 30
0.0
 11
585.133722883082
 21
311.422482223724
 31
0.0
  0
SOLID
  5
15F3C
330
15D62
100
AcDbEntity
  8
DIM
 62
     1
100
AcDbTrace
 10
587.1337228830817
 20
311.672482223724
 30
0.0
 11
587.1337228830817
 21
311.172482223724
 31
0.0
 12
588.633722883082
 22
311.422482223724
 32
0.0
 13
588.633722883082
 23
311.422482223724
 33
0.0
  0
SOLID
  5
15F3D
330
15D62
100
AcDbEntity
  8
DIM
 62
     1
100
AcDbTrace
 10
585.133722883082
 20
311.672482223724
 30
0.0
 11
585.133722883082
 21
311.172482223724
 31
0.0
 12
583.633722883082
 22
311.422482223724
 32
0.0
 13
583.633722883082
 23
311.422482223724
 33
0.0
  0
MTEXT
  5
15F3E
330
15D62
100
AcDbEntity
  8
DIM
 62
     4
100
AcDbMText
 10
586.1337228830818
 20
313.922482223724
 30
0.0
 40
2.0
 41
0.0
 46
0.0
 71
     2
 72
     1
  1
\A1;5
  7
Romans字体
 73
     1
 44
1.0
  0
POINT
  5
15F3F
330
15D62
100
AcDbEntity
  8
Defpoints
 62
     0
100
AcDbPoint
 10
588.633722883082
 20
311.900144232284
 30
0.0
  0
POINT
  5
15F40
330
15D62
100
AcDbEntity
  8
Defpoints
 62
     0
100
AcDbPoint
 10
583.633722883082
 20
313.500144232284
 30
0.0
  0
POINT
  5
15F41
330
15D62
100
AcDbEntity
  8
Defpoints
 62
     0
100
AcDbPoint
 10
583.633722883082
 20
311.422482223724
 30
0.0
  0
ENDBLK
  5
15D64
330
15D62
100
AcDbEntity
  8
0
100
AcDbBlockEnd
  0
BLOCK
  5
15D6F
330
15D6E
100
AcDbEntity
  8
0
100
AcDbBlockBegin
  2
*D43
 70
     1
 10
0.0
 20
0.0
 30
0.0
  3
*D43
  1

  0
LINE
  5
15FC3
330
15D6E
100
AcDbEntity
  8
DIM
 62
     6
370
    -2
100
AcDbLine
 10
594.1337228830819
 20
315.7001442322838
 30
0.0
 11
594.1337228830819
 21
317.718806569624
 31
0.0
  0
LINE
  5
15FC4
330
15D6E
100
AcDbEntity
  8
DIM
 62
     6
370
    -2
100
AcDbLine
 10
596.133722883082
 20
315.365144232284
 30
0.0
 11
596.133722883082
 21
317.718806569624
 31
0.0
  0
LINE
  5
15FC5
330
15D6E
100
AcDbEntity
  8
DIM
 62
     1
370
    -2
100
AcDbLine
 10
597.633722883082
 20
317.218806569624
 30
0.0
 11
599.1337228830817
 21
317.218806569624
 31
0.0
  0
LINE
  5
15FC6
330
15D6E
100
AcDbEntity
  8
DIM
 62
     1
370
    -2
100
AcDbLine
 10
592.633722883082
 20
317.218806569624
 30
0.0
 11
583.1215607209197
 21
317.218806569624
 31
0.0
  0
SOLID
  5
15FC7
330
15D6E
100
AcDbEntity
  8
DIM
 62
     1
100
AcDbTrace
 10
597.633722883082
 20
317.468806569624
 30
0.0
 11
597.633722883082
 21
316.9688065696239
 31
0.0
 12
596.133722883082
 22
317.218806569624
 32
0.0
 13
596.133722883082
 23
317.218806569624
 33
0.0
  0
SOLID
  5
15FC8
330
15D6E
100
AcDbEntity
  8
DIM
 62
     1
100
AcDbTrace
 10
592.633722883082
 20
317.468806569624
 30
0.0
 11
592.633722883082
 21
316.9688065696239
 31
0.0
 12
594.1337228830819
 22
317.218806569624
 32
0.0
 13
594.1337228830819
 23
317.218806569624
 33
0.0
  0
MTEXT
  5
15FC9
330
15D6E
100
AcDbEntity
  8
DIM
 62
     4
100
AcDbMText
 10
584.6215607209197
 20
319.718806569624
 30
0.0
 40
2.0
 41
0.0
 46
0.0
 71
     3
 72
     1
  1
\A1;2
  7
Romans字体
 73
     1
 44
1.0
  0
POINT
  5
15FCA
330
15D6E
100
AcDbEntity
  8
Defpoints
 62
     0
100
AcDbPoint
 10
594.1337228830819
 20
315.500144232284
 30
0.0
  0
POINT
  5
15FCB
330
15D6E
100
AcDbEntity
  8
Defpoints
 62
     0
100
AcDbPoint
 10
596.133722883082
 20
315.165144232284
 30
0.0
  0
POINT
  5
15FCC
330
15D6E
100
AcDbEntity
  8
Defpoints
 62
     0
100
AcDbPoint
 10
596.133722883082
 20
317.218806569624
 30
0.0
  0
ENDBLK
  5
15D70
330
15D6E
100
AcDbEntity
  8
0
100
AcDbBlockEnd
  0
BLOCK
  5
15D7C
330
15D7B
100
AcDbEntity
  8
0
100
AcDbBlockBegin
  2
*D44
 70
     1
 10
0.0
 20
0.0
 30
0.0
  3
*D44
  1

  0
LINE
  5
15F2F
330
15D7B
100
AcDbEntity
  8
DIM
 62
     6
370
    -2
100
AcDbLine
 10
596.133722883082
 20
312.035144232284
 30
0.0
 11
596.133722883082
 21
310.422955558064
 31
0.0
  0
LINE
  5
15F30
330
15D7B
100
AcDbEntity
  8
DIM
 62
     6
370
    -2
100
AcDbLine
 10
598.1337228830819
 20
312.0751442322838
 30
0.0
 11
598.1337228830819
 21
310.422955558064
 31
0.0
  0
LINE
  5
15F31
330
15D7B
100
AcDbEntity
  8
DIM
 62
     1
370
    -2
100
AcDbLine
 10
594.6337228830818
 20
310.922955558064
 30
0.0
 11
593.133722883082
 21
310.922955558064
 31
0.0
  0
LINE
  5
15F32
330
15D7B
100
AcDbEntity
  8
DIM
 62
     1
370
    -2
100
AcDbLine
 10
599.6337228830817
 20
310.922955558064
 30
0.0
 11
609.1458850452442
 21
310.922955558064
 31
0.0
  0
SOLID
  5
15F33
330
15D7B
100
AcDbEntity
  8
DIM
 62
     1
100
AcDbTrace
 10
594.6337228830818
 20
311.172955558064
 30
0.0
 11
594.6337228830818
 21
310.672955558064
 31
0.0
 12
596.133722883082
 22
310.922955558064
 32
0.0
 13
596.133722883082
 23
310.922955558064
 33
0.0
  0
SOLID
  5
15F34
330
15D7B
100
AcDbEntity
  8
DIM
 62
     1
100
AcDbTrace
 10
599.6337228830817
 20
311.172955558064
 30
0.0
 11
599.6337228830817
 21
310.672955558064
 31
0.0
 12
598.1337228830819
 22
310.922955558064
 32
0.0
 13
598.1337228830819
 23
310.922955558064
 33
0.0
  0
MTEXT
  5
15F35
330
15D7B
100
AcDbEntity
  8
DIM
 62
     4
100
AcDbMText
 10
607.6458850452442
 20
313.422955558064
 30
0.0
 40
2.0
 41
0.0
 46
0.0
 71
     1
 72
     1
  1
\A1;2
  7
Romans字体
 73
     1
 44
1.0
  0
POINT
  5
15F36
330
15D7B
100
AcDbEntity
  8
Defpoints
 62
     0
100
AcDbPoint
 10
596.133722883082
 20
312.235144232284
 30
0.0
  0
POINT
  5
15F37
330
15D7B
100
AcDbEntity
  8
Defpoints
 62
     0
100
AcDbPoint
 10
598.1337228830819
 20
312.2751442322839
 30
0.0
  0
POINT
  5
15F38
330
15D7B
100
AcDbEntity
  8
Defpoints
 62
     0
100
AcDbPoint
 10
598.1337228830819
 20
310.922955558064
 30
0.0
  0
ENDBLK
  5
15D7D
330
15D7B
100
AcDbEntity
  8
0
100
AcDbBlockEnd
  0
BLOCK
  5
15D89
330
15D88
100
AcDbEntity
  8
0
100
AcDbBlockBegin
  2
*D45
 70
     1
 10
0.0
 20
0.0
 30
0.0
  3
*D45
  1

  0
LINE
  5
15FB9
330
15D88
100
AcDbEntity
  8
DIM
 62
     6
370
    -2
100
AcDbLine
 10
598.1337228830819
 20
315.325144232284
 30
0.0
 11
598.1337228830819
 21
317.981787908264
 31
0.0
  0
LINE
  5
15FBA
330
15D88
100
AcDbEntity
  8
DIM
 62
     6
370
    -2
100
AcDbLine
 10
598.9387228830819
 20
314.890144232284
 30
0.0
 11
598.9387228830819
 21
317.981787908264
 31
0.0
  0
LINE
  5
15FBB
330
15D88
100
AcDbEntity
  8
DIM
 62
     1
370
    -2
100
AcDbLine
 10
596.633722883082
 20
317.481787908264
 30
0.0
 11
595.1337228830817
 21
317.481787908264
 31
0.0
  0
LINE
  5
15FBC
330
15D88
100
AcDbEntity
  8
DIM
 62
     1
370
    -2
100
AcDbLine
 10
600.4387228830819
 20
317.481787908264
 30
0.0
 11
609.9690703734294
 21
317.481787908264
 31
0.0
  0
SOLID
  5
15FBD
330
15D88
100
AcDbEntity
  8
DIM
 62
     1
100
AcDbTrace
 10
596.633722883082
 20
317.731787908264
 30
0.0
 11
596.633722883082
 21
317.231787908264
 31
0.0
 12
598.1337228830819
 22
317.481787908264
 32
0.0
 13
598.1337228830819
 23
317.481787908264
 33
0.0
  0
SOLID
  5
15FBE
330
15D88
100
AcDbEntity
  8
DIM
 62
     1
100
AcDbTrace
 10
600.4387228830819
 20
317.731787908264
 30
0.0
 11
600.4387228830819
 21
317.231787908264
 31
0.0
 12
598.9387228830819
 22
317.481787908264
 32
0.0
 13
598.9387228830819
 23
317.481787908264
 33
0.0
  0
MTEXT
  5
15FBF
330
15D88
100
AcDbEntity
  8
DIM
 62
     4
100
AcDbMText
 10
606.3262132305723
 20
319.981787908264
 30
0.0
 40
2.0
 41
0.0
 46
0.0
 71
     1
 72
     1
  1
\A1;0.8
  7
Romans字体
 73
     1
 44
1.0
  0
POINT
  5
15FC0
330
15D88
100
AcDbEntity
  8
Defpoints
 62
     0
100
AcDbPoint
 10
598.1337228830819
 20
315.1251442322839
 30
0.0
  0
POINT
  5
15FC1
330
15D88
100
AcDbEntity
  8
Defpoints
 62
     0
100
AcDbPoint
 10
598.9387228830819
 20
314.690144232284
 30
0.0
  0
POINT
  5
15FC2
330
15D88
100
AcDbEntity
  8
Defpoints
 62
     0
100
AcDbPoint
 10
598.9387228830819
 20
317.481787908264
 30
0.0
  0
ENDBLK
  5
15D8A
330
15D88
100
AcDbEntity
  8
0
100
AcDbBlockEnd
  0
BLOCK
  5
15D96
330
15D95
100
AcDbEntity
  8
0
100
AcDbBlockBegin
  2
*D46
 70
     1
 10
0.0
 20
0.0
 30
0.0
  3
*D46
  1

  0
LINE
  5
15F26
330
15D95
100
AcDbEntity
  8
DIM
 62
     6
370
    -2
100
AcDbLine
 10
583.633722883082
 20
313.300144232284
 30
0.0
 11
583.633722883082
 21
308.7773435927906
 31
0.0
  0
LINE
  5
15F27
330
15D95
100
AcDbEntity
  8
DIM
 62
     6
370
    -2
100
AcDbLine
 10
612.1337228830817
 20
313.2736262177839
 30
0.0
 11
612.1337228830817
 21
308.7773435927906
 31
0.0
  0
LINE
  5
15F28
330
15D95
100
AcDbEntity
  8
DIM
 62
     1
370
    -2
100
AcDbLine
 10
585.133722883082
 20
309.2773435927905
 30
0.0
 11
610.6337228830819
 21
309.2773435927905
 31
0.0
  0
SOLID
  5
15F29
330
15D95
100
AcDbEntity
  8
DIM
 62
     1
100
AcDbTrace
 10
585.133722883082
 20
309.5273435927905
 30
0.0
 11
585.133722883082
 21
309.0273435927906
 31
0.0
 12
583.633722883082
 22
309.2773435927905
 32
0.0
 13
583.633722883082
 23
309.2773435927905
 33
0.0
  0
SOLID
  5
15F2A
330
15D95
100
AcDbEntity
  8
DIM
 62
     1
100
AcDbTrace
 10
610.6337228830819
 20
309.5273435927905
 30
0.0
 11
610.6337228830819
 21
309.0273435927906
 31
0.0
 12
612.1337228830817
 22
309.2773435927905
 32
0.0
 13
612.1337228830817
 23
309.2773435927905
 33
0.0
  0
MTEXT
  5
15F2B
330
15D95
100
AcDbEntity
  8
DIM
 62
     4
100
AcDbMText
 10
597.7694937870274
 20
311.7773435927905
 30
0.0
 40
2.0
 41
0.0
 46
0.0
 71
     2
 72
     1
  1
\A1;28.5
  7
Romans字体
 73
     1
 44
1.0
  0
POINT
  5
15F2C
330
15D95
100
AcDbEntity
  8
Defpoints
 62
     0
100
AcDbPoint
 10
583.633722883082
 20
313.500144232284
 30
0.0
  0
POINT
  5
15F2D
330
15D95
100
AcDbEntity
  8
Defpoints
 62
     0
100
AcDbPoint
 10
612.1337228830817
 20
313.4736262177839
 30
0.0
  0
POINT
  5
15F2E
330
15D95
100
AcDbEntity
  8
Defpoints
 62
     0
100
AcDbPoint
 10
612.1337228830817
 20
309.2773435927905
 30
0.0
  0
ENDBLK
  5
15D97
330
15D95
100
AcDbEntity
  8
0
100
AcDbBlockEnd
  0
BLOCK
  5
15DA2
330
15DA1
100
AcDbEntity
  8
0
100
AcDbBlockBegin
  2
*D47
 70
     1
 10
0.0
 20
0.0
 30
0.0
  3
*D47
  1

  0
LINE
  5
15FB0
330
15DA1
100
AcDbEntity
  8
DIM
 62
     6
370
    -2
100
AcDbLine
 10
598.1337228830819
 20
315.325144232284
 30
0.0
 11
598.1337228830819
 21
316.778499367084
 31
0.0
  0
LINE
  5
15FB1
330
15DA1
100
AcDbEntity
  8
DIM
 62
     6
370
    -2
100
AcDbLine
 10
612.1337228830817
 20
314.126662246804
 30
0.0
 11
612.1337228830817
 21
316.778499367084
 31
0.0
  0
LINE
  5
15FB2
330
15DA1
100
AcDbEntity
  8
DIM
 62
     1
370
    -2
100
AcDbLine
 10
599.6337228830817
 20
316.278499367084
 30
0.0
 11
610.6337228830819
 21
316.278499367084
 31
0.0
  0
SOLID
  5
15FB3
330
15DA1
100
AcDbEntity
  8
DIM
 62
     1
100
AcDbTrace
 10
599.6337228830817
 20
316.528499367084
 30
0.0
 11
599.6337228830817
 21
316.028499367084
 31
0.0
 12
598.1337228830819
 22
316.278499367084
 32
0.0
 13
598.1337228830819
 23
316.278499367084
 33
0.0
  0
SOLID
  5
15FB4
330
15DA1
100
AcDbEntity
  8
DIM
 62
     1
100
AcDbTrace
 10
610.6337228830819
 20
316.528499367084
 30
0.0
 11
610.6337228830819
 21
316.028499367084
 31
0.0
 12
612.1337228830817
 22
316.278499367084
 32
0.0
 13
612.1337228830817
 23
316.278499367084
 33
0.0
  0
MTEXT
  5
15FB5
330
15DA1
100
AcDbEntity
  8
DIM
 62
     4
100
AcDbMText
 10
604.7937228830817
 20
318.778499367084
 30
0.0
 40
2.0
 41
0.0
 46
0.0
 71
     2
 72
     1
  1
\A1;14
  7
Romans字体
 73
     1
 44
1.0
  0
POINT
  5
15FB6
330
15DA1
100
AcDbEntity
  8
Defpoints
 62
     0
100
AcDbPoint
 10
598.1337228830819
 20
315.1251442322839
 30
0.0
  0
POINT
  5
15FB7
330
15DA1
100
AcDbEntity
  8
Defpoints
 62
     0
100
AcDbPoint
 10
612.1337228830817
 20
313.926662246804
 30
0.0
  0
POINT
  5
15FB8
330
15DA1
100
AcDbEntity
  8
Defpoints
 62
     0
100
AcDbPoint
 10
612.1337228830817
 20
316.278499367084
 30
0.0
  0
ENDBLK
  5
15DA3
330
15DA1
100
AcDbEntity
  8
0
100
AcDbBlockEnd
  0
BLOCK
  5
15DAE
330
15DAD
100
AcDbEntity
  8
0
100
AcDbBlockBegin
  2
*D48
 70
     1
 10
0.0
 20
0.0
 30
0.0
  3
*D48
  1

  0
LINE
  5
15FA4
330
15DAD
100
AcDbEntity
  8
DIM
 62
     6
370
    -2
100
AcDbLine
 10
598.3623015268443
 20
315.0665655885213
 30
0.0
 11
597.6700565877414
 21
315.7588105276241
 31
0.0
  0
LINE
  5
15FA5
330
15DAD
100
AcDbEntity
  8
DIM
 62
     6
370
    -2
100
AcDbLine
 10
598.3623015268443
 20
312.3337228760466
 30
0.0
 11
597.6700565877417
 21
311.6414779369439
 31
0.0
  0
ARC
  5
15FA6
330
15DAD
100
AcDbEntity
  8
DIM
 62
     1
370
    -2
100
AcDbCircle
 10
599.728722883082
 20
313.7001442322841
 30
0.0
 40
2.411393795270512
100
AcDbArc
 50
62.51632511657867
 51
98.75816255829271
  0
ARC
  5
15FA7
330
15DAD
100
AcDbEntity
  8
DIM
 62
     1
370
    -2
100
AcDbCircle
 10
599.728722883082
 20
313.7001442322841
 30
0.0
 40
2.411393795270512
100
AcDbArc
 50
261.2418374417154
 51
297.4836748834293
  0
SOLID
  5
15FA8
330
15DAD
100
AcDbEntity
  8
DIM
 62
     1
100
AcDbTrace
 10
599.4745812306732
 20
315.8604300985376
 30
0.0
 11
599.2485266889773
 21
316.3064114257011
 31
0.0
 12
598.0236099783349
 22
315.4052571370308
 32
0.0
 13
598.0236099783349
 23
315.4052571370308
 33
0.0
  0
SOLID
  5
15FA9
330
15DAD
100
AcDbEntity
  8
DIM
 62
     1
100
AcDbTrace
 10
599.2485266889778
 20
311.093877038867
 30
0.0
 11
599.4745812306737
 21
311.5398583660305
 31
0.0
 12
598.0236099783351
 22
311.9950313275371
 32
0.0
 13
598.0236099783351
 23
311.9950313275371
 33
0.0
  0
MTEXT
  5
15FAA
330
15DAD
100
AcDbEntity
  8
DIM
 62
     4
100
AcDbMText
 10
596.1506590878114
 20
313.700144232284
 30
0.0
 40
2.0
 41
0.0
 46
0.0
 71
     5
 72
     1
  1
\A1;{\H0.66667x;90\Q2;%%D}
  7
Romans字体
 11
0.0000000000000001
 21
1.0
 31
0.0
 73
     1
 44
1.0
  0
POINT
  5
15FAB
330
15DAD
100
AcDbEntity
  8
Defpoints
 62
     0
100
AcDbPoint
 10
597.3994953388769
 20
314.324258871742
 30
0.0
  0
POINT
  5
15FAC
330
15DAD
100
AcDbEntity
  8
Defpoints
 62
     0
100
AcDbPoint
 10
598.9387228830819
 20
314.490144232284
 30
0.0
  0
POINT
  5
15FAD
330
15DAD
100
AcDbEntity
  8
Defpoints
 62
     0
100
AcDbPoint
 10
598.9387228830819
 20
312.910144232284
 30
0.0
  0
POINT
  5
15FAE
330
15DAD
100
AcDbEntity
  8
Defpoints
 62
     0
100
AcDbPoint
 10
598.5037228830819
 20
312.4751442322839
 30
0.0
  0
POINT
  5
15FAF
330
15DAD
100
AcDbEntity
  8
Defpoints
 62
     0
100
AcDbPoint
 10
598.5037228830819
 20
314.925144232284
 30
0.0
  0
ENDBLK
  5
15DAF
330
15DAD
100
AcDbEntity
  8
0
100
AcDbBlockEnd
  0
BLOCK
  5
15DBD
330
15DBC
100
AcDbEntity
  8
0
100
AcDbBlockBegin
  2
*D49
 70
     1
 10
0.0
 20
0.0
 30
0.0
  3
*D49
  1

  0
LINE
  5
15F98
330
15DBC
100
AcDbEntity
  8
DIM
 62
     6
370
    -2
100
AcDbLine
 10
611.5376852699142
 20
314.2164142103224
 30
0.0
 11
608.9434242716563
 21
315.5675918137865
 31
0.0
  0
LINE
  5
15F99
330
15DBC
100
AcDbEntity
  8
DIM
 62
     6
370
    -2
100
AcDbLine
 10
611.5187623116837
 20
313.1802900577445
 30
0.0
 11
608.8959680430116
 21
311.8993905312099
 31
0.0
  0
ARC
  5
15F9A
330
15DBC
100
AcDbEntity
  8
DIM
 62
     1
370
    -2
100
AcDbCircle
 10
612.5552013087433
 20
313.6864579400187
 30
0.0
 40
3.572296405796584
100
AcDbArc
 50
104.0105470560271
 51
128.2492722143096
  0
ARC
  5
15F9B
330
15DBC
100
AcDbEntity
  8
DIM
 62
     1
370
    -2
100
AcDbCircle
 10
612.5552013087433
 20
313.6864579400187
 30
0.0
 40
3.572296405796584
100
AcDbArc
 50
230.2683173493303
 51
254.5070425076129
  0
SOLID
  5
15F9C
330
15DBC
100
AcDbEntity
  8
DIM
 62
     1
100
AcDbTrace
 10
610.5361908998689
 20
316.3324094582114
 30
0.0
 11
610.1511088074706
 21
316.6513323048595
 31
0.0
 12
609.3868813137256
 22
315.3366246043404
 32
0.0
 13
609.3868813137256
 23
315.3366246043404
 33
0.0
  0
SOLID
  5
15F9D
330
15DBC
100
AcDbEntity
  8
DIM
 62
     1
100
AcDbTrace
 10
610.0752119561047
 20
310.7847698856676
 30
0.0
 11
610.4684157190046
 21
311.0936238978502
 31
0.0
 12
609.3452518010066
 22
312.1188081804588
 32
0.0
 13
609.3452518010066
 23
312.1188081804588
 33
0.0
  0
MTEXT
  5
15F9E
330
15DBC
100
AcDbEntity
  8
DIM
 62
     4
100
AcDbMText
 10
607.8166314358677
 20
313.7477617338984
 30
0.0
 40
2.0
 41
0.0
 46
0.0
 71
     5
 72
     1
  1
\A1;{\H0.66667x;50%%D}
  7
Romans字体
 11
0.0129361106685355
 21
0.9999163250196346
 31
0.0
 73
     1
 44
1.0
  0
POINT
  5
15F9F
330
15DBC
100
AcDbEntity
  8
Defpoints
 62
     0
100
AcDbPoint
 10
609.0336072819221
 20
314.2861888139327
 30
0.0
  0
POINT
  5
15FA0
330
15DBC
100
AcDbEntity
  8
Defpoints
 62
     0
100
AcDbPoint
 10
611.7150680867417
 20
314.124027326544
 30
0.0
  0
POINT
  5
15FA1
330
15DBC
100
AcDbEntity
  8
Defpoints
 62
     0
100
AcDbPoint
 10
611.7955331719221
 20
313.3154572220439
 30
0.0
  0
POINT
  5
15FA2
330
15DBC
100
AcDbEntity
  8
Defpoints
 62
     0
100
AcDbPoint
 10
611.6984758148819
 20
313.268057117444
 30
0.0
  0
POINT
  5
15FA3
330
15DBC
100
AcDbEntity
  8
Defpoints
 62
     0
100
AcDbPoint
 10
611.847322842882
 20
314.055144641044
 30
0.0
  0
ENDBLK
  5
15DBE
330
15DBC
100
AcDbEntity
  8
0
100
AcDbBlockEnd
  0
BLOCK
  5
15DCC
330
15DCB
100
AcDbEntity
  8
0
100
AcDbBlockBegin
  2
*D50
 70
     1
 10
0.0
 20
0.0
 30
0.0
  3
*D50
  1

  0
LINE
  5
1600E
330
15DCB
100
AcDbEntity
  8
DIM
 62
     1
370
    -2
100
AcDbLine
 10
581.8357379315746
 20
331.079714438053
 30
0.0
 11
587.3862669610505
 21
326.1466078334597
 31
0.0
  0
MTEXT
  5
1600F
330
15DCB
100
AcDbEntity
  8
DIM
 62
     4
100
AcDbMText
 10
584.914403681059
 20
330.3503165462391
 30
0.0
 40
2.0
 41
0.0
 46
0.0
 71
     5
 72
     1
  1
\A1;R2.5
  7
Romans字体
 11
0.7474559220312689
 21
-0.6643114063602896
 31
0.0
 73
     1
 44
1.0
  0
SOLID
  5
16010
330
15DCB
100
AcDbEntity
  8
DIM
 62
     1
100
AcDbTrace
 10
587.5523448126406
 20
326.3334718139676
 30
0.0
 11
587.2201891094602
 21
325.9597438529519
 31
0.0
 12
588.5074508440972
 22
325.1501407239193
 32
0.0
 13
588.5074508440972
 23
325.1501407239193
 33
0.0
  0
POINT
  5
16011
330
15DCB
100
AcDbEntity
  8
Defpoints
 62
     0
100
AcDbPoint
 10
588.5074508440972
 20
325.1501407239193
 30
0.0
  0
POINT
  5
16012
330
15DCB
100
AcDbEntity
  8
Defpoints
 62
     0
100
AcDbPoint
 10
588.133722883082
 20
325.4822964270993
 30
0.0
  0
ENDBLK
  5
15DCD
330
15DCB
100
AcDbEntity
  8
0
100
AcDbBlockEnd
  0
BLOCK
  5
15E5E
330
15E5D
100
AcDbEntity
  8
0
100
AcDbBlockBegin
  2
*D51
 70
     1
 10
0.0
 20
0.0
 30
0.0
  3
*D51
  1

  0
LINE
  5
15F0D
330
15E5D
100
AcDbEntity
  8
DIM
 62
     6
370
    -2
100
AcDbLine
 10
583.633722883082
 20
310.360050367562
 30
0.0
 11
583.633722883082
 21
305.9557522386335
 31
0.0
  0
LINE
  5
15F0E
330
15E5D
100
AcDbEntity
  8
DIM
 62
     6
370
    -2
100
AcDbLine
 10
612.1337228830817
 20
310.360050367562
 30
0.0
 11
612.1337228830817
 21
305.9557522386335
 31
0.0
  0
LINE
  5
15F0F
330
15E5D
100
AcDbEntity
  8
DIM
 62
     1
370
    -2
100
AcDbLine
 10
585.133722883082
 20
306.4557522386335
 30
0.0
 11
610.6337228830819
 21
306.4557522386335
 31
0.0
  0
SOLID
  5
15F10
330
15E5D
100
AcDbEntity
  8
DIM
 62
     1
100
AcDbTrace
 10
585.133722883082
 20
306.7057522386335
 30
0.0
 11
585.133722883082
 21
306.2057522386335
 31
0.0
 12
583.633722883082
 22
306.4557522386335
 32
0.0
 13
583.633722883082
 23
306.4557522386335
 33
0.0
  0
SOLID
  5
15F11
330
15E5D
100
AcDbEntity
  8
DIM
 62
     1
100
AcDbTrace
 10
610.6337228830819
 20
306.7057522386335
 30
0.0
 11
610.6337228830819
 21
306.2057522386335
 31
0.0
 12
612.1337228830817
 22
306.4557522386335
 32
0.0
 13
612.1337228830817
 23
306.4557522386335
 33
0.0
  0
MTEXT
  5
15F12
330
15E5D
100
AcDbEntity
  8
DIM
 62
     4
100
AcDbMText
 10
597.8837228830817
 20
307.9557522386334
 30
0.0
 40
2.0
 41
0.0
 46
0.0
 71
     5
 72
     1
  1
\A1;28.5
  7
Romans字体
 73
     1
 44
1.0
  0
POINT
  5
15F13
330
15E5D
100
AcDbEntity
  8
Defpoints
 62
     0
100
AcDbPoint
 10
583.633722883082
 20
310.560050367562
 30
0.0
  0
POINT
  5
15F14
330
15E5D
100
AcDbEntity
  8
Defpoints
 62
     0
100
AcDbPoint
 10
612.1337228830817
 20
310.560050367562
 30
0.0
  0
POINT
  5
15F15
330
15E5D
100
AcDbEntity
  8
Defpoints
 62
     0
100
AcDbPoint
 10
612.1337228830817
 20
306.4557522386335
 30
0.0
  0
ENDBLK
  5
15E5F
330
15E5D
100
AcDbEntity
  8
0
100
AcDbBlockEnd
  0
BLOCK
  5
16058
330
16057
100
AcDbEntity
  8
0
100
AcDbBlockBegin
  2
*D52
 70
     1
 10
0.0
 20
0.0
 30
0.0
  3
*D52
  1

  0
LINE
  5
16118
330
16057
100
AcDbEntity
  8
DIM
 62
     6
370
    -2
100
AcDbLine
 10
413.3356043330393
 20
348.9616453934993
 30
0.0
 11
413.3356043330393
 21
344.0564219919943
 31
0.0
  0
LINE
  5
16119
330
16057
100
AcDbEntity
  8
DIM
 62
     6
370
    -2
100
AcDbLine
 10
418.3356043330393
 20
347.3616453934992
 30
0.0
 11
418.3356043330393
 21
344.0564219919943
 31
0.0
  0
LINE
  5
1611A
330
16057
100
AcDbEntity
  8
DIM
 62
     1
370
    -2
100
AcDbLine
 10
414.8356043330393
 20
344.5564219919944
 30
0.0
 11
416.8356043330393
 21
344.5564219919944
 31
0.0
  0
SOLID
  5
1611B
330
16057
100
AcDbEntity
  8
DIM
 62
     1
100
AcDbTrace
 10
414.8356043330393
 20
344.8064219919944
 30
0.0
 11
414.8356043330393
 21
344.3064219919943
 31
0.0
 12
413.3356043330393
 22
344.5564219919944
 32
0.0
 13
413.3356043330393
 23
344.5564219919944
 33
0.0
  0
SOLID
  5
1611C
330
16057
100
AcDbEntity
  8
DIM
 62
     1
100
AcDbTrace
 10
416.8356043330393
 20
344.8064219919944
 30
0.0
 11
416.8356043330393
 21
344.3064219919943
 31
0.0
 12
418.3356043330393
 22
344.5564219919944
 32
0.0
 13
418.3356043330393
 23
344.5564219919944
 33
0.0
  0
MTEXT
  5
1611D
330
16057
100
AcDbEntity
  8
DIM
 62
     4
100
AcDbMText
 10
415.8356043330391
 20
346.0564219919943
 30
0.0
 40
2.0
 41
0.0
 46
0.0
 71
     5
 72
     1
  1
\A1;5
  7
Romans字体
 73
     1
 44
1.0
  0
POINT
  5
1611E
330
16057
100
AcDbEntity
  8
Defpoints
 62
     0
100
AcDbPoint
 10
413.3356043330393
 20
349.1616453934993
 30
0.0
  0
POINT
  5
1611F
330
16057
100
AcDbEntity
  8
Defpoints
 62
     0
100
AcDbPoint
 10
418.3356043330393
 20
347.5616453934993
 30
0.0
  0
POINT
  5
16120
330
16057
100
AcDbEntity
  8
Defpoints
 62
     0
100
AcDbPoint
 10
418.3356043330393
 20
344.5564219919944
 30
0.0
  0
ENDBLK
  5
16059
330
16057
100
AcDbEntity
  8
0
100
AcDbBlockEnd
  0
BLOCK
  5
16065
330
16064
100
AcDbEntity
  8
0
100
AcDbBlockBegin
  2
*D53
 70
     1
 10
0.0
 20
0.0
 30
0.0
  3
*D53
  1

  0
LINE
  5
16121
330
16064
100
AcDbEntity
  8
DIM
 62
     6
370
    -2
100
AcDbLine
 10
413.3356043330393
 20
346.3090336927468
 30
0.0
 11
413.3356043330393
 21
341.2023781152917
 31
0.0
  0
LINE
  5
16122
330
16064
100
AcDbEntity
  8
DIM
 62
     6
370
    -2
100
AcDbLine
 10
441.8342595485161
 20
349.0165370272332
 30
0.0
 11
441.8342595485161
 21
341.2023781152917
 31
0.0
  0
LINE
  5
16123
330
16064
100
AcDbEntity
  8
DIM
 62
     1
370
    -2
100
AcDbLine
 10
414.8356043330393
 20
341.7023781152916
 30
0.0
 11
440.3342595485161
 21
341.7023781152916
 31
0.0
  0
SOLID
  5
16124
330
16064
100
AcDbEntity
  8
DIM
 62
     1
100
AcDbTrace
 10
414.8356043330393
 20
341.9523781152916
 30
0.0
 11
414.8356043330393
 21
341.4523781152916
 31
0.0
 12
413.3356043330393
 22
341.7023781152916
 32
0.0
 13
413.3356043330393
 23
341.7023781152916
 33
0.0
  0
SOLID
  5
16125
330
16064
100
AcDbEntity
  8
DIM
 62
     1
100
AcDbTrace
 10
440.3342595485161
 20
341.9523781152916
 30
0.0
 11
440.3342595485161
 21
341.4523781152916
 31
0.0
 12
441.8342595485161
 22
341.7023781152916
 32
0.0
 13
441.8342595485161
 23
341.7023781152916
 33
0.0
  0
MTEXT
  5
16126
330
16064
100
AcDbEntity
  8
DIM
 62
     4
100
AcDbMText
 10
427.5849319407775
 20
343.2023781152917
 30
0.0
 40
2.0
 41
0.0
 46
0.0
 71
     5
 72
     1
  1
\A1;28.5
  7
Romans字体
 73
     1
 44
1.0
  0
POINT
  5
16127
330
16064
100
AcDbEntity
  8
Defpoints
 62
     0
100
AcDbPoint
 10
413.3356043330393
 20
346.5090336927468
 30
0.0
  0
POINT
  5
16128
330
16064
100
AcDbEntity
  8
Defpoints
 62
     0
100
AcDbPoint
 10
441.8342595485161
 20
349.2165370272333
 30
0.0
  0
POINT
  5
16129
330
16064
100
AcDbEntity
  8
Defpoints
 62
     0
100
AcDbPoint
 10
441.8342595485161
 20
341.7023781152916
 30
0.0
  0
ENDBLK
  5
16066
330
16064
100
AcDbEntity
  8
0
100
AcDbBlockEnd
  0
BLOCK
  5
16072
330
16071
100
AcDbEntity
  8
0
100
AcDbBlockBegin
  2
*D54
 70
     1
 10
0.0
 20
0.0
 30
0.0
  3
*D54
  1

  0
LINE
  5
1612A
330
16071
100
AcDbEntity
  8
DIM
 62
     6
370
    -2
100
AcDbLine
 10
414.2876808475683
 20
349.6616453934993
 30
0.0
 11
409.7323985591584
 21
349.6616453934993
 31
0.0
  0
LINE
  5
1612B
330
16071
100
AcDbEntity
  8
DIM
 62
     6
370
    -2
100
AcDbLine
 10
414.2876808475683
 20
348.6616453934993
 30
0.0
 11
409.7323985591584
 21
348.6616453934993
 31
0.0
  0
LINE
  5
1612C
330
16071
100
AcDbEntity
  8
DIM
 62
     1
370
    -2
100
AcDbLine
 10
410.2323985591584
 20
351.1616453934993
 30
0.0
 11
410.2323985591584
 21
352.6616453934993
 31
0.0
  0
LINE
  5
1612D
330
16071
100
AcDbEntity
  8
DIM
 62
     1
370
    -2
100
AcDbLine
 10
410.2323985591584
 20
347.1616453934993
 30
0.0
 11
410.2323985591584
 21
344.3045025363564
 31
0.0
  0
SOLID
  5
1612E
330
16071
100
AcDbEntity
  8
DIM
 62
     1
100
AcDbTrace
 10
409.9823985591585
 20
351.1616453934993
 30
0.0
 11
410.4823985591584
 21
351.1616453934993
 31
0.0
 12
410.2323985591584
 22
349.6616453934993
 32
0.0
 13
410.2323985591584
 23
349.6616453934993
 33
0.0
  0
SOLID
  5
1612F
330
16071
100
AcDbEntity
  8
DIM
 62
     1
100
AcDbTrace
 10
409.9823985591585
 20
347.1616453934993
 30
0.0
 11
410.4823985591584
 21
347.1616453934993
 31
0.0
 12
410.2323985591584
 22
348.6616453934993
 32
0.0
 13
410.2323985591584
 23
348.6616453934993
 33
0.0
  0
MTEXT
  5
16130
330
16071
100
AcDbEntity
  8
DIM
 62
     4
100
AcDbMText
 10
408.7323985591583
 20
344.9830739649279
 30
0.0
 40
2.0
 41
0.0
 46
0.0
 71
     5
 72
     1
  1
\A1;1
  7
Romans字体
 11
0.0000000000000001
 21
1.0
 31
0.0
 73
     1
 44
1.0
  0
POINT
  5
16131
330
16071
100
AcDbEntity
  8
Defpoints
 62
     0
100
AcDbPoint
 10
414.4876808475681
 20
349.6616453934993
 30
0.0
  0
POINT
  5
16132
330
16071
100
AcDbEntity
  8
Defpoints
 62
     0
100
AcDbPoint
 10
414.4876808475681
 20
348.6616453934993
 30
0.0
  0
POINT
  5
16133
330
16071
100
AcDbEntity
  8
Defpoints
 62
     0
100
AcDbPoint
 10
410.2323985591584
 20
348.6616453934993
 30
0.0
  0
ENDBLK
  5
16073
330
16071
100
AcDbEntity
  8
0
100
AcDbBlockEnd
  0
BLOCK
  5
16080
330
1607F
100
AcDbEntity
  8
0
100
AcDbBlockBegin
  2
*D55
 70
     1
 10
0.0
 20
0.0
 30
0.0
  3
*D55
  1

  0
LINE
  5
16134
330
1607F
100
AcDbEntity
  8
DIM
 62
     6
370
    -2
100
AcDbLine
 10
438.9767776458251
 20
349.9516453934992
 30
0.0
 11
447.4025652903845
 21
349.9516453934992
 31
0.0
  0
LINE
  5
16135
330
1607F
100
AcDbEntity
  8
DIM
 62
     6
370
    -2
100
AcDbLine
 10
438.9767776458251
 20
348.3716453934992
 30
0.0
 11
447.4025652903845
 21
348.3716453934992
 31
0.0
  0
LINE
  5
16136
330
1607F
100
AcDbEntity
  8
DIM
 62
     1
370
    -2
100
AcDbLine
 10
446.9025652903845
 20
351.4516453934992
 30
0.0
 11
446.9025652903845
 21
352.9516453934992
 31
0.0
  0
LINE
  5
16137
330
1607F
100
AcDbEntity
  8
DIM
 62
     1
370
    -2
100
AcDbLine
 10
446.9025652903845
 20
346.8716453934992
 30
0.0
 11
446.9025652903845
 21
339.8716453934992
 31
0.0
  0
SOLID
  5
16138
330
1607F
100
AcDbEntity
  8
DIM
 62
     1
100
AcDbTrace
 10
446.6525652903847
 20
351.4516453934992
 30
0.0
 11
447.1525652903847
 21
351.4516453934992
 31
0.0
 12
446.9025652903845
 22
349.9516453934992
 32
0.0
 13
446.9025652903845
 23
349.9516453934992
 33
0.0
  0
SOLID
  5
16139
330
1607F
100
AcDbEntity
  8
DIM
 62
     1
100
AcDbTrace
 10
446.6525652903847
 20
346.8716453934992
 30
0.0
 11
447.1525652903847
 21
346.8716453934992
 31
0.0
 12
446.9025652903845
 22
348.3716453934992
 32
0.0
 13
446.9025652903845
 23
348.3716453934992
 33
0.0
  0
MTEXT
  5
1613A
330
1607F
100
AcDbEntity
  8
DIM
 62
     4
100
AcDbMText
 10
445.4025652903846
 20
342.6216453934993
 30
0.0
 40
2.0
 41
0.0
 46
0.0
 71
     5
 72
     1
  1
\A1;%%C1.6
  7
Romans字体
 11
0.0000000000000001
 21
1.0
 31
0.0
 73
     1
 44
1.0
  0
POINT
  5
1613B
330
1607F
100
AcDbEntity
  8
Defpoints
 62
     0
100
AcDbPoint
 10
438.7767776458251
 20
349.9516453934992
 30
0.0
  0
POINT
  5
1613C
330
1607F
100
AcDbEntity
  8
Defpoints
 62
     0
100
AcDbPoint
 10
438.7767776458251
 20
348.3716453934992
 30
0.0
  0
POINT
  5
1613D
330
1607F
100
AcDbEntity
  8
Defpoints
 62
     0
100
AcDbPoint
 10
446.9025652903845
 20
348.3716453934992
 30
0.0
  0
ENDBLK
  5
16081
330
1607F
100
AcDbEntity
  8
0
100
AcDbBlockEnd
  0
BLOCK
  5
16098
330
16097
100
AcDbEntity
  8
0
100
AcDbBlockBegin
  2
*D56
 70
     1
 10
0.0
 20
0.0
 30
0.0
  3
*D56
  1

  0
LINE
  5
1613E
330
16097
100
AcDbEntity
  8
DIM
 62
     6
370
    -2
100
AcDbLine
 10
419.0097215984856
 20
350.7616453934992
 30
0.0
 11
406.5593490471352
 21
350.7616453934992
 31
0.0
  0
LINE
  5
1613F
330
16097
100
AcDbEntity
  8
DIM
 62
     6
370
    -2
100
AcDbLine
 10
419.0097215984856
 20
347.5616453934993
 30
0.0
 11
406.5593490471352
 21
347.5616453934993
 31
0.0
  0
LINE
  5
16140
330
16097
100
AcDbEntity
  8
DIM
 62
     1
370
    -2
100
AcDbLine
 10
407.0593490471352
 20
352.2616453934992
 30
0.0
 11
407.0593490471352
 21
353.7616453934993
 31
0.0
  0
LINE
  5
16141
330
16097
100
AcDbEntity
  8
DIM
 62
     1
370
    -2
100
AcDbLine
 10
407.0593490471352
 20
346.0616453934993
 30
0.0
 11
407.0593490471352
 21
339.0616453934992
 31
0.0
  0
SOLID
  5
16142
330
16097
100
AcDbEntity
  8
DIM
 62
     1
100
AcDbTrace
 10
406.8093490471351
 20
352.2616453934992
 30
0.0
 11
407.3093490471351
 21
352.2616453934992
 31
0.0
 12
407.0593490471352
 22
350.7616453934992
 32
0.0
 13
407.0593490471352
 23
350.7616453934992
 33
0.0
  0
SOLID
  5
16143
330
16097
100
AcDbEntity
  8
DIM
 62
     1
100
AcDbTrace
 10
406.8093490471351
 20
346.0616453934993
 30
0.0
 11
407.3093490471351
 21
346.0616453934993
 31
0.0
 12
407.0593490471352
 22
347.5616453934993
 32
0.0
 13
407.0593490471352
 23
347.5616453934993
 33
0.0
  0
MTEXT
  5
16144
330
16097
100
AcDbEntity
  8
DIM
 62
     4
100
AcDbMText
 10
405.559349047135
 20
341.8116453934993
 30
0.0
 40
2.0
 41
0.0
 46
0.0
 71
     5
 72
     1
  1
\A1;%%C3.2
  7
Romans字体
 11
0.0000000000000001
 21
1.0
 31
0.0
 73
     1
 44
1.0
  0
POINT
  5
16145
330
16097
100
AcDbEntity
  8
Defpoints
 62
     0
100
AcDbPoint
 10
419.2097215984857
 20
350.7616453934992
 30
0.0
  0
POINT
  5
16146
330
16097
100
AcDbEntity
  8
Defpoints
 62
     0
100
AcDbPoint
 10
419.2097215984857
 20
347.5616453934993
 30
0.0
  0
POINT
  5
16147
330
16097
100
AcDbEntity
  8
Defpoints
 62
     0
100
AcDbPoint
 10
407.0593490471352
 20
347.5616453934993
 30
0.0
  0
ENDBLK
  5
16099
330
16097
100
AcDbEntity
  8
0
100
AcDbBlockEnd
  0
ENDSEC
  0
SECTION
  2
ENTITIES
  0
HATCH
  5
28AE
330
1F
100
AcDbEntity
  8
图层 1
 62
     7
100
AcDbHatch
 10
0.0
 20
0.0
 30
0.0
210
0.0
220
0.0
230
1.0
  2
SOLID
 70
     1
 71
     0
 91
        1
 92
        1
 93
        2
 72
     4
 94
        3
 73
     0
 74
     0
 95
       17
 96
       13
 40
0.0
 40
0.0
 40
0.0
 40
0.0
 40
0.3527780104152769
 40
0.3527780104152769
 40
0.3527780104152769
 40
0.7055560208305538
 40
0.7055560208305538
 40
0.7055560208305538
 40
1.058334031245828
 40
1.058334031245828
 40
1.058334031245828
 40
1.411112041661104
 40
1.411112041661104
 40
1.411112041661104
 40
1.411112041661104
 10
11.07013262565829
 20
29.50312817963231
 10
11.07013262565829
 20
29.50312817963231
 10
10.9431807732774
 20
29.50312817963231
 10
10.9431807732774
 20
29.50312817963231
 10
10.9431807732774
 20
29.50312817963231
 10
10.85843136843155
 20
29.22786486877117
 10
10.85843136843155
 20
29.22786486877117
 10
10.85843136843155
 20
29.22786486877117
 10
10.90080607085448
 20
29.2068497724476
 10
10.90080607085448
 20
29.2068497724476
 10
10.94455881238059
 20
29.31571486159919
 10
11.00346998404173
 20
29.40907701083995
 10
11.07013262565829
 20
29.50312817963231
 72
     1
 10
11.07013262565829
 20
29.50312817963231
 11
11.07013262565829
 21
29.50312817963231
 97
        0
 75
     0
 76
     1
 98
        0
450
        0
451
        0
460
0.0
461
0.0
452
        0
462
0.0
453
        0
470

  0
HATCH
  5
2C65
330
1F
100
AcDbEntity
  8
图层 1
 62
     7
100
AcDbHatch
 10
0.0
 20
0.0
 30
0.0
210
0.0
220
0.0
230
1.0
  2
SOLID
 70
     1
 71
     0
 91
        1
 92
        1
 93
        2
 72
     4
 94
        3
 73
     0
 74
     0
 95
       47
 96
       43
 40
0.0
 40
0.0
 40
0.0
 40
0.0
 40
0.3527780104152769
 40
0.3527780104152769
 40
0.3527780104152769
 40
0.7055560208305538
 40
0.7055560208305538
 40
0.7055560208305538
 40
1.058334031245828
 40
1.058334031245828
 40
1.058334031245828
 40
1.411112041661104
 40
1.411112041661104
 40
1.411112041661104
 40
1.763890052076384
 40
1.763890052076384
 40
1.763890052076384
 40
2.116668062491659
 40
2.116668062491659
 40
2.116668062491659
 40
2.469446072906936
 40
2.469446072906936
 40
2.469446072906936
 40
2.822224083322215
 40
2.822224083322215
 40
2.822224083322215
 40
3.175002093737492
 40
3.175002093737492
 40
3.175002093737492
 40
3.527780104152768
 40
3.527780104152768
 40
3.527780104152768
 40
3.880558114568044
 40
3.880558114568044
 40
3.880558114568044
 40
4.233336124983321
 40
4.233336124983321
 40
4.233336124983321
 40
4.586114135398599
 40
4.586114135398599
 40
4.586114135398599
 40
4.938892145813873
 40
4.938892145813873
 40
4.938892145813873
 40
4.938892145813873
 10
162.8986914070121
 20
257.4895347631509
 10
162.8986914070121
 20
257.4895347631509
 10
162.9200510131114
 20
257.4471600607279
 10
162.9200510131114
 20
257.4471600607279
 10
162.9200510131114
 20
257.4471600607279
 10
162.9200510131114
 20
257.404785358305
 10
162.9200510131114
 20
257.404785358305
 10
162.9200510131114
 20
257.404785358305
 10
162.8986914070121
 20
257.36258291077
 10
162.8986914070121
 20
257.36258291077
 10
162.8986914070121
 20
257.36258291077
 10
162.8986914070121
 20
257.320208208347
 10
162.8986914070121
 20
257.320208208347
 10
162.8986914070121
 20
257.320208208347
 10
162.8563167045891
 20
257.2990208571356
 10
162.8563167045891
 20
257.2990208571356
 10
162.8563167045891
 20
257.2990208571356
 10
162.8139420021662
 20
257.2563016449369
 10
162.8139420021662
 20
257.2563016449369
 10
162.8139420021662
 20
257.2563016449369
 10
162.7295371070961
 20
257.2563016449369
 10
162.7295371070961
 20
257.2563016449369
 10
162.7295371070961
 20
257.2563016449369
 10
162.6658027985738
 20
257.2778335059241
 10
162.6658027985738
 20
257.2778335059241
 10
162.6658027985738
 20
257.2778335059241
 10
162.6237726059267
 20
257.2990208571356
 10
162.6237726059267
 20
257.2990208571356
 10
162.6237726059267
 20
257.2990208571356
 10
162.5813979035038
 20
257.3413955595585
 10
162.5813979035038
 20
257.3413955595585
 10
162.5813979035038
 20
257.3413955595585
 10
162.5813979035038
 20
257.4895347631509
 10
162.5813979035038
 20
257.4895347631509
 10
162.5813979035038
 20
257.4895347631509
 10
162.6447877022503
 20
257.5525800521216
 10
162.6447877022503
 20
257.5525800521216
 10
162.6447877022503
 20
257.5525800521216
 10
162.7081775009967
 20
257.5525800521216
 10
162.7081775009967
 20
257.5525800521216
 10
162.8749202324821
 20
257.5424170137356
 10
162.7918933765152
 20
257.5939212252171
 10
162.8986914070121
 20
257.4895347631509
 72
     1
 10
162.8986914070121
 20
257.4895347631509
 11
162.8986914070121
 21
257.4895347631509
 97
        0
 75
     0
 76
     1
 98
        0
450
        0
451
        0
460
0.0
461
0.0
452
        0
462
0.0
453
        0
470

  0
HATCH
  5
2EE7
330
1F
100
AcDbEntity
  8
图层 1
 62
     7
100
AcDbHatch
 10
0.0
 20
0.0
 30
0.0
210
0.0
220
0.0
230
1.0
  2
SOLID
 70
     1
 71
     0
 91
        1
 92
        1
 93
        2
 72
     4
 94
        3
 73
     0
 74
     0
 95
       56
 96
       52
 40
0.0
 40
0.0
 40
0.0
 40
0.0
 40
0.3527780104152769
 40
0.3527780104152769
 40
0.3527780104152769
 40
0.7055560208305538
 40
0.7055560208305538
 40
0.7055560208305538
 40
1.058334031245828
 40
1.058334031245828
 40
1.058334031245828
 40
1.411112041661104
 40
1.411112041661104
 40
1.411112041661104
 40
1.763890052076384
 40
1.763890052076384
 40
1.763890052076384
 40
2.116668062491659
 40
2.116668062491659
 40
2.116668062491659
 40
2.469446072906936
 40
2.469446072906936
 40
2.469446072906936
 40
2.822224083322215
 40
2.822224083322215
 40
2.822224083322215
 40
3.175002093737492
 40
3.175002093737492
 40
3.175002093737492
 40
3.527780104152768
 40
3.527780104152768
 40
3.527780104152768
 40
3.880558114568044
 40
3.880558114568044
 40
3.880558114568044
 40
4.233336124983321
 40
4.233336124983321
 40
4.233336124983321
 40
4.586114135398599
 40
4.586114135398599
 40
4.586114135398599
 40
4.938892145813873
 40
4.938892145813873
 40
4.938892145813873
 40
5.291670156229153
 40
5.291670156229153
 40
5.291670156229153
 40
5.64444816664443
 40
5.64444816664443
 40
5.64444816664443
 40
5.997226177059705
 40
5.997226177059705
 40
5.997226177059705
 40
5.997226177059705
 10
185.4837187788815
 20
241.4451977396596
 10
185.4837187788815
 20
241.4451977396596
 10
185.4837187788815
 20
241.4028230372367
 10
185.4837187788815
 20
241.4028230372367
 10
185.4837187788815
 20
241.4028230372367
 10
185.5047338752051
 20
241.3604483348137
 10
185.5047338752051
 20
241.3604483348137
 10
185.4520238795082
 20
241.2782827532863
 10
185.4671823096433
 20
241.1897437409066
 10
185.335579575289
 20
241.2119646214456
 10
185.335579575289
 20
241.2119646214456
 10
185.2932048728662
 20
241.2119646214456
 10
185.2932048728662
 20
241.2119646214456
 10
185.2932048728662
 20
241.2119646214456
 10
185.2294705643439
 20
241.2334964824328
 10
185.2294705643439
 20
241.2334964824328
 10
185.2294705643439
 20
241.2334964824328
 10
185.1660807655974
 20
241.2543393238685
 10
185.1660807655974
 20
241.2543393238685
 10
185.1660807655974
 20
241.2543393238685
 10
185.1450656692739
 20
241.2758711848558
 10
185.1450656692739
 20
241.2758711848558
 10
185.1450656692739
 20
241.2758711848558
 10
185.1450656692739
 20
241.2967140262914
 10
185.1450656692739
 20
241.2967140262914
 10
185.1450656692739
 20
241.2967140262914
 10
185.1237060631745
 20
241.3604483348137
 10
185.1237060631745
 20
241.3604483348137
 10
185.1237060631745
 20
241.3604483348137
 10
185.1237060631745
 20
241.4028230372367
 10
185.1237060631745
 20
241.4028230372367
 10
185.1237060631745
 20
241.4028230372367
 10
185.1660807655974
 20
241.4875724420825
 10
185.1660807655974
 20
241.4875724420825
 10
185.1660807655974
 20
241.4875724420825
 10
185.2084554680203
 20
241.5085875384061
 10
185.2084554680203
 20
241.5085875384061
 10
185.2084554680203
 20
241.5085875384061
 10
185.2718452667668
 20
241.5297748896175
 10
185.2718452667668
 20
241.5297748896175
 10
185.2718452667668
 20
241.5297748896175
 10
185.3565946716127
 20
241.5297748896175
 10
185.3565946716127
 20
241.5297748896175
 10
185.3565946716127
 20
241.5297748896175
 10
185.4199844703592
 20
241.5085875384061
 10
185.4199844703592
 20
241.5085875384061
 10
185.4199844703592
 20
241.5085875384061
 10
185.4623591727821
 20
241.4875724420825
 10
185.4623591727821
 20
241.4875724420825
 10
185.4623591727821
 20
241.4875724420825
 10
185.4837187788815
 20
241.4451977396596
 10
185.4837187788815
 20
241.4451977396596
 72
     1
 10
185.4837187788815
 20
241.4451977396596
 11
185.4837187788815
 21
241.4451977396596
 97
        0
 75
     0
 76
     1
 98
        0
450
        0
451
        0
460
0.0
461
0.0
452
        0
462
0.0
453
        0
470

  0
HATCH
  5
2F93
330
1F
100
AcDbEntity
  8
图层 1
 62
     7
100
AcDbHatch
 10
0.0
 20
0.0
 30
0.0
210
0.0
220
0.0
230
1.0
  2
SOLID
 70
     1
 71
     0
 91
        1
 92
        1
 93
        2
 72
     4
 94
        3
 73
     0
 74
     0
 95
       38
 96
       34
 40
0.0
 40
0.0
 40
0.0
 40
0.0
 40
0.3527780104152769
 40
0.3527780104152769
 40
0.3527780104152769
 40
0.7055560208305538
 40
0.7055560208305538
 40
0.7055560208305538
 40
1.058334031245828
 40
1.058334031245828
 40
1.058334031245828
 40
1.411112041661104
 40
1.411112041661104
 40
1.411112041661104
 40
1.763890052076384
 40
1.763890052076384
 40
1.763890052076384
 40
2.116668062491659
 40
2.116668062491659
 40
2.116668062491659
 40
2.469446072906936
 40
2.469446072906936
 40
2.469446072906936
 40
2.822224083322215
 40
2.822224083322215
 40
2.822224083322215
 40
3.175002093737492
 40
3.175002093737492
 40
3.175002093737492
 40
3.527780104152768
 40
3.527780104152768
 40
3.527780104152768
 40
3.880558114568044
 40
3.880558114568044
 40
3.880558114568044
 40
3.880558114568044
 10
185.907121293335
 20
220.1937677098971
 10
185.9005756075949
 20
220.0449394867532
 10
185.9329595265197
 20
220.1136691870245
 10
185.864746590912
 20
219.9817219428946
 10
185.864746590912
 20
219.9817219428946
 10
185.822371888489
 20
219.9605345916831
 10
185.822371888489
 20
219.9605345916831
 10
185.822371888489
 20
219.9605345916831
 10
185.6528730787974
 20
219.9605345916831
 10
185.6528730787974
 20
219.9605345916831
 10
185.6528730787974
 20
219.9605345916831
 10
185.5894832800509
 20
220.002909294106
 10
185.5894832800509
 20
220.002909294106
 10
185.5894832800509
 20
220.002909294106
 10
185.5681236739515
 20
220.0240966453175
 10
185.5681236739515
 20
220.0240966453175
 10
185.5681236739515
 20
220.0240966453175
 10
185.5681236739515
 20
220.045283996529
 10
185.5681236739515
 20
220.045283996529
 10
185.5681236739515
 20
220.045283996529
 10
185.547108577628
 20
220.0876586989519
 10
185.547108577628
 20
220.0876586989519
 10
185.547108577628
 20
220.0876586989519
 10
185.547108577628
 20
220.1513930074742
 10
185.547108577628
 20
220.1513930074742
 10
185.547108577628
 20
220.1513930074742
 10
185.5894832800509
 20
220.23614241232
 10
185.5894832800509
 20
220.23614241232
 10
185.5894832800509
 20
220.23614241232
 10
185.6318579824738
 20
220.2573297635315
 10
185.6318579824738
 20
220.2573297635315
 10
185.7055830744942
 20
220.2566407439799
 10
185.8416644359337
 20
220.3310548555519
 10
185.907121293335
 20
220.1937677098971
 72
     1
 10
185.907121293335
 20
220.1937677098971
 11
185.907121293335
 21
220.1937677098971
 97
        0
 75
     0
 76
     1
 98
        0
450
        0
451
        0
460
0.0
461
0.0
452
        0
462
0.0
453
        0
470

  0
HATCH
  5
2FDE
330
1F
100
AcDbEntity
  8
图层 1
 62
     7
100
AcDbHatch
 10
0.0
 20
0.0
 30
0.0
210
0.0
220
0.0
230
1.0
  2
SOLID
 70
     1
 71
     0
 91
        1
 92
        1
 93
        2
 72
     4
 94
        3
 73
     0
 74
     0
 95
       50
 96
       46
 40
0.0
 40
0.0
 40
0.0
 40
0.0
 40
0.3527780104152769
 40
0.3527780104152769
 40
0.3527780104152769
 40
0.7055560208305538
 40
0.7055560208305538
 40
0.7055560208305538
 40
1.058334031245828
 40
1.058334031245828
 40
1.058334031245828
 40
1.411112041661104
 40
1.411112041661104
 40
1.411112041661104
 40
1.763890052076384
 40
1.763890052076384
 40
1.763890052076384
 40
2.116668062491659
 40
2.116668062491659
 40
2.116668062491659
 40
2.469446072906936
 40
2.469446072906936
 40
2.469446072906936
 40
2.822224083322215
 40
2.822224083322215
 40
2.822224083322215
 40
3.175002093737492
 40
3.175002093737492
 40
3.175002093737492
 40
3.527780104152768
 40
3.527780104152768
 40
3.527780104152768
 40
3.880558114568044
 40
3.880558114568044
 40
3.880558114568044
 40
4.233336124983321
 40
4.233336124983321
 40
4.233336124983321
 40
4.586114135398599
 40
4.586114135398599
 40
4.586114135398599
 40
4.938892145813873
 40
4.938892145813873
 40
4.938892145813873
 40
5.291670156229153
 40
5.291670156229153
 40
5.291670156229153
 40
5.291670156229153
 10
180.9117295442905
 20
208.9327766684477
 10
180.9117295442905
 20
208.9327766684477
 10
180.9117295442905
 20
208.7637946234197
 10
180.9117295442905
 20
208.7637946234197
 10
181.2273004989198
 20
208.6749111012643
 10
181.3833634273555
 20
208.6776671794706
 10
181.6948002646751
 20
208.5097186637701
 10
181.9542161258496
 20
208.4294478860095
 10
182.1388733656765
 20
208.2134402565853
 10
182.3297317814676
 20
208.02292635057
 10
182.3297317814676
 20
208.02292635057
 10
182.435496282637
 20
208.065301052993
 10
182.435496282637
 20
208.065301052993
 10
182.288390608372
 20
208.2733849575739
 10
182.3752070718726
 20
208.2134402565853
 10
182.1605774815516
 20
208.3824223016133
 10
182.1605774815516
 20
208.3824223016133
 10
182.1182027791287
 20
208.4247970040363
 10
182.1182027791287
 20
208.4247970040363
 10
182.1182027791287
 20
208.4247970040363
 10
182.0968431730294
 20
208.467516216235
 10
182.0968431730294
 20
208.467516216235
 10
182.0968431730294
 20
208.467516216235
 10
182.0544684706064
 20
208.4883590576707
 10
182.0544684706064
 20
208.4883590576707
 10
182.0544684706064
 20
208.4883590576707
 10
181.9910786718599
 20
208.5305615052057
 10
181.9910786718599
 20
208.5305615052057
 10
181.9910786718599
 20
208.5305615052057
 10
181.948703969437
 20
208.552093366193
 10
181.948703969437
 20
208.552093366193
 10
181.948703969437
 20
208.552093366193
 10
181.9063292670141
 20
208.5729362076286
 10
181.9063292670141
 20
208.5729362076286
 10
181.9063292670141
 20
208.5729362076286
 10
181.8639545645911
 20
208.6156554198274
 10
181.8639545645911
 20
208.6156554198274
 10
181.8639545645911
 20
208.6156554198274
 10
181.821924371944
 20
208.6368427710388
 10
181.821924371944
 20
208.6368427710388
 10
181.6637943848536
 20
208.6742220817127
 10
181.5452830219797
 20
208.8092699138248
 10
181.3771622513911
 20
208.8061693258427
 10
181.2803550043924
 20
208.8573290275484
 10
181.0126709085988
 20
208.8971199066528
 10
180.9117295442905
 20
208.9327766684477
 72
     1
 10
180.9117295442905
 20
208.9327766684477
 11
180.9117295442905
 21
208.9327766684477
 97
        0
 75
     0
 76
     1
 98
        0
450
        0
451
        0
460
0.0
461
0.0
452
        0
462
0.0
453
        0
470

  0
HATCH
  5
35C8
330
1F
100
AcDbEntity
  8
图层 1
 62
     7
100
AcDbHatch
 10
0.0
 20
0.0
 30
0.0
210
0.0
220
0.0
230
1.0
  2
SOLID
 70
     1
 71
     0
 91
        1
 92
        1
 93
        2
 72
     4
 94
        3
 73
     0
 74
     0
 95
       38
 96
       34
 40
0.0
 40
0.0
 40
0.0
 40
0.0
 40
0.3527780104152769
 40
0.3527780104152769
 40
0.3527780104152769
 40
0.7055560208305538
 40
0.7055560208305538
 40
0.7055560208305538
 40
1.058334031245828
 40
1.058334031245828
 40
1.058334031245828
 40
1.411112041661104
 40
1.411112041661104
 40
1.411112041661104
 40
1.763890052076384
 40
1.763890052076384
 40
1.763890052076384
 40
2.116668062491659
 40
2.116668062491659
 40
2.116668062491659
 40
2.469446072906936
 40
2.469446072906936
 40
2.469446072906936
 40
2.822224083322215
 40
2.822224083322215
 40
2.822224083322215
 40
3.175002093737492
 40
3.175002093737492
 40
3.175002093737492
 40
3.527780104152768
 40
3.527780104152768
 40
3.527780104152768
 40
3.880558114568044
 40
3.880558114568044
 40
3.880558114568044
 40
3.880558114568044
 10
189.145513185819
 20
166.8326485368285
 10
189.207869455238
 20
166.740492171803
 10
189.1317327947871
 20
166.6833035490209
 10
189.103138483396
 20
166.6209472796017
 10
189.103138483396
 20
166.6209472796017
 10
189.0607637809731
 20
166.5997599283903
 10
189.0607637809731
 20
166.5997599283903
 10
189.0607637809731
 20
166.5997599283903
 10
188.9973739822266
 20
166.5785725771788
 10
188.9973739822266
 20
166.5785725771788
 10
188.9973739822266
 20
166.5785725771788
 10
188.9549992798037
 20
166.5997599283903
 10
188.9549992798037
 20
166.5997599283903
 10
188.9549992798037
 20
166.5997599283903
 10
188.8916094810572
 20
166.5997599283903
 10
188.8916094810572
 20
166.5997599283903
 10
188.8916094810572
 20
166.5997599283903
 10
188.8492347786343
 20
166.6209472796017
 10
188.8492347786343
 20
166.6209472796017
 10
188.8492347786343
 20
166.6209472796017
 10
188.8278751725349
 20
166.6633219820247
 10
188.8278751725349
 20
166.6633219820247
 10
188.8278751725349
 20
166.6633219820247
 10
188.8068600762114
 20
166.6845093332361
 10
188.8068600762114
 20
166.6845093332361
 10
188.8068600762114
 20
166.6845093332361
 10
188.8068600762114
 20
166.8326485368285
 10
188.8068600762114
 20
166.8326485368285
 10
188.8068600762114
 20
166.8326485368285
 10
188.8702498749578
 20
166.896038335575
 10
188.8702498749578
 20
166.896038335575
 10
189.0228677056355
 20
166.8819134347673
 10
189.0686875058164
 20
166.9411691162043
 10
189.145513185819
 20
166.8326485368285
 72
     1
 10
189.145513185819
 20
166.8326485368285
 11
189.145513185819
 21
166.8326485368285
 97
        0
 75
     0
 76
     1
 98
        0
450
        0
451
        0
460
0.0
461
0.0
452
        0
462
0.0
453
        0
470

  0
HATCH
  5
35D8
330
1F
100
AcDbEntity
  8
图层 1
 62
     7
100
AcDbHatch
 10
0.0
 20
0.0
 30
0.0
210
0.0
220
0.0
230
1.0
  2
SOLID
 70
     1
 71
     0
 91
        1
 92
        1
 93
        2
 72
     4
 94
        3
 73
     0
 74
     0
 95
       68
 96
       64
 40
0.0
 40
0.0
 40
0.0
 40
0.0
 40
0.3527780104152769
 40
0.3527780104152769
 40
0.3527780104152769
 40
0.7055560208305538
 40
0.7055560208305538
 40
0.7055560208305538
 40
1.058334031245828
 40
1.058334031245828
 40
1.058334031245828
 40
1.411112041661104
 40
1.411112041661104
 40
1.411112041661104
 40
1.763890052076384
 40
1.763890052076384
 40
1.763890052076384
 40
2.116668062491659
 40
2.116668062491659
 40
2.116668062491659
 40
2.469446072906936
 40
2.469446072906936
 40
2.469446072906936
 40
2.822224083322215
 40
2.822224083322215
 40
2.822224083322215
 40
3.175002093737492
 40
3.175002093737492
 40
3.175002093737492
 40
3.527780104152768
 40
3.527780104152768
 40
3.527780104152768
 40
3.880558114568044
 40
3.880558114568044
 40
3.880558114568044
 40
4.233336124983321
 40
4.233336124983321
 40
4.233336124983321
 40
4.586114135398599
 40
4.586114135398599
 40
4.586114135398599
 40
4.938892145813873
 40
4.938892145813873
 40
4.938892145813873
 40
5.291670156229153
 40
5.291670156229153
 40
5.291670156229153
 40
5.64444816664443
 40
5.64444816664443
 40
5.64444816664443
 40
5.997226177059705
 40
5.997226177059705
 40
5.997226177059705
 40
6.350004187474984
 40
6.350004187474984
 40
6.350004187474984
 40
6.702782197890257
 40
6.702782197890257
 40
6.702782197890257
 40
7.055560208305537
 40
7.055560208305537
 40
7.055560208305537
 40
7.408338218720808
 40
7.408338218720808
 40
7.408338218720808
 40
7.408338218720808
 10
174.7732543591544
 20
135.4846705078077
 10
174.7732543591544
 20
135.4846705078077
 10
174.7732543591544
 20
135.3789060066383
 10
174.7732543591544
 20
135.3789060066383
 10
174.7732543591544
 20
135.3789060066383
 10
174.8156290615773
 20
135.3789060066383
 10
174.8156290615773
 20
135.3789060066383
 10
174.8156290615773
 20
135.3789060066383
 10
174.8580037640002
 20
135.3578909103147
 10
174.8580037640002
 20
135.3578909103147
 10
174.8580037640002
 20
135.3578909103147
 10
174.9213935627468
 20
135.3578909103147
 10
174.9213935627468
 20
135.3578909103147
 10
174.9213935627468
 20
135.3578909103147
 10
174.9637682651697
 20
135.3365313042154
 10
174.9637682651697
 20
135.3365313042154
 10
174.9637682651697
 20
135.3365313042154
 10
174.9847833614933
 20
135.3365313042154
 10
174.9847833614933
 20
135.3365313042154
 10
174.9847833614933
 20
135.3365313042154
 10
175.0271580639162
 20
135.3155162078918
 10
175.0271580639162
 20
135.3155162078918
 10
175.0271580639162
 20
135.3155162078918
 10
175.0485176700155
 20
135.2941566017924
 10
175.0485176700155
 20
135.2941566017924
 10
175.0485176700155
 20
135.2941566017924
 10
175.0695327663391
 20
135.2941566017924
 10
175.0695327663391
 20
135.2941566017924
 10
175.0695327663391
 20
135.2941566017924
 10
175.0908923724385
 20
135.2731415054689
 10
175.0908923724385
 20
135.2731415054689
 10
175.0908923724385
 20
135.2731415054689
 10
175.1332670748614
 20
135.2731415054689
 10
175.1332670748614
 20
135.2731415054689
 10
175.1332670748614
 20
135.2731415054689
 10
175.154282171185
 20
135.2517818993695
 10
175.154282171185
 20
135.2517818993695
 10
175.154282171185
 20
135.2517818993695
 10
175.154282171185
 20
135.3578909103147
 10
175.154282171185
 20
135.3578909103147
 10
175.154282171185
 20
135.3578909103147
 10
175.1332670748614
 20
135.3789060066383
 10
175.1332670748614
 20
135.3789060066383
 10
175.1332670748614
 20
135.3789060066383
 10
175.0908923724385
 20
135.3789060066383
 10
175.0908923724385
 20
135.3789060066383
 10
175.0908923724385
 20
135.3789060066383
 10
175.0908923724385
 20
135.3999211029619
 10
175.0908923724385
 20
135.3999211029619
 10
175.0908923724385
 20
135.3999211029619
 10
175.0695327663391
 20
135.3999211029619
 10
175.0695327663391
 20
135.3999211029619
 10
175.0695327663391
 20
135.3999211029619
 10
175.0271580639162
 20
135.4212807090612
 10
175.0271580639162
 20
135.4212807090612
 10
175.0271580639162
 20
135.4212807090612
 10
175.0061429675926
 20
135.4212807090612
 10
175.0061429675926
 20
135.4212807090612
 10
175.0061429675926
 20
135.4212807090612
 10
174.9637682651697
 20
135.4422958053848
 10
174.9637682651697
 20
135.4422958053848
 10
174.8996894468716
 20
135.4498750204523
 10
174.8394002361073
 20
135.4860485469109
 10
174.7732543591544
 20
135.4846705078077
 72
     1
 10
174.7732543591544
 20
135.4846705078077
 11
174.7732543591544
 21
135.4846705078077
 97
        0
 75
     0
 76
     1
 98
        0
450
        0
451
        0
460
0.0
461
0.0
452
        0
462
0.0
453
        0
470

  0
HATCH
  5
3807
330
1F
100
AcDbEntity
  8
图层 1
 62
     7
100
AcDbHatch
 10
0.0
 20
0.0
 30
0.0
210
0.0
220
0.0
230
1.0
  2
SOLID
 70
     1
 71
     0
 91
        1
 92
        1
 93
        2
 72
     4
 94
        3
 73
     0
 74
     0
 95
       29
 96
       25
 40
0.0
 40
0.0
 40
0.0
 40
0.0
 40
0.3527780104152769
 40
0.3527780104152769
 40
0.3527780104152769
 40
0.7055560208305538
 40
0.7055560208305538
 40
0.7055560208305538
 40
1.058334031245828
 40
1.058334031245828
 40
1.058334031245828
 40
1.411112041661104
 40
1.411112041661104
 40
1.411112041661104
 40
1.763890052076384
 40
1.763890052076384
 40
1.763890052076384
 40
2.116668062491659
 40
2.116668062491659
 40
2.116668062491659
 40
2.469446072906936
 40
2.469446072906936
 40
2.469446072906936
 40
2.822224083322215
 40
2.822224083322215
 40
2.822224083322215
 40
2.822224083322215
 10
175.4929352807925
 20
164.0174869039101
 10
175.4929352807925
 20
164.0174869039101
 10
175.5139503771161
 20
163.9751122014871
 10
175.5139503771161
 20
163.9751122014871
 10
175.5139503771161
 20
163.9751122014871
 10
175.5139503771161
 20
163.9327374990642
 10
175.5139503771161
 20
163.9327374990642
 10
175.5139503771161
 20
163.9327374990642
 10
175.4929352807925
 20
163.8903627966413
 10
175.4929352807925
 20
163.8903627966413
 10
175.4929352807925
 20
163.8903627966413
 10
175.471920184469
 20
163.8691754454298
 10
175.471920184469
 20
163.8691754454298
 10
175.471920184469
 20
163.8691754454298
 10
175.4505605783696
 20
163.8269729978948
 10
175.4505605783696
 20
163.8269729978948
 10
175.3571984291289
 20
163.7715069239916
 10
175.272449024283
 20
163.8195660377152
 10
175.1966568736079
 20
163.8691754454298
 10
175.208370205985
 20
163.9930267098286
 10
175.1563492298397
 20
164.0216210212197
 10
175.2600466723544
 20
164.0596893514451
 10
175.3330827448232
 20
164.1094710140476
 10
175.4357466580104
 20
164.0753645462439
 10
175.4929352807925
 20
164.0174869039101
 72
     1
 10
175.4929352807925
 20
164.0174869039101
 11
175.4929352807925
 21
164.0174869039101
 97
        0
 75
     0
 76
     1
 98
        0
450
        0
451
        0
460
0.0
461
0.0
452
        0
462
0.0
453
        0
470

  0
HATCH
  5
3895
330
1F
100
AcDbEntity
  8
图层 1
 62
     7
100
AcDbHatch
 10
0.0
 20
0.0
 30
0.0
210
0.0
220
0.0
230
1.0
  2
SOLID
 70
     1
 71
     0
 91
        1
 92
        1
 93
        2
 72
     4
 94
        3
 73
     0
 74
     0
 95
       11
 96
        7
 40
0.0
 40
0.0
 40
0.0
 40
0.0
 40
0.3527780104152769
 40
0.3527780104152769
 40
0.3527780104152769
 40
0.7055560208305538
 40
0.7055560208305538
 40
0.7055560208305538
 40
0.7055560208305538
 10
174.9213935627468
 20
174.5369206529582
 10
174.9213935627468
 20
174.5369206529582
 10
174.9213935627468
 20
174.3043765542958
 10
174.9213935627468
 20
174.3043765542958
 10
174.9213935627468
 20
174.3043765542958
 10
174.9213935627468
 20
174.5369206529582
 10
174.9213935627468
 20
174.5369206529582
 72
     1
 10
174.9213935627468
 20
174.5369206529582
 11
174.9213935627468
 21
174.5369206529582
 97
        0
 75
     0
 76
     1
 98
        0
450
        0
451
        0
460
0.0
461
0.0
452
        0
462
0.0
453
        0
470

  0
HATCH
  5
3943
330
1F
100
AcDbEntity
  8
图层 1
 62
     7
100
AcDbHatch
 10
0.0
 20
0.0
 30
0.0
210
0.0
220
0.0
230
1.0
  2
SOLID
 70
     1
 71
     0
 91
        1
 92
        1
 93
        2
 72
     4
 94
        3
 73
     0
 74
     0
 95
      131
 96
      127
 40
0.0
 40
0.0
 40
0.0
 40
0.0
 40
0.3527780104152769
 40
0.3527780104152769
 40
0.3527780104152769
 40
0.7055560208305538
 40
0.7055560208305538
 40
0.7055560208305538
 40
1.058334031245828
 40
1.058334031245828
 40
1.058334031245828
 40
1.411112041661104
 40
1.411112041661104
 40
1.411112041661104
 40
1.763890052076384
 40
1.763890052076384
 40
1.763890052076384
 40
2.116668062491659
 40
2.116668062491659
 40
2.116668062491659
 40
2.469446072906936
 40
2.469446072906936
 40
2.469446072906936
 40
2.822224083322215
 40
2.822224083322215
 40
2.822224083322215
 40
3.175002093737492
 40
3.175002093737492
 40
3.175002093737492
 40
3.527780104152768
 40
3.527780104152768
 40
3.527780104152768
 40
3.880558114568044
 40
3.880558114568044
 40
3.880558114568044
 40
4.233336124983321
 40
4.233336124983321
 40
4.233336124983321
 40
4.586114135398599
 40
4.586114135398599
 40
4.586114135398599
 40
4.938892145813873
 40
4.938892145813873
 40
4.938892145813873
 40
5.291670156229153
 40
5.291670156229153
 40
5.291670156229153
 40
5.64444816664443
 40
5.64444816664443
 40
5.64444816664443
 40
5.997226177059705
 40
5.997226177059705
 40
5.997226177059705
 40
6.350004187474984
 40
6.350004187474984
 40
6.350004187474984
 40
6.702782197890257
 40
6.702782197890257
 40
6.702782197890257
 40
7.055560208305537
 40
7.055560208305537
 40
7.055560208305537
 40
7.408338218720808
 40
7.408338218720808
 40
7.408338218720808
 40
7.76111622913609
 40
7.76111622913609
 40
7.76111622913609
 40
8.113894239551369
 40
8.113894239551369
 40
8.113894239551369
 40
8.466672249966642
 40
8.466672249966642
 40
8.466672249966642
 40
8.819450260381922
 40
8.819450260381922
 40
8.819450260381922
 40
9.172228270797198
 40
9.172228270797198
 40
9.172228270797198
 40
9.525006281212476
 40
9.525006281212476
 40
9.525006281212476
 40
9.877784291627751
 40
9.877784291627751
 40
9.877784291627751
 40
10.23056230204303
 40
10.23056230204303
 40
10.23056230204303
 40
10.58334031245831
 40
10.58334031245831
 40
10.58334031245831
 40
10.93611832287358
 40
10.93611832287358
 40
10.93611832287358
 40
11.28889633328886
 40
11.28889633328886
 40
11.28889633328886
 40
11.64167434370414
 40
11.64167434370414
 40
11.64167434370414
 40
11.99445235411941
 40
11.99445235411941
 40
11.99445235411941
 40
12.34723036453469
 40
12.34723036453469
 40
12.34723036453469
 40
12.70000837494997
 40
12.70000837494997
 40
12.70000837494997
 40
13.05278638536524
 40
13.05278638536524
 40
13.05278638536524
 40
13.40556439578052
 40
13.40556439578052
 40
13.40556439578052
 40
13.7583424061958
 40
13.7583424061958
 40
13.7583424061958
 40
14.11112041661107
 40
14.11112041661107
 40
14.11112041661107
 40
14.46389842702635
 40
14.46389842702635
 40
14.46389842702635
 40
14.81667643744163
 40
14.81667643744163
 40
14.81667643744163
 40
14.81667643744163
 10
173.3972823146245
 20
126.8274843518258
 10
173.3972823146245
 20
126.8274843518258
 10
173.3972823146245
 20
126.7217198506564
 10
173.3972823146245
 20
126.7217198506564
 10
173.3972823146245
 20
126.7217198506564
 10
173.4186419207238
 20
126.7217198506564
 10
173.4186419207238
 20
126.7217198506564
 10
173.4186419207238
 20
126.7217198506564
 10
173.4820317194703
 20
126.7007047543328
 10
173.4820317194703
 20
126.7007047543328
 10
173.4820317194703
 20
126.7007047543328
 10
173.5244064218933
 20
126.6793451482334
 10
173.5244064218933
 20
126.6793451482334
 10
173.5244064218933
 20
126.6793451482334
 10
173.5877962206398
 20
126.6793451482334
 10
173.5877962206398
 20
126.6793451482334
 10
173.5877962206398
 20
126.6793451482334
 10
173.6301709230627
 20
126.6583300519099
 10
173.6301709230627
 20
126.6583300519099
 10
173.7955356154449
 20
126.5911506456296
 10
173.759706598762
 20
126.6380039751379
 10
173.9478089363468
 20
126.5525655507404
 10
173.9478089363468
 20
126.5525655507404
 10
173.9688240326703
 20
126.4464565397952
 10
173.9688240326703
 20
126.4464565397952
 10
173.9688240326703
 20
126.4464565397952
 10
174.0325583411926
 20
126.5101908483175
 10
174.0325583411926
 20
126.5101908483175
 10
174.0325583411926
 20
126.5101908483175
 10
174.0749330436156
 20
126.5101908483175
 10
174.0749330436156
 20
126.5101908483175
 10
174.0749330436156
 20
126.5101908483175
 10
174.1593379386856
 20
126.4678161458946
 10
174.1593379386856
 20
126.4678161458946
 10
174.1593379386856
 20
126.4678161458946
 10
174.180697544785
 20
126.4464565397952
 10
174.180697544785
 20
126.4464565397952
 10
174.2464989119621
 20
126.3982251711837
 10
174.3298702777047
 20
126.3716979184474
 10
174.3922265471239
 20
126.3196769423022
 10
174.608234176548
 20
126.2059887162895
 10
174.7749769080334
 20
126.0278771622029
 10
174.9637682651697
 20
125.8749148217494
 10
174.9637682651697
 20
125.8749148217494
 10
175.0061429675926
 20
125.9172895241723
 10
175.0061429675926
 20
125.9172895241723
 10
174.961356696739
 20
125.9631093243532
 10
174.782211613325
 20
126.1246844092016
 10
174.7308796567315
 20
126.1501781326105
 10
174.7308796567315
 20
126.1501781326105
 10
174.6885049543085
 20
126.1925528350335
 10
174.6885049543085
 20
126.1925528350335
 10
174.6885049543085
 20
126.1925528350335
 10
174.667489857985
 20
126.2349275374564
 10
174.667489857985
 20
126.2349275374564
 10
174.667489857985
 20
126.2349275374564
 10
174.625115155562
 20
126.2559426337799
 10
174.625115155562
 20
126.2559426337799
 10
174.625115155562
 20
126.2559426337799
 10
174.5827404531391
 20
126.2983173362029
 10
174.5827404531391
 20
126.2983173362029
 10
174.5827404531391
 20
126.2983173362029
 10
174.5403657507162
 20
126.3196769423022
 10
174.5403657507162
 20
126.3196769423022
 10
174.5403657507162
 20
126.3196769423022
 10
174.4979910482932
 20
126.3620516447252
 10
174.4979910482932
 20
126.3620516447252
 10
174.4735308542117
 20
126.3875453681341
 10
174.3247026310678
 20
126.4695386947736
 10
174.2864620459544
 20
126.4888312422181
 10
174.2864620459544
 20
126.4888312422181
 10
174.2654469496308
 20
126.5101908483175
 10
174.2654469496308
 20
126.5101908483175
 10
174.2654469496308
 20
126.5101908483175
 10
174.2230722472079
 20
126.5312059446411
 10
174.2230722472079
 20
126.5312059446411
 10
174.2230722472079
 20
126.5312059446411
 10
174.2017126411085
 20
126.5525655507404
 10
174.2017126411085
 20
126.5525655507404
 10
174.2017126411085
 20
126.5525655507404
 10
174.1383228423621
 20
126.573580647064
 10
174.1383228423621
 20
126.573580647064
 10
174.1383228423621
 20
126.573580647064
 10
174.1169632362627
 20
126.5945957433876
 10
174.1169632362627
 20
126.5945957433876
 10
174.1169632362627
 20
126.5945957433876
 10
174.0959481399391
 20
126.7007047543328
 10
174.0959481399391
 20
126.7007047543328
 10
174.0959481399391
 20
126.7007047543328
 10
174.0325583411926
 20
126.6369704458105
 10
174.0325583411926
 20
126.6369704458105
 10
174.0325583411926
 20
126.6369704458105
 10
173.9901836387697
 20
126.6369704458105
 10
173.9901836387697
 20
126.6369704458105
 10
173.9901836387697
 20
126.6369704458105
 10
173.9054342339239
 20
126.6793451482334
 10
173.9054342339239
 20
126.6793451482334
 10
173.9054342339239
 20
126.6793451482334
 10
173.8420444351773
 20
126.7007047543328
 10
173.8420444351773
 20
126.7007047543328
 10
173.8420444351773
 20
126.7007047543328
 10
173.7996697327544
 20
126.7217198506564
 10
173.7996697327544
 20
126.7217198506564
 10
173.7996697327544
 20
126.7217198506564
 10
173.7572950303315
 20
126.7217198506564
 10
173.7572950303315
 20
126.7217198506564
 10
173.7572950303315
 20
126.7217198506564
 10
173.6725456254856
 20
126.7640945530793
 10
173.6725456254856
 20
126.7640945530793
 10
173.6725456254856
 20
126.7640945530793
 10
173.6515305291621
 20
126.7640945530793
 10
173.6515305291621
 20
126.7640945530793
 10
173.6515305291621
 20
126.7640945530793
 10
173.5667811243162
 20
126.7851096494029
 10
173.5667811243162
 20
126.7851096494029
 10
173.5667811243162
 20
126.7851096494029
 10
173.5033913255697
 20
126.8064692555022
 10
173.5033913255697
 20
126.8064692555022
 10
173.5033913255697
 20
126.8064692555022
 10
173.4396570170474
 20
126.8064692555022
 10
173.4396570170474
 20
126.8064692555022
 10
173.4396570170474
 20
126.8064692555022
 10
173.4186419207238
 20
126.8274843518258
 10
173.4186419207238
 20
126.8274843518258
 10
173.4186419207238
 20
126.8274843518258
 10
173.3972823146245
 20
126.8274843518258
 10
173.3972823146245
 20
126.8274843518258
 72
     1
 10
173.3972823146245
 20
126.8274843518258
 11
173.3972823146245
 21
126.8274843518258
 97
        0
 75
     0
 76
     1
 98
        0
450
        0
451
        0
460
0.0
461
0.0
452
        0
462
0.0
453
        0
470

  0
HATCH
  5
4842
330
1F
100
AcDbEntity
  8
图层 1
 62
     7
100
AcDbHatch
 10
0.0
 20
0.0
 30
0.0
210
0.0
220
0.0
230
1.0
  2
SOLID
 70
     1
 71
     0
 91
        1
 92
        1
 93
        2
 72
     4
 94
        3
 73
     0
 74
     0
 95
       47
 96
       43
 40
0.0
 40
0.0
 40
0.0
 40
0.0
 40
0.3527780104152769
 40
0.3527780104152769
 40
0.3527780104152769
 40
0.7055560208305538
 40
0.7055560208305538
 40
0.7055560208305538
 40
1.058334031245828
 40
1.058334031245828
 40
1.058334031245828
 40
1.411112041661104
 40
1.411112041661104
 40
1.411112041661104
 40
1.763890052076384
 40
1.763890052076384
 40
1.763890052076384
 40
2.116668062491659
 40
2.116668062491659
 40
2.116668062491659
 40
2.469446072906936
 40
2.469446072906936
 40
2.469446072906936
 40
2.822224083322215
 40
2.822224083322215
 40
2.822224083322215
 40
3.175002093737492
 40
3.175002093737492
 40
3.175002093737492
 40
3.527780104152768
 40
3.527780104152768
 40
3.527780104152768
 40
3.880558114568044
 40
3.880558114568044
 40
3.880558114568044
 40
4.233336124983321
 40
4.233336124983321
 40
4.233336124983321
 40
4.586114135398599
 40
4.586114135398599
 40
4.586114135398599
 40
4.938892145813873
 40
4.938892145813873
 40
4.938892145813873
 40
4.938892145813873
 10
180.1920486226523
 20
255.6479577566324
 10
180.1920486226523
 20
255.6479577566324
 10
180.2130637189759
 20
255.6055830542095
 10
180.2130637189759
 20
255.6055830542095
 10
180.2130637189759
 20
255.6055830542095
 10
180.2130637189759
 20
255.5210059042515
 10
180.2130637189759
 20
255.5210059042515
 10
180.2130637189759
 20
255.5210059042515
 10
180.1920486226523
 20
255.4786312018286
 10
180.1920486226523
 20
255.4786312018286
 10
180.1920486226523
 20
255.4786312018286
 10
180.1496739202294
 20
255.4359119896299
 10
180.1496739202294
 20
255.4359119896299
 10
180.1496739202294
 20
255.4359119896299
 10
180.1283143141301
 20
255.4147246384184
 10
180.1283143141301
 20
255.4147246384184
 10
180.1283143141301
 20
255.4147246384184
 10
180.0225498129606
 20
255.4147246384184
 10
180.0225498129606
 20
255.4147246384184
 10
180.0225498129606
 20
255.4147246384184
 10
179.9591600142141
 20
255.4359119896299
 10
179.9591600142141
 20
255.4359119896299
 10
179.9591600142141
 20
255.4359119896299
 10
179.9167853117912
 20
255.4570993408414
 10
179.9167853117912
 20
255.4570993408414
 10
179.9167853117912
 20
255.4570993408414
 10
179.8957702154676
 20
255.4786312018286
 10
179.8957702154676
 20
255.4786312018286
 10
179.8957702154676
 20
255.4786312018286
 10
179.8744106093683
 20
255.4994740432643
 10
179.8744106093683
 20
255.4994740432643
 10
179.8744106093683
 20
255.4994740432643
 10
179.8744106093683
 20
255.6479577566324
 10
179.8744106093683
 20
255.6479577566324
 10
179.9608825630931
 20
255.7323626517025
 10
180.045631967939
 20
255.7085914771726
 10
180.1496739202294
 20
255.7115198102668
 10
180.1496739202294
 20
255.7115198102668
 10
180.170689016553
 20
255.6688005980681
 10
180.170689016553
 20
255.6688005980681
 10
180.170689016553
 20
255.6688005980681
 10
180.1920486226523
 20
255.6479577566324
 10
180.1920486226523
 20
255.6479577566324
 72
     1
 10
180.1920486226523
 20
255.6479577566324
 11
180.1920486226523
 21
255.6479577566324
 97
        0
 75
     0
 76
     1
 98
        0
450
        0
451
        0
460
0.0
461
0.0
452
        0
462
0.0
453
        0
470

  0
MTEXT
  5
12C4B
102
{ACAD_XDICTIONARY
360
162C6
102
}
330
1F
100
AcDbEntity
  8
打标文字
 62
     3
100
AcDbMText
 10
478.4804662106475
 20
353.4765695506201
 30
0.0
 40
1.5
 41
43.12740902174065
 46
53.91180554791946
 71
     1
 72
     5
  3
\A1;\P{\f仿宋_GB2312|b0|i0|c134|p49;技术参数}:\P- {\f仿宋_GB2312|b0|i0|c134|p49;材料}: {\f仿宋_GB2312|b0|i0|c134|p49;铜合金}\P- {\f仿宋_GB2312|b0|i0|c134|p49;表面处理}: {\f仿宋_GB2312|b0|i0|c134|p49;镀银}\P- {\f仿宋_GB2312|b0|i0|c134|p49;额定电流}: 7.5A\P- {\f仿宋_GB2312|b0|i0|c134|
  3
p49;接触电阻}: ≤3mΩ\P- {\f仿宋_GB2312|b0|i0|c134|p49;可插拔次数}: {\f仿宋_GB2312|b0|i0|c134|p49;≥}500\P\PTechnical specification:\P- Material: copper alloy\P- Surface: hard-silver plated\P- Rated current: 7.5A\P- Contact resistance: ≤3mΩ\P- Mating cycles: {\f仿宋_G
  1
B2312|b0|i0|c134|p49;≥}500
  7
Romans字体
 73
     1
 44
1.0
1001
ACAD
1000
ACAD_MTEXT_DEFINED_HEIGHT_BEGIN
1070
    46
1040
53.91180554791946
1000
ACAD_MTEXT_DEFINED_HEIGHT_END
  0
LINE
  5
13093
330
1F
100
AcDbEntity
  8
图框
 62
     1
370
    18
100
AcDbLine
 10
362.2152432364329
 20
289.5734203896823
 30
0.0
 11
510.7146182042826
 21
289.5734203896823
 31
0.0
1001
AcDbBlockRepETag
1070
     1
1071
      143
1005
13093
  0
MTEXT
  5
15759
330
1F
100
AcDbEntity
  8
图框
 62
     3
100
AcDbMText
 10
500.5699715582569
 20
303.8807246626868
 30
0.0
 40
1.492756790756674
 41
16.8061960326837
 46
4.436077783610277
 71
     5
 72
     5
  1
1010171140002
  7
Romans字体
 73
     1
 44
1.0
1001
ACAD
1000
ACAD_MTEXT_DEFINED_HEIGHT_BEGIN
1070
    46
1040
4.436077783610277
1000
ACAD_MTEXT_DEFINED_HEIGHT_END
  0
INSERT
  5
1575A
330
1F
100
AcDbEntity
  8
DIM
100
AcDbBlockReference
  2
A4图框-NEW
 10
-54.49118295341975
 20
49.30603562116562
 30
0.0
 41
0.5000000004978915
 42
0.5000000004978915
 43
0.5000000004979071
  0
MTEXT
  5
1575B
330
1F
100
AcDbEntity
  8
图框
 62
     3
100
AcDbMText
 10
477.3724871733892
 20
297.0250243253585
 30
0.0
 40
1.492756790756674
 41
5.414673580594391
 46
3.943047606109158
 71
     5
 72
     5
  1
0.9g
  7
Romans字体
 73
     1
 44
1.0
1001
ACAD
1000
ACAD_MTEXT_DEFINED_HEIGHT_BEGIN
1070
    46
1040
3.943047606109158
1000
ACAD_MTEXT_DEFINED_HEIGHT_END
  0
MTEXT
  5
1575C
330
1F
100
AcDbEntity
  8
图框
 62
     3
100
AcDbMText
 10
466.5431384072173
 20
297.2269068177162
 30
0.0
 40
1.492756789003581
 41
5.414674222587238
 46
3.943047304531788
 71
     5
 72
     5
  1
1:2
  7
Romans字体
 73
     1
 44
1.0
1001
ACAD
1000
ACAD_MTEXT_DEFINED_HEIGHT_BEGIN
1070
    46
1040
3.943047304531788
1000
ACAD_MTEXT_DEFINED_HEIGHT_END
  0
MTEXT
  5
1575D
330
1F
100
AcDbEntity
  8
图框
 62
     3
100
AcDbMText
 10
500.5699709063939
 20
308.2704496314993
 30
0.0
 40
1.492756789003581
 41
16.80619601294652
 46
4.343372757168116
 71
     5
 72
     5
  1
CDSM-P1.0S
  7
Romans字体
 73
     1
 44
1.0
1001
ACAD
1000
ACAD_MTEXT_DEFINED_HEIGHT_BEGIN
1070
    46
1040
4.343372757168116
1000
ACAD_MTEXT_DEFINED_HEIGHT_END
  0
LINE
  5
15C79
330
1F
100
AcDbEntity
  8
0
100
AcDbLine
 10
418.3356043330393
 20
347.5616453934993
 30
0.0
 11
418.3356043330393
 21
350.7616453934992
 31
0.0
  0
LINE
  5
15C7A
330
1F
100
AcDbEntity
  8
0
100
AcDbLine
 10
423.8356043330393
 20
347.5616453934993
 30
0.0
 11
423.8356043330393
 21
350.7616453934992
 31
0.0
  0
LINE
  5
15C7B
330
1F
100
AcDbEntity
  8
0
100
AcDbLine
 10
440.4570682828391
 20
348.3991702108992
 30
0.0
 11
440.2240618039392
 21
348.3716453934992
 31
0.0
  0
LINE
  5
15C7C
330
1F
100
AcDbEntity
  8
0
100
AcDbLine
 10
425.8356043330393
 20
347.8967460204192
 30
0.0
 11
425.8356043330393
 21
350.4265447665793
 31
0.0
  0
LINE
  5
15C7D
330
1F
100
AcDbEntity
  8
0
100
AcDbLine
 10
423.8356043330393
 20
347.5616453934993
 30
0.0
 11
418.3356043330393
 21
347.5616453934993
 31
0.0
  0
LINE
  5
15C7E
330
1F
100
AcDbEntity
  8
0
100
AcDbLine
 10
425.8356043330393
 20
347.8966453934992
 30
0.0
 11
423.8356043330393
 21
347.8966453934992
 31
0.0
  0
LINE
  5
15C7F
330
1F
100
AcDbEntity
  8
0
100
AcDbLine
 10
428.2056043330391
 20
347.9366453934992
 30
0.0
 11
427.8356043330393
 21
347.9366453934992
 31
0.0
  0
LINE
  5
15C80
330
1F
100
AcDbEntity
  8
0
100
AcDbLine
 10
427.8356043330393
 20
348.2616453934992
 30
0.0
 11
425.8356043330393
 21
348.2616453934992
 31
0.0
  0
LINE
  5
15C81
330
1F
100
AcDbEntity
  8
0
100
AcDbLine
 10
440.2240618039392
 20
348.3716453934992
 30
0.0
 11
428.6406043330392
 21
348.3716453934992
 31
0.0
  0
LINE
  5
15C82
330
1F
100
AcDbEntity
  8
0
100
AcDbLine
 10
417.8356043330393
 20
348.6616453934993
 30
0.0
 11
413.8356043330393
 21
348.6616453934993
 31
0.0
  0
LINE
  5
15C83
330
1F
100
AcDbEntity
  8
CEN
 48
2.0
100
AcDbLine
 10
412.3356043330393
 20
349.1616453934993
 30
0.0
 11
442.513923077619
 21
349.1616453934993
 31
0.0
  0
LINE
  5
15C84
330
1F
100
AcDbEntity
  8
0
100
AcDbLine
 10
427.8356043330393
 20
347.9367428385392
 30
0.0
 11
427.8356043330393
 21
350.3865479484592
 31
0.0
  0
LINE
  5
15C85
330
1F
100
AcDbEntity
  8
0
100
AcDbLine
 10
428.2056043330391
 20
347.9366453934992
 30
0.0
 11
428.2056043330391
 21
350.3866453934993
 31
0.0
  0
LINE
  5
15C86
330
1F
100
AcDbEntity
  8
0
100
AcDbLine
 10
428.6406043330392
 20
348.3716453934992
 30
0.0
 11
428.6406043330392
 21
349.9516453934992
 31
0.0
  0
LINE
  5
15C87
330
1F
100
AcDbEntity
  8
0
100
AcDbLine
 10
417.8356043330393
 20
349.6616453934993
 30
0.0
 11
413.8356043330393
 21
349.6616453934993
 31
0.0
  0
LINE
  5
15C88
330
1F
100
AcDbEntity
  8
0
100
AcDbLine
 10
440.2240618039392
 20
349.9516453934992
 30
0.0
 11
428.6406043330392
 21
349.9516453934992
 31
0.0
  0
LINE
  5
15C89
330
1F
100
AcDbEntity
  8
0
100
AcDbLine
 10
427.8356043330393
 20
350.0616453934993
 30
0.0
 11
425.8356043330393
 21
350.0616453934993
 31
0.0
  0
LINE
  5
15C8A
330
1F
100
AcDbEntity
  8
0
100
AcDbLine
 10
428.6406043330392
 20
348.3716453934992
 30
0.0
 11
428.2056043330391
 21
347.9366453934992
 31
0.0
  0
LINE
  5
15C8B
330
1F
100
AcDbEntity
  8
0
100
AcDbLine
 10
428.2056043330391
 20
350.3866453934993
 30
0.0
 11
427.8356043330393
 21
350.3866453934993
 31
0.0
  0
LINE
  5
15C8C
330
1F
100
AcDbEntity
  8
0
100
AcDbLine
 10
425.8356043330393
 20
350.4266453934992
 30
0.0
 11
423.8356043330393
 21
350.4266453934992
 31
0.0
  0
LINE
  5
15C8D
330
1F
100
AcDbEntity
  8
0
100
AcDbLine
 10
423.8356043330393
 20
350.7616453934992
 30
0.0
 11
418.3356043330393
 21
350.7616453934992
 31
0.0
  0
LINE
  5
15C8E
330
1F
100
AcDbEntity
  8
0
100
AcDbLine
 10
428.6406043330392
 20
349.9516453934992
 30
0.0
 11
428.2056043330391
 21
350.3866453934993
 31
0.0
  0
LINE
  5
15C8F
330
1F
100
AcDbEntity
  8
0
100
AcDbLine
 10
440.4570682828391
 20
349.9241205761193
 30
0.0
 11
440.2240618039392
 21
349.9516453934992
 31
0.0
  0
LINE
  5
15C90
330
1F
100
AcDbEntity
  8
0
100
AcDbLine
 10
441.8356043330393
 20
349.1881634079994
 30
0.0
 11
441.8356043330393
 21
349.1351273789992
 31
0.0
  0
ARC
  5
15CA9
330
1F
100
AcDbEntity
  8
0
100
AcDbCircle
 10
439.3264074707793
 20
353.1404041438392
 30
0.0
 40
4.874150060939999
100
AcDbArc
 50
283.4130308292931
 51
298.8793211943222
  0
ARC
  5
15CAA
330
1F
100
AcDbEntity
  8
0
100
AcDbCircle
 10
439.3264074687992
 20
345.1828866380392
 30
0.0
 40
4.874150060939999
100
AcDbArc
 50
61.12067881442036
 51
76.58696916201995
  0
ARC
  5
15CAB
330
1F
100
AcDbEntity
  8
0
100
AcDbCircle
 10
413.8356043330393
 20
349.1616453934993
 30
0.0
 40
0.5
100
AcDbArc
 50
90.0
 51
270.0
  0
ARC
  5
15CAC
330
1F
100
AcDbEntity
  8
0
100
AcDbCircle
 10
417.8356043330393
 20
350.1616453934993
 30
0.0
 40
0.5
100
AcDbArc
 50
270.0
 51
0.0
  0
ARC
  5
15CAD
330
1F
100
AcDbEntity
  8
0
100
AcDbCircle
 10
417.8356043330393
 20
348.1616453934993
 30
0.0
 40
0.5
100
AcDbArc
 50
0.0
 51
90.0
  0
ARC
  5
15CAE
330
1F
100
AcDbEntity
  8
0
100
AcDbCircle
 10
441.535604333039
 20
349.1881634079994
 30
0.0
 40
0.3
100
AcDbArc
 50
0.0
 51
61.12920721517462
  0
ARC
  5
15CAF
330
1F
100
AcDbEntity
  8
0
100
AcDbCircle
 10
441.535604333039
 20
349.1351273789992
 30
0.0
 40
0.3
100
AcDbArc
 50
298.8707927848254
 51
0.0
  0
LINE
  5
15CC5
330
1F
100
AcDbEntity
  8
0
100
AcDbLine
 10
375.8465813606687
 20
311.9899643468515
 30
0.0
 11
375.8504500708484
 21
312.1100411149615
 31
0.0
  0
LINE
  5
15CC6
330
1F
100
AcDbEntity
  8
0
100
AcDbLine
 10
376.2548666825983
 20
307.9002905111514
 30
0.0
 11
376.2587353927786
 21
308.0203672792914
 31
0.0
  0
LINE
  5
15CC7
330
1F
100
AcDbEntity
  8
0
100
AcDbLine
 10
376.2547758758085
 20
307.9007349895015
 30
0.0
 11
375.8464905538785
 21
311.9904088252014
 31
0.0
  0
LINE
  5
15CC8
330
1F
100
AcDbEntity
  8
0
100
AcDbLine
 10
376.7032519282783
 20
306.4435316992915
 30
0.0
 11
376.5547845384883
 21
307.9306858213613
 31
0.0
  0
LINE
  5
15CC9
330
1F
100
AcDbEntity
  8
0
100
AcDbLine
 10
376.9150077150584
 20
304.6848302833914
 30
0.0
 11
376.8875412479383
 21
304.9599537959815
 31
0.0
  0
LINE
  5
15CCA
330
1F
100
AcDbEntity
  8
0
100
AcDbLine
 10
377.0302456638885
 20
306.4757025631914
 30
0.0
 11
377.0323542666285
 21
306.5434578582113
 31
0.0
  0
LINE
  5
15CCB
330
1F
100
AcDbEntity
  8
0
100
AcDbLine
 10
376.5548939434183
 20
307.9302067938714
 30
0.0
 11
376.5579150315886
 21
308.0252701004813
 31
0.0
  0
LINE
  5
15CCC
330
1F
100
AcDbEntity
  8
0
100
AcDbLine
 10
376.7033613332085
 20
306.4430526718013
 30
0.0
 11
376.7063824213784
 21
306.5381159784114
 31
0.0
  0
LINE
  5
15CCD
330
1F
100
AcDbEntity
  8
0
100
AcDbLine
 10
376.8876471934484
 20
304.9594899155814
 30
0.0
 11
376.8905727531286
 21
305.0515472678214
 31
0.0
  0
LINE
  5
15CCE
330
1F
100
AcDbEntity
  8
0
100
AcDbLine
 10
376.9150077150584
 20
304.6848302833914
 30
0.0
 11
376.9180392202184
 21
304.7764237552315
 31
0.0
  0
LINE
  5
15CCF
330
1F
100
AcDbEntity
  8
0
100
AcDbLine
 10
377.3520363321584
 20
304.2482774350914
 30
0.0
 11
377.2398224396985
 21
304.3027900135014
 31
0.0
  0
LINE
  5
15CD0
330
1F
100
AcDbEntity
  8
0
100
AcDbLine
 10
377.1378355070983
 20
305.3972806822314
 30
0.0
 11
377.0301270383384
 21
306.4761646952215
 31
0.0
  0
LINE
  5
15CD1
330
1F
100
AcDbEntity
  8
0
100
AcDbLine
 10
378.1967457074383
 20
295.7870723776915
 30
0.0
 11
377.3368628596787
 21
304.4002656405115
 31
0.0
  0
LINE
  5
15CD2
330
1F
100
AcDbEntity
  8
0
100
AcDbLine
 10
376.7560201848585
 20
312.8457517378913
 30
0.0
 11
376.4975419982683
 21
315.4348516149115
 31
0.0
  0
LINE
  5
15CD3
330
1F
100
AcDbEntity
  8
0
100
AcDbLine
 10
377.3368628596787
 20
304.4002656405115
 30
0.0
 11
377.3388178711784
 21
304.4593340836014
 31
0.0
  0
LINE
  5
15CD4
330
1F
100
AcDbEntity
  8
0
100
AcDbLine
 10
377.6517955754384
 20
312.9328819733515
 30
0.0
 11
377.3930902450183
 21
315.5242570831614
 31
0.0
  0
LINE
  5
15CD5
330
1F
100
AcDbEntity
  8
0
100
AcDbLine
 10
379.6117119372884
 20
295.9283330175114
 30
0.0
 11
378.7518290895282
 21
304.5415262803313
 31
0.0
  0
LINE
  5
15CD6
330
1F
100
AcDbEntity
  8
0
100
AcDbLine
 10
378.7497561649485
 20
305.5588734936715
 30
0.0
 11
378.6421138824883
 21
306.6370945380413
 31
0.0
  0
LINE
  5
15CD7
330
1F
100
AcDbEntity
  8
0
100
AcDbLine
 10
379.1091009195885
 20
304.9038736805814
 30
0.0
 11
379.0816344524683
 21
305.1789971931715
 31
0.0
  0
LINE
  5
15CD8
330
1F
100
AcDbEntity
  8
0
100
AcDbLine
 10
378.9689889925483
 20
306.6697275339414
 30
0.0
 11
378.8205216027584
 21
308.1568816560114
 31
0.0
  0
LINE
  5
15CD9
330
1F
100
AcDbEntity
  8
0
100
AcDbLine
 10
378.9658584994484
 20
306.5751432548515
 30
0.0
 11
378.9688795875887
 21
306.6702065614615
 31
0.0
  0
LINE
  5
15CDA
330
1F
100
AcDbEntity
  8
0
100
AcDbLine
 10
379.1165707484385
 20
308.0672001981115
 30
0.0
 11
379.1204394586484
 21
308.1872769662215
 31
0.0
  0
LINE
  5
15CDB
330
1F
100
AcDbEntity
  8
0
100
AcDbLine
 10
379.1060694143987
 20
304.8122802087115
 30
0.0
 11
379.1091009195885
 21
304.9038736805814
 31
0.0
  0
LINE
  5
15CDC
330
1F
100
AcDbEntity
  8
0
100
AcDbLine
 10
378.7670025620084
 20
304.3895380749114
 30
0.0
 11
378.8662248068683
 21
304.4651590044713
 31
0.0
  0
LINE
  5
15CDD
330
1F
100
AcDbEntity
  8
0
100
AcDbLine
 10
379.1205302654085
 20
308.1868324878714
 30
0.0
 11
378.7122449434784
 21
312.2765063235714
 31
0.0
  0
ARC
  5
15CDE
330
1F
100
AcDbEntity
  8
0
100
AcDbCircle
 10
380.8731659184583
 20
296.5355594602315
 30
0.0
 40
2.787982862039998
100
AcDbArc
 50
219.7993399256132
 51
221.2499661458898
  0
ARC
  5
15CDF
330
1F
100
AcDbEntity
  8
0
100
AcDbCircle
 10
376.8563320269286
 20
296.1238074596514
 30
0.0
 40
2.769400573229999
100
AcDbArc
 50
330.1492903574923
 51
330.87130616029
  0
ARC
  5
15CE0
330
1F
100
AcDbEntity
  8
0
100
AcDbCircle
 10
379.0345371909284
 20
295.8707726065914
 30
0.0
 40
0.8419621714499998
100
AcDbArc
 50
185.7052492981042
 51
193.9651342709936
  0
ARC
  5
15CE1
330
1F
100
AcDbEntity
  8
0
100
AcDbCircle
 10
378.7758457183183
 20
295.8448114444614
 30
0.0
 40
0.8400286835400001
100
AcDbArc
 50
350.694171722309
 51
5.706178374795767
  0
ARC
  5
15CE2
330
1F
100
AcDbEntity
  8
0
100
AcDbCircle
 10
379.0310712542683
 20
295.8699650892413
 30
0.0
 40
0.8384027635799997
100
AcDbArc
 50
193.9716336835013
 51
201.99507179228
  0
ARC
  5
15CE3
330
1F
100
AcDbEntity
  8
0
100
AcDbCircle
 10
378.7795533875084
 20
295.8443119169214
 30
0.0
 40
0.8362889990699999
100
AcDbArc
 50
349.4034516787908
 51
350.6864614148018
  0
ARC
  5
15CE4
330
1F
100
AcDbEntity
  8
0
100
AcDbCircle
 10
376.9453169045685
 20
315.4795577517714
 30
0.0
 40
0.4499950957800002
100
AcDbArc
 50
5.700710793494417
 51
185.699626099281
  0
SPLINE
  5
15CE5
330
1F
100
AcDbEntity
  8
0
100
AcDbSpline
210
0.0
220
0.0
230
1.0
 70
     8
 71
     3
 72
    11
 73
     7
 74
     0
 42
0.0000000001
 43
0.0000000001
 40
0.0
 40
0.0
 40
0.0
 40
0.0
 40
0.2198464658
 40
0.4572101282000001
 40
0.7165294326999999
 40
1.0
 40
1.0
 40
1.0
 40
1.0
 10
379.1060694143987
 20
304.8122802087115
 30
0.0
 10
379.1009535987584
 20
304.7810861627514
 30
0.0
 10
379.0817547104384
 20
304.7174342467014
 30
0.0
 10
379.0306541183684
 20
304.6272047099815
 30
0.0
 10
378.9578647443586
 20
304.5411479086314
 30
0.0
 10
378.8986322865885
 20
304.4898684992515
 30
0.0
 10
378.8662140743686
 20
304.4651631411114
 30
0.0
  0
SPLINE
  5
15CE6
330
1F
100
AcDbEntity
  8
0
100
AcDbSpline
210
0.0
220
0.0
230
1.0
 70
     8
 71
     3
 72
    11
 73
     7
 74
     0
 42
0.0000000001
 43
0.0000000001
 40
0.0
 40
0.0
 40
0.0
 40
0.0
 40
0.2178558204
 40
0.4544426513000002
 40
0.7144797506
 40
1.0
 40
1.0
 40
1.0
 40
1.0
 10
378.9658584994484
 20
306.5751432548515
 30
0.0
 10
378.9602402559585
 20
306.5408856197515
 30
0.0
 10
378.9384840547484
 20
306.4708545886314
 30
0.0
 10
378.8800035096285
 20
306.3722347339015
 30
0.0
 10
378.7965907262684
 20
306.2787762254514
 30
0.0
 10
378.7288789254285
 20
306.2236984172214
 30
0.0
 10
378.6918368191184
 20
306.1972803826614
 30
0.0
  0
SPLINE
  5
15CE7
330
1F
100
AcDbEntity
  8
0
100
AcDbSpline
210
0.0
220
0.0
230
1.0
 70
     8
 71
     3
 72
    14
 73
    10
 74
     0
 42
0.0000000001
 43
0.0000000001
 40
0.0
 40
0.0
 40
0.0
 40
0.0
 40
0.2916530436
 40
0.4254258625
 40
0.5514673774000001
 40
0.6705231156
 40
0.7838021588
 40
0.8929679863
 40
1.0
 40
1.0
 40
1.0
 40
1.0
 10
377.0707354309185
 20
306.0341231561214
 30
0.0
 10
377.0196244671585
 20
306.0568292404014
 30
0.0
 10
376.9472762625284
 20
306.0958934805115
 30
0.0
 10
376.8632291081385
 20
306.1603682567814
 30
0.0
 10
376.8109830566983
 20
306.2111278613814
 30
0.0
 10
376.7682627792285
 20
306.2652398274415
 30
0.0
 10
376.7355389170185
 20
306.3222676600315
 30
0.0
 10
376.7131711262083
 20
306.3816560688715
 30
0.0
 10
376.7053859042085
 20
306.4226282260915
 30
0.0
 10
376.7033225103284
 20
306.4430487813714
 30
0.0
  0
SPLINE
  5
15CE8
330
1F
100
AcDbEntity
  8
0
100
AcDbSpline
210
0.0
220
0.0
230
1.0
 70
     8
 71
     3
 72
    11
 73
     7
 74
     0
 42
0.0000000001
 43
0.0000000001
 40
0.0
 40
0.0
 40
0.0
 40
0.0
 40
0.2245724228
 40
0.4638291185
 40
0.7215277762000003
 40
1.0
 40
1.0
 40
1.0
 40
1.0
 10
379.1165707484385
 20
308.0672001981115
 30
0.0
 10
379.1108567297383
 20
308.0323585668714
 30
0.0
 10
379.0909628291085
 20
307.9615597341115
 30
0.0
 10
379.0394513046883
 20
307.8598327787513
 30
0.0
 10
378.9665490394184
 20
307.7615072554615
 30
0.0
 10
378.9069369456287
 20
307.7015011033613
 30
0.0
 10
378.8742883455885
 20
307.6723316347615
 30
0.0
  0
SPLINE
  5
15CE9
330
1F
100
AcDbEntity
  8
0
100
AcDbSpline
210
0.0
220
0.0
230
1.0
 70
     8
 71
     3
 72
    13
 73
     9
 74
     0
 42
0.0000000001
 43
0.0000000001
 40
0.0
 40
0.0
 40
0.0
 40
0.0
 40
0.2838488541
 40
0.5407421477000001
 40
0.6607798121
 40
0.7764190388
 40
0.8889910497999997
 40
1.0
 40
1.0
 40
1.0
 40
1.0
 10
376.5960346309185
 20
307.4461489168915
 30
0.0
 10
376.5480179800484
 20
307.4744280516715
 30
0.0
 10
376.4603632664984
 20
307.5353572183914
 30
0.0
 10
376.3694472783884
 20
307.6294521744713
 30
0.0
 10
376.3158112854885
 20
307.7101968742914
 30
0.0
 10
376.2855605405982
 20
307.7717423941913
 30
0.0
 10
376.2646263722083
 20
307.8351865664215
 30
0.0
 10
376.2570221291986
 20
307.8786040519613
 30
0.0
 10
376.2548399581783
 20
307.9002878365314
 30
0.0
  0
SPLINE
  5
15CEA
330
1F
100
AcDbEntity
  8
0
100
AcDbSpline
210
0.0
220
0.0
230
1.0
 70
     8
 71
     3
 72
    14
 73
    10
 74
     0
 42
0.0000000001
 43
0.0000000001
 40
0.0
 40
0.0
 40
0.0
 40
0.0
 40
0.2892978332
 40
0.4224158972
 40
0.5482469514
 40
0.6675527099
 40
0.7815257724000002
 40
0.8917318956999999
 40
1.0
 40
1.0
 40
1.0
 40
1.0
 10
377.2398272812183
 20
304.3027930949815
 30
0.0
 10
377.1944300776784
 20
304.3248504265914
 30
0.0
 10
377.1303141593685
 20
304.3623221905913
 30
0.0
 10
377.0561819543984
 20
304.4230101148015
 30
0.0
 10
377.0100950127885
 20
304.4704747875715
 30
0.0
 10
376.9724479390784
 20
304.5207904978614
 30
0.0
 10
376.9435972526985
 20
304.5735680355714
 30
0.0
 10
376.9238381786987
 20
304.6283484597414
 30
0.0
 10
376.9169020886684
 20
304.6660366084014
 30
0.0
 10
376.9150289236184
 20
304.6848323995614
 30
0.0
  0
SPLINE
  5
15CEB
330
1F
100
AcDbEntity
  8
0
100
AcDbSpline
210
0.0
220
0.0
230
1.0
 70
     8
 71
     3
 72
    15
 73
    11
 74
     0
 42
0.0000000001
 43
0.0000000001
 40
0.0
 40
0.0
 40
0.0
 40
0.0
 40
0.1249969923
 40
0.2500297631
 40
0.3750373116
 40
0.5001320761
 40
0.6251957989
 40
0.7501080255
 40
0.8750380811999999
 40
1.0
 40
1.0
 40
1.0
 40
1.0
 10
378.7770460240786
 20
294.6973157674015
 30
0.0
 10
378.7924540560884
 20
294.6797515119114
 30
0.0
 10
378.8278427929483
 20
294.6483566702213
 30
0.0
 10
378.8906284280683
 20
294.6157201629415
 30
0.0
 10
378.9593491251584
 20
294.5988170546814
 30
0.0
 10
379.0300639473886
 20
294.5979568359113
 30
0.0
 10
379.0991872031383
 20
294.6128095347414
 30
0.0
 10
379.1631632456383
 20
294.6429609295914
 30
0.0
 10
379.2182118714584
 20
294.6873516842215
 30
0.0
 10
379.2466771202685
 20
294.7251034246015
 30
0.0
 10
379.2583054014285
 20
294.7453614423415
 30
0.0
  0
SPLINE
  5
15CEC
330
1F
100
AcDbEntity
  8
0
100
AcDbSpline
210
0.0
220
0.0
230
1.0
 70
     8
 71
     3
 72
     9
 73
     5
 74
     0
 42
0.0000000001
 43
0.0000000001
 40
0.0
 40
0.0
 40
0.0
 40
0.0
 40
0.4904723453
 40
1.0
 40
1.0
 40
1.0
 40
1.0
 10
379.2754825099784
 20
294.7757382939713
 30
0.0
 10
379.3530264210285
 20
294.9148895878614
 30
0.0
 10
379.4870262749084
 20
295.2125935670815
 30
0.0
 10
379.5711381398084
 20
295.5278648551915
 30
0.0
 10
379.6015800458083
 20
295.6905286413416
 30
0.0
  0
SPLINE
  5
15CED
330
1F
100
AcDbEntity
  8
0
100
AcDbSpline
210
0.0
220
0.0
230
1.0
 70
     8
 71
     3
 72
    26
 73
    22
 74
     0
 42
0.0000000001
 43
0.0000000001
 40
0.0
 40
0.0
 40
0.0
 40
0.0
 40
0.0216901715
 40
0.0437847444
 40
0.0666609997
 40
0.0906398682
 40
0.1159619594
 40
0.1427790658
 40
0.2011214401
 40
0.2657087297
 40
0.3357561385999999
 40
0.4099701897
 40
0.486726058
 40
0.5642147184000002
 40
0.6405793977
 40
0.7140413281999999
 40
0.7830311690000002
 40
0.8463445768999998
 40
0.9033250217
 40
0.9541501890000001
 40
1.0
 40
1.0
 40
1.0
 40
1.0
 10
379.0815661022684
 20
305.1794648409714
 30
0.0
 10
379.0796350662887
 20
305.1985755049315
 30
0.0
 10
379.0724706824684
 20
305.2369014557515
 30
0.0
 10
379.0520547184185
 20
305.2925534201814
 30
0.0
 10
379.0222519097085
 20
305.3461113889314
 30
0.0
 10
378.9833716924186
 20
305.3970920794914
 30
0.0
 10
378.9358076395184
 20
305.4450938454416
 30
0.0
 10
378.8592855426284
 20
305.5063479069714
 30
0.0
 10
378.7433052541484
 20
305.5723761011214
 30
0.0
 10
378.5825285568285
 20
305.6319608854614
 30
0.0
 10
378.4015272671384
 20
305.6723338275414
 30
0.0
 10
378.2063991918583
 20
305.6921586514614
 30
0.0
 10
378.0037147730384
 20
305.6907764305313
 30
0.0
 10
377.8003782468887
 20
305.6682378730914
 30
0.0
 10
377.6033175587386
 20
305.6253157367815
 30
0.0
 10
377.4192295303485
 20
305.5634711628115
 30
0.0
 10
377.2543188321284
 20
305.4847650915115
 30
0.0
 10
377.1140978963986
 20
305.3917442664114
 30
0.0
 10
377.0031317761783
 20
305.2871927947915
 30
0.0
 10
376.9253863251586
 20
305.1740435977014
 30
0.0
 10
376.8971438240085
 20
305.0916148351614
 30
0.0
 10
376.8905727531286
 20
305.0515472678214
 30
0.0
  0
SPLINE
  5
15CEE
330
1F
100
AcDbEntity
  8
0
100
AcDbSpline
210
0.0
220
0.0
230
1.0
 70
     8
 71
     3
 72
    28
 73
    24
 74
     0
 42
0.0000000001
 43
0.0000000001
 40
0.0
 40
0.0
 40
0.0
 40
0.0
 40
0.0216824631
 40
0.0437683299
 40
0.0666373259
 40
0.090611198
 40
0.1159247671
 40
0.1427343343
 40
0.2010578249
 40
0.2656281415
 40
0.3356595461
 40
0.4098568492
 40
0.4865957765
 40
0.5640699370000001
 40
0.6404219357000001
 40
0.7138709459000001
 40
0.7828479290000001
 40
0.8461510070999999
 40
0.903124532
 40
0.9292908981999998
 40
0.9540283503999999
 40
0.9775190697999999
 40
1.0
 40
1.0
 40
1.0
 40
1.0
 10
378.7121808611083
 20
312.2769534765715
 30
0.0
 10
378.7096690116884
 20
312.3019132075314
 30
0.0
 10
378.7003217093384
 20
312.3519684310314
 30
0.0
 10
378.6736841044185
 20
312.4246587522713
 30
0.0
 10
378.6347878249785
 20
312.4946265327114
 30
0.0
 10
378.5840164919084
 20
312.5612192622714
 30
0.0
 10
378.5219266599885
 20
312.6239490657714
 30
0.0
 10
378.4219834469684
 20
312.7039516036314
 30
0.0
 10
378.2705302900483
 20
312.7902349068715
 30
0.0
 10
378.0605422417786
 20
312.8680849816614
 30
0.0
 10
377.8241290666484
 20
312.9208350127014
 30
0.0
 10
377.5692579348584
 20
312.9467428236714
 30
0.0
 10
377.3045119434585
 20
312.9449611444615
 30
0.0
 10
377.0389064620483
 20
312.9155441818316
 30
0.0
 10
376.7814921345284
 20
312.8594927321515
 30
0.0
 10
376.5410311039783
 20
312.7787133689813
 30
0.0
 10
376.3256025745187
 20
312.6758987101015
 30
0.0
 10
376.1424681467683
 20
312.5544413605013
 30
0.0
 10
376.0182828247786
 20
312.4374448321014
 30
0.0
 10
375.9425862559784
 20
312.3378904690015
 30
0.0
 10
375.8990469203384
 20
312.2633601892314
 30
0.0
 10
375.8676018210883
 20
312.1875586210614
 30
0.0
 10
375.8546594073584
 20
312.1357078407113
 30
0.0
 10
375.8504500708484
 20
312.1100411149615
 30
0.0
  0
SPLINE
  5
15CEF
330
1F
100
AcDbEntity
  8
0
100
AcDbSpline
210
0.0
220
0.0
230
1.0
 70
     8
 71
     3
 72
     9
 73
     5
 74
     0
 42
0.0000000001
 43
0.0000000001
 40
0.0
 40
0.0
 40
0.0
 40
0.0
 40
0.5088685774
 40
1.0
 40
1.0
 40
1.0
 40
1.0
 10
378.2536906211985
 20
295.5559644952014
 30
0.0
 10
378.3133490845785
 20
295.4083219335714
 30
0.0
 10
378.4519851459283
 20
295.1262785050914
 30
0.0
 10
378.6328047917684
 20
294.8690457784015
 30
0.0
 10
378.7311840620084
 20
294.7509692647614
 30
0.0
  0
SPLINE
  5
15CF0
330
1F
100
AcDbEntity
  8
0
100
AcDbSpline
210
0.0
220
0.0
230
1.0
 70
     8
 71
     3
 72
    24
 73
    20
 74
     0
 42
0.0000000001
 43
0.0000000001
 40
0.0
 40
0.0
 40
0.0
 40
0.0
 40
0.0217001292
 40
0.0438062805
 40
0.0905426595
 40
0.1425878243
 40
0.2009236552
 40
0.2655137009
 40
0.3355688983
 40
0.4097933820000001
 40
0.4865670772
 40
0.5640755020000002
 40
0.6404646874000001
 40
0.7139499305000001
 40
0.7829623985
 40
0.8462982173
 40
0.9032946803999999
 40
0.9541524711
 40
1.0
 40
1.0
 40
1.0
 40
1.0
 10
378.7518011083784
 20
304.5415234865214
 30
0.0
 10
378.7505695287884
 20
304.5538545680813
 30
0.0
 10
378.7459807277685
 20
304.5785891881614
 30
0.0
 10
378.7282001129386
 20
304.6273592983914
 30
0.0
 10
378.6891707100886
 20
304.6856052241615
 30
0.0
 10
378.6211930025085
 20
304.7452963621315
 30
0.0
 10
378.5339330441084
 20
304.7950951209113
 30
0.0
 10
378.4302320465386
 20
304.8335643138415
 30
0.0
 10
378.3135118268685
 20
304.8596243884913
 30
0.0
 10
378.1876597368285
 20
304.8724534108314
 30
0.0
 10
378.0569259329086
 20
304.8715849015914
 30
0.0
 10
377.9257621261184
 20
304.8570658201013
 30
0.0
 10
377.7986376689083
 20
304.8294111309715
 30
0.0
 10
377.6798810058882
 20
304.7895261614814
 30
0.0
 10
377.5734999422685
 20
304.7387545013215
 30
0.0
 10
377.4830233651784
 20
304.6787841474414
 30
0.0
 10
377.4114245579083
 20
304.6113375408414
 30
0.0
 10
377.3612981788183
 20
304.5383349212214
 30
0.0
 10
377.3430551798985
 20
304.4851713717714
 30
0.0
 10
377.3388178711784
 20
304.4593340836014
 30
0.0
  0
SPLINE
  5
15CF1
330
1F
100
AcDbEntity
  8
0
100
AcDbSpline
210
0.0
220
0.0
230
1.0
 70
     8
 71
     3
 72
    26
 73
    22
 74
     0
 42
0.0000000001
 43
0.0000000001
 40
0.0
 40
0.0
 40
0.0
 40
0.0
 40
0.0216902219
 40
0.0437818711
 40
0.0666527439
 40
0.0906244632
 40
0.1159384774
 40
0.1427471843
 40
0.2010735991
 40
0.2656484011
 40
0.3356881884
 40
0.4098998357000001
 40
0.4866581565
 40
0.5641533167000003
 40
0.6405274345000001
 40
0.7140004491
 40
0.7830016842000001
 40
0.8463255878
 40
0.9033146568999999
 40
0.954146047
 40
1.0
 40
1.0
 40
1.0
 40
1.0
 10
379.1090797110284
 20
304.9038715644114
 30
0.0
 10
379.1071745627383
 20
304.9229882831215
 30
0.0
 10
379.1000616572385
 20
304.9613283767214
 30
0.0
 10
379.0797152486084
 20
305.0170095580615
 30
0.0
 10
379.0499743937382
 20
305.0705991081715
 30
0.0
 10
379.0111492153183
 20
305.1216134680015
 30
0.0
 10
378.9636323498083
 20
305.1696497615814
 30
0.0
 10
378.8871641374185
 20
305.2309533618114
 30
0.0
 10
378.7712283548085
 20
305.2970443409515
 30
0.0
 10
378.6104781946483
 20
305.3566981244815
 30
0.0
 10
378.4294773977384
 20
305.3971348488714
 30
0.0
 10
378.2343265377585
 20
305.4170155599414
 30
0.0
 10
378.0315999171883
 20
305.4156792879714
 30
0.0
 10
377.8282065893386
 20
305.3931752974313
 30
0.0
 10
377.6310798933583
 20
305.3502754609314
 30
0.0
 10
377.4469223105985
 20
305.2884408832913
 30
0.0
 10
377.2819440310483
 20
305.2097332487514
 30
0.0
 10
377.1416624627684
 20
305.1167007660414
 30
0.0
 10
377.0306469016484
 20
305.0121292760514
 30
0.0
 10
376.9528665029984
 20
304.8989536030014
 30
0.0
 10
376.9246120462785
 20
304.8165020247115
 30
0.0
 10
376.9180392202184
 20
304.7764237552315
 30
0.0
  0
SPLINE
  5
15CF2
330
1F
100
AcDbEntity
  8
0
100
AcDbSpline
210
0.0
220
0.0
230
1.0
 70
     8
 71
     3
 72
    24
 73
    20
 74
     0
 42
0.0000000001
 43
0.0000000001
 40
0.0
 40
0.0
 40
0.0
 40
0.0
 40
0.021697555
 40
0.0438020037
 40
0.0905514598
 40
0.1426216861
 40
0.200981365
 40
0.2655846423
 40
0.3356508653
 40
0.4098815104
 40
0.4866500075
 40
0.5641524677000001
 40
0.6405292807000002
 40
0.7139994491000003
 40
0.7829996348999999
 40
0.8463224756
 40
0.903308114
 40
0.9541486872
 40
1.0
 40
1.0
 40
1.0
 40
1.0
 10
378.6420443008185
 20
306.6375615934914
 30
0.0
 10
378.6406174936185
 20
306.6516022298214
 30
0.0
 10
378.6353394200085
 20
306.6797624057214
 30
0.0
 10
378.6149725771486
 20
306.7352733412914
 30
0.0
 10
378.5704247421883
 20
306.8015708121714
 30
0.0
 10
378.4929117361482
 20
306.8695189988515
 30
0.0
 10
378.3934347928184
 20
306.9261595255915
 30
0.0
 10
378.2752762518285
 20
306.9699318456414
 30
0.0
 10
378.1423039578585
 20
306.9995694990715
 30
0.0
 10
377.9989472728185
 20
307.0141090308414
 30
0.0
 10
377.8500502759484
 20
307.0130849249815
 30
0.0
 10
377.7006755485183
 20
306.9965253771114
 30
0.0
 10
377.5559174599184
 20
306.9649769729514
 30
0.0
 10
377.4206916736484
 20
306.9195330713514
 30
0.0
 10
377.2995519102885
 20
306.8617111336915
 30
0.0
 10
377.1965471782485
 20
306.7933789340515
 30
0.0
 10
377.1150318436184
 20
306.7165677578215
 30
0.0
 10
377.0579371293286
 20
306.6334383524815
 30
0.0
 10
377.0371808367884
 20
306.5728882094814
 30
0.0
 10
377.0323542666285
 20
306.5434578582113
 30
0.0
  0
SPLINE
  5
15CF3
330
1F
100
AcDbEntity
  8
0
100
AcDbSpline
210
0.0
220
0.0
230
1.0
 70
     8
 71
     3
 72
    26
 73
    22
 74
     0
 42
0.0000000001
 43
0.0000000001
 40
0.0
 40
0.0
 40
0.0
 40
0.0
 40
0.0216901715
 40
0.0437847444
 40
0.0666609997
 40
0.0906398682
 40
0.1159619594
 40
0.1427790658
 40
0.2011214401
 40
0.2657087297
 40
0.3357561385999999
 40
0.4099701897
 40
0.486726058
 40
0.5642147184000002
 40
0.6405793977
 40
0.7140413281999999
 40
0.7830311690000002
 40
0.8463445768999998
 40
0.9033250217
 40
0.9541501890000001
 40
1.0
 40
1.0
 40
1.0
 40
1.0
 10
378.9689184104986
 20
306.6702104518914
 30
0.0
 10
378.9669243202784
 20
306.6899451375414
 30
0.0
 10
378.9595259974183
 20
306.7295225479914
 30
0.0
 10
378.9384433896284
 20
306.7869917194014
 30
0.0
 10
378.9076674279884
 20
306.8422985197914
 30
0.0
 10
378.8675176525785
 20
306.8949438859914
 30
0.0
 10
378.8184004877385
 20
306.9445130565114
 30
0.0
 10
378.7393797101383
 20
307.0077672506815
 30
0.0
 10
378.6196123102187
 20
307.0759514674915
 30
0.0
 10
378.4535857615184
 20
307.1374818774415
 30
0.0
 10
378.2666742256485
 20
307.1791731196614
 30
0.0
 10
378.0651746213686
 20
307.1996452847514
 30
0.0
 10
377.8558719358184
 20
307.1982179301114
 30
0.0
 10
377.6458958496283
 20
307.1749434197514
 30
0.0
 10
377.4424005267885
 20
307.1306197443113
 30
0.0
 10
377.2523014607084
 20
307.0667557556815
 30
0.0
 10
377.0820059233786
 20
306.9854796902215
 30
0.0
 10
376.9372063448384
 20
306.8894214504115
 30
0.0
 10
376.8226168411187
 20
306.7814560531914
 30
0.0
 10
376.7423327630984
 20
306.6646121884314
 30
0.0
 10
376.7131680578684
 20
306.5794918744615
 30
0.0
 10
376.7063824213784
 20
306.5381159784114
 30
0.0
  0
SPLINE
  5
15CF4
330
1F
100
AcDbEntity
  8
0
100
AcDbSpline
210
0.0
220
0.0
230
1.0
 70
     8
 71
     3
 72
    26
 73
    22
 74
     0
 42
0.0000000001
 43
0.0000000001
 40
0.0
 40
0.0
 40
0.0
 40
0.0
 40
0.0216901715
 40
0.0437847444
 40
0.0666609997
 40
0.0906398682
 40
0.1159619594
 40
0.1427790658
 40
0.2011214401
 40
0.2657087297
 40
0.3357561385999999
 40
0.4099701897
 40
0.486726058
 40
0.5642147184000002
 40
0.6405793977
 40
0.7140413281999999
 40
0.7830311690000002
 40
0.8463445768999998
 40
0.9033250217
 40
0.9541501890000001
 40
1.0
 40
1.0
 40
1.0
 40
1.0
 10
378.8204510206784
 20
308.1573645739614
 30
0.0
 10
378.8184569304583
 20
308.1770992596115
 30
0.0
 10
378.8110586076284
 20
308.2166766700614
 30
0.0
 10
378.7899759998083
 20
308.2741458414715
 30
0.0
 10
378.7592000381683
 20
308.3294526418614
 30
0.0
 10
378.7190502627883
 20
308.3820980080613
 30
0.0
 10
378.6699330979484
 20
308.4316671785814
 30
0.0
 10
378.5909123203485
 20
308.4949213727215
 30
0.0
 10
378.4711449203984
 20
308.5631055895614
 30
0.0
 10
378.3051183717286
 20
308.6246359995113
 30
0.0
 10
378.1182068358583
 20
308.6663272417315
 30
0.0
 10
377.9167072315784
 20
308.6867994068214
 30
0.0
 10
377.7074045460283
 20
308.6853720521814
 30
0.0
 10
377.4974284598385
 20
308.6620975418215
 30
0.0
 10
377.2939331369983
 20
308.6177738663814
 30
0.0
 10
377.1038340709184
 20
308.5539098777514
 30
0.0
 10
376.9335385335885
 20
308.4726338122913
 30
0.0
 10
376.7887389550483
 20
308.3765755724815
 30
0.0
 10
376.6741494513285
 20
308.2686101752615
 30
0.0
 10
376.5938653733085
 20
308.1517663105014
 30
0.0
 10
376.5647006680485
 20
308.0666459965314
 30
0.0
 10
376.5579150315886
 20
308.0252701004813
 30
0.0
  0
SPLINE
  5
15CF5
330
1F
100
AcDbEntity
  8
0
100
AcDbSpline
210
0.0
220
0.0
230
1.0
 70
     8
 71
     3
 72
    28
 73
    24
 74
     0
 42
0.0000000001
 43
0.0000000001
 40
0.0
 40
0.0
 40
0.0
 40
0.0
 40
0.0216824631
 40
0.0437683299
 40
0.0666373259
 40
0.090611198
 40
0.1159247671
 40
0.1427343343
 40
0.2010578249
 40
0.2656281415
 40
0.3356595461
 40
0.4098568492
 40
0.4865957765
 40
0.5640699370000001
 40
0.6404219357000001
 40
0.7138709459000001
 40
0.7828479290000001
 40
0.8461510070999999
 40
0.903124532
 40
0.9292908981999998
 40
0.9540283503999999
 40
0.9775190697999999
 40
1.0
 40
1.0
 40
1.0
 40
1.0
 10
379.1204661830384
 20
308.1872796408714
 30
0.0
 10
379.1179543336184
 20
308.2122393718313
 30
0.0
 10
379.1086070312683
 20
308.2622945953614
 30
0.0
 10
379.0819694263483
 20
308.3349849166014
 30
0.0
 10
379.0430731469083
 20
308.4049526970414
 30
0.0
 10
378.9923018138385
 20
308.4715454266015
 30
0.0
 10
378.9302119819185
 20
308.5342752300714
 30
0.0
 10
378.8302687688985
 20
308.6142777679614
 30
0.0
 10
378.6788156119785
 20
308.7005610711714
 30
0.0
 10
378.4688275637384
 20
308.7784111459915
 30
0.0
 10
378.2324143885785
 20
308.8311611770313
 30
0.0
 10
377.9775432567884
 20
308.8570689879713
 30
0.0
 10
377.7127972653886
 20
308.8552873087615
 30
0.0
 10
377.4471917839785
 20
308.8258703461314
 30
0.0
 10
377.1897774564584
 20
308.7698188964815
 30
0.0
 10
376.9493164259084
 20
308.6890395332813
 30
0.0
 10
376.7338878964783
 20
308.5862248744013
 30
0.0
 10
376.5507534686985
 20
308.4647675248315
 30
0.0
 10
376.4265681467084
 20
308.3477709964314
 30
0.0
 10
376.3508715779386
 20
308.2482166333014
 30
0.0
 10
376.3073322422985
 20
308.1736863535314
 30
0.0
 10
376.2758871430484
 20
308.0978847853614
 30
0.0
 10
376.2629447293184
 20
308.0460340050115
 30
0.0
 10
376.2587353927786
 20
308.0203672792914
 30
0.0
  0
DIMENSION
  5
16056
330
1F
100
AcDbEntity
  8
DIM
100
AcDbDimension
  2
*D52
 10
418.3356043330393
 20
344.5564219919944
 30
0.0
 11
415.8356043330391
 21
346.0564219919943
 31
0.0
 70
    32
 71
     5
 42
5.0
 73
     0
 74
     0
 75
     0
  3
01
100
AcDbAlignedDimension
 13
413.3356043330393
 23
349.1616453934993
 33
0.0
 14
418.3356043330393
 24
347.5616453934993
 34
0.0
100
AcDbRotatedDimension
  0
DIMENSION
  5
16063
330
1F
100
AcDbEntity
  8
DIM
100
AcDbDimension
  2
*D53
 10
441.8342595485161
 20
341.7023781152916
 30
0.0
 11
427.5849319407775
 21
343.2023781152917
 31
0.0
 70
    32
 71
     5
 42
28.49865521547684
 73
     0
 74
     0
 75
     0
  3
01
100
AcDbAlignedDimension
 13
413.3356043330393
 23
346.5090336927468
 33
0.0
 14
441.8342595485161
 24
349.2165370272333
 34
0.0
100
AcDbRotatedDimension
  0
DIMENSION
  5
16070
330
1F
100
AcDbEntity
  8
DIM
100
AcDbDimension
  2
*D54
 10
410.2323985591584
 20
348.6616453934993
 30
0.0
 11
408.7323985591583
 21
344.9830739649279
 31
0.0
 70
    32
 71
     5
 42
-1.0
 73
     0
 74
     0
 75
     0
  3
01
100
AcDbAlignedDimension
 13
414.4876808475681
 23
349.6616453934993
 33
0.0
 14
414.4876808475681
 24
348.6616453934993
 34
0.0
 50
90.0
100
AcDbRotatedDimension
  0
DIMENSION
  5
1607E
330
1F
100
AcDbEntity
  8
DIM
100
AcDbDimension
  2
*D55
 10
446.9025652903845
 20
348.3716453934992
 30
0.0
 11
445.4025652903846
 21
342.6216453934993
 31
0.0
 70
    32
  1
%%C<>
 71
     5
 42
1.58000000000004
 73
     0
 74
     0
 75
     0
  3
01
100
AcDbAlignedDimension
 13
438.7767776458251
 23
349.9516453934992
 33
0.0
 14
438.7767776458251
 24
348.3716453934992
 34
0.0
 50
90.0
100
AcDbRotatedDimension
  0
DIMENSION
  5
16096
330
1F
100
AcDbEntity
  8
DIM
100
AcDbDimension
  2
*D56
 10
407.0593490471352
 20
347.5616453934993
 30
0.0
 11
405.559349047135
 21
341.8116453934993
 31
0.0
 70
    32
  1
%%C<>
 71
     5
 42
3.200000000000044
 73
     0
 74
     0
 75
     0
  3
01
100
AcDbAlignedDimension
 13
419.2097215984857
 23
350.7616453934992
 33
0.0
 14
419.2097215984857
 24
347.5616453934993
 34
0.0
 50
90.0
100
AcDbRotatedDimension
  0
LINE
  5
162AC
330
1F
100
AcDbEntity
  8
0
100
AcDbLine
 10
426.1525290226717
 20
347.4146513599938
 30
0.0
 11
426.1525140237201
 21
347.4145513599938
 31
0.0
  0
LWPOLYLINE
  5
162AD
330
1F
100
AcDbEntity
  8
0
100
AcDbPolyline
 90
        3
 70
     0
 43
0.0
 10
426.1525140226718
 20
347.4145513599938
 10
426.0939599259359
 20
347.6643437637949
 10
425.8867570675871
 20
348.5637111642822
  0
LWPOLYLINE
  5
162AE
330
1F
100
AcDbEntity
  8
0
100
AcDbPolyline
 90
        3
 70
     0
 43
0.0
 10
425.8868320226715
 20
349.7436613599938
 10
426.0642879964244
 20
350.5205981509226
 10
426.1518960225862
 20
350.9093613581959
  0
LINE
  5
162AF
330
1F
100
AcDbEntity
  8
0
100
AcDbLine
 10
427.5604070226719
 20
349.7495313599938
 30
0.0
 11
425.8868321591291
 21
349.7436613605537
 31
0.0
  0
LINE
  5
162B0
330
1F
100
AcDbEntity
  8
0
100
AcDbLine
 10
427.5604110226717
 20
349.7495313599938
 30
0.0
 11
427.5713250226718
 21
349.7503213599938
 31
0.0
  0
LINE
  5
162B1
330
1F
100
AcDbEntity
  8
0
100
AcDbLine
 10
427.5693540226717
 20
348.5702013599938
 30
0.0
 11
427.5585610226717
 21
348.5694313599938
 31
0.0
  0
LINE
  5
162B2
330
1F
100
AcDbEntity
  8
0
100
AcDbLine
 10
425.8867570226716
 20
348.5637113599937
 30
0.0
 11
427.5585588326014
 21
348.5694313592523
 31
0.0
  0
LINE
  5
162B3
330
1F
100
AcDbEntity
  8
0
100
AcDbLine
 10
426.1525140226718
 20
347.4145513599938
 30
0.0
 11
427.6379668741014
 21
348.1577412856777
 31
0.0
  0
LWPOLYLINE
  5
162B4
330
1F
100
AcDbEntity
  8
0
100
AcDbPolyline
 90
        5
 70
     0
 43
0.0
 10
427.558559022672
 20
348.5694313599938
 10
427.574572191993
 20
348.3895540386626
 10
427.594253891698
 20
348.2553901406707
 10
427.6163909035515
 20
348.1756068498394
 10
427.6397700093188
 20
348.1588713499901
  0
LINE
  5
162B5
330
1F
100
AcDbEntity
  8
0
100
AcDbLine
 10
427.6397730226717
 20
348.1588713599939
 30
0.0
 11
426.1524410226717
 21
347.4152013599939
 31
0.0
  0
LINE
  5
162B6
330
1F
100
AcDbEntity
  8
0
100
AcDbLine
 10
427.6404870226715
 20
350.1645513599938
 30
0.0
 11
426.1518961714259
 21
350.9093612855188
 31
0.0
  0
LWPOLYLINE
  5
162B7
330
1F
100
AcDbEntity
  8
0
100
AcDbPolyline
 90
        5
 70
     0
 43
0.0
 10
427.6427730226719
 20
350.1630713599938
 10
427.6190787285027
 20
350.1476730843163
 10
427.5963809026682
 20
350.0688276349444
 10
427.5762876383621
 20
349.9337190718927
 10
427.5604070287783
 20
349.7495314551758
  0
LWPOLYLINE
  5
162B8
330
1F
100
AcDbEntity
  8
0
100
AcDbPolyline
 90
        3
 70
     0
 43
0.0
 10
426.1516920226716
 20
350.9087713599938
 10
426.7871462642101
 20
350.5909816962921
 10
427.4967158196179
 20
350.2361214615478
  0
LINE
  5
162B9
330
1F
100
AcDbEntity
  8
0
100
AcDbLine
 10
427.4967160226712
 20
350.2361213599939
 30
0.0
 11
426.1517671571609
 21
350.9093212926197
 31
0.0
  0
LWPOLYLINE
  5
162BA
330
1F
100
AcDbEntity
  8
0
100
AcDbPolyline
 90
        3
 70
     0
 43
0.0
 10
427.6789520226714
 20
350.0618013599938
 10
427.6612705274557
 20
350.1318088464733
 10
427.6427730324829
 20
350.16307135461
  0
LWPOLYLINE
  5
162BB
330
1F
100
AcDbEntity
  8
0
100
AcDbPolyline
 90
        5
 70
     0
 43
0.0
 10
427.6397700226715
 20
348.1588713599939
 10
427.6495437852614
 20
348.1681676052672
 10
427.6591938917063
 20
348.1889163436246
 10
427.6686300608412
 20
348.2203750757611
 10
427.6777620115002
 20
348.2618013023717
  0
LWPOLYLINE
  5
162BC
330
1F
100
AcDbEntity
  8
0
100
AcDbPolyline
 90
        5
 70
     0
 43
0.0
 10
427.5693560226716
 20
348.5702113599939
 10
427.5834380672105
 20
348.4260935662338
 10
427.6002353922509
 20
348.3223313848471
 10
427.6192870292517
 20
348.2620766894099
 10
427.6401320096701
 20
348.2484813534985
  0
LWPOLYLINE
  5
162BD
330
1F
100
AcDbEntity
  8
0
100
AcDbPolyline
 90
        5
 70
     0
 43
0.0
 10
427.6414750226718
 20
350.0744213599939
 10
427.6210957438894
 20
350.0605471459658
 10
427.6021780271606
 20
349.9998401307494
 10
427.5853715597423
 20
349.8953987506836
 10
427.5713260288908
 20
349.7503214421075
  0
ENDSEC
  0
SECTION
  2
OBJECTS
  0
DICTIONARY
  5
C
330
0
100
AcDbDictionary
281
     1
  3
ACAD_COLOR
350
4FFE
  3
ACAD_GROUP
350
D
  3
ACAD_LAYOUT
350
1A
  3
ACAD_MATERIAL
350
4FE5
  3
ACAD_MLEADERSTYLE
350
5022
  3
ACAD_MLINESTYLE
350
17
  3
ACAD_PLOTSETTINGS
350
19
  3
ACAD_PLOTSTYLENAME
350
E
  3
ACAD_RENDER_PLOT_SETTINGS
350
6537
  3
ACAD_SCALELIST
350
5000
  3
ACAD_TABLESTYLE
350
4FE3
  3
ACAD_VISUALSTYLE
350
2A
  3
ACDB_RECOMPOSE_DATA
350
50EC
  3
AcDbVariableDictionary
350
5108
  3
ASE_INDEX_DICTIONARY
350
11ACE
  0
DICTIONARY
  5
50EE
330
8
100
AcDbDictionary
280
     1
281
     1
  0
DICTIONARY
  5
50B8
330
2
100
AcDbDictionary
280
     1
281
     1
  3
ACAD_LAYERFILTERS
360
15496
  3
ACAD_LAYERSTATES
360
50B9
  3
ACLYDICTIONARY
360
15495
  0
DICTIONARY
  5
50D0
330
10
100
AcDbDictionary
280
     1
281
     1
  3
ADSK_XREC_LAYER_RECONCILED
360
50D1
  0
DICTIONARY
  5
50D2
330
3B
100
AcDbDictionary
280
     1
281
     1
  3
ADSK_XREC_LAYER_RECONCILED
360
50D3
  0
DICTIONARY
  5
50AF
330
50AE
100
AcDbDictionary
280
     1
281
     1
  3
ADSK_XREC_LAYER_RECONCILED
360
50D4
  0
DICTIONARY
  5
1581E
330
1581D
100
AcDbDictionary
280
     1
281
     1
  0
DICTIONARY
  5
67C0
330
1F
100
AcDbDictionary
280
     1
281
     1
  3
ACAD_SORTENTS
360
67C1
  0
DICTIONARY
  5
16266
330
156B5
100
AcDbDictionary
280
     1
281
     1
  0
DICTIONARY
  5
162C9
330
161D1
100
AcDbDictionary
280
     1
281
     1
  3
ACAD_MTEXT_2008_RT
360
162CA
  0
DICTIONARY
  5
162CB
330
16215
100
AcDbDictionary
280
     1
281
     1
  3
ACAD_MTEXT_2008_RT
360
162CC
  0
DICTIONARY
  5
162CD
330
16216
100
AcDbDictionary
280
     1
281
     1
  3
ACAD_MTEXT_2008_RT
360
162CE
  0
DICTIONARY
  5
162CF
330
1623B
100
AcDbDictionary
280
     1
281
     1
  3
ACAD_MTEXT_2008_RT
360
162D0
  0
DICTIONARY
  5
162D1
330
1623E
100
AcDbDictionary
280
     1
281
     1
  3
ACAD_MTEXT_2008_RT
360
162D2
  0
DICTIONARY
  5
162D3
330
1623F
100
AcDbDictionary
280
     1
281
     1
  3
ACAD_MTEXT_2008_RT
360
162D4
  0
DICTIONARY
  5
162D5
330
16249
100
AcDbDictionary
280
     1
281
     1
  3
ACAD_MTEXT_2008_RT
360
162D6
  0
DICTIONARY
  5
162D7
330
1624A
100
AcDbDictionary
280
     1
281
     1
  3
ACAD_MTEXT_2008_RT
360
162D8
  0
DICTIONARY
  5
162D9
330
1624B
100
AcDbDictionary
280
     1
281
     1
  3
ACAD_MTEXT_2008_RT
360
162DA
  0
DICTIONARY
  5
162DB
330
16259
100
AcDbDictionary
280
     1
281
     1
  3
ACAD_MTEXT_2008_RT
360
162DC
  0
DICTIONARY
  5
162DD
330
1625A
100
AcDbDictionary
280
     1
281
     1
  3
ACAD_MTEXT_2008_RT
360
162DE
  0
DICTIONARY
  5
162DF
330
1625B
100
AcDbDictionary
280
     1
281
     1
  3
ACAD_MTEXT_2008_RT
360
162E0
  0
DICTIONARY
  5
162C6
330
12C4B
100
AcDbDictionary
280
     1
281
     1
  3
ACAD_MTEXT_2008_RT
360
162C7
  0
DICTIONARY
  5
4FFE
102
{ACAD_REACTORS
330
C
102
}
330
C
100
AcDbDictionary
281
     1
  0
DICTIONARY
  5
D
102
{ACAD_REACTORS
330
C
102
}
330
C
100
AcDbDictionary
281
     1
  0
DICTIONARY
  5
1A
102
{ACAD_REACTORS
330
C
102
}
330
C
100
AcDbDictionary
281
     1
  3
Layout1
350
1E
  3
Layout2
350
26
  3
Model
350
22
  0
DICTIONARY
  5
4FE5
102
{ACAD_REACTORS
330
C
102
}
330
C
100
AcDbDictionary
281
     1
  3
ByBlock
350
4FEE
  3
ByLayer
350
4FE6
  3
Global
350
4FF6
  0
DICTIONARY
  5
5022
102
{ACAD_REACTORS
330
C
102
}
330
C
100
AcDbDictionary
281
     1
  3
Standard
350
5023
  0
DICTIONARY
  5
17
102
{ACAD_REACTORS
330
C
102
}
330
C
100
AcDbDictionary
281
     1
  3
Standard
350
18
  0
DICTIONARY
  5
19
102
{ACAD_REACTORS
330
C
102
}
330
C
100
AcDbDictionary
281
     1
  0
ACDBDICTIONARYWDFLT
  5
E
102
{ACAD_REACTORS
330
C
102
}
330
C
100
AcDbDictionary
281
     1
  3
Normal
350
F
100
AcDbDictionaryWithDefault
340
F
  0
DICTIONARY
  5
6537
102
{ACAD_REACTORS
330
C
102
}
330
C
100
AcDbDictionary
281
     1
  3
{1DC63513-1B1A-422F-9880-65CFD2B8D533}
350
6538
  0
DICTIONARY
  5
5000
102
{ACAD_REACTORS
330
C
102
}
330
C
100
AcDbDictionary
281
     1
  3
A0
350
5001
  3
A1
350
5002
  3
A2
350
5003
  3
A3
350
5004
  3
A4
350
5005
  3
A5
350
5006
  3
A6
350
5007
  3
A7
350
5008
  3
A8
350
5009
  3
A9
350
500A
  3
B0
350
500B
  3
B1
350
500C
  3
B2
350
500D
  3
B3
350
500E
  3
B4
350
500F
  3
B5
350
5010
  3
B6
350
5011
  3
B7
350
5012
  3
B8
350
5013
  3
B9
350
5014
  3
C0
350
5015
  3
C1
350
5016
  3
C2
350
5017
  3
C3
350
5018
  3
C4
350
5019
  3
C5
350
501A
  3
C6
350
501B
  3
C7
350
501C
  3
C8
350
501D
  3
C9
350
501E
  3
D0
350
501F
  3
D1
350
5020
  3
D2
350
5021
  0
DICTIONARY
  5
4FE3
102
{ACAD_REACTORS
330
C
102
}
330
C
100
AcDbDictionary
281
     1
  3
Standard
350
4FFF
  0
DICTIONARY
  5
2A
102
{ACAD_REACTORS
330
C
102
}
330
C
100
AcDbDictionary
281
     1
  3
2dWireframe
350
2F
  3
3D Hidden
350
31
  3
3dWireframe
350
30
  3
Basic
350
32
  3
Brighten
350
36
  3
ColorChange
350
3A
  3
Conceptual
350
34
  3
Dim
350
35
  3
Facepattern
350
39
  3
Flat
350
2B
  3
FlatWithEdges
350
2C
  3
Gouraud
350
2D
  3
GouraudWithEdges
350
2E
  3
Linepattern
350
38
  3
Realistic
350
33
  3
Thicken
350
37
  0
XRECORD
  5
50EC
102
{ACAD_REACTORS
330
C
102
}
330
C
100
AcDbXrecord
280
     1
 90
        1
330
4FFF
330
12C4B
330
161D1
330
16215
330
16216
330
1623B
330
1623E
330
1623F
330
16249
330
1624A
330
1624B
330
16259
330
1625A
330
1625B
  0
DICTIONARY
  5
5108
102
{ACAD_REACTORS
330
C
102
}
330
C
100
AcDbDictionary
281
     1
  3
CANNOSCALE
350
510B
  3
CMLEADERSTYLE
350
510A
  3
CTABLESTYLE
350
5109
  3
DIMASSOC
350
510E
  3
INDEXCTL
350
510D
  3
LIGHTINGUNITS
350
1626B
  3
MSLTSCALE
350
1626A
  3
SORTENTS
350
510C
  0
DICTIONARY
  5
11ACE
102
{ACAD_REACTORS
330
C
102
}
330
C
100
AcDbDictionary
281
     1
  3
ASEBlockHierarchyIndexRecord
350
11ACF
1001
DCO15
1040
1901191674.187
  0
DICTIONARY
  5
15496
102
{ACAD_REACTORS
330
50B8
102
}
330
50B8
100
AcDbDictionary
281
     1
  0
DICTIONARY
  5
50B9
102
{ACAD_REACTORS
330
50B8
102
}
330
50B8
100
AcDbDictionary
281
     1
  0
DICTIONARY
  5
15495
102
{ACAD_REACTORS
330
50B8
102
}
330
50B8
100
AcDbDictionary
281
     1
1001
ACAD
1000
<All
  0
XRECORD
  5
50D1
102
{ACAD_REACTORS
330
50D0
102
}
330
50D0
100
AcDbXrecord
280
     1
290
     1
  0
XRECORD
  5
50D3
102
{ACAD_REACTORS
330
50D2
102
}
330
50D2
100
AcDbXrecord
280
     1
290
     1
  0
XRECORD
  5
50D4
102
{ACAD_REACTORS
330
50AF
102
}
330
50AF
100
AcDbXrecord
280
     1
290
     1
  0
SORTENTSTABLE
  5
67C1
102
{ACAD_REACTORS
330
67C0
102
}
330
67C0
100
AcDbSortentsTable
330
1F
331
3895
  5
3943
331
13093
  5
12B2B
331
35D8
  5
3807
331
4842
  5
4E94
331
3807
  5
3895
331
2F93
  5
2FDE
331
12C4B
  5
1307F
331
35C8
  5
35D8
331
2EE7
  5
2F93
331
2FDE
  5
35C8
331
28AE
  5
2A38
331
3943
  5
4842
331
2C65
  5
2EE7
  0
XRECORD
  5
162CA
102
{ACAD_REACTORS
330
162C9
102
}
330
162C9
100
AcDbXrecord
280
     1
 40
1527.0
  1
\pxqc;BQ LUO
  0
XRECORD
  5
162CC
102
{ACAD_REACTORS
330
162CB
102
}
330
162CB
100
AcDbXrecord
280
     1
 40
3624820.0
  1
\pxqc;档案员{\H0.7x;\P\Fromans|c134;Filing Clerk\fFangSong_GB2312|b0|i0|c134|p49; }
  0
XRECORD
  5
162CE
102
{ACAD_REACTORS
330
162CD
102
}
330
162CD
100
AcDbXrecord
280
     1
 40
2054623.0
  1
\pxqc;日期{\Fromans|c134;/Date}
  0
XRECORD
  5
162D0
102
{ACAD_REACTORS
330
162CF
102
}
330
162CF
100
AcDbXrecord
280
     1
 40
1836818.0
  1
\pxsm0.7;{\fFangSong_GB2312|b0|i0|c134|p49;标准化}\PStand.
  0
XRECORD
  5
162D2
102
{ACAD_REACTORS
330
162D1
102
}
330
162D1
100
AcDbXrecord
280
     1
 40
1476476.0
  1
\pxsm0.7;签名\P{\Fromans|c134;Signature} 
  0
XRECORD
  5
162D4
102
{ACAD_REACTORS
330
162D3
102
}
330
162D3
100
AcDbXrecord
280
     1
 40
1354713.0
  1
\pxsm0.7,qc;处数\P{\Fromans|c134;Number }
  0
XRECORD
  5
162D6
102
{ACAD_REACTORS
330
162D5
102
}
330
162D5
100
AcDbXrecord
280
     1
 40
1692934.0
  1
\pxsm0.7;标记\P{\Fromans|c134;Mark}
  0
XRECORD
  5
162D8
102
{ACAD_REACTORS
330
162D7
102
}
330
162D7
100
AcDbXrecord
280
     1
 40
1391581.0
  1
\pxsm0.7;审核\P{\Fromans|c134;Checked}
  0
XRECORD
  5
162DA
102
{ACAD_REACTORS
330
162D9
102
}
330
162D9
100
AcDbXrecord
280
     1
 40
1546703.0
  1
\pxsm0.7;绘图\P{\Fromans|c134;Drawn\Ftxt|c134; }
  0
XRECORD
  5
162DC
102
{ACAD_REACTORS
330
162DB
102
}
330
162DB
100
AcDbXrecord
280
     1
 40
1293614.0
  1
\pxsm0.7;批准\P{\Fromans|c134;Approved}
  0
XRECORD
  5
162DE
102
{ACAD_REACTORS
330
162DD
102
}
330
162DD
100
AcDbXrecord
280
     1
 40
1583427.0
  1
\pxsm0.7;工艺\P{\Fromans|c134;Process}
  0
XRECORD
  5
162E0
102
{ACAD_REACTORS
330
162DF
102
}
330
162DF
100
AcDbXrecord
280
     1
 40
1435325.0
  1
\pxsm0.7;日期\P{\Fromans|c134;Date}
  0
XRECORD
  5
162C7
102
{ACAD_REACTORS
330
162C6
102
}
330
162C6
100
AcDbXrecord
280
     1
 40
254791205.0
  1
\A1;\pxql;\P{\f仿宋_GB2312|b0|i0|c134|p49;技术参数}:\P\pq*;- {\f仿宋_GB2312|b0|i0|c134|p49;材料}: {\f仿宋_GB2312|b0|i0|c134|p49;铜合金}\P- {\f仿宋_GB2312|b0|i0|c134|p49;表面处理}: {\f仿宋_GB2312|b0|i0|c134|p49;镀银}\P\pql;- {\f仿宋_GB2312|b0|i0|c134|p49;额定电流}: 7.5A\P- {\f仿宋_GB
  1
2312|b0|i0|c134|p49;接触电阻}: ≤3mΩ\P\pq*;- {\f仿宋_GB2312|b0|i0|c134|p49;可插拔次数}: {\f仿宋_GB2312|b0|i0|c134|p49;≥}500\P\P\pql;Technical specification:\P- Material: copper alloy\P- Surface: hard-silver plated\P- Rated current: 7.5A\P- Contact resistance: ≤3mΩ
  1
\P- Mating cycles: {\f仿宋_GB2312|b0|i0|c134|p49;≥}500
  0
LAYOUT
  5
1E
102
{ACAD_REACTORS
330
1A
102
}
330
1A
100
AcDbPlotSettings
  1

  2
none_device
  4

  6

 40
0.0
 41
0.0
 42
0.0
 43
0.0
 44
0.0
 45
0.0
 46
0.0
 47
0.0
 48
0.0
 49
0.0
140
0.0
141
0.0
142
1.0
143
1.0
 70
   688
 72
     0
 73
     0
 74
     5
  7

 75
    16
147
1.0
 76
     0
 77
     2
 78
   300
148
0.0
149
0.0
100
AcDbLayout
  1
Layout1
 70
     1
 71
     1
 10
0.0
 20
0.0
 11
12.0
 21
9.0
 12
0.0
 22
0.0
 32
0.0
 14
1.000000000000000E+20
 24
1.000000000000000E+20
 34
1.000000000000000E+20
 15
-1.000000000000000E+20
 25
-1.000000000000000E+20
 35
-1.000000000000000E+20
146
0.0
 13
0.0
 23
0.0
 33
0.0
 16
1.0
 26
0.0
 36
0.0
 17
0.0
 27
1.0
 37
0.0
 76
     0
330
1B
  0
LAYOUT
  5
26
102
{ACAD_REACTORS
330
1A
102
}
330
1A
100
AcDbPlotSettings
  1

  2
none_device
  4

  6

 40
0.0
 41
0.0
 42
0.0
 43
0.0
 44
0.0
 45
0.0
 46
0.0
 47
0.0
 48
0.0
 49
0.0
140
0.0
141
0.0
142
1.0
143
1.0
 70
   688
 72
     0
 73
     0
 74
     5
  7

 75
    16
147
1.0
 76
     0
 77
     2
 78
   300
148
0.0
149
0.0
100
AcDbLayout
  1
Layout2
 70
     1
 71
     2
 10
0.0
 20
0.0
 11
0.0
 21
0.0
 12
0.0
 22
0.0
 32
0.0
 14
0.0
 24
0.0
 34
0.0
 15
0.0
 25
0.0
 35
0.0
146
0.0
 13
0.0
 23
0.0
 33
0.0
 16
1.0
 26
0.0
 36
0.0
 17
0.0
 27
1.0
 37
0.0
 76
     0
330
23
  0
LAYOUT
  5
22
102
{ACAD_REACTORS
330
1A
102
}
330
1A
100
AcDbPlotSettings
  1

  2
Adobe PDF Converter.pc3
  4
A4
  6

 40
3.174999952316281
 41
3.174999952316281
 42
3.17498779296875
 43
3.175003051757812
 44
297.0318298339844
 45
209.9733276367186
 46
0.0000000000000076
 47
1.630241740247063
 48
246.9897427644609
 49
39.36804549891383
140
544.952097801264
141
244.7492402188181
142
1.0
143
1.025046328645055
 70
  3764
 72
     1
 73
     0
 74
     4
  7
monochrome.ctb
 75
     0
147
0.9755656618192436
 76
     1
 77
     2
 78
   300
148
-246.9897427644609
149
-39.36804549891383
100
AcDbLayout
  1
Model
 70
     1
 71
     0
 10
0.0
 20
0.0
 11
12.0
 21
9.0
 12
0.0
 22
0.0
 32
0.0
 14
1.000000000000000E+20
 24
1.000000000000000E+20
 34
1.000000000000000E+20
 15
-1.000000000000000E+20
 25
-1.000000000000000E+20
 35
-1.000000000000000E+20
146
0.0
 13
0.0
 23
0.0
 33
0.0
 16
1.0
 26
0.0
 36
0.0
 17
0.0
 27
1.0
 37
0.0
 76
     0
330
1F
331
29
1001
ACAD_PSEXT
1000
Adobe PDF Converter.pc3
1000
Adobe PDF Converter
1000
桌面\*.pdf
1000

1070
     0
  0
MATERIAL
  5
4FEE
102
{ACAD_XDICTIONARY
360
4FEF
102
}
102
{ACAD_REACTORS
330
4FE5
102
}
330
4FE5
100
AcDbMaterial
  1
ByBlock
 72
     0
 43
0.0208333333333333
 43
0.0
 43
0.0
 43
0.0
 43
0.0
 43
0.0208333333333333
 43
0.0
 43
0.0
 43
0.0
 43
0.0
 43
1.0
 43
0.0
 43
0.0
 43
0.0
 43
0.0
 43
1.0
 77
     0
 47
0.0208333333333333
 47
0.0
 47
0.0
 47
0.0
 47
0.0
 47
0.0208333333333333
 47
0.0
 47
0.0
 47
0.0
 47
0.0
 47
1.0
 47
0.0
 47
0.0
 47
0.0
 47
0.0
 47
1.0
171
     0
 49
0.0208333333333333
 49
0.0
 49
0.0
 49
0.0
 49
0.0
 49
0.0208333333333333
 49
0.0
 49
0.0
 49
0.0
 49
0.0
 49
1.0
 49
0.0
 49
0.0
 49
0.0
 49
0.0
 49
1.0
175
     0
142
0.0208333333333333
142
0.0
142
0.0
142
0.0
142
0.0
142
0.0208333333333333
142
0.0
142
0.0
142
0.0
142
0.0
142
1.0
142
0.0
142
0.0
142
0.0
142
0.0
142
1.0
179
     0
144
0.0208333333333333
144
0.0
144
0.0
144
0.0
144
0.0
144
0.0208333333333333
144
0.0
144
0.0
144
0.0
144
0.0
144
1.0
144
0.0
144
0.0
144
0.0
144
0.0
144
1.0
147
0.0208333333333333
147
0.0
147
0.0
147
0.0
147
0.0
147
0.0208333333333333
147
0.0
147
0.0
147
0.0
147
0.0
147
1.0
147
0.0
147
0.0
147
0.0
147
0.0
147
1.0
  0
MATERIAL
  5
4FE6
102
{ACAD_XDICTIONARY
360
4FE7
102
}
102
{ACAD_REACTORS
330
4FE5
102
}
330
4FE5
100
AcDbMaterial
  1
ByLayer
 72
     0
 43
0.0208333333333333
 43
0.0
 43
0.0
 43
0.0
 43
0.0
 43
0.0208333333333333
 43
0.0
 43
0.0
 43
0.0
 43
0.0
 43
1.0
 43
0.0
 43
0.0
 43
0.0
 43
0.0
 43
1.0
 77
     0
 47
0.0208333333333333
 47
0.0
 47
0.0
 47
0.0
 47
0.0
 47
0.0208333333333333
 47
0.0
 47
0.0
 47
0.0
 47
0.0
 47
1.0
 47
0.0
 47
0.0
 47
0.0
 47
0.0
 47
1.0
171
     0
 49
0.0208333333333333
 49
0.0
 49
0.0
 49
0.0
 49
0.0
 49
0.0208333333333333
 49
0.0
 49
0.0
 49
0.0
 49
0.0
 49
1.0
 49
0.0
 49
0.0
 49
0.0
 49
0.0
 49
1.0
175
     0
142
0.0208333333333333
142
0.0
142
0.0
142
0.0
142
0.0
142
0.0208333333333333
142
0.0
142
0.0
142
0.0
142
0.0
142
1.0
142
0.0
142
0.0
142
0.0
142
0.0
142
1.0
179
     0
144
0.0208333333333333
144
0.0
144
0.0
144
0.0
144
0.0
144
0.0208333333333333
144
0.0
144
0.0
144
0.0
144
0.0
144
1.0
144
0.0
144
0.0
144
0.0
144
0.0
144
1.0
147
0.0208333333333333
147
0.0
147
0.0
147
0.0
147
0.0
147
0.0208333333333333
147
0.0
147
0.0
147
0.0
147
0.0
147
1.0
147
0.0
147
0.0
147
0.0
147
0.0
147
1.0
  0
MATERIAL
  5
4FF6
102
{ACAD_XDICTIONARY
360
4FF7
102
}
102
{ACAD_REACTORS
330
4FE5
102
}
330
4FE5
100
AcDbMaterial
  1
Global
 72
     0
 43
0.0208333333333333
 43
0.0
 43
0.0
 43
0.0
 43
0.0
 43
0.0208333333333333
 43
0.0
 43
0.0
 43
0.0
 43
0.0
 43
1.0
 43
0.0
 43
0.0
 43
0.0
 43
0.0
 43
1.0
 77
     0
 47
0.0208333333333333
 47
0.0
 47
0.0
 47
0.0
 47
0.0
 47
0.0208333333333333
 47
0.0
 47
0.0
 47
0.0
 47
0.0
 47
1.0
 47
0.0
 47
0.0
 47
0.0
 47
0.0
 47
1.0
171
     0
 49
0.0208333333333333
 49
0.0
 49
0.0
 49
0.0
 49
0.0
 49
0.0208333333333333
 49
0.0
 49
0.0
 49
0.0
 49
0.0
 49
1.0
 49
0.0
 49
0.0
 49
0.0
 49
0.0
 49
1.0
175
     0
142
0.0208333333333333
142
0.0
142
0.0
142
0.0
142
0.0
142
0.0208333333333333
142
0.0
142
0.0
142
0.0
142
0.0
142
1.0
142
0.0
142
0.0
142
0.0
142
0.0
142
1.0
179
     0
144
0.0208333333333333
144
0.0
144
0.0
144
0.0
144
0.0
144
0.0208333333333333
144
0.0
144
0.0
144
0.0
144
0.0
144
1.0
144
0.0
144
0.0
144
0.0
144
0.0
144
1.0
147
0.0208333333333333
147
0.0
147
0.0
147
0.0
147
0.0
147
0.0208333333333333
147
0.0
147
0.0
147
0.0
147
0.0
147
1.0
147
0.0
147
0.0
147
0.0
147
0.0
147
1.0
  0
MLEADERSTYLE
  5
5023
102
{ACAD_REACTORS
330
5022
102
}
330
5022
100
AcDbMLeaderStyle
170
     2
171
     1
172
     0
 90
        2
 40
0.0
 41
0.0
173
     1
 91
-1056964608
340
14
 92
       -2
290
     1
 42
0.09
291
     1
 43
0.36
  3
Standard
 44
0.18
300

342
11
174
     1
178
     6
175
     1
176
     0
 93
-1056964608
 45
0.18
292
     0
297
     0
 46
0.18
 94
-1056964608
 47
1.0
 49
1.0
140
1.0
293
     1
141
0.0
294
     1
177
     0
142
1.0
295
     0
296
     0
143
0.125
1001
ACAD_MLEADERVER
1070
     2
  0
MLINESTYLE
  5
18
102
{ACAD_REACTORS
330
17
102
}
330
17
100
AcDbMlineStyle
  2
STANDARD
 70
     0
  3

 62
   256
 51
90.0
 52
90.0
 71
     2
 49
0.5
 62
   256
  6
BYLAYER
 49
-0.5
 62
   256
  6
BYLAYER
  0
ACDBPLACEHOLDER
  5
F
102
{ACAD_REACTORS
330
E
102
}
330
E
  0
MENTALRAYRENDERSETTINGS
  5
6538
102
{ACAD_REACTORS
330
6537
102
}
330
6537
100
AcDbRenderSettings
 90
        2
  1
中
290
     1
290
     1
290
     1
290
     1
  1

  1
渲染质量好于“低级”。包括纹理过滤并且强制双面处于激活状态。处理中等级反锯齿和 5 反射/折射的光线跟踪深度。
 90
        0
100
AcDbMentalRayRenderSettings
 90
        2
 90
        0
 90
        1
 70
     2
 40
3.0
 40
3.0
 40
0.0500000007450581
 40
0.0500000007450581
 40
0.0500000007450581
 40
0.0500000007450581
 70
     0
290
     0
290
     1
 90
        5
 90
        5
 90
        5
290
     0
 90
      500
290
     0
 40
1.0
 90
    10000
 90
        5
 90
        5
 90
        5
290
     0
 90
      200
290
     0
290
     0
290
     0
 40
0.1
 40
1.0
 40
1500.0
 70
     0
 70
     0
 40
10.0
 70
     0
 70
     0
290
     0
  1

 90
       32
 70
     0
 90
     1048
290
     0
 40
1.0
  0
SCALE
  5
5001
102
{ACAD_REACTORS
330
5000
102
}
330
5000
100
AcDbScale
 70
     0
300
1:1
140
1.0
141
1.0
290
     1
  0
SCALE
  5
5002
102
{ACAD_REACTORS
330
5000
102
}
330
5000
100
AcDbScale
 70
     0
300
1:2
140
1.0
141
2.0
290
     0
  0
SCALE
  5
5003
102
{ACAD_REACTORS
330
5000
102
}
330
5000
100
AcDbScale
 70
     0
300
1:4
140
1.0
141
4.0
290
     0
  0
SCALE
  5
5004
102
{ACAD_REACTORS
330
5000
102
}
330
5000
100
AcDbScale
 70
     0
300
1:5
140
1.0
141
5.0
290
     0
  0
SCALE
  5
5005
102
{ACAD_REACTORS
330
5000
102
}
330
5000
100
AcDbScale
 70
     0
300
1:8
140
1.0
141
8.0
290
     0
  0
SCALE
  5
5006
102
{ACAD_REACTORS
330
5000
102
}
330
5000
100
AcDbScale
 70
     0
300
1:10
140
1.0
141
10.0
290
     0
  0
SCALE
  5
5007
102
{ACAD_REACTORS
330
5000
102
}
330
5000
100
AcDbScale
 70
     0
300
1:16
140
1.0
141
16.0
290
     0
  0
SCALE
  5
5008
102
{ACAD_REACTORS
330
5000
102
}
330
5000
100
AcDbScale
 70
     0
300
1:20
140
1.0
141
20.0
290
     0
  0
SCALE
  5
5009
102
{ACAD_REACTORS
330
5000
102
}
330
5000
100
AcDbScale
 70
     0
300
1:30
140
1.0
141
30.0
290
     0
  0
SCALE
  5
500A
102
{ACAD_REACTORS
330
5000
102
}
330
5000
100
AcDbScale
 70
     0
300
1:40
140
1.0
141
40.0
290
     0
  0
SCALE
  5
500B
102
{ACAD_REACTORS
330
5000
102
}
330
5000
100
AcDbScale
 70
     0
300
1:50
140
1.0
141
50.0
290
     0
  0
SCALE
  5
500C
102
{ACAD_REACTORS
330
5000
102
}
330
5000
100
AcDbScale
 70
     0
300
1:100
140
1.0
141
100.0
290
     0
  0
SCALE
  5
500D
102
{ACAD_REACTORS
330
5000
102
}
330
5000
100
AcDbScale
 70
     0
300
2:1
140
2.0
141
1.0
290
     0
  0
SCALE
  5
500E
102
{ACAD_REACTORS
330
5000
102
}
330
5000
100
AcDbScale
 70
     0
300
4:1
140
4.0
141
1.0
290
     0
  0
SCALE
  5
500F
102
{ACAD_REACTORS
330
5000
102
}
330
5000
100
AcDbScale
 70
     0
300
8:1
140
8.0
141
1.0
290
     0
  0
SCALE
  5
5010
102
{ACAD_REACTORS
330
5000
102
}
330
5000
100
AcDbScale
 70
     0
300
10:1
140
10.0
141
1.0
290
     0
  0
SCALE
  5
5011
102
{ACAD_REACTORS
330
5000
102
}
330
5000
100
AcDbScale
 70
     0
300
100:1
140
100.0
141
1.0
290
     0
  0
SCALE
  5
5012
102
{ACAD_REACTORS
330
5000
102
}
330
5000
100
AcDbScale
 70
     0
300
1/128" = 1'-0"
140
0.0078125
141
12.0
290
     0
  0
SCALE
  5
5013
102
{ACAD_REACTORS
330
5000
102
}
330
5000
100
AcDbScale
 70
     0
300
1/64" = 1'-0"
140
0.015625
141
12.0
290
     0
  0
SCALE
  5
5014
102
{ACAD_REACTORS
330
5000
102
}
330
5000
100
AcDbScale
 70
     0
300
1/32" = 1'-0"
140
0.03125
141
12.0
290
     0
  0
SCALE
  5
5015
102
{ACAD_REACTORS
330
5000
102
}
330
5000
100
AcDbScale
 70
     0
300
1/16" = 1'-0"
140
0.0625
141
12.0
290
     0
  0
SCALE
  5
5016
102
{ACAD_REACTORS
330
5000
102
}
330
5000
100
AcDbScale
 70
     0
300
3/32" = 1'-0"
140
0.09375
141
12.0
290
     0
  0
SCALE
  5
5017
102
{ACAD_REACTORS
330
5000
102
}
330
5000
100
AcDbScale
 70
     0
300
1/8" = 1'-0"
140
0.125
141
12.0
290
     0
  0
SCALE
  5
5018
102
{ACAD_REACTORS
330
5000
102
}
330
5000
100
AcDbScale
 70
     0
300
3/16" = 1'-0"
140
0.1875
141
12.0
290
     0
  0
SCALE
  5
5019
102
{ACAD_REACTORS
330
5000
102
}
330
5000
100
AcDbScale
 70
     0
300
1/4" = 1'-0"
140
0.25
141
12.0
290
     0
  0
SCALE
  5
501A
102
{ACAD_REACTORS
330
5000
102
}
330
5000
100
AcDbScale
 70
     0
300
3/8" = 1'-0"
140
0.375
141
12.0
290
     0
  0
SCALE
  5
501B
102
{ACAD_REACTORS
330
5000
102
}
330
5000
100
AcDbScale
 70
     0
300
1/2" = 1'-0"
140
0.5
141
12.0
290
     0
  0
SCALE
  5
501C
102
{ACAD_REACTORS
330
5000
102
}
330
5000
100
AcDbScale
 70
     0
300
3/4" = 1'-0"
140
0.75
141
12.0
290
     0
  0
SCALE
  5
501D
102
{ACAD_REACTORS
330
5000
102
}
330
5000
100
AcDbScale
 70
     0
300
1" = 1'-0"
140
1.0
141
12.0
290
     0
  0
SCALE
  5
501E
102
{ACAD_REACTORS
330
5000
102
}
330
5000
100
AcDbScale
 70
     0
300
1-1/2" = 1'-0"
140
1.5
141
12.0
290
     0
  0
SCALE
  5
501F
102
{ACAD_REACTORS
330
5000
102
}
330
5000
100
AcDbScale
 70
     0
300
3" = 1'-0"
140
3.0
141
12.0
290
     0
  0
SCALE
  5
5020
102
{ACAD_REACTORS
330
5000
102
}
330
5000
100
AcDbScale
 70
     0
300
6" = 1'-0"
140
6.0
141
12.0
290
     0
  0
SCALE
  5
5021
102
{ACAD_REACTORS
330
5000
102
}
330
5000
100
AcDbScale
 70
     0
300
1'-0" = 1'-0"
140
12.0
141
12.0
290
     0
  0
TABLESTYLE
  5
4FFF
102
{ACAD_XDICTIONARY
360
50D6
102
}
102
{ACAD_REACTORS
330
4FE3
102
}
330
4FE3
100
AcDbTableStyle
  3
Standard
 70
     0
 71
     0
 40
0.06
 41
0.06
280
     0
281
     0
  7
Standard
140
0.18
170
     2
 62
     0
 63
     7
283
     0
 90
      512
 91
        0
  1

274
    -2
284
     1
 64
     0
275
    -2
285
     1
 65
     0
276
    -2
286
     1
 66
     0
277
    -2
287
     1
 67
     0
278
    -2
288
     1
 68
     0
279
    -2
289
     1
 69
     0
  7
Standard
140
0.25
170
     5
 62
     0
 63
     7
283
     0
 90
      512
 91
        0
  1

274
    -2
284
     1
 64
     0
275
    -2
285
     1
 65
     0
276
    -2
286
     1
 66
     0
277
    -2
287
     1
 67
     0
278
    -2
288
     1
 68
     0
279
    -2
289
     1
 69
     0
  7
Standard
140
0.18
170
     5
 62
     0
 63
     7
283
     0
 90
      512
 91
        0
  1

274
    -2
284
     1
 64
     0
275
    -2
285
     1
 65
     0
276
    -2
286
     1
 66
     0
277
    -2
287
     1
 67
     0
278
    -2
288
     1
 68
     0
279
    -2
289
     1
 69
     0
  0
VISUALSTYLE
  5
2F
102
{ACAD_REACTORS
330
2A
102
}
330
2A
100
AcDbVisualStyle
  2
2dWireframe
 70
     4
 71
     0
 72
     2
 73
     0
 90
        0
 40
-0.6
 41
-30.0
 62
     5
 63
     7
 74
     1
 91
        4
 64
     7
 65
   257
 75
     1
175
     1
 42
1.0
 92
        0
 66
   257
 43
1.0
 76
     1
 77
     6
 78
     2
 67
     7
 79
     5
170
     0
171
     0
290
     0
174
     0
 93
        1
 44
0.0
173
     0
291
     0
 45
0.0
1001
ACAD
1000
AcDbSavedByObjectVersion
1070
     0
1000
AcDbSavedByObjectVersion
1070
     0
1000
AcDbSavedByObjectVersion
1070
     0
1000
AcDbSavedByObjectVersion
1070
     0
1000
AcDbSavedByObjectVersion
1070
     0
1000
AcDbSavedByObjectVersion
1070
     0
1000
AcDbSavedByObjectVersion
1070
     0
1000
AcDbSavedByObjectVersion
1070
     0
1000
AcDbSavedByObjectVersion
1070
     0
1000
AcDbSavedByObjectVersion
1070
     0
1000
AcDbSavedByObjectVersion
1070
     0
1000
AcDbSavedByObjectVersion
1070
     0
1000
AcDbSavedByObjectVersion
1070
     0
1000
AcDbSavedByObjectVersion
1070
     0
1000
AcDbSavedByObjectVersion
1070
     0
1000
AcDbSavedByObjectVersion
1070
     0
1000
AcDbSavedByObjectVersion
1070
     0
1000
AcDbSavedByObjectVersion
1070
     0
1000
AcDbSavedByObjectVersion
1070
     0
1000
AcDbSavedByObjectVersion
1070
     0
1000
AcDbSavedByObjectVersion
1070
     0
1000
AcDbSavedByObjectVersion
1070
     0
1000
AcDbSavedByObjectVersion
1070
     0
1000
AcDbSavedByObjectVersion
1070
     0
1000
AcDbSavedByObjectVersion
1070
     0
1000
AcDbSavedByObjectVersion
1070
     0
1000
AcDbSavedByObjectVersion
1070
     0
1000
AcDbSavedByObjectVersion
1070
     0
1000
AcDbSavedByObjectVersion
1070
     0
1000
AcDbSavedByObjectVersion
1070
     0
1000
AcDbSavedByObjectVersion
1070
     0
1000
AcDbSavedByObjectVersion
1070
     0
1000
AcDbSavedByObjectVersion
1070
     0
1000
AcDbSavedByObjectVersion
1070
     0
1000
AcDbSavedByObjectVersion
1070
     0
1000
AcDbSavedByObjectVersion
1070
     0
1000
AcDbSavedByObjectVersion
1070
     0
1000
AcDbSavedByObjectVersion
1070
     0
1000
AcDbSavedByObjectVersion
1070
     0
1000
AcDbSavedByObjectVersion
1070
     0
1000
AcDbSavedByObjectVersion
1070
     0
1000
AcDbSavedByObjectVersion
1070
     0
1000
AcDbSavedByObjectVersion
1070
     0
1000
AcDbSavedByObjectVersion
1070
     0
1000
AcDbSavedByObjectVersion
1070
     0
1000
AcDbSavedByObjectVersion
1070
     0
1000
AcDbSavedByObjectVersion
1070
     0
  0
VISUALSTYLE
  5
31
102
{ACAD_REACTORS
330
2A
102
}
330
2A
100
AcDbVisualStyle
  2
3D Hidden
 70
     6
 71
     1
 72
     2
 73
     2
 90
        0
 40
-0.6
 41
-30.0
 62
     5
 63
     7
 74
     2
 91
        2
 64
     7
 65
   257
 75
     2
175
     1
 42
40.0
 92
        0
 66
   257
 43
1.0
 76
     1
 77
     6
 78
     2
 67
     7
 79
     3
170
     0
171
     0
290
     0
174
     0
 93
        1
 44
0.0
173
     0
291
     0
 45
0.0
1001
ACAD
1000
AcDbSavedByObjectVersion
1070
     0
1000
AcDbSavedByObjectVersion
1070
     0
1000
AcDbSavedByObjectVersion
1070
     0
1000
AcDbSavedByObjectVersion
1070
     0
1000
AcDbSavedByObjectVersion
1070
     0
1000
AcDbSavedByObjectVersion
1070
     0
1000
AcDbSavedByObjectVersion
1070
     0
1000
AcDbSavedByObjectVersion
1070
     0
1000
AcDbSavedByObjectVersion
1070
     0
1000
AcDbSavedByObjectVersion
1070
     0
1000
AcDbSavedByObjectVersion
1070
     0
1000
AcDbSavedByObjectVersion
1070
     0
1000
AcDbSavedByObjectVersion
1070
     0
1000
AcDbSavedByObjectVersion
1070
     0
1000
AcDbSavedByObjectVersion
1070
     0
1000
AcDbSavedByObjectVersion
1070
     0
1000
AcDbSavedByObjectVersion
1070
     0
1000
AcDbSavedByObjectVersion
1070
     0
1000
AcDbSavedByObjectVersion
1070
     0
1000
AcDbSavedByObjectVersion
1070
     0
1000
AcDbSavedByObjectVersion
1070
     0
1000
AcDbSavedByObjectVersion
1070
     0
1000
AcDbSavedByObjectVersion
1070
     0
1000
AcDbSavedByObjectVersion
1070
     0
1000
AcDbSavedByObjectVersion
1070
     0
1000
AcDbSavedByObjectVersion
1070
     0
1000
AcDbSavedByObjectVersion
1070
     0
1000
AcDbSavedByObjectVersion
1070
     0
1000
AcDbSavedByObjectVersion
1070
     0
1000
AcDbSavedByObjectVersion
1070
     0
1000
AcDbSavedByObjectVersion
1070
     0
1000
AcDbSavedByObjectVersion
1070
     0
1000
AcDbSavedByObjectVersion
1070
     0
1000
AcDbSavedByObjectVersion
1070
     0
1000
AcDbSavedByObjectVersion
1070
     0
1000
AcDbSavedByObjectVersion
1070
     0
1000
AcDbSavedByObjectVersion
1070
     0
1000
AcDbSavedByObjectVersion
1070
     0
1000
AcDbSavedByObjectVersion
1070
     0
1000
AcDbSavedByObjectVersion
1070
     0
1000
AcDbSavedByObjectVersion
1070
     0
1000
AcDbSavedByObjectVersion
1070
     0
1000
AcDbSavedByObjectVersion
1070
     0
1000
AcDbSavedByObjectVersion
1070
     0
1000
AcDbSavedByObjectVersion
1070
     0
1000
AcDbSavedByObjectVersion
1070
     0
1000
AcDbSavedByObjectVersion
1070
     0
  0
VISUALSTYLE
  5
30
102
{ACAD_REACTORS
330
2A
102
}
330
2A
100
AcDbVisualStyle
  2
3dWireframe
 70
     5
 71
     0
 72
     2
 73
     0
 90
        0
 40
-0.6
 41
-30.0
 62
     5
 63
     7
 74
     1
 91
        4
 64
     7
 65
   257
 75
     1
175
     1
 42
1.0
 92
        0
 66
   257
 43
1.0
 76
     1
 77
     6
 78
     2
 67
     7
 79
     5
170
     0
171
     0
290
     0
174
     0
 93
        1
 44
0.0
173
     0
291
     0
 45
0.0
1001
ACAD
1000
AcDbSavedByObjectVersion
1070
     0
1000
AcDbSavedByObjectVersion
1070
     0
1000
AcDbSavedByObjectVersion
1070
     0
1000
AcDbSavedByObjectVersion
1070
     0
1000
AcDbSavedByObjectVersion
1070
     0
1000
AcDbSavedByObjectVersion
1070
     0
1000
AcDbSavedByObjectVersion
1070
     0
1000
AcDbSavedByObjectVersion
1070
     0
1000
AcDbSavedByObjectVersion
1070
     0
1000
AcDbSavedByObjectVersion
1070
     0
1000
AcDbSavedByObjectVersion
1070
     0
1000
AcDbSavedByObjectVersion
1070
     0
1000
AcDbSavedByObjectVersion
1070
     0
1000
AcDbSavedByObjectVersion
1070
     0
1000
AcDbSavedByObjectVersion
1070
     0
1000
AcDbSavedByObjectVersion
1070
     0
1000
AcDbSavedByObjectVersion
1070
     0
1000
AcDbSavedByObjectVersion
1070
     0
1000
AcDbSavedByObjectVersion
1070
     0
1000
AcDbSavedByObjectVersion
1070
     0
1000
AcDbSavedByObjectVersion
1070
     0
1000
AcDbSavedByObjectVersion
1070
     0
1000
AcDbSavedByObjectVersion
1070
     0
1000
AcDbSavedByObjectVersion
1070
     0
1000
AcDbSavedByObjectVersion
1070
     0
1000
AcDbSavedByObjectVersion
1070
     0
1000
AcDbSavedByObjectVersion
1070
     0
1000
AcDbSavedByObjectVersion
1070
     0
1000
AcDbSavedByObjectVersion
1070
     0
1000
AcDbSavedByObjectVersion
1070
     0
1000
AcDbSavedByObjectVersion
1070
     0
1000
AcDbSavedByObjectVersion
1070
     0
1000
AcDbSavedByObjectVersion
1070
     0
1000
AcDbSavedByObjectVersion
1070
     0
1000
AcDbSavedByObjectVersion
1070
     0
1000
AcDbSavedByObjectVersion
1070
     0
1000
AcDbSavedByObjectVersion
1070
     0
1000
AcDbSavedByObjectVersion
1070
     0
1000
AcDbSavedByObjectVersion
1070
     0
1000
AcDbSavedByObjectVersion
1070
     0
1000
AcDbSavedByObjectVersion
1070
     0
1000
AcDbSavedByObjectVersion
1070
     0
1000
AcDbSavedByObjectVersion
1070
     0
1000
AcDbSavedByObjectVersion
1070
     0
1000
AcDbSavedByObjectVersion
1070
     0
1000
AcDbSavedByObjectVersion
1070
     0
1000
AcDbSavedByObjectVersion
1070
     0
  0
VISUALSTYLE
  5
32
102
{ACAD_REACTORS
330
2A
102
}
330
2A
100
AcDbVisualStyle
  2
Basic
 70
     7
 71
     1
 72
     0
 73
     1
 90
        0
 40
-0.6
 41
-30.0
 62
     5
 63
     7
 74
     0
 91
        4
 64
     7
 65
   257
 75
     1
175
     1
 42
1.0
 92
        8
 66
     7
 43
1.0
 76
     1
 77
     6
 78
     2
 67
     7
 79
     5
170
     0
171
     0
290
     0
174
     0
 93
        1
 44
0.0
173
     0
291
     1
 45
0.0
1001
ACAD
1000
AcDbSavedByObjectVersion
1070
     0
1000
AcDbSavedByObjectVersion
1070
     0
1000
AcDbSavedByObjectVersion
1070
     0
1000
AcDbSavedByObjectVersion
1070
     0
1000
AcDbSavedByObjectVersion
1070
     0
1000
AcDbSavedByObjectVersion
1070
     0
1000
AcDbSavedByObjectVersion
1070
     0
1000
AcDbSavedByObjectVersion
1070
     0
1000
AcDbSavedByObjectVersion
1070
     0
1000
AcDbSavedByObjectVersion
1070
     0
1000
AcDbSavedByObjectVersion
1070
     0
1000
AcDbSavedByObjectVersion
1070
     0
1000
AcDbSavedByObjectVersion
1070
     0
1000
AcDbSavedByObjectVersion
1070
     0
1000
AcDbSavedByObjectVersion
1070
     0
1000
AcDbSavedByObjectVersion
1070
     0
1000
AcDbSavedByObjectVersion
1070
     0
1000
AcDbSavedByObjectVersion
1070
     0
1000
AcDbSavedByObjectVersion
1070
     0
1000
AcDbSavedByObjectVersion
1070
     0
1000
AcDbSavedByObjectVersion
1070
     0
1000
AcDbSavedByObjectVersion
1070
     0
1000
AcDbSavedByObjectVersion
1070
     0
1000
AcDbSavedByObjectVersion
1070
     0
1000
AcDbSavedByObjectVersion
1070
     0
1000
AcDbSavedByObjectVersion
1070
     0
1000
AcDbSavedByObjectVersion
1070
     0
1000
AcDbSavedByObjectVersion
1070
     0
1000
AcDbSavedByObjectVersion
1070
     0
1000
AcDbSavedByObjectVersion
1070
     0
1000
AcDbSavedByObjectVersion
1070
     0
1000
AcDbSavedByObjectVersion
1070
     0
1000
AcDbSavedByObjectVersion
1070
     0
1000
AcDbSavedByObjectVersion
1070
     0
1000
AcDbSavedByObjectVersion
1070
     0
1000
AcDbSavedByObjectVersion
1070
     0
1000
AcDbSavedByObjectVersion
1070
     0
1000
AcDbSavedByObjectVersion
1070
     0
1000
AcDbSavedByObjectVersion
1070
     0
1000
AcDbSavedByObjectVersion
1070
     0
1000
AcDbSavedByObjectVersion
1070
     0
1000
AcDbSavedByObjectVersion
1070
     0
1000
AcDbSavedByObjectVersion
1070
     0
1000
AcDbSavedByObjectVersion
1070
     0
1000
AcDbSavedByObjectVersion
1070
     0
1000
AcDbSavedByObjectVersion
1070
     0
1000
AcDbSavedByObjectVersion
1070
     0
  0
VISUALSTYLE
  5
36
102
{ACAD_REACTORS
330
2A
102
}
330
2A
100
AcDbVisualStyle
  2
Brighten
 70
    12
 71
     2
 72
     2
 73
     0
 90
        0
 40
-0.6
 41
-30.0
 62
     5
 63
     7
 74
     1
 91
        4
 64
     7
 65
   257
 75
     1
175
     1
 42
1.0
 92
        8
 66
     7
 43
1.0
 76
     1
 77
     6
 78
     2
 67
     7
 79
     5
170
     0
171
     0
290
     0
174
     0
 93
        1
 44
50.0
173
     0
291
     1
 45
0.0
1001
ACAD
1000
AcDbSavedByObjectVersion
1070
     0
1000
AcDbSavedByObjectVersion
1070
     0
1000
AcDbSavedByObjectVersion
1070
     0
1000
AcDbSavedByObjectVersion
1070
     0
1000
AcDbSavedByObjectVersion
1070
     0
1000
AcDbSavedByObjectVersion
1070
     0
1000
AcDbSavedByObjectVersion
1070
     0
1000
AcDbSavedByObjectVersion
1070
     0
1000
AcDbSavedByObjectVersion
1070
     0
1000
AcDbSavedByObjectVersion
1070
     0
1000
AcDbSavedByObjectVersion
1070
     0
1000
AcDbSavedByObjectVersion
1070
     0
1000
AcDbSavedByObjectVersion
1070
     0
1000
AcDbSavedByObjectVersion
1070
     0
1000
AcDbSavedByObjectVersion
1070
     0
1000
AcDbSavedByObjectVersion
1070
     0
1000
AcDbSavedByObjectVersion
1070
     0
1000
AcDbSavedByObjectVersion
1070
     0
1000
AcDbSavedByObjectVersion
1070
     0
1000
AcDbSavedByObjectVersion
1070
     0
1000
AcDbSavedByObjectVersion
1070
     0
1000
AcDbSavedByObjectVersion
1070
     0
1000
AcDbSavedByObjectVersion
1070
     0
1000
AcDbSavedByObjectVersion
1070
     0
1000
AcDbSavedByObjectVersion
1070
     0
1000
AcDbSavedByObjectVersion
1070
     0
1000
AcDbSavedByObjectVersion
1070
     0
1000
AcDbSavedByObjectVersion
1070
     0
1000
AcDbSavedByObjectVersion
1070
     0
1000
AcDbSavedByObjectVersion
1070
     0
1000
AcDbSavedByObjectVersion
1070
     0
1000
AcDbSavedByObjectVersion
1070
     0
1000
AcDbSavedByObjectVersion
1070
     0
1000
AcDbSavedByObjectVersion
1070
     0
1000
AcDbSavedByObjectVersion
1070
     0
1000
AcDbSavedByObjectVersion
1070
     0
1000
AcDbSavedByObjectVersion
1070
     0
1000
AcDbSavedByObjectVersion
1070
     0
1000
AcDbSavedByObjectVersion
1070
     0
1000
AcDbSavedByObjectVersion
1070
     0
1000
AcDbSavedByObjectVersion
1070
     0
1000
AcDbSavedByObjectVersion
1070
     0
1000
AcDbSavedByObjectVersion
1070
     0
1000
AcDbSavedByObjectVersion
1070
     0
1000
AcDbSavedByObjectVersion
1070
     0
1000
AcDbSavedByObjectVersion
1070
     0
1000
AcDbSavedByObjectVersion
1070
     0
  0
VISUALSTYLE
  5
3A
102
{ACAD_REACTORS
330
2A
102
}
330
2A
100
AcDbVisualStyle
  2
ColorChange
 70
    16
 71
     2
 72
     2
 73
     3
 90
        0
 40
-0.6
 41
-30.0
 62
     5
 63
     8
 74
     1
 91
        4
 64
     7
 65
   257
 75
     1
175
     1
 42
1.0
 92
        8
 66
     8
 43
1.0
 76
     1
 77
     6
 78
     2
 67
     7
 79
     5
170
     0
171
     0
290
     0
174
     0
 93
        1
 44
0.0
173
     0
291
     1
 45
0.0
1001
ACAD
1000
AcDbSavedByObjectVersion
1070
     0
1000
AcDbSavedByObjectVersion
1070
     0
1000
AcDbSavedByObjectVersion
1070
     0
1000
AcDbSavedByObjectVersion
1070
     0
1000
AcDbSavedByObjectVersion
1070
     0
1000
AcDbSavedByObjectVersion
1070
     0
1000
AcDbSavedByObjectVersion
1070
     0
1000
AcDbSavedByObjectVersion
1070
     0
1000
AcDbSavedByObjectVersion
1070
     0
1000
AcDbSavedByObjectVersion
1070
     0
1000
AcDbSavedByObjectVersion
1070
     0
1000
AcDbSavedByObjectVersion
1070
     0
1000
AcDbSavedByObjectVersion
1070
     0
1000
AcDbSavedByObjectVersion
1070
     0
1000
AcDbSavedByObjectVersion
1070
     0
1000
AcDbSavedByObjectVersion
1070
     0
1000
AcDbSavedByObjectVersion
1070
     0
1000
AcDbSavedByObjectVersion
1070
     0
1000
AcDbSavedByObjectVersion
1070
     0
1000
AcDbSavedByObjectVersion
1070
     0
1000
AcDbSavedByObjectVersion
1070
     0
1000
AcDbSavedByObjectVersion
1070
     0
1000
AcDbSavedByObjectVersion
1070
     0
1000
AcDbSavedByObjectVersion
1070
     0
1000
AcDbSavedByObjectVersion
1070
     0
1000
AcDbSavedByObjectVersion
1070
     0
1000
AcDbSavedByObjectVersion
1070
     0
1000
AcDbSavedByObjectVersion
1070
     0
1000
AcDbSavedByObjectVersion
1070
     0
1000
AcDbSavedByObjectVersion
1070
     0
1000
AcDbSavedByObjectVersion
1070
     0
1000
AcDbSavedByObjectVersion
1070
     0
1000
AcDbSavedByObjectVersion
1070
     0
1000
AcDbSavedByObjectVersion
1070
     0
1000
AcDbSavedByObjectVersion
1070
     0
1000
AcDbSavedByObjectVersion
1070
     0
1000
AcDbSavedByObjectVersion
1070
     0
1000
AcDbSavedByObjectVersion
1070
     0
1000
AcDbSavedByObjectVersion
1070
     0
1000
AcDbSavedByObjectVersion
1070
     0
1000
AcDbSavedByObjectVersion
1070
     0
1000
AcDbSavedByObjectVersion
1070
     0
1000
AcDbSavedByObjectVersion
1070
     0
1000
AcDbSavedByObjectVersion
1070
     0
1000
AcDbSavedByObjectVersion
1070
     0
1000
AcDbSavedByObjectVersion
1070
     0
1000
AcDbSavedByObjectVersion
1070
     0
  0
VISUALSTYLE
  5
34
102
{ACAD_REACTORS
330
2A
102
}
330
2A
100
AcDbVisualStyle
  2
Conceptual
 70
     9
 71
     3
 72
     2
 73
     0
 90
        0
 40
-0.6
 41
-30.0
 62
     5
 63
     7
 74
     2
 91
        2
 64
     7
 65
   257
 75
     1
175
     1
 42
40.0
 92
        8
 66
     7
 43
1.0
 76
     1
 77
     6
 78
     2
 67
     7
 79
     3
170
     0
171
     0
290
     0
174
     0
 93
        1
 44
0.0
173
     0
291
     0
 45
0.0
1001
ACAD
1000
AcDbSavedByObjectVersion
1070
     0
1000
AcDbSavedByObjectVersion
1070
     0
1000
AcDbSavedByObjectVersion
1070
     0
1000
AcDbSavedByObjectVersion
1070
     0
1000
AcDbSavedByObjectVersion
1070
     0
1000
AcDbSavedByObjectVersion
1070
     0
1000
AcDbSavedByObjectVersion
1070
     0
1000
AcDbSavedByObjectVersion
1070
     0
1000
AcDbSavedByObjectVersion
1070
     0
1000
AcDbSavedByObjectVersion
1070
     0
1000
AcDbSavedByObjectVersion
1070
     0
1000
AcDbSavedByObjectVersion
1070
     0
1000
AcDbSavedByObjectVersion
1070
     0
1000
AcDbSavedByObjectVersion
1070
     0
1000
AcDbSavedByObjectVersion
1070
     0
1000
AcDbSavedByObjectVersion
1070
     0
1000
AcDbSavedByObjectVersion
1070
     0
1000
AcDbSavedByObjectVersion
1070
     0
1000
AcDbSavedByObjectVersion
1070
     0
1000
AcDbSavedByObjectVersion
1070
     0
1000
AcDbSavedByObjectVersion
1070
     0
1000
AcDbSavedByObjectVersion
1070
     0
1000
AcDbSavedByObjectVersion
1070
     0
1000
AcDbSavedByObjectVersion
1070
     0
1000
AcDbSavedByObjectVersion
1070
     0
1000
AcDbSavedByObjectVersion
1070
     0
1000
AcDbSavedByObjectVersion
1070
     0
1000
AcDbSavedByObjectVersion
1070
     0
1000
AcDbSavedByObjectVersion
1070
     0
1000
AcDbSavedByObjectVersion
1070
     0
1000
AcDbSavedByObjectVersion
1070
     0
1000
AcDbSavedByObjectVersion
1070
     0
1000
AcDbSavedByObjectVersion
1070
     0
1000
AcDbSavedByObjectVersion
1070
     0
1000
AcDbSavedByObjectVersion
1070
     0
1000
AcDbSavedByObjectVersion
1070
     0
1000
AcDbSavedByObjectVersion
1070
     0
1000
AcDbSavedByObjectVersion
1070
     0
1000
AcDbSavedByObjectVersion
1070
     0
1000
AcDbSavedByObjectVersion
1070
     0
1000
AcDbSavedByObjectVersion
1070
     0
1000
AcDbSavedByObjectVersion
1070
     0
1000
AcDbSavedByObjectVersion
1070
     0
1000
AcDbSavedByObjectVersion
1070
     0
1000
AcDbSavedByObjectVersion
1070
     0
1000
AcDbSavedByObjectVersion
1070
     0
1000
AcDbSavedByObjectVersion
1070
     0
  0
VISUALSTYLE
  5
35
102
{ACAD_REACTORS
330
2A
102
}
330
2A
100
AcDbVisualStyle
  2
Dim
 70
    11
 71
     2
 72
     2
 73
     0
 90
        0
 40
-0.6
 41
-30.0
 62
     5
 63
     7
 74
     1
 91
        4
 64
     7
 65
   257
 75
     1
175
     1
 42
1.0
 92
        8
 66
     7
 43
1.0
 76
     1
 77
     6
 78
     2
 67
     7
 79
     5
170
     0
171
     0
290
     0
174
     0
 93
        1
 44
-50.0
173
     0
291
     1
 45
0.0
1001
ACAD
1000
AcDbSavedByObjectVersion
1070
     0
1000
AcDbSavedByObjectVersion
1070
     0
1000
AcDbSavedByObjectVersion
1070
     0
1000
AcDbSavedByObjectVersion
1070
     0
1000
AcDbSavedByObjectVersion
1070
     0
1000
AcDbSavedByObjectVersion
1070
     0
1000
AcDbSavedByObjectVersion
1070
     0
1000
AcDbSavedByObjectVersion
1070
     0
1000
AcDbSavedByObjectVersion
1070
     0
1000
AcDbSavedByObjectVersion
1070
     0
1000
AcDbSavedByObjectVersion
1070
     0
1000
AcDbSavedByObjectVersion
1070
     0
1000
AcDbSavedByObjectVersion
1070
     0
1000
AcDbSavedByObjectVersion
1070
     0
1000
AcDbSavedByObjectVersion
1070
     0
1000
AcDbSavedByObjectVersion
1070
     0
1000
AcDbSavedByObjectVersion
1070
     0
1000
AcDbSavedByObjectVersion
1070
     0
1000
AcDbSavedByObjectVersion
1070
     0
1000
AcDbSavedByObjectVersion
1070
     0
1000
AcDbSavedByObjectVersion
1070
     0
1000
AcDbSavedByObjectVersion
1070
     0
1000
AcDbSavedByObjectVersion
1070
     0
1000
AcDbSavedByObjectVersion
1070
     0
1000
AcDbSavedByObjectVersion
1070
     0
1000
AcDbSavedByObjectVersion
1070
     0
1000
AcDbSavedByObjectVersion
1070
     0
1000
AcDbSavedByObjectVersion
1070
     0
1000
AcDbSavedByObjectVersion
1070
     0
1000
AcDbSavedByObjectVersion
1070
     0
1000
AcDbSavedByObjectVersion
1070
     0
1000
AcDbSavedByObjectVersion
1070
     0
1000
AcDbSavedByObjectVersion
1070
     0
1000
AcDbSavedByObjectVersion
1070
     0
1000
AcDbSavedByObjectVersion
1070
     0
1000
AcDbSavedByObjectVersion
1070
     0
1000
AcDbSavedByObjectVersion
1070
     0
1000
AcDbSavedByObjectVersion
1070
     0
1000
AcDbSavedByObjectVersion
1070
     0
1000
AcDbSavedByObjectVersion
1070
     0
1000
AcDbSavedByObjectVersion
1070
     0
1000
AcDbSavedByObjectVersion
1070
     0
1000
AcDbSavedByObjectVersion
1070
     0
1000
AcDbSavedByObjectVersion
1070
     0
1000
AcDbSavedByObjectVersion
1070
     0
1000
AcDbSavedByObjectVersion
1070
     0
1000
AcDbSavedByObjectVersion
1070
     0
  0
VISUALSTYLE
  5
39
102
{ACAD_REACTORS
330
2A
102
}
330
2A
100
AcDbVisualStyle
  2
Facepattern
 70
    15
 71
     2
 72
     2
 73
     0
 90
        0
 40
-0.6
 41
-30.0
 62
     5
 63
     7
 74
     1
 91
        4
 64
     7
 65
   257
 75
     1
175
     1
 42
1.0
 92
        8
 66
     7
 43
1.0
 76
     1
 77
     6
 78
     2
 67
     7
 79
     5
170
     0
171
     0
290
     0
174
     0
 93
        1
 44
0.0
173
     0
291
     1
 45
0.0
1001
ACAD
1000
AcDbSavedByObjectVersion
1070
     0
1000
AcDbSavedByObjectVersion
1070
     0
1000
AcDbSavedByObjectVersion
1070
     0
1000
AcDbSavedByObjectVersion
1070
     0
1000
AcDbSavedByObjectVersion
1070
     0
1000
AcDbSavedByObjectVersion
1070
     0
1000
AcDbSavedByObjectVersion
1070
     0
1000
AcDbSavedByObjectVersion
1070
     0
1000
AcDbSavedByObjectVersion
1070
     0
1000
AcDbSavedByObjectVersion
1070
     0
1000
AcDbSavedByObjectVersion
1070
     0
1000
AcDbSavedByObjectVersion
1070
     0
1000
AcDbSavedByObjectVersion
1070
     0
1000
AcDbSavedByObjectVersion
1070
     0
1000
AcDbSavedByObjectVersion
1070
     0
1000
AcDbSavedByObjectVersion
1070
     0
1000
AcDbSavedByObjectVersion
1070
     0
1000
AcDbSavedByObjectVersion
1070
     0
1000
AcDbSavedByObjectVersion
1070
     0
1000
AcDbSavedByObjectVersion
1070
     0
1000
AcDbSavedByObjectVersion
1070
     0
1000
AcDbSavedByObjectVersion
1070
     0
1000
AcDbSavedByObjectVersion
1070
     0
1000
AcDbSavedByObjectVersion
1070
     0
1000
AcDbSavedByObjectVersion
1070
     0
1000
AcDbSavedByObjectVersion
1070
     0
1000
AcDbSavedByObjectVersion
1070
     0
1000
AcDbSavedByObjectVersion
1070
     0
1000
AcDbSavedByObjectVersion
1070
     0
1000
AcDbSavedByObjectVersion
1070
     0
1000
AcDbSavedByObjectVersion
1070
     0
1000
AcDbSavedByObjectVersion
1070
     0
1000
AcDbSavedByObjectVersion
1070
     0
1000
AcDbSavedByObjectVersion
1070
     0
1000
AcDbSavedByObjectVersion
1070
     0
1000
AcDbSavedByObjectVersion
1070
     0
1000
AcDbSavedByObjectVersion
1070
     0
1000
AcDbSavedByObjectVersion
1070
     0
1000
AcDbSavedByObjectVersion
1070
     0
1000
AcDbSavedByObjectVersion
1070
     0
1000
AcDbSavedByObjectVersion
1070
     0
1000
AcDbSavedByObjectVersion
1070
     0
1000
AcDbSavedByObjectVersion
1070
     0
1000
AcDbSavedByObjectVersion
1070
     0
1000
AcDbSavedByObjectVersion
1070
     0
1000
AcDbSavedByObjectVersion
1070
     0
1000
AcDbSavedByObjectVersion
1070
     0
  0
VISUALSTYLE
  5
2B
102
{ACAD_REACTORS
330
2A
102
}
330
2A
100
AcDbVisualStyle
  2
Flat
 70
     0
 71
     2
 72
     1
 73
     1
 90
        2
 40
-0.6
 41
30.0
 62
     5
 63
     7
 74
     0
 91
        4
 64
     7
 65
   257
 75
     1
175
     1
 42
1.0
 92
        8
 66
     7
 43
1.0
 76
     1
 77
     6
 78
     2
 67
     7
 79
     5
170
     0
171
     0
290
     0
174
     0
 93
       13
 44
0.0
173
     0
291
     1
 45
0.0
1001
ACAD
1000
AcDbSavedByObjectVersion
1070
     0
1000
AcDbSavedByObjectVersion
1070
     0
1000
AcDbSavedByObjectVersion
1070
     0
1000
AcDbSavedByObjectVersion
1070
     0
1000
AcDbSavedByObjectVersion
1070
     0
1000
AcDbSavedByObjectVersion
1070
     0
1000
AcDbSavedByObjectVersion
1070
     0
1000
AcDbSavedByObjectVersion
1070
     0
1000
AcDbSavedByObjectVersion
1070
     0
1000
AcDbSavedByObjectVersion
1070
     0
1000
AcDbSavedByObjectVersion
1070
     0
1000
AcDbSavedByObjectVersion
1070
     0
1000
AcDbSavedByObjectVersion
1070
     0
1000
AcDbSavedByObjectVersion
1070
     0
1000
AcDbSavedByObjectVersion
1070
     0
1000
AcDbSavedByObjectVersion
1070
     0
1000
AcDbSavedByObjectVersion
1070
     0
1000
AcDbSavedByObjectVersion
1070
     0
1000
AcDbSavedByObjectVersion
1070
     0
1000
AcDbSavedByObjectVersion
1070
     0
1000
AcDbSavedByObjectVersion
1070
     0
1000
AcDbSavedByObjectVersion
1070
     0
1000
AcDbSavedByObjectVersion
1070
     0
1000
AcDbSavedByObjectVersion
1070
     0
1000
AcDbSavedByObjectVersion
1070
     0
1000
AcDbSavedByObjectVersion
1070
     0
1000
AcDbSavedByObjectVersion
1070
     0
1000
AcDbSavedByObjectVersion
1070
     0
1000
AcDbSavedByObjectVersion
1070
     0
1000
AcDbSavedByObjectVersion
1070
     0
1000
AcDbSavedByObjectVersion
1070
     0
1000
AcDbSavedByObjectVersion
1070
     0
1000
AcDbSavedByObjectVersion
1070
     0
1000
AcDbSavedByObjectVersion
1070
     0
1000
AcDbSavedByObjectVersion
1070
     0
1000
AcDbSavedByObjectVersion
1070
     0
1000
AcDbSavedByObjectVersion
1070
     0
1000
AcDbSavedByObjectVersion
1070
     0
1000
AcDbSavedByObjectVersion
1070
     0
1000
AcDbSavedByObjectVersion
1070
     0
1000
AcDbSavedByObjectVersion
1070
     0
1000
AcDbSavedByObjectVersion
1070
     0
1000
AcDbSavedByObjectVersion
1070
     0
1000
AcDbSavedByObjectVersion
1070
     0
1000
AcDbSavedByObjectVersion
1070
     0
1000
AcDbSavedByObjectVersion
1070
     0
1000
AcDbSavedByObjectVersion
1070
     0
  0
VISUALSTYLE
  5
2C
102
{ACAD_REACTORS
330
2A
102
}
330
2A
100
AcDbVisualStyle
  2
FlatWithEdges
 70
     1
 71
     2
 72
     1
 73
     1
 90
        2
 40
-0.6
 41
30.0
 62
     5
 63
     7
 74
     1
 91
        4
 64
     7
 65
   257
 75
     1
175
     1
 42
1.0
 92
        0
 66
   257
 43
1.0
 76
     1
 77
     6
 78
     2
 67
     7
 79
     5
170
     0
171
     0
290
     0
174
     0
 93
       13
 44
0.0
173
     0
291
     1
 45
0.0
1001
ACAD
1000
AcDbSavedByObjectVersion
1070
     0
1000
AcDbSavedByObjectVersion
1070
     0
1000
AcDbSavedByObjectVersion
1070
     0
1000
AcDbSavedByObjectVersion
1070
     0
1000
AcDbSavedByObjectVersion
1070
     0
1000
AcDbSavedByObjectVersion
1070
     0
1000
AcDbSavedByObjectVersion
1070
     0
1000
AcDbSavedByObjectVersion
1070
     0
1000
AcDbSavedByObjectVersion
1070
     0
1000
AcDbSavedByObjectVersion
1070
     0
1000
AcDbSavedByObjectVersion
1070
     0
1000
AcDbSavedByObjectVersion
1070
     0
1000
AcDbSavedByObjectVersion
1070
     0
1000
AcDbSavedByObjectVersion
1070
     0
1000
AcDbSavedByObjectVersion
1070
     0
1000
AcDbSavedByObjectVersion
1070
     0
1000
AcDbSavedByObjectVersion
1070
     0
1000
AcDbSavedByObjectVersion
1070
     0
1000
AcDbSavedByObjectVersion
1070
     0
1000
AcDbSavedByObjectVersion
1070
     0
1000
AcDbSavedByObjectVersion
1070
     0
1000
AcDbSavedByObjectVersion
1070
     0
1000
AcDbSavedByObjectVersion
1070
     0
1000
AcDbSavedByObjectVersion
1070
     0
1000
AcDbSavedByObjectVersion
1070
     0
1000
AcDbSavedByObjectVersion
1070
     0
1000
AcDbSavedByObjectVersion
1070
     0
1000
AcDbSavedByObjectVersion
1070
     0
1000
AcDbSavedByObjectVersion
1070
     0
1000
AcDbSavedByObjectVersion
1070
     0
1000
AcDbSavedByObjectVersion
1070
     0
1000
AcDbSavedByObjectVersion
1070
     0
1000
AcDbSavedByObjectVersion
1070
     0
1000
AcDbSavedByObjectVersion
1070
     0
1000
AcDbSavedByObjectVersion
1070
     0
1000
AcDbSavedByObjectVersion
1070
     0
1000
AcDbSavedByObjectVersion
1070
     0
1000
AcDbSavedByObjectVersion
1070
     0
1000
AcDbSavedByObjectVersion
1070
     0
1000
AcDbSavedByObjectVersion
1070
     0
1000
AcDbSavedByObjectVersion
1070
     0
1000
AcDbSavedByObjectVersion
1070
     0
1000
AcDbSavedByObjectVersion
1070
     0
1000
AcDbSavedByObjectVersion
1070
     0
1000
AcDbSavedByObjectVersion
1070
     0
1000
AcDbSavedByObjectVersion
1070
     0
1000
AcDbSavedByObjectVersion
1070
     0
  0
VISUALSTYLE
  5
2D
102
{ACAD_REACTORS
330
2A
102
}
330
2A
100
AcDbVisualStyle
  2
Gouraud
 70
     2
 71
     2
 72
     2
 73
     1
 90
        2
 40
-0.6
 41
30.0
 62
     5
 63
     7
 74
     0
 91
        4
 64
     7
 65
   257
 75
     1
175
     1
 42
1.0
 92
        0
 66
     7
 43
1.0
 76
     1
 77
     6
 78
     2
 67
     7
 79
     5
170
     0
171
     0
290
     0
174
     0
 93
       13
 44
0.0
173
     0
291
     1
 45
0.0
1001
ACAD
1000
AcDbSavedByObjectVersion
1070
     0
1000
AcDbSavedByObjectVersion
1070
     0
1000
AcDbSavedByObjectVersion
1070
     0
1000
AcDbSavedByObjectVersion
1070
     0
1000
AcDbSavedByObjectVersion
1070
     0
1000
AcDbSavedByObjectVersion
1070
     0
1000
AcDbSavedByObjectVersion
1070
     0
1000
AcDbSavedByObjectVersion
1070
     0
1000
AcDbSavedByObjectVersion
1070
     0
1000
AcDbSavedByObjectVersion
1070
     0
1000
AcDbSavedByObjectVersion
1070
     0
1000
AcDbSavedByObjectVersion
1070
     0
1000
AcDbSavedByObjectVersion
1070
     0
1000
AcDbSavedByObjectVersion
1070
     0
1000
AcDbSavedByObjectVersion
1070
     0
1000
AcDbSavedByObjectVersion
1070
     0
1000
AcDbSavedByObjectVersion
1070
     0
1000
AcDbSavedByObjectVersion
1070
     0
1000
AcDbSavedByObjectVersion
1070
     0
1000
AcDbSavedByObjectVersion
1070
     0
1000
AcDbSavedByObjectVersion
1070
     0
1000
AcDbSavedByObjectVersion
1070
     0
1000
AcDbSavedByObjectVersion
1070
     0
1000
AcDbSavedByObjectVersion
1070
     0
1000
AcDbSavedByObjectVersion
1070
     0
1000
AcDbSavedByObjectVersion
1070
     0
1000
AcDbSavedByObjectVersion
1070
     0
1000
AcDbSavedByObjectVersion
1070
     0
1000
AcDbSavedByObjectVersion
1070
     0
1000
AcDbSavedByObjectVersion
1070
     0
1000
AcDbSavedByObjectVersion
1070
     0
1000
AcDbSavedByObjectVersion
1070
     0
1000
AcDbSavedByObjectVersion
1070
     0
1000
AcDbSavedByObjectVersion
1070
     0
1000
AcDbSavedByObjectVersion
1070
     0
1000
AcDbSavedByObjectVersion
1070
     0
1000
AcDbSavedByObjectVersion
1070
     0
1000
AcDbSavedByObjectVersion
1070
     0
1000
AcDbSavedByObjectVersion
1070
     0
1000
AcDbSavedByObjectVersion
1070
     0
1000
AcDbSavedByObjectVersion
1070
     0
1000
AcDbSavedByObjectVersion
1070
     0
1000
AcDbSavedByObjectVersion
1070
     0
1000
AcDbSavedByObjectVersion
1070
     0
1000
AcDbSavedByObjectVersion
1070
     0
1000
AcDbSavedByObjectVersion
1070
     0
1000
AcDbSavedByObjectVersion
1070
     0
  0
VISUALSTYLE
  5
2E
102
{ACAD_REACTORS
330
2A
102
}
330
2A
100
AcDbVisualStyle
  2
GouraudWithEdges
 70
     3
 71
     2
 72
     2
 73
     1
 90
        2
 40
-0.6
 41
30.0
 62
     5
 63
     7
 74
     1
 91
        4
 64
     7
 65
   257
 75
     1
175
     1
 42
1.0
 92
        0
 66
   257
 43
1.0
 76
     1
 77
     6
 78
     2
 67
     7
 79
     5
170
     0
171
     0
290
     0
174
     0
 93
       13
 44
0.0
173
     0
291
     1
 45
0.0
1001
ACAD
1000
AcDbSavedByObjectVersion
1070
     0
1000
AcDbSavedByObjectVersion
1070
     0
1000
AcDbSavedByObjectVersion
1070
     0
1000
AcDbSavedByObjectVersion
1070
     0
1000
AcDbSavedByObjectVersion
1070
     0
1000
AcDbSavedByObjectVersion
1070
     0
1000
AcDbSavedByObjectVersion
1070
     0
1000
AcDbSavedByObjectVersion
1070
     0
1000
AcDbSavedByObjectVersion
1070
     0
1000
AcDbSavedByObjectVersion
1070
     0
1000
AcDbSavedByObjectVersion
1070
     0
1000
AcDbSavedByObjectVersion
1070
     0
1000
AcDbSavedByObjectVersion
1070
     0
1000
AcDbSavedByObjectVersion
1070
     0
1000
AcDbSavedByObjectVersion
1070
     0
1000
AcDbSavedByObjectVersion
1070
     0
1000
AcDbSavedByObjectVersion
1070
     0
1000
AcDbSavedByObjectVersion
1070
     0
1000
AcDbSavedByObjectVersion
1070
     0
1000
AcDbSavedByObjectVersion
1070
     0
1000
AcDbSavedByObjectVersion
1070
     0
1000
AcDbSavedByObjectVersion
1070
     0
1000
AcDbSavedByObjectVersion
1070
     0
1000
AcDbSavedByObjectVersion
1070
     0
1000
AcDbSavedByObjectVersion
1070
     0
1000
AcDbSavedByObjectVersion
1070
     0
1000
AcDbSavedByObjectVersion
1070
     0
1000
AcDbSavedByObjectVersion
1070
     0
1000
AcDbSavedByObjectVersion
1070
     0
1000
AcDbSavedByObjectVersion
1070
     0
1000
AcDbSavedByObjectVersion
1070
     0
1000
AcDbSavedByObjectVersion
1070
     0
1000
AcDbSavedByObjectVersion
1070
     0
1000
AcDbSavedByObjectVersion
1070
     0
1000
AcDbSavedByObjectVersion
1070
     0
1000
AcDbSavedByObjectVersion
1070
     0
1000
AcDbSavedByObjectVersion
1070
     0
1000
AcDbSavedByObjectVersion
1070
     0
1000
AcDbSavedByObjectVersion
1070
     0
1000
AcDbSavedByObjectVersion
1070
     0
1000
AcDbSavedByObjectVersion
1070
     0
1000
AcDbSavedByObjectVersion
1070
     0
1000
AcDbSavedByObjectVersion
1070
     0
1000
AcDbSavedByObjectVersion
1070
     0
1000
AcDbSavedByObjectVersion
1070
     0
1000
AcDbSavedByObjectVersion
1070
     0
1000
AcDbSavedByObjectVersion
1070
     0
  0
VISUALSTYLE
  5
38
102
{ACAD_REACTORS
330
2A
102
}
330
2A
100
AcDbVisualStyle
  2
Linepattern
 70
    14
 71
     2
 72
     2
 73
     0
 90
        0
 40
-0.6
 41
-30.0
 62
     5
 63
     7
 74
     1
 91
        4
 64
     7
 65
   257
 75
     7
175
     7
 42
1.0
 92
        8
 66
     7
 43
1.0
 76
     1
 77
     6
 78
     2
 67
     7
 79
     5
170
     0
171
     0
290
     0
174
     0
 93
        1
 44
0.0
173
     0
291
     1
 45
0.0
1001
ACAD
1000
AcDbSavedByObjectVersion
1070
     0
1000
AcDbSavedByObjectVersion
1070
     0
1000
AcDbSavedByObjectVersion
1070
     0
1000
AcDbSavedByObjectVersion
1070
     0
1000
AcDbSavedByObjectVersion
1070
     0
1000
AcDbSavedByObjectVersion
1070
     0
1000
AcDbSavedByObjectVersion
1070
     0
1000
AcDbSavedByObjectVersion
1070
     0
1000
AcDbSavedByObjectVersion
1070
     0
1000
AcDbSavedByObjectVersion
1070
     0
1000
AcDbSavedByObjectVersion
1070
     0
1000
AcDbSavedByObjectVersion
1070
     0
1000
AcDbSavedByObjectVersion
1070
     0
1000
AcDbSavedByObjectVersion
1070
     0
1000
AcDbSavedByObjectVersion
1070
     0
1000
AcDbSavedByObjectVersion
1070
     0
1000
AcDbSavedByObjectVersion
1070
     0
1000
AcDbSavedByObjectVersion
1070
     0
1000
AcDbSavedByObjectVersion
1070
     0
1000
AcDbSavedByObjectVersion
1070
     0
1000
AcDbSavedByObjectVersion
1070
     0
1000
AcDbSavedByObjectVersion
1070
     0
1000
AcDbSavedByObjectVersion
1070
     0
1000
AcDbSavedByObjectVersion
1070
     0
1000
AcDbSavedByObjectVersion
1070
     0
1000
AcDbSavedByObjectVersion
1070
     0
1000
AcDbSavedByObjectVersion
1070
     0
1000
AcDbSavedByObjectVersion
1070
     0
1000
AcDbSavedByObjectVersion
1070
     0
1000
AcDbSavedByObjectVersion
1070
     0
1000
AcDbSavedByObjectVersion
1070
     0
1000
AcDbSavedByObjectVersion
1070
     0
1000
AcDbSavedByObjectVersion
1070
     0
1000
AcDbSavedByObjectVersion
1070
     0
1000
AcDbSavedByObjectVersion
1070
     0
1000
AcDbSavedByObjectVersion
1070
     0
1000
AcDbSavedByObjectVersion
1070
     0
1000
AcDbSavedByObjectVersion
1070
     0
1000
AcDbSavedByObjectVersion
1070
     0
1000
AcDbSavedByObjectVersion
1070
     0
1000
AcDbSavedByObjectVersion
1070
     0
1000
AcDbSavedByObjectVersion
1070
     0
1000
AcDbSavedByObjectVersion
1070
     0
1000
AcDbSavedByObjectVersion
1070
     0
1000
AcDbSavedByObjectVersion
1070
     0
1000
AcDbSavedByObjectVersion
1070
     0
1000
AcDbSavedByObjectVersion
1070
     0
  0
VISUALSTYLE
  5
33
102
{ACAD_REACTORS
330
2A
102
}
330
2A
100
AcDbVisualStyle
  2
Realistic
 70
     8
 71
     2
 72
     2
 73
     0
 90
        0
 40
-0.6
 41
-30.0
 62
     5
 63
     7
 74
     1
 91
        0
 64
     7
 65
   257
 75
     1
175
     1
 42
1.0
 92
        8
 66
     8
 43
1.0
 76
     1
 77
     6
 78
     2
 67
     7
 79
     5
170
     0
171
     0
290
     0
174
     0
 93
       13
 44
0.0
173
     0
291
     0
 45
0.0
1001
ACAD
1000
AcDbSavedByObjectVersion
1070
     0
1000
AcDbSavedByObjectVersion
1070
     0
1000
AcDbSavedByObjectVersion
1070
     0
1000
AcDbSavedByObjectVersion
1070
     0
1000
AcDbSavedByObjectVersion
1070
     0
1000
AcDbSavedByObjectVersion
1070
     0
1000
AcDbSavedByObjectVersion
1070
     0
1000
AcDbSavedByObjectVersion
1070
     0
1000
AcDbSavedByObjectVersion
1070
     0
1000
AcDbSavedByObjectVersion
1070
     0
1000
AcDbSavedByObjectVersion
1070
     0
1000
AcDbSavedByObjectVersion
1070
     0
1000
AcDbSavedByObjectVersion
1070
     0
1000
AcDbSavedByObjectVersion
1070
     0
1000
AcDbSavedByObjectVersion
1070
     0
1000
AcDbSavedByObjectVersion
1070
     0
1000
AcDbSavedByObjectVersion
1070
     0
1000
AcDbSavedByObjectVersion
1070
     0
1000
AcDbSavedByObjectVersion
1070
     0
1000
AcDbSavedByObjectVersion
1070
     0
1000
AcDbSavedByObjectVersion
1070
     0
1000
AcDbSavedByObjectVersion
1070
     0
1000
AcDbSavedByObjectVersion
1070
     0
1000
AcDbSavedByObjectVersion
1070
     0
1000
AcDbSavedByObjectVersion
1070
     0
1000
AcDbSavedByObjectVersion
1070
     0
1000
AcDbSavedByObjectVersion
1070
     0
1000
AcDbSavedByObjectVersion
1070
     0
1000
AcDbSavedByObjectVersion
1070
     0
1000
AcDbSavedByObjectVersion
1070
     0
1000
AcDbSavedByObjectVersion
1070
     0
1000
AcDbSavedByObjectVersion
1070
     0
1000
AcDbSavedByObjectVersion
1070
     0
1000
AcDbSavedByObjectVersion
1070
     0
1000
AcDbSavedByObjectVersion
1070
     0
1000
AcDbSavedByObjectVersion
1070
     0
1000
AcDbSavedByObjectVersion
1070
     0
1000
AcDbSavedByObjectVersion
1070
     0
1000
AcDbSavedByObjectVersion
1070
     0
1000
AcDbSavedByObjectVersion
1070
     0
1000
AcDbSavedByObjectVersion
1070
     0
1000
AcDbSavedByObjectVersion
1070
     0
1000
AcDbSavedByObjectVersion
1070
     0
1000
AcDbSavedByObjectVersion
1070
     0
1000
AcDbSavedByObjectVersion
1070
     0
1000
AcDbSavedByObjectVersion
1070
     0
1000
AcDbSavedByObjectVersion
1070
     0
  0
VISUALSTYLE
  5
37
102
{ACAD_REACTORS
330
2A
102
}
330
2A
100
AcDbVisualStyle
  2
Thicken
 70
    13
 71
     2
 72
     2
 73
     0
 90
        0
 40
-0.6
 41
-30.0
 62
     5
 63
     7
 74
     1
 91
        4
 64
     7
 65
   257
 75
     1
175
     1
 42
1.0
 92
       12
 66
     7
 43
1.0
 76
     1
 77
     6
 78
     2
 67
     7
 79
     5
170
     0
171
     0
290
     0
174
     0
 93
        1
 44
0.0
173
     0
291
     1
 45
0.0
1001
ACAD
1000
AcDbSavedByObjectVersion
1070
     0
1000
AcDbSavedByObjectVersion
1070
     0
1000
AcDbSavedByObjectVersion
1070
     0
1000
AcDbSavedByObjectVersion
1070
     0
1000
AcDbSavedByObjectVersion
1070
     0
1000
AcDbSavedByObjectVersion
1070
     0
1000
AcDbSavedByObjectVersion
1070
     0
1000
AcDbSavedByObjectVersion
1070
     0
1000
AcDbSavedByObjectVersion
1070
     0
1000
AcDbSavedByObjectVersion
1070
     0
1000
AcDbSavedByObjectVersion
1070
     0
1000
AcDbSavedByObjectVersion
1070
     0
1000
AcDbSavedByObjectVersion
1070
     0
1000
AcDbSavedByObjectVersion
1070
     0
1000
AcDbSavedByObjectVersion
1070
     0
1000
AcDbSavedByObjectVersion
1070
     0
1000
AcDbSavedByObjectVersion
1070
     0
1000
AcDbSavedByObjectVersion
1070
     0
1000
AcDbSavedByObjectVersion
1070
     0
1000
AcDbSavedByObjectVersion
1070
     0
1000
AcDbSavedByObjectVersion
1070
     0
1000
AcDbSavedByObjectVersion
1070
     0
1000
AcDbSavedByObjectVersion
1070
     0
1000
AcDbSavedByObjectVersion
1070
     0
1000
AcDbSavedByObjectVersion
1070
     0
1000
AcDbSavedByObjectVersion
1070
     0
1000
AcDbSavedByObjectVersion
1070
     0
1000
AcDbSavedByObjectVersion
1070
     0
1000
AcDbSavedByObjectVersion
1070
     0
1000
AcDbSavedByObjectVersion
1070
     0
1000
AcDbSavedByObjectVersion
1070
     0
1000
AcDbSavedByObjectVersion
1070
     0
1000
AcDbSavedByObjectVersion
1070
     0
1000
AcDbSavedByObjectVersion
1070
     0
1000
AcDbSavedByObjectVersion
1070
     0
1000
AcDbSavedByObjectVersion
1070
     0
1000
AcDbSavedByObjectVersion
1070
     0
1000
AcDbSavedByObjectVersion
1070
     0
1000
AcDbSavedByObjectVersion
1070
     0
1000
AcDbSavedByObjectVersion
1070
     0
1000
AcDbSavedByObjectVersion
1070
     0
1000
AcDbSavedByObjectVersion
1070
     0
1000
AcDbSavedByObjectVersion
1070
     0
1000
AcDbSavedByObjectVersion
1070
     0
1000
AcDbSavedByObjectVersion
1070
     0
1000
AcDbSavedByObjectVersion
1070
     0
1000
AcDbSavedByObjectVersion
1070
     0
  0
DICTIONARYVAR
  5
510B
102
{ACAD_REACTORS
330
5108
102
}
330
5108
100
DictionaryVariables
280
     0
  1
1:1
  0
DICTIONARYVAR
  5
510A
102
{ACAD_REACTORS
330
5108
102
}
330
5108
100
DictionaryVariables
280
     0
  1
STANDARD
  0
DICTIONARYVAR
  5
5109
102
{ACAD_REACTORS
330
5108
102
}
330
5108
100
DictionaryVariables
280
     0
  1
STANDARD
  0
DICTIONARYVAR
  5
510E
102
{ACAD_REACTORS
330
5108
102
}
330
5108
100
DictionaryVariables
280
     0
  1
1
  0
DICTIONARYVAR
  5
510D
102
{ACAD_REACTORS
330
5108
102
}
330
5108
100
DictionaryVariables
280
     0
  1
0
  0
DICTIONARYVAR
  5
1626B
102
{ACAD_REACTORS
330
5108
102
}
330
5108
100
DictionaryVariables
280
     0
  1
0
  0
DICTIONARYVAR
  5
1626A
102
{ACAD_REACTORS
330
5108
102
}
330
5108
100
DictionaryVariables
280
     0
  1
0
  0
DICTIONARYVAR
  5
510C
102
{ACAD_REACTORS
330
5108
102
}
330
5108
100
DictionaryVariables
280
     0
  1
127
  0
XRECORD
  5
11ACF
102
{ACAD_REACTORS
330
11ACE
102
}
330
11ACE
100
AcDbXrecord
280
     1
330
12A95
  0
DICTIONARY
  5
4FEF
330
4FEE
100
AcDbDictionary
280
     1
281
     1
  3
ACAD_XREC_ROUNDTRIP
360
7C2C
  3
BUMPTILE
360
4FF1
  3
DIFFUSETILE
360
4FF0
  3
OPACITYTILE
360
4FF4
  3
REFLECTIONTILE
360
4FF3
  3
REFRACTIONTILE
360
4FF5
  3
SPECULARTILE
360
4FF2
  0
DICTIONARY
  5
4FE7
330
4FE6
100
AcDbDictionary
280
     1
281
     1
  3
ACAD_XREC_ROUNDTRIP
360
7C2B
  3
BUMPTILE
360
4FE9
  3
DIFFUSETILE
360
4FE8
  3
OPACITYTILE
360
4FEC
  3
REFLECTIONTILE
360
4FEB
  3
REFRACTIONTILE
360
4FED
  3
SPECULARTILE
360
4FEA
  0
DICTIONARY
  5
4FF7
330
4FF6
100
AcDbDictionary
280
     1
281
     1
  3
ACAD_XREC_ROUNDTRIP
360
7C2D
  3
BUMPTILE
360
4FF9
  3
DIFFUSETILE
360
4FF8
  3
OPACITYTILE
360
4FFC
  3
REFLECTIONTILE
360
4FFB
  3
REFRACTIONTILE
360
4FFD
  3
SPECULARTILE
360
4FFA
  0
DICTIONARY
  5
50D6
330
4FFF
100
AcDbDictionary
280
     1
281
     1
  3
ACAD_ROUNDTRIP_2008_TABLESTYLE_CELLSTYLEMAP
360
162C5
  0
XRECORD
  5
7C2C
102
{ACAD_REACTORS
330
4FEF
102
}
330
4FEF
100
AcDbXrecord
280
     1
102
MATERIAL
148
0.0
149
0.0
149
0.0
 93
        0
 94
      127
282
     0
 72
     0
 77
     0
171
     0
175
     0
179
     0
273
     0
  0
XRECORD
  5
4FF1
102
{ACAD_REACTORS
330
4FEF
102
}
330
4FEF
100
AcDbXrecord
280
     1
270
     1
271
     1
  0
XRECORD
  5
4FF0
102
{ACAD_REACTORS
330
4FEF
102
}
330
4FEF
100
AcDbXrecord
280
     1
270
     1
271
     1
  0
XRECORD
  5
4FF4
102
{ACAD_REACTORS
330
4FEF
102
}
330
4FEF
100
AcDbXrecord
280
     1
270
     1
271
     1
  0
XRECORD
  5
4FF3
102
{ACAD_REACTORS
330
4FEF
102
}
330
4FEF
100
AcDbXrecord
280
     1
270
     1
271
     1
  0
XRECORD
  5
4FF5
102
{ACAD_REACTORS
330
4FEF
102
}
330
4FEF
100
AcDbXrecord
280
     1
270
     1
271
     1
  0
XRECORD
  5
4FF2
102
{ACAD_REACTORS
330
4FEF
102
}
330
4FEF
100
AcDbXrecord
280
     1
270
     1
271
     1
  0
XRECORD
  5
7C2B
102
{ACAD_REACTORS
330
4FE7
102
}
330
4FE7
100
AcDbXrecord
280
     1
102
MATERIAL
148
0.0
149
0.0
149
0.0
 93
        0
 94
      127
282
     0
 72
     0
 77
     0
171
     0
175
     0
179
     0
273
     0
  0
XRECORD
  5
4FE9
102
{ACAD_REACTORS
330
4FE7
102
}
330
4FE7
100
AcDbXrecord
280
     1
270
     1
271
     1
  0
XRECORD
  5
4FE8
102
{ACAD_REACTORS
330
4FE7
102
}
330
4FE7
100
AcDbXrecord
280
     1
270
     1
271
     1
  0
XRECORD
  5
4FEC
102
{ACAD_REACTORS
330
4FE7
102
}
330
4FE7
100
AcDbXrecord
280
     1
270
     1
271
     1
  0
XRECORD
  5
4FEB
102
{ACAD_REACTORS
330
4FE7
102
}
330
4FE7
100
AcDbXrecord
280
     1
270
     1
271
     1
  0
XRECORD
  5
4FED
102
{ACAD_REACTORS
330
4FE7
102
}
330
4FE7
100
AcDbXrecord
280
     1
270
     1
271
     1
  0
XRECORD
  5
4FEA
102
{ACAD_REACTORS
330
4FE7
102
}
330
4FE7
100
AcDbXrecord
280
     1
270
     1
271
     1
  0
XRECORD
  5
7C2D
102
{ACAD_REACTORS
330
4FF7
102
}
330
4FF7
100
AcDbXrecord
280
     1
102
MATERIAL
148
0.0
149
0.0
149
0.0
 93
        0
 94
      127
282
     0
 72
     0
 77
     0
171
     0
175
     0
179
     0
273
     0
  0
XRECORD
  5
4FF9
102
{ACAD_REACTORS
330
4FF7
102
}
330
4FF7
100
AcDbXrecord
280
     1
270
     1
271
     1
  0
XRECORD
  5
4FF8
102
{ACAD_REACTORS
330
4FF7
102
}
330
4FF7
100
AcDbXrecord
280
     1
270
     1
271
     1
  0
XRECORD
  5
4FFC
102
{ACAD_REACTORS
330
4FF7
102
}
330
4FF7
100
AcDbXrecord
280
     1
270
     1
271
     1
  0
XRECORD
  5
4FFB
102
{ACAD_REACTORS
330
4FF7
102
}
330
4FF7
100
AcDbXrecord
280
     1
270
     1
271
     1
  0
XRECORD
  5
4FFD
102
{ACAD_REACTORS
330
4FF7
102
}
330
4FF7
100
AcDbXrecord
280
     1
270
     1
271
     1
  0
XRECORD
  5
4FFA
102
{ACAD_REACTORS
330
4FF7
102
}
330
4FF7
100
AcDbXrecord
280
     1
270
     1
271
     1
  0
CELLSTYLEMAP
  5
162C5
102
{ACAD_REACTORS
330
50D6
102
}
330
50D6
100
AcDbCellStyleMap
 90
        3
300
CELLSTYLE
  1
TABLEFORMAT_BEGIN
 90
        5
170
     1
 91
        0
 92
    32768
 62
   257
 93
        1
300
CONTENTFORMAT
  1
CONTENTFORMAT_BEGIN
 90
        0
 91
        0
 92
      512
 93
        0
300

 40
0.0
140
1.0
 94
        5
 62
     0
340
11
144
0.25
309
CONTENTFORMAT_END
171
     1
301
MARGIN
  1
CELLMARGIN_BEGIN
 40
0.06
 40
0.06
 40
0.06
 40
0.06
 40
0.18
 40
0.18
309
CELLMARGIN_END
 94
        6
 95
        1
302
GRIDFORMAT
  1
GRIDFORMAT_BEGIN
 90
        0
 91
        1
 62
     0
 92
       -2
340
0
 93
        0
 40
0.045
309
GRIDFORMAT_END
 95
        2
302
GRIDFORMAT
  1
GRIDFORMAT_BEGIN
 90
        0
 91
        1
 62
     0
 92
       -2
340
0
 93
        0
 40
0.045
309
GRIDFORMAT_END
 95
        4
302
GRIDFORMAT
  1
GRIDFORMAT_BEGIN
 90
        0
 91
        1
 62
     0
 92
       -2
340
0
 93
        0
 40
0.045
309
GRIDFORMAT_END
 95
        8
302
GRIDFORMAT
  1
GRIDFORMAT_BEGIN
 90
        0
 91
        1
 62
     0
 92
       -2
340
0
 93
        0
 40
0.045
309
GRIDFORMAT_END
 95
       16
302
GRIDFORMAT
  1
GRIDFORMAT_BEGIN
 90
        0
 91
        1
 62
     0
 92
       -2
340
0
 93
        0
 40
0.045
309
GRIDFORMAT_END
 95
       32
302
GRIDFORMAT
  1
GRIDFORMAT_BEGIN
 90
        0
 91
        1
 62
     0
 92
       -2
340
0
 93
        0
 40
0.045
309
GRIDFORMAT_END
309
TABLEFORMAT_END
  1
CELLSTYLE_BEGIN
 90
        1
 91
        1
300
_TITLE
309
CELLSTYLE_END
300
CELLSTYLE
  1
TABLEFORMAT_BEGIN
 90
        5
170
     1
 91
        0
 92
        0
 62
   257
 93
        1
300
CONTENTFORMAT
  1
CONTENTFORMAT_BEGIN
 90
        0
 91
        0
 92
      512
 93
        0
300

 40
0.0
140
1.0
 94
        5
 62
     0
340
11
144
0.18
309
CONTENTFORMAT_END
171
     1
301
MARGIN
  1
CELLMARGIN_BEGIN
 40
0.06
 40
0.06
 40
0.06
 40
0.06
 40
0.18
 40
0.18
309
CELLMARGIN_END
 94
        6
 95
        1
302
GRIDFORMAT
  1
GRIDFORMAT_BEGIN
 90
        0
 91
        1
 62
     0
 92
       -2
340
0
 93
        0
 40
0.045
309
GRIDFORMAT_END
 95
        2
302
GRIDFORMAT
  1
GRIDFORMAT_BEGIN
 90
        0
 91
        1
 62
     0
 92
       -2
340
0
 93
        0
 40
0.045
309
GRIDFORMAT_END
 95
        4
302
GRIDFORMAT
  1
GRIDFORMAT_BEGIN
 90
        0
 91
        1
 62
     0
 92
       -2
340
0
 93
        0
 40
0.045
309
GRIDFORMAT_END
 95
        8
302
GRIDFORMAT
  1
GRIDFORMAT_BEGIN
 90
        0
 91
        1
 62
     0
 92
       -2
340
0
 93
        0
 40
0.045
309
GRIDFORMAT_END
 95
       16
302
GRIDFORMAT
  1
GRIDFORMAT_BEGIN
 90
        0
 91
        1
 62
     0
 92
       -2
340
0
 93
        0
 40
0.045
309
GRIDFORMAT_END
 95
       32
302
GRIDFORMAT
  1
GRIDFORMAT_BEGIN
 90
        0
 91
        1
 62
     0
 92
       -2
340
0
 93
        0
 40
0.045
309
GRIDFORMAT_END
309
TABLEFORMAT_END
  1
CELLSTYLE_BEGIN
 90
        2
 91
        1
300
_HEADER
309
CELLSTYLE_END
300
CELLSTYLE
  1
TABLEFORMAT_BEGIN
 90
        5
170
     1
 91
        0
 92
        0
 62
   257
 93
        1
300
CONTENTFORMAT
  1
CONTENTFORMAT_BEGIN
 90
        0
 91
        0
 92
      512
 93
        0
300

 40
0.0
140
1.0
 94
        2
 62
     0
340
11
144
0.18
309
CONTENTFORMAT_END
171
     1
301
MARGIN
  1
CELLMARGIN_BEGIN
 40
0.06
 40
0.06
 40
0.06
 40
0.06
 40
0.18
 40
0.18
309
CELLMARGIN_END
 94
        6
 95
        1
302
GRIDFORMAT
  1
GRIDFORMAT_BEGIN
 90
        0
 91
        1
 62
     0
 92
       -2
340
0
 93
        0
 40
0.045
309
GRIDFORMAT_END
 95
        2
302
GRIDFORMAT
  1
GRIDFORMAT_BEGIN
 90
        0
 91
        1
 62
     0
 92
       -2
340
0
 93
        0
 40
0.045
309
GRIDFORMAT_END
 95
        4
302
GRIDFORMAT
  1
GRIDFORMAT_BEGIN
 90
        0
 91
        1
 62
     0
 92
       -2
340
0
 93
        0
 40
0.045
309
GRIDFORMAT_END
 95
        8
302
GRIDFORMAT
  1
GRIDFORMAT_BEGIN
 90
        0
 91
        1
 62
     0
 92
       -2
340
0
 93
        0
 40
0.045
309
GRIDFORMAT_END
 95
       16
302
GRIDFORMAT
  1
GRIDFORMAT_BEGIN
 90
        0
 91
        1
 62
     0
 92
       -2
340
0
 93
        0
 40
0.045
309
GRIDFORMAT_END
 95
       32
302
GRIDFORMAT
  1
GRIDFORMAT_BEGIN
 90
        0
 91
        1
 62
     0
 92
       -2
340
0
 93
        0
 40
0.045
309
GRIDFORMAT_END
309
TABLEFORMAT_END
  1
CELLSTYLE_BEGIN
 90
        3
 91
        2
300
_DATA
309
CELLSTYLE_END
  0
ENDSEC
  0
EOF
