  0
SECTION
  2
HEADER
  9
$ACADVER
  1
AC1021
  9
$ACADMAINTVER
 70
    25
  9
$DWGCODEPAGE
  3
ANSI_936
  9
$LASTSAVEDBY
  1
zb.ye
  9
$INSBASE
 10
0.0
 20
0.0
 30
0.0
  9
$EXTMIN
 10
362.2123901745703
 20
289.5705433766078
 30
-0.0000000000112498
  9
$EXTMAX
 10
510.7278086859677
 20
394.5777219342511
 30
0.0000000000002956
  9
$LIMMIN
 10
0.0
 20
0.0
  9
$LIMMAX
 10
12.0
 20
9.0
  9
$ORTHOMODE
 70
     0
  9
$REGENMODE
 70
     1
  9
$FILLMODE
 70
     1
  9
$QTEXTMODE
 70
     0
  9
$MIRRTEXT
 70
     1
  9
$LTSCALE
 40
1.0
  9
$ATTMODE
 70
     1
  9
$TEXTSIZE
 40
0.2
  9
$TRACEWID
 40
0.05
  9
$TEXTSTYLE
  7
Standard
  9
$CLAYER
  8
DIM
  9
$CELTYPE
  6
ByLayer
  9
$CECOLOR
 62
   256
  9
$CELTSCALE
 40
1.0
  9
$DISPSILH
 70
     0
  9
$DIMSCALE
 40
1.0
  9
$DIMASZ
 40
1.5
  9
$DIMEXO
 40
0.2
  9
$DIMDLI
 40
0.2
  9
$DIMRND
 40
0.0
  9
$DIMDLE
 40
0.0
  9
$DIMEXE
 40
0.5
  9
$DIMTP
 40
0.0
  9
$DIMTM
 40
0.0
  9
$DIMTXT
 40
2.0
  9
$DIMCEN
 40
0.0
  9
$DIMTSZ
 40
0.0
  9
$DIMTOL
 70
     0
  9
$DIMLIM
 70
     0
  9
$DIMTIH
 70
     0
  9
$DIMTOH
 70
     0
  9
$DIMSE1
 70
     0
  9
$DIMSE2
 70
     0
  9
$DIMTAD
 70
     1
  9
$DIMZIN
 70
     8
  9
$DIMBLK
  1

  9
$DIMASO
 70
     1
  9
$DIMSHO
 70
     1
  9
$DIMPOST
  1

  9
$DIMAPOST
  1

  9
$DIMALT
 70
     0
  9
$DIMALTD
 70
     2
  9
$DIMALTF
 40
25.4
  9
$DIMLFAC
 40
1.0
  9
$DIMTOFL
 70
     0
  9
$DIMTVP
 40
0.0
  9
$DIMTIX
 70
     0
  9
$DIMSOXD
 70
     0
  9
$DIMSAH
 70
     0
  9
$DIMBLK1
  1

  9
$DIMBLK2
  1

  9
$DIMSTYLE
  2
01
  9
$DIMCLRD
 70
     1
  9
$DIMCLRE
 70
     6
  9
$DIMCLRT
 70
     4
  9
$DIMTFAC
 40
1.0
  9
$DIMGAP
 40
0.5
  9
$DIMJUST
 70
     0
  9
$DIMSD1
 70
     0
  9
$DIMSD2
 70
     0
  9
$DIMTOLJ
 70
     1
  9
$DIMTZIN
 70
     0
  9
$DIMALTZ
 70
     0
  9
$DIMALTTZ
 70
     0
  9
$DIMUPT
 70
     0
  9
$DIMDEC
 70
     1
  9
$DIMTDEC
 70
     1
  9
$DIMALTU
 70
     2
  9
$DIMALTTD
 70
     2
  9
$DIMTXSTY
  7
Romans字体
  9
$DIMAUNIT
 70
     0
  9
$DIMADEC
 70
     2
  9
$DIMALTRND
 40
0.0
  9
$DIMAZIN
 70
     2
  9
$DIMDSEP
 70
    46
  9
$DIMATFIT
 70
     3
  9
$DIMFRAC
 70
     0
  9
$DIMLDRBLK
  1

  9
$DIMLUNIT
 70
     2
  9
$DIMLWD
 70
    -2
  9
$DIMLWE
 70
    -2
  9
$DIMTMOVE
 70
     0
  9
$DIMFXL
 40
1.0
  9
$DIMFXLON
 70
     0
  9
$DIMJOGANG
 40
0.7853981633974483
  9
$DIMTFILL
 70
     0
  9
$DIMTFILLCLR
 70
     0
  9
$DIMARCSYM
 70
     0
  9
$DIMLTYPE
  6

  9
$DIMLTEX1
  6

  9
$DIMLTEX2
  6

  9
$LUNITS
 70
     2
  9
$LUPREC
 70
     4
  9
$SKETCHINC
 40
0.1
  9
$FILLETRAD
 40
0.5
  9
$AUNITS
 70
     0
  9
$AUPREC
 70
     0
  9
$MENU
  1
.
  9
$ELEVATION
 40
0.0
  9
$PELEVATION
 40
0.0
  9
$THICKNESS
 40
0.0
  9
$LIMCHECK
 70
     0
  9
$CHAMFERA
 40
0.5
  9
$CHAMFERB
 40
0.5
  9
$CHAMFERC
 40
1.0
  9
$CHAMFERD
 40
0.0
  9
$SKPOLY
 70
     0
  9
$TDCREATE
 40
2456524.383632987
  9
$TDUCREATE
 40
2456524.050299653
  9
$TDUPDATE
 40
2460291.390060417
  9
$TDUUPDATE
 40
2460291.056727083
  9
$TDINDWG
 40
1.1896262037
  9
$TDUSRTIMER
 40
1.1896069329
  9
$USRTIMER
 70
     1
  9
$ANGBASE
 50
0.0
  9
$ANGDIR
 70
     0
  9
$PDMODE
 70
     0
  9
$PDSIZE
 40
0.0
  9
$PLINEWID
 40
0.0
  9
$SPLFRAME
 70
     0
  9
$SPLINETYPE
 70
     6
  9
$SPLINESEGS
 70
     8
  9
$HANDSEED
  5
15C7A
  9
$SURFTAB1
 70
     6
  9
$SURFTAB2
 70
     6
  9
$SURFTYPE
 70
     6
  9
$SURFU
 70
     6
  9
$SURFV
 70
     6
  9
$UCSBASE
  2

  9
$UCSNAME
  2

  9
$UCSORG
 10
0.0
 20
0.0
 30
0.0
  9
$UCSXDIR
 10
1.0
 20
0.0
 30
0.0
  9
$UCSYDIR
 10
0.0
 20
1.0
 30
0.0
  9
$UCSORTHOREF
  2

  9
$UCSORTHOVIEW
 70
     0
  9
$UCSORGTOP
 10
0.0
 20
0.0
 30
0.0
  9
$UCSORGBOTTOM
 10
0.0
 20
0.0
 30
0.0
  9
$UCSORGLEFT
 10
0.0
 20
0.0
 30
0.0
  9
$UCSORGRIGHT
 10
0.0
 20
0.0
 30
0.0
  9
$UCSORGFRONT
 10
0.0
 20
0.0
 30
0.0
  9
$UCSORGBACK
 10
0.0
 20
0.0
 30
0.0
  9
$PUCSBASE
  2

  9
$PUCSNAME
  2

  9
$PUCSORG
 10
0.0
 20
0.0
 30
0.0
  9
$PUCSXDIR
 10
1.0
 20
0.0
 30
0.0
  9
$PUCSYDIR
 10
0.0
 20
1.0
 30
0.0
  9
$PUCSORTHOREF
  2

  9
$PUCSORTHOVIEW
 70
     0
  9
$PUCSORGTOP
 10
0.0
 20
0.0
 30
0.0
  9
$PUCSORGBOTTOM
 10
0.0
 20
0.0
 30
0.0
  9
$PUCSORGLEFT
 10
0.0
 20
0.0
 30
0.0
  9
$PUCSORGRIGHT
 10
0.0
 20
0.0
 30
0.0
  9
$PUCSORGFRONT
 10
0.0
 20
0.0
 30
0.0
  9
$PUCSORGBACK
 10
0.0
 20
0.0
 30
0.0
  9
$USERI1
 70
     0
  9
$USERI2
 70
     0
  9
$USERI3
 70
     0
  9
$USERI4
 70
     0
  9
$USERI5
 70
     0
  9
$USERR1
 40
0.0
  9
$USERR2
 40
0.0
  9
$USERR3
 40
0.0
  9
$USERR4
 40
0.0
  9
$USERR5
 40
0.0
  9
$WORLDVIEW
 70
     1
  9
$SHADEDGE
 70
     3
  9
$SHADEDIF
 70
    70
  9
$TILEMODE
 70
     1
  9
$MAXACTVP
 70
    64
  9
$PINSBASE
 10
0.0
 20
0.0
 30
0.0
  9
$PLIMCHECK
 70
     0
  9
$PEXTMIN
 10
1.000000000000000E+20
 20
1.000000000000000E+20
 30
1.000000000000000E+20
  9
$PEXTMAX
 10
-1.000000000000000E+20
 20
-1.000000000000000E+20
 30
-1.000000000000000E+20
  9
$PLIMMIN
 10
0.0
 20
0.0
  9
$PLIMMAX
 10
12.0
 20
9.0
  9
$UNITMODE
 70
     0
  9
$VISRETAIN
 70
     1
  9
$PLINEGEN
 70
     0
  9
$PSLTSCALE
 70
     1
  9
$TREEDEPTH
 70
  3020
  9
$CMLSTYLE
  2
Standard
  9
$CMLJUST
 70
     0
  9
$CMLSCALE
 40
1.0
  9
$PROXYGRAPHICS
 70
     1
  9
$MEASUREMENT
 70
     0
  9
$CELWEIGHT
370
    -1
  9
$ENDCAPS
280
     0
  9
$JOINSTYLE
280
     0
  9
$LWDISPLAY
290
     0
  9
$INSUNITS
 70
     1
  9
$HYPERLINKBASE
  1

  9
$STYLESHEET
  1
MONOCHROME.CTB
  9
$XEDIT
290
     1
  9
$CEPSNTYPE
380
     0
  9
$PSTYLEMODE
290
     1
  9
$FINGERPRINTGUID
  2
{4A02065B-8BB3-4A96-9036-502DC906C165}
  9
$VERSIONGUID
  2
{E3C36CC4-7E1D-43FD-ABCF-C9299B0A6935}
  9
$EXTNAMES
290
     1
  9
$PSVPSCALE
 40
0.0
  9
$OLESTARTUP
290
     0
  9
$SORTENTS
280
   127
  9
$INDEXCTL
280
     0
  9
$HIDETEXT
280
     0
  9
$XCLIPFRAME
290
     0
  9
$HALOGAP
280
     0
  9
$OBSCOLOR
 70
   257
  9
$OBSLTYPE
280
     0
  9
$INTERSECTIONDISPLAY
280
     0
  9
$INTERSECTIONCOLOR
 70
   257
  9
$DIMASSOC
280
     1
  9
$PROJECTNAME
  1

  9
$CAMERADISPLAY
290
     0
  9
$LENSLENGTH
 40
50.0
  9
$CAMERAHEIGHT
 40
0.0
  9
$STEPSPERSEC
 40
2.0
  9
$STEPSIZE
 40
6.0
  9
$3DDWFPREC
 40
2.0
  9
$PSOLWIDTH
 40
0.25
  9
$PSOLHEIGHT
 40
4.0
  9
$LOFTANG1
 40
1.570796326794896
  9
$LOFTANG2
 40
1.570796326794896
  9
$LOFTMAG1
 40
0.0
  9
$LOFTMAG2
 40
0.0
  9
$LOFTPARAM
 70
     7
  9
$LOFTNORMALS
280
     1
  9
$LATITUDE
 40
37.795
  9
$LONGITUDE
 40
-122.394
  9
$NORTHDIRECTION
 40
0.0
  9
$TIMEZONE
 70
 -8000
  9
$LIGHTGLYPHDISPLAY
280
     1
  9
$TILEMODELIGHTSYNCH
280
     1
  9
$CMATERIAL
347
4FE6
  9
$SOLIDHIST
280
     1
  9
$SHOWHIST
280
     1
  9
$DWFFRAME
280
     2
  9
$DGNFRAME
280
     0
  9
$REALWORLDSCALE
290
     1
  9
$INTERFERECOLOR
 62
     1
  9
$INTERFEREOBJVS
345
33
  9
$INTERFEREVPVS
346
30
  9
$CSHADOW
280
     0
  9
$SHADOWPLANELOCATION
 40
0.0
  0
ENDSEC
  0
SECTION
  2
CLASSES
  0
CLASS
  1
ACDBDICTIONARYWDFLT
  2
AcDbDictionaryWithDefault
  3
ObjectDBX Classes
 90
        0
 91
        1
280
     0
281
     0
  0
CLASS
  1
VISUALSTYLE
  2
AcDbVisualStyle
  3
ObjectDBX Classes
 90
     4095
 91
       16
280
     0
281
     0
  0
CLASS
  1
MATERIAL
  2
AcDbMaterial
  3
ObjectDBX Classes
 90
     1153
 91
        3
280
     0
281
     0
  0
CLASS
  1
TABLESTYLE
  2
AcDbTableStyle
  3
ObjectDBX Classes
 90
     4095
 91
        1
280
     0
281
     0
  0
CLASS
  1
SCALE
  2
AcDbScale
  3
ObjectDBX Classes
 90
     1153
 91
       33
280
     0
281
     0
  0
CLASS
  1
MLEADERSTYLE
  2
AcDbMLeaderStyle
  3
ACDB_MLEADERSTYLE_CLASS
 90
     4095
 91
        1
280
     0
281
     0
  0
CLASS
  1
CELLSTYLEMAP
  2
AcDbCellStyleMap
  3
ObjectDBX Classes
 90
     1152
 91
        2
280
     0
281
     0
  0
CLASS
  1
DICTIONARYVAR
  2
AcDbDictionaryVar
  3
ObjectDBX Classes
 90
        0
 91
        8
280
     0
281
     0
  0
CLASS
  1
SORTENTSTABLE
  2
AcDbSortentsTable
  3
ObjectDBX Classes
 90
        0
 91
        1
280
     0
281
     0
  0
CLASS
  1
ACAD_EVALUATION_GRAPH
  2
AcDbEvalGraph
  3
ObjectDBX Classes
 90
     1153
 91
        0
280
     0
281
     0
  0
CLASS
  1
ACAECUSTOBJ
  2
AcAeEditorObj
  3
AcAeEditorObj
 90
     1024
 91
        0
280
     0
281
     0
  0
CLASS
  1
ACDB_DYNAMICBLOCKPURGEPREVENTER_VERSION
  2
AcDbDynamicBlockPurgePreventer
  3
ObjectDBX Classes
 90
     1153
 91
        0
280
     0
281
     0
  0
CLASS
  1
MENTALRAYRENDERSETTINGS
  2
AcDbMentalRayRenderSettings
  3
SCENEOE
 90
     1024
 91
        1
280
     0
281
     0
  0
CLASS
  1
ACDB_BLOCKREPRESENTATION_DATA
  2
AcDbBlockRepresentationData
  3
ObjectDBX Classes
 90
     1153
 91
        0
280
     0
281
     0
  0
CLASS
  1
DIMASSOC
  2
AcDbDimAssoc
  3
"AcDbDimAssoc|Product Desc:     AcDim ARX App For Dimension|Company:          Autodesk, Inc.|WEB Address:      www.autodesk.com"
 90
        0
 91
        0
280
     0
281
     0
  0
ENDSEC
  0
SECTION
  2
TABLES
  0
TABLE
  2
VPORT
  5
8
102
{ACAD_XDICTIONARY
360
50EE
102
}
330
0
100
AcDbSymbolTable
 70
     1
  0
VPORT
  5
29
330
8
100
AcDbSymbolTableRecord
100
AcDbViewportTableRecord
  2
*Active
 70
     0
 10
0.0
 20
0.0
 11
1.0
 21
1.0
 12
331.5046025583604
 22
193.5719018868316
 13
0.0
 23
0.0
 14
0.5
 24
0.5
 15
0.5
 25
0.5
 16
0.0
 26
0.0
 36
1.0
 17
104.9654968719086
 27
148.5022307685978
 37
0.0
 40
106.0714405024843
 41
2.426395939086294
 42
50.0
 43
0.0
 44
0.0
 50
0.0
 51
0.0
 71
     0
 72
   100
 73
     1
 74
     3
 75
     0
 76
     0
 77
     0
 78
     0
281
     0
 65
     1
110
0.0
120
0.0
130
0.0
111
1.0
121
0.0
131
0.0
112
0.0
122
1.0
132
0.0
 79
     0
146
0.0
348
2F
 60
     3
 61
     5
292
     1
282
     1
141
0.0
142
0.0
 63
   250
421
  3355443
  0
ENDTAB
  0
TABLE
  2
LTYPE
  5
5
330
0
100
AcDbSymbolTable
 70
     2
  0
LTYPE
  5
14
330
5
100
AcDbSymbolTableRecord
100
AcDbLinetypeTableRecord
  2
ByBlock
 70
     0
  3

 72
    65
 73
     0
 40
0.0
  0
LTYPE
  5
15
330
5
100
AcDbSymbolTableRecord
100
AcDbLinetypeTableRecord
  2
ByLayer
 70
     0
  3

 72
    65
 73
     0
 40
0.0
  0
LTYPE
  5
16
330
5
100
AcDbSymbolTableRecord
100
AcDbLinetypeTableRecord
  2
Continuous
 70
     0
  3
Solid line
 72
    65
 73
     0
 40
0.0
  0
LTYPE
  5
67BA
330
5
100
AcDbSymbolTableRecord
100
AcDbLinetypeTableRecord
  2
CENTER
 70
     0
  3
Center ____ _ ____ _ ____ _ ____ _ ____ _ ____
 72
    65
 73
     4
 40
2.0
 49
1.25
 74
     0
 49
-0.25
 74
     0
 49
0.25
 74
     0
 49
-0.25
 74
     0
  0
ENDTAB
  0
TABLE
  2
LAYER
  5
2
102
{ACAD_XDICTIONARY
360
50B8
102
}
330
0
100
AcDbSymbolTable
 70
     8
  0
LAYER
  5
10
102
{ACAD_XDICTIONARY
360
50D0
102
}
330
2
100
AcDbSymbolTableRecord
100
AcDbLayerTableRecord
  2
0
 70
     0
 62
     7
  6
Continuous
370
    30
390
F
347
4FF6
  0
LAYER
  5
3B
102
{ACAD_XDICTIONARY
360
50D2
102
}
330
2
100
AcDbSymbolTableRecord
100
AcDbLayerTableRecord
  2
图层 1
 70
     0
 62
     7
  6
Continuous
370
    -3
390
F
347
4FF6
  0
LAYER
  5
50AE
102
{ACAD_XDICTIONARY
360
50AF
102
}
330
2
100
AcDbSymbolTableRecord
100
AcDbLayerTableRecord
  2
图框
 70
     0
 62
     7
  6
Continuous
370
    20
390
F
347
4FF6
  0
LAYER
  5
5141
330
2
100
AcDbSymbolTableRecord
100
AcDbLayerTableRecord
  2
Defpoints
 70
     0
 62
     7
  6
Continuous
290
     0
370
    -3
390
F
347
4FF6
  0
LAYER
  5
5144
330
2
100
AcDbSymbolTableRecord
100
AcDbLayerTableRecord
  2
DIM
 70
     0
 62
     3
  6
Continuous
370
    15
390
F
347
4FF6
1001
AcAecLayerStandard
1000

1000

  0
LAYER
  5
52F3
330
2
100
AcDbSymbolTableRecord
100
AcDbLayerTableRecord
  2
打标文字
 70
     0
 62
     3
  6
Continuous
370
    20
390
F
347
4FF6
  0
LAYER
  5
67B7
330
2
100
AcDbSymbolTableRecord
100
AcDbLayerTableRecord
  2
CEN
 70
     0
 62
     1
  6
CENTER
370
    15
390
F
347
4FF6
1001
AcAecLayerStandard
1000

1000

  0
LAYER
  5
1581D
102
{ACAD_XDICTIONARY
360
1581E
102
}
330
2
100
AcDbSymbolTableRecord
100
AcDbLayerTableRecord
  2
02___PRT_ALL_AXES
 70
     0
 62
     7
  6
Continuous
370
    -3
390
F
347
4FF6
  0
ENDTAB
  0
TABLE
  2
STYLE
  5
3
330
0
100
AcDbSymbolTable
 70
     4
  0
STYLE
  5
11
330
3
100
AcDbSymbolTableRecord
100
AcDbTextStyleTableRecord
  2
Standard
 70
     0
 40
0.0
 41
0.75
 50
0.0
 71
     0
 42
0.2
  3
SIMFANG.TTF
  4

1001
ACAD
1000
FangSong_GB2312
1071
    34353
  0
STYLE
  5
FD48
330
3
100
AcDbSymbolTableRecord
100
AcDbTextStyleTableRecord
  2
Romans字体
 70
     0
 40
0.0
 41
0.75
 50
0.0
 71
     0
 42
0.2
  3
romans.shx
  4

  0
STYLE
  5
11080
330
3
100
AcDbSymbolTableRecord
100
AcDbTextStyleTableRecord
  2
工程字
 70
     0
 40
0.0
 41
1.0
 50
0.0
 71
     0
 42
3.5
  3
gbenor.shx
  4
gbcbig.shx
  0
STYLE
  5
11081
330
3
100
AcDbSymbolTableRecord
100
AcDbTextStyleTableRecord
  2
Chinese
 70
     0
 40
0.0
 41
1.0
 50
0.0
 71
     0
 42
2.5
  3
PMingLiU.ttf
  4

1001
ACAD
1000
PMingLiU
1071
    34834
  0
ENDTAB
  0
TABLE
  2
VIEW
  5
6
330
0
100
AcDbSymbolTable
 70
     0
  0
ENDTAB
  0
TABLE
  2
UCS
  5
7
330
0
100
AcDbSymbolTable
 70
     0
  0
ENDTAB
  0
TABLE
  2
APPID
  5
9
330
0
100
AcDbSymbolTable
 70
    17
  0
APPID
  5
12
330
9
100
AcDbSymbolTableRecord
100
AcDbRegAppTableRecord
  2
ACAD
 70
     0
  0
APPID
  5
5024
330
9
100
AcDbSymbolTableRecord
100
AcDbRegAppTableRecord
  2
ACAD_MLEADERVER
 70
     0
  0
APPID
  5
50B5
330
9
100
AcDbSymbolTableRecord
100
AcDbRegAppTableRecord
  2
AcDbDynamicBlockGUID
 70
     0
  0
APPID
  5
50B6
330
9
100
AcDbSymbolTableRecord
100
AcDbRegAppTableRecord
  2
AcDbBlockRepETag
 70
     0
  0
APPID
  5
50B7
330
9
100
AcDbSymbolTableRecord
100
AcDbRegAppTableRecord
  2
ACAD_PSEXT
 70
     0
  0
APPID
  5
50CF
330
9
100
AcDbSymbolTableRecord
100
AcDbRegAppTableRecord
  2
AcadAnnoPO
 70
     0
  0
APPID
  5
5146
330
9
100
AcDbSymbolTableRecord
100
AcDbRegAppTableRecord
  2
AcAecLayerStandard
 70
     0
  0
APPID
  5
5147
330
9
100
AcDbSymbolTableRecord
100
AcDbRegAppTableRecord
  2
ACAD_DSTYLE_DIMJAG
 70
     0
  0
APPID
  5
5148
330
9
100
AcDbSymbolTableRecord
100
AcDbRegAppTableRecord
  2
ACAD_DSTYLE_DIMTALN
 70
     0
  0
APPID
  5
52AD
330
9
100
AcDbSymbolTableRecord
100
AcDbRegAppTableRecord
  2
ACAUTHENVIRON
 70
     0
  0
APPID
  5
52B0
330
9
100
AcDbSymbolTableRecord
100
AcDbRegAppTableRecord
  2
AcDbDynamicBlockTrueName
 70
     0
  0
APPID
  5
67C6
330
9
100
AcDbSymbolTableRecord
100
AcDbRegAppTableRecord
  2
ACAD_EXEMPT_FROM_CAD_STANDARDS
 70
     0
  0
APPID
  5
6838
330
9
100
AcDbSymbolTableRecord
100
AcDbRegAppTableRecord
  2
ACAD_NAV_VCDISPLAY
 70
     0
  0
APPID
  5
70A9
330
9
100
AcDbSymbolTableRecord
100
AcDbRegAppTableRecord
  2
DCO15
 70
     0
  0
APPID
  5
8725
330
9
100
AcDbSymbolTableRecord
100
AcDbRegAppTableRecord
  2
AcDbBlockRepBTag
 70
     0
  0
APPID
  5
FE64
330
9
100
AcDbSymbolTableRecord
100
AcDbRegAppTableRecord
  2
ACAD_DSTYLE_DIMRADIAL_EXTENSION
 70
     0
  0
APPID
  5
FF93
330
9
100
AcDbSymbolTableRecord
100
AcDbRegAppTableRecord
  2
ACAD_DSTYLE_DIMBREAK
 70
     0
  0
ENDTAB
  0
TABLE
  2
DIMSTYLE
  5
A
330
0
100
AcDbSymbolTable
 70
     2
100
AcDbDimStyleTable
 71
     2
340
5145
340
27
  0
DIMSTYLE
105
27
330
A
100
AcDbSymbolTableRecord
100
AcDbDimStyleTableRecord
  2
Standard
 70
     0
340
11
  0
DIMSTYLE
105
5145
102
{ACAD_REACTORS
330
158F8
330
158FC
330
158FB
330
158F9
330
158FA
102
}
330
A
100
AcDbSymbolTableRecord
100
AcDbDimStyleTableRecord
  2
01
 70
     0
 41
1.5
 42
0.2
 43
0.2
 44
0.5
 73
     0
 74
     0
 77
     1
 78
     8
 79
     2
140
2.0
141
0.0
147
0.5
176
     1
177
     6
178
     4
179
     2
271
     1
272
     1
340
FD48
1001
ACAD_DSTYLE_DIMJAG
1070
   388
1040
1.5
1001
ACAD_DSTYLE_DIMTALN
1070
   392
1070
     0
  0
ENDTAB
  0
TABLE
  2
BLOCK_RECORD
  5
1
330
0
100
AcDbSymbolTable
 70
    16
  0
BLOCK_RECORD
  5
1F
102
{ACAD_XDICTIONARY
360
67C0
102
}
330
1
100
AcDbSymbolTableRecord
100
AcDbBlockTableRecord
  2
*Model_Space
340
22
 70
     0
280
     1
281
     0
  0
BLOCK_RECORD
  5
1B
330
1
100
AcDbSymbolTableRecord
100
AcDbBlockTableRecord
  2
*Paper_Space
340
1E
 70
     0
280
     1
281
     0
  0
BLOCK_RECORD
  5
23
330
1
100
AcDbSymbolTableRecord
100
AcDbBlockTableRecord
  2
*Paper_Space0
340
26
 70
     0
280
     1
281
     0
  0
BLOCK_RECORD
  5
15410
330
1
100
AcDbSymbolTableRecord
100
AcDbBlockTableRecord
  2
*D1
340
0
 70
     0
280
     1
281
     0
  0
BLOCK_RECORD
  5
1541D
330
1
100
AcDbSymbolTableRecord
100
AcDbBlockTableRecord
  2
*D2
340
0
 70
     0
280
     1
281
     0
  0
BLOCK_RECORD
  5
1542B
330
1
100
AcDbSymbolTableRecord
100
AcDbBlockTableRecord
  2
*D3
340
0
 70
     0
280
     1
281
     0
  0
BLOCK_RECORD
  5
15439
330
1
100
AcDbSymbolTableRecord
100
AcDbBlockTableRecord
  2
*D4
340
0
 70
     0
280
     1
281
     0
  0
BLOCK_RECORD
  5
156B5
102
{ACAD_XDICTIONARY
360
15C30
102
}
330
1
100
AcDbSymbolTableRecord
100
AcDbBlockTableRecord
  2
A4图框-NEW
340
0
310
2800000020000000200000000100080000000000000400000000000000000000000000000000000000000000000080000080000000808000800000008000800080800000C0C0C000C0DCC000F0CAA6000020400000206000002080000020A0000020C0000020E00000400000004020000040400000406000004080000040A0
310
000040C0000040E00000600000006020000060400000606000006080000060A0000060C0000060E00000800000008020000080400000806000008080000080A0000080C0000080E00000A0000000A0200000A0400000A0600000A0800000A0A00000A0C00000A0E00000C0000000C0200000C0400000C0600000C0800000C0
310
A00000C0C00000C0E00000E0000000E0200000E0400000E0600000E0800000E0A00000E0C00000E0E00040000000400020004000400040006000400080004000A0004000C0004000E00040200000402020004020400040206000402080004020A0004020C0004020E000404000004040200040404000404060004040800040
310
40A0004040C0004040E00040600000406020004060400040606000406080004060A0004060C0004060E00040800000408020004080400040806000408080004080A0004080C0004080E00040A0000040A0200040A0400040A0600040A0800040A0A00040A0C00040A0E00040C0000040C0200040C0400040C0600040C08000
310
40C0A00040C0C00040C0E00040E0000040E0200040E0400040E0600040E0800040E0A00040E0C00040E0E00080000000800020008000400080006000800080008000A0008000C0008000E00080200000802020008020400080206000802080008020A0008020C0008020E00080400000804020008040400080406000804080
310
008040A0008040C0008040E00080600000806020008060400080606000806080008060A0008060C0008060E00080800000808020008080400080806000808080008080A0008080C0008080E00080A0000080A0200080A0400080A0600080A0800080A0A00080A0C00080A0E00080C0000080C0200080C0400080C0600080C0
310
800080C0A00080C0C00080C0E00080E0000080E0200080E0400080E0600080E0800080E0A00080E0C00080E0E000C0000000C0002000C0004000C0006000C0008000C000A000C000C000C000E000C0200000C0202000C0204000C0206000C0208000C020A000C020C000C020E000C0400000C0402000C0404000C0406000C0
310
408000C040A000C040C000C040E000C0600000C0602000C0604000C0606000C0608000C060A000C060C000C060E000C0800000C0802000C0804000C0806000C0808000C080A000C080C000C080E000C0A00000C0A02000C0A04000C0A06000C0A08000C0A0A000C0A0C000C0A0E000C0C00000C0C02000C0C04000C0C06000
310
C0C08000C0C0A000F0FBFF00A4A0A000808080000000FF0000FF000000FFFF00FF000000FF00FF00FFFF0000FFFFFF0000000000000000000000000000000000000000000000000000000000000000000000000000000000000000000000000000000000000000000000000000000000000000000000000000000000000000
310
000000000000000000000000000000000000000000000000000000000000000000000000000000000000000000000000000000000000000000000000000000000000000000000000000000000000000000000000000000000000000000000000000000000000000000000000000000000000F9F9F9F9F9F9F9F9F9F9F9F9F9
310
F9F9F9F9F9F9F9F9F9F9F9F9F9F9FF00000000F9FF000000000000000000FFFFFFFFFFFFFFFFFFFFFFFFF9FAFAFAFF00000000F9FF000000000000000000FFFFFFFFFFFFFFFFFFFFFFFFFFFFFFFFFF00000000F9FD000000000000000000FFFFFFFFFFFFFFFFFFFFFFFFFFFFFFFFFF00000000F9FF000000000000000000FF
310
FFFFFFFFFFFFFFFFFFFFFFFFFFFFFFFF00000000F9FD000000000000000000FFFFFFFFFFFFFFFFFFFFFFFFFFFFFFFFFF00000000F9FF00000000000000000000000000000000000000000000000000FF00000000F9FD00000000000000000000000000000000000000000000000000FF00000000F9FF000000000000000000
310
00000000000000000000000000000000FF00000000F9FD00000000000000000000000000000000000000000000000000FF00000000F9FF00000000000000000000000000000000000000000000000000FF00000000F9FD00000000000000000000000000000000000000000000000000FF00000000F9FD0000000000000000
310
0000000000000000000000000000000000FF00000000F9FF00000000000000000000000000000000000000000000000000FF00000000F9FD00000000000000000000000000000000000000000000000000FF00000000F9FF00000000000000000000000000000000000000000000000000FF00000000F9FD00000000000000
310
000000000000000000000000000000000000FF00000000F9FF00000000000000000000000000000000000000000000000000FF00000000F9FFFFFFFFFFFFFFFFFFFFFFFFFFFFFFFFFFFFFFFFFFFFFFFFFFFFFF00000000F9FFFFFFF9F9F9F9F9F9F9F9F9F9F9F9F9F9F9F9F9F9F9F9F9F9F9F9000000000000000000000000
310
00000000000000000000000000000000000000000000000000000000000000000000000000000000000000000000000000000000000000000000000000000000000000000000000000000000000000000000000000000000000000000000000000000000000000000000000000000000000000000000000000000000000000
310
0000000000000000000000000000000000000000000000000000000000000000000000000000000000000000000000000000000000000000
102
{BLKREFS
331
1575A
102
}
 70
     4
280
     1
281
     0
1001
AcDbDynamicBlockGUID
1000
{361C8420-5860-4707-A8F0-C695EC62B280}
1001
AcDbBlockRepETag
1070
     1
1071
      149
  0
BLOCK_RECORD
  5
157DE
330
1
100
AcDbSymbolTableRecord
100
AcDbBlockTableRecord
  2
*D6
340
0
 70
     0
280
     1
281
     0
  0
BLOCK_RECORD
  5
157EB
330
1
100
AcDbSymbolTableRecord
100
AcDbBlockTableRecord
  2
*D7
340
0
 70
     0
280
     1
281
     0
  0
BLOCK_RECORD
  5
157F8
330
1
100
AcDbSymbolTableRecord
100
AcDbBlockTableRecord
  2
*D8
340
0
 70
     0
280
     1
281
     0
  0
BLOCK_RECORD
  5
15805
330
1
100
AcDbSymbolTableRecord
100
AcDbBlockTableRecord
  2
*D9
340
0
 70
     0
280
     1
281
     0
  0
BLOCK_RECORD
  5
15811
330
1
100
AcDbSymbolTableRecord
100
AcDbBlockTableRecord
  2
*D10
340
0
 70
     0
280
     1
281
     0
  0
BLOCK_RECORD
  5
1590B
330
1
100
AcDbSymbolTableRecord
100
AcDbBlockTableRecord
  2
*D11
340
0
 70
     0
280
     1
281
     0
  0
BLOCK_RECORD
  5
15918
330
1
100
AcDbSymbolTableRecord
100
AcDbBlockTableRecord
  2
*D12
340
0
 70
     0
280
     1
281
     0
  0
BLOCK_RECORD
  5
15925
330
1
100
AcDbSymbolTableRecord
100
AcDbBlockTableRecord
  2
*D13
340
0
 70
     0
280
     1
281
     0
  0
BLOCK_RECORD
  5
15932
330
1
100
AcDbSymbolTableRecord
100
AcDbBlockTableRecord
  2
*D14
340
0
 70
     0
280
     1
281
     0
  0
BLOCK_RECORD
  5
1593E
330
1
100
AcDbSymbolTableRecord
100
AcDbBlockTableRecord
  2
*D15
340
0
 70
     0
280
     1
281
     0
  0
ENDTAB
  0
ENDSEC
  0
SECTION
  2
BLOCKS
  0
BLOCK
  5
20
330
1F
100
AcDbEntity
  8
0
100
AcDbBlockBegin
  2
*Model_Space
 70
     0
 10
0.0
 20
0.0
 30
0.0
  3
*Model_Space
  1

  0
ENDBLK
  5
21
330
1F
100
AcDbEntity
  8
0
100
AcDbBlockEnd
  0
BLOCK
  5
1C
330
1B
100
AcDbEntity
 67
     1
  8
0
100
AcDbBlockBegin
  2
*Paper_Space
 70
     0
 10
0.0
 20
0.0
 30
0.0
  3
*Paper_Space
  1

  0
ENDBLK
  5
1D
330
1B
100
AcDbEntity
 67
     1
  8
0
100
AcDbBlockEnd
  0
BLOCK
  5
24
330
23
100
AcDbEntity
 67
     1
  8
0
100
AcDbBlockBegin
  2
*Paper_Space0
 70
     0
 10
0.0
 20
0.0
 30
0.0
  3
*Paper_Space0
  1

  0
ENDBLK
  5
25
330
23
100
AcDbEntity
 67
     1
  8
0
100
AcDbBlockEnd
  0
BLOCK
  5
15411
330
15410
100
AcDbEntity
  8
0
100
AcDbBlockBegin
  2
*D1
 70
     1
 10
0.0
 20
0.0
 30
0.0
  3
*D1
  1

  0
LINE
  5
1575E
330
15410
100
AcDbEntity
  8
DIM
 62
     6
370
    -2
100
AcDbLine
 10
414.7550013436426
 20
351.6890820402788
 30
0.0
 11
414.7550013436426
 21
342.2082351617925
 31
0.0
  0
LINE
  5
1575F
330
15410
100
AcDbEntity
  8
DIM
 62
     6
370
    -2
100
AcDbLine
 10
444.2550013436425
 20
350.8975394599701
 30
0.0
 11
444.2550013436425
 21
342.2082351617925
 31
0.0
  0
LINE
  5
15760
330
15410
100
AcDbEntity
  8
DIM
 62
     1
370
    -2
100
AcDbLine
 10
416.2550013436426
 20
342.7082351617924
 30
0.0
 11
442.7550013436427
 21
342.7082351617924
 31
0.0
  0
SOLID
  5
15761
330
15410
100
AcDbEntity
  8
DIM
 62
     1
100
AcDbTrace
 10
416.2550013436426
 20
342.9582351617924
 30
0.0
 11
416.2550013436426
 21
342.4582351617925
 31
0.0
 12
414.7550013436426
 22
342.7082351617924
 32
0.0
 13
414.7550013436426
 23
342.7082351617924
 33
0.0
  0
SOLID
  5
15762
330
15410
100
AcDbEntity
  8
DIM
 62
     1
100
AcDbTrace
 10
442.7550013436427
 20
342.9582351617924
 30
0.0
 11
442.7550013436427
 21
342.4582351617925
 31
0.0
 12
444.2550013436425
 22
342.7082351617924
 32
0.0
 13
444.2550013436425
 23
342.7082351617924
 33
0.0
  0
MTEXT
  5
15763
330
15410
100
AcDbEntity
  8
DIM
 62
     4
100
AcDbMText
 10
429.5050013436426
 20
344.2082351617925
 30
0.0
 40
2.0
 41
0.0
 46
0.0
 71
     5
 72
     1
  1
\A1;29.5
  7
Romans字体
 73
     1
 44
1.0
  0
POINT
  5
15764
330
15410
100
AcDbEntity
  8
Defpoints
 62
     0
100
AcDbPoint
 10
414.7550013436426
 20
351.8890820402788
 30
0.0
  0
POINT
  5
15765
330
15410
100
AcDbEntity
  8
Defpoints
 62
     0
100
AcDbPoint
 10
444.2550013436425
 20
351.0975394599701
 30
0.0
  0
POINT
  5
15766
330
15410
100
AcDbEntity
  8
Defpoints
 62
     0
100
AcDbPoint
 10
444.2550013436425
 20
342.7082351617924
 30
0.0
  0
ENDBLK
  5
15412
330
15410
100
AcDbEntity
  8
0
100
AcDbBlockEnd
  0
BLOCK
  5
1541E
330
1541D
100
AcDbEntity
  8
0
100
AcDbBlockBegin
  2
*D2
 70
     1
 10
0.0
 20
0.0
 30
0.0
  3
*D2
  1

  0
LINE
  5
15767
330
1541D
100
AcDbEntity
  8
DIM
 62
     6
370
    -2
100
AcDbLine
 10
419.5549993436426
 20
353.639082040279
 30
0.0
 11
407.6687280109901
 21
353.639082040279
 31
0.0
  0
LINE
  5
15768
330
1541D
100
AcDbEntity
  8
DIM
 62
     6
370
    -2
100
AcDbLine
 10
419.5550013436426
 20
350.1390820402788
 30
0.0
 11
407.6687280109901
 21
350.1390820402788
 31
0.0
  0
LINE
  5
15769
330
1541D
100
AcDbEntity
  8
DIM
 62
     1
370
    -2
100
AcDbLine
 10
408.1687280109902
 20
355.1390820402789
 30
0.0
 11
408.1687280109902
 21
356.6390820402789
 31
0.0
  0
LINE
  5
1576A
330
1541D
100
AcDbEntity
  8
DIM
 62
     1
370
    -2
100
AcDbLine
 10
408.1687280109902
 20
348.6390820402788
 30
0.0
 11
408.1687280109902
 21
341.6390820402788
 31
0.0
  0
SOLID
  5
1576B
330
1541D
100
AcDbEntity
  8
DIM
 62
     1
100
AcDbTrace
 10
407.9187280109898
 20
355.1390820402789
 30
0.0
 11
408.4187280109897
 21
355.1390820402789
 31
0.0
 12
408.1687280109902
 22
353.639082040279
 32
0.0
 13
408.1687280109902
 23
353.639082040279
 33
0.0
  0
SOLID
  5
1576C
330
1541D
100
AcDbEntity
  8
DIM
 62
     1
100
AcDbTrace
 10
407.9187280109898
 20
348.6390820402788
 30
0.0
 11
408.4187280109897
 21
348.6390820402788
 31
0.0
 12
408.1687280109902
 22
350.1390820402788
 32
0.0
 13
408.1687280109902
 23
350.1390820402788
 33
0.0
  0
MTEXT
  5
1576D
330
1541D
100
AcDbEntity
  8
DIM
 62
     4
100
AcDbMText
 10
406.6687280109896
 20
344.3890820402789
 30
0.0
 40
2.0
 41
0.0
 46
0.0
 71
     5
 72
     1
  1
\A1;%%C3.5
  7
Romans字体
 11
0.0000000000000001
 21
1.0
 31
0.0
 73
     1
 44
1.0
  0
POINT
  5
1576E
330
1541D
100
AcDbEntity
  8
Defpoints
 62
     0
100
AcDbPoint
 10
419.7549993436425
 20
353.639082040279
 30
0.0
  0
POINT
  5
1576F
330
1541D
100
AcDbEntity
  8
Defpoints
 62
     0
100
AcDbPoint
 10
419.7550013436423
 20
350.1390820402788
 30
0.0
  0
POINT
  5
15770
330
1541D
100
AcDbEntity
  8
Defpoints
 62
     0
100
AcDbPoint
 10
408.1687280109902
 20
350.1390820402788
 30
0.0
  0
ENDBLK
  5
1541F
330
1541D
100
AcDbEntity
  8
0
100
AcDbBlockEnd
  0
BLOCK
  5
1542C
330
1542B
100
AcDbEntity
  8
0
100
AcDbBlockBegin
  2
*D3
 70
     1
 10
0.0
 20
0.0
 30
0.0
  3
*D3
  1

  0
LINE
  5
15771
330
1542B
100
AcDbEntity
  8
DIM
 62
     6
370
    -2
100
AcDbLine
 10
415.5491060436686
 20
352.3890820402789
 30
0.0
 11
411.4941052557535
 21
352.3890820402789
 31
0.0
  0
LINE
  5
15772
330
1542B
100
AcDbEntity
  8
DIM
 62
     6
370
    -2
100
AcDbLine
 10
415.5491060436686
 20
351.3890820402788
 30
0.0
 11
411.4941052557535
 21
351.3890820402788
 31
0.0
  0
LINE
  5
15773
330
1542B
100
AcDbEntity
  8
DIM
 62
     1
370
    -2
100
AcDbLine
 10
411.9941052557535
 20
353.889082040279
 30
0.0
 11
411.9941052557535
 21
355.3890820402789
 31
0.0
  0
LINE
  5
15774
330
1542B
100
AcDbEntity
  8
DIM
 62
     1
370
    -2
100
AcDbLine
 10
411.9941052557535
 20
349.8890820402788
 30
0.0
 11
411.9941052557535
 21
345.4605106117074
 31
0.0
  0
SOLID
  5
15775
330
1542B
100
AcDbEntity
  8
DIM
 62
     1
100
AcDbTrace
 10
411.7441052557534
 20
353.889082040279
 30
0.0
 11
412.2441052557534
 21
353.889082040279
 31
0.0
 12
411.9941052557535
 22
352.3890820402789
 32
0.0
 13
411.9941052557535
 23
352.3890820402789
 33
0.0
  0
SOLID
  5
15776
330
1542B
100
AcDbEntity
  8
DIM
 62
     1
100
AcDbTrace
 10
411.7441052557534
 20
349.8890820402788
 30
0.0
 11
412.2441052557534
 21
349.8890820402788
 31
0.0
 12
411.9941052557535
 22
351.3890820402788
 32
0.0
 13
411.9941052557535
 23
351.3890820402788
 33
0.0
  0
MTEXT
  5
15777
330
1542B
100
AcDbEntity
  8
DIM
 62
     4
100
AcDbMText
 10
410.4941052557534
 20
346.9247963259932
 30
0.0
 40
2.0
 41
0.0
 46
0.0
 71
     5
 72
     1
  1
\A1;%%C1
  7
Romans字体
 11
0.0000000000000001
 21
1.0
 31
0.0
 73
     1
 44
1.0
  0
POINT
  5
15778
330
1542B
100
AcDbEntity
  8
Defpoints
 62
     0
100
AcDbPoint
 10
415.7491060436687
 20
352.3890820402789
 30
0.0
  0
POINT
  5
15779
330
1542B
100
AcDbEntity
  8
Defpoints
 62
     0
100
AcDbPoint
 10
415.7491060436687
 20
351.3890820402788
 30
0.0
  0
POINT
  5
1577A
330
1542B
100
AcDbEntity
  8
Defpoints
 62
     0
100
AcDbPoint
 10
411.9941052557535
 20
351.3890820402788
 30
0.0
  0
ENDBLK
  5
1542D
330
1542B
100
AcDbEntity
  8
0
100
AcDbBlockEnd
  0
BLOCK
  5
1543A
330
15439
100
AcDbEntity
  8
0
100
AcDbBlockBegin
  2
*D4
 70
     1
 10
0.0
 20
0.0
 30
0.0
  3
*D4
  1

  0
LINE
  5
1577B
330
15439
100
AcDbEntity
  8
DIM
 62
     6
370
    -2
100
AcDbLine
 10
414.7550013436426
 20
347.2002733376803
 30
0.0
 11
414.7550013436426
 21
345.8945058511122
 31
0.0
  0
LINE
  5
1577C
330
15439
100
AcDbEntity
  8
DIM
 62
     6
370
    -2
100
AcDbLine
 10
419.7549993436425
 20
349.9390820402788
 30
0.0
 11
419.7549993436425
 21
345.8945058511122
 31
0.0
  0
LINE
  5
1577D
330
15439
100
AcDbEntity
  8
DIM
 62
     1
370
    -2
100
AcDbLine
 10
416.2550013436426
 20
346.3945058511122
 30
0.0
 11
418.2549993436427
 21
346.3945058511122
 31
0.0
  0
SOLID
  5
1577E
330
15439
100
AcDbEntity
  8
DIM
 62
     1
100
AcDbTrace
 10
416.2550013436426
 20
346.6445058511122
 30
0.0
 11
416.2550013436426
 21
346.1445058511122
 31
0.0
 12
414.7550013436426
 22
346.3945058511122
 32
0.0
 13
414.7550013436426
 23
346.3945058511122
 33
0.0
  0
SOLID
  5
1577F
330
15439
100
AcDbEntity
  8
DIM
 62
     1
100
AcDbTrace
 10
418.2549993436427
 20
346.6445058511122
 30
0.0
 11
418.2549993436427
 21
346.1445058511122
 31
0.0
 12
419.7549993436425
 22
346.3945058511122
 32
0.0
 13
419.7549993436425
 23
346.3945058511122
 33
0.0
  0
MTEXT
  5
15780
330
15439
100
AcDbEntity
  8
DIM
 62
     4
100
AcDbMText
 10
417.2550003436426
 20
347.8945058511123
 30
0.0
 40
2.0
 41
0.0
 46
0.0
 71
     5
 72
     1
  1
\A1;5
  7
Romans字体
 73
     1
 44
1.0
  0
POINT
  5
15781
330
15439
100
AcDbEntity
  8
Defpoints
 62
     0
100
AcDbPoint
 10
414.7550013436426
 20
347.4002733376803
 30
0.0
  0
POINT
  5
15782
330
15439
100
AcDbEntity
  8
Defpoints
 62
     0
100
AcDbPoint
 10
419.7549993436425
 20
350.1390820402788
 30
0.0
  0
POINT
  5
15783
330
15439
100
AcDbEntity
  8
Defpoints
 62
     0
100
AcDbPoint
 10
419.7549993436425
 20
346.3945058511122
 30
0.0
  0
ENDBLK
  5
1543B
330
15439
100
AcDbEntity
  8
0
100
AcDbBlockEnd
  0
BLOCK
  5
156B7
330
156B5
100
AcDbEntity
  8
0
100
AcDbBlockBegin
  2
A4图框-NEW
 70
     0
 10
0.0
 20
0.0
 30
0.0
  3
A4图框-NEW
  1

  0
MTEXT
  5
15B9B
102
{ACAD_XDICTIONARY
360
15C62
102
}
330
156B5
100
AcDbEntity
  8
图框
 62
     3
100
AcDbMText
 10
967.6594956750133
 20
499.7664151964293
 30
0.0
 40
2.985513575034151
 41
15.50176341157864
 46
6.292658374511018
 71
     5
 72
     5
  1
BQ LUO
  7
Romans字体
 73
     1
 44
1.0
1001
AcDbBlockRepETag
1070
     1
1071
        0
1005
15B9B
1001
ACAD
1000
ACAD_MTEXT_DEFINED_HEIGHT_BEGIN
1070
    46
1040
6.292658374511018
1000
ACAD_MTEXT_DEFINED_HEIGHT_END
  0
MTEXT
  5
15B9C
330
156B5
100
AcDbEntity
  8
图框
 62
     3
100
AcDbMText
 10
983.041569333247
 20
499.7664151964293
 30
0.0
 40
2.487927979195124
 41
15.26238390489062
 46
6.292658374511042
 71
     5
 72
     5
  1
{\W0.7;18.10.2010}
  7
Romans字体
 73
     1
 44
1.0
1001
AcDbBlockRepETag
1070
     1
1071
        1
1005
15B9C
1001
ACAD
1000
ACAD_MTEXT_DEFINED_HEIGHT_BEGIN
1070
    46
1040
6.292658374511042
1000
ACAD_MTEXT_DEFINED_HEIGHT_END
  0
MTEXT
  5
15B9D
330
156B5
100
AcDbEntity
  8
图框
 62
     3
100
AcDbMText
 10
1012.477254728976
 20
487.1810984474071
 30
0.0
 40
2.985513575034151
 41
17.64876416884615
 46
6.292658374511455
 71
     5
 72
     5
  1
YY LIN
  7
Romans字体
 73
     1
 44
1.0
1001
AcDbBlockRepETag
1070
     1
1071
        2
1005
15B9D
1001
ACAD
1000
ACAD_MTEXT_DEFINED_HEIGHT_BEGIN
1070
    46
1040
6.292658374511455
1000
ACAD_MTEXT_DEFINED_HEIGHT_END
  0
MTEXT
  5
15B9E
330
156B5
100
AcDbEntity
  8
图框
 62
     3
100
AcDbMText
 10
1028.977802139886
 20
487.1810984474071
 30
0.0
 40
2.487927979195124
 41
15.35233065297276
 46
6.292658374511495
 71
     5
 72
     5
  1
{\W0.7;18.10.2010}
  7
Romans字体
 73
     1
 44
1.0
1001
AcDbBlockRepETag
1070
     1
1071
        3
1005
15B9E
1001
ACAD
1000
ACAD_MTEXT_DEFINED_HEIGHT_BEGIN
1070
    46
1040
6.292658374511495
1000
ACAD_MTEXT_DEFINED_HEIGHT_END
  0
MTEXT
  5
15B9F
330
156B5
100
AcDbEntity
  8
图框
 62
     3
100
AcDbMText
 10
1063.722665487208
 20
525.4145966538831
 30
0.0
 40
2.985513575034151
 41
32.4973914334545
 46
11.82914190181707
 71
     5
 72
     5
  1
-
  7
Romans字体
 73
     1
 44
1.0
1001
AcDbBlockRepETag
1070
     1
1071
        4
1005
15B9F
1001
ACAD
1000
ACAD_MTEXT_DEFINED_HEIGHT_BEGIN
1070
    46
1040
11.82914190181707
1000
ACAD_MTEXT_DEFINED_HEIGHT_END
  0
MTEXT
  5
15BA0
330
156B5
100
AcDbEntity
  8
图框
 62
     3
100
AcDbMText
 10
1063.727338552349
 20
513.5854547520641
 30
0.0
 40
2.985513575034151
 41
32.48804530317308
 46
11.82914190182139
 71
     5
 72
     5
  1
-
  7
Romans字体
 73
     1
 44
1.0
1001
AcDbBlockRepETag
1070
     1
1071
        5
1005
15BA0
1001
ACAD
1000
ACAD_MTEXT_DEFINED_HEIGHT_BEGIN
1070
    46
1040
11.82914190182139
1000
ACAD_MTEXT_DEFINED_HEIGHT_END
  0
MTEXT
  5
15BA1
330
156B5
100
AcDbEntity
  8
图框
 62
     3
100
AcDbMText
 10
1110.122306614152
 20
526.8006839312707
 30
0.0
 40
2.985513575034151
 41
33.61239199242139
 46
9.05696734704178
 71
     5
 72
     5
  1
-
  7
Romans字体
 73
     1
 44
1.0
1001
AcDbBlockRepETag
1070
     1
1071
        6
1005
15BA1
1001
ACAD
1000
ACAD_MTEXT_DEFINED_HEIGHT_BEGIN
1070
    46
1040
9.05696734704178
1000
ACAD_MTEXT_DEFINED_HEIGHT_END
  0
MTEXT
  5
15BA2
330
156B5
100
AcDbEntity
  8
图框
 62
     3
100
AcDbMText
 10
1110.122306614152
 20
500.2775205517162
 30
0.0
 40
2.985513575034151
 41
33.61239199242139
 46
8.871557304763419
 71
     5
 72
     5
  1
-
  7
Romans字体
 73
     1
 44
1.0
1001
AcDbBlockRepETag
1070
     1
1071
        7
1005
15BA2
1001
ACAD
1000
ACAD_MTEXT_DEFINED_HEIGHT_BEGIN
1070
    46
1040
8.871557304763419
1000
ACAD_MTEXT_DEFINED_HEIGHT_END
  0
MTEXT
  5
15BA3
330
156B5
100
AcDbEntity
  8
图框
 62
     3
100
AcDbMText
 10
967.6594956750133
 20
493.4737568219182
 30
0.0
 40
2.985513575034151
 41
15.50176341157864
 46
6.292658374510335
 71
     5
 72
     5
  1
P RAO
  7
Romans字体
 73
     1
 44
1.0
1001
AcDbBlockRepETag
1070
     1
1071
        8
1005
15BA3
1001
ACAD
1000
ACAD_MTEXT_DEFINED_HEIGHT_BEGIN
1070
    46
1040
6.292658374510335
1000
ACAD_MTEXT_DEFINED_HEIGHT_END
  0
MTEXT
  5
15BA4
330
156B5
100
AcDbEntity
  8
图框
 62
     3
100
AcDbMText
 10
983.041569333247
 20
493.2441970450405
 30
0.0
 40
2.487927979195124
 41
15.26238390489051
 46
6.751777928266487
 71
     5
 72
     5
  1
{\W0.7;18.10.2010}
  7
Romans字体
 73
     1
 44
1.0
1001
AcDbBlockRepETag
1070
     1
1071
        9
1005
15BA4
1001
ACAD
1000
ACAD_MTEXT_DEFINED_HEIGHT_BEGIN
1070
    46
1040
6.751777928266487
1000
ACAD_MTEXT_DEFINED_HEIGHT_END
  0
MTEXT
  5
15BA5
330
156B5
100
AcDbEntity
  8
图框
 62
     3
100
AcDbMText
 10
1012.477254728976
 20
499.7664151964291
 30
0.0
 40
2.985513575034151
 41
17.64876416884615
 46
6.292658374511397
 71
     5
 72
     5
  1
-
  7
Romans字体
 73
     1
 44
1.0
1001
AcDbBlockRepETag
1070
     1
1071
       10
1005
15BA5
1001
ACAD
1000
ACAD_MTEXT_DEFINED_HEIGHT_BEGIN
1070
    46
1040
6.292658374511397
1000
ACAD_MTEXT_DEFINED_HEIGHT_END
  0
MTEXT
  5
15BA6
330
156B5
100
AcDbEntity
  8
图框
 62
     3
100
AcDbMText
 10
1028.977802139886
 20
499.7664151964289
 30
0.0
 40
2.487927979195124
 41
15.35233065297265
 46
6.292658374511382
 71
     5
 72
     5
  1
-
  7
Romans字体
 73
     1
 44
1.0
1001
AcDbBlockRepETag
1070
     1
1071
       11
1005
15BA6
1001
ACAD
1000
ACAD_MTEXT_DEFINED_HEIGHT_BEGIN
1070
    46
1040
6.292658374511382
1000
ACAD_MTEXT_DEFINED_HEIGHT_END
  0
MTEXT
  5
15BA7
330
156B5
100
AcDbEntity
  8
图框
 62
     3
100
AcDbMText
 10
967.6594956750133
 20
487.1810984474071
 30
0.0
 40
2.985513575034151
 41
15.50176341157863
 46
6.292658374511478
 71
     5
 72
     5
  1
-
  7
Romans字体
 73
     1
 44
1.0
1001
AcDbBlockRepETag
1070
     1
1071
       12
1005
15BA7
1001
ACAD
1000
ACAD_MTEXT_DEFINED_HEIGHT_BEGIN
1070
    46
1040
6.292658374511478
1000
ACAD_MTEXT_DEFINED_HEIGHT_END
  0
MTEXT
  5
15BA8
330
156B5
100
AcDbEntity
  8
图框
 62
     3
100
AcDbMText
 10
983.041569333247
 20
487.1810984474071
 30
0.0
 40
2.487927979195124
 41
15.26238390489062
 46
6.292658374511495
 71
     5
 72
     5
  1
-
  7
Romans字体
 73
     1
 44
1.0
1001
AcDbBlockRepETag
1070
     1
1071
       13
1005
15BA8
1001
ACAD
1000
ACAD_MTEXT_DEFINED_HEIGHT_BEGIN
1070
    46
1040
6.292658374511495
1000
ACAD_MTEXT_DEFINED_HEIGHT_END
  0
MTEXT
  5
15BA9
330
156B5
100
AcDbEntity
  8
图框
 62
     3
100
AcDbMText
 10
1074.556686986741
 20
495.8417418993361
 30
0.0
 40
2.985513575034151
 41
10.82934843438978
 46
7.886094601210427
 71
     5
 72
     5
  1
-
  7
Romans字体
 73
     1
 44
1.0
1001
AcDbBlockRepETag
1070
     1
1071
       14
1005
15BA9
1001
ACAD
1000
ACAD_MTEXT_DEFINED_HEIGHT_BEGIN
1070
    46
1040
7.886094601210427
1000
ACAD_MTEXT_DEFINED_HEIGHT_END
  0
LINE
  5
15BAA
330
156B5
100
AcDbEntity
  8
图框
370
    -3
100
AcDbLine
 10
1036.653967466372
 20
499.7847891999413
 30
0.0
 11
1079.971361203936
 21
499.7847891999413
 31
0.0
1001
AcDbBlockRepETag
1070
     1
1071
       15
1005
15BAA
  0
MTEXT
  5
15BAB
330
156B5
100
AcDbEntity
  8
图框
 62
     1
370
    20
100
AcDbMText
 10
1108.26336443907
 20
491.5162596080882
 30
0.0
 40
2.699054613030988
 41
82.30831305643079
 46
0.0
 71
     5
 72
     5
  1
{\fSimHei|b0|i0|c134|p2;厦门唯恩电气有限公司}
 73
     1
 44
1.0
1001
AcDbBlockRepETag
1070
     1
1071
       16
1005
15BAB
  0
MTEXT
  5
15BAC
330
156B5
100
AcDbEntity
  8
图框
 62
     3
370
    20
100
AcDbMText
 10
1108.435451459908
 20
487.298967726064
 30
0.0
 40
1.652482416141417
 41
68.08558693693567
 46
0.0
 71
     5
 72
     5
  1
{\fArial Narrow|b0|i0|c0|p34;XIAMEN WAIN ELECTRICAL CO.LTD}
  7
工程字
 73
     1
 44
1.0
1001
AcDbBlockRepETag
1070
     1
1071
       17
1005
15BAC
  0
MTEXT
  5
15BAD
330
156B5
100
AcDbEntity
  8
图框
 62
     1
370
    20
100
AcDbMText
 10
1085.711816899387
 20
491.0944802995856
 30
0.0
 40
2.005930044038334
 41
5.047240019334847
 46
0.0
 71
     1
 72
     5
  1
{\fArial|b0|i0|c0|p34;A}
  7
Chinese
 73
     1
 44
1.0
1001
AcDbBlockRepETag
1070
     1
1071
       18
1005
15BAD
  0
MTEXT
  5
15BAE
330
156B5
100
AcDbEntity
  8
图框
 62
     1
370
    20
100
AcDbMText
 10
1088.213485935716
 20
491.0944802995856
 30
0.0
 40
2.005930044038334
 41
5.047240019334847
 46
0.0
 71
     1
 72
     5
  1
{\fArial|b0|i0|c0|p34;I}
  7
Chinese
 73
     1
 44
1.0
1001
AcDbBlockRepETag
1070
     1
1071
       19
1005
15BAE
  0
MTEXT
  5
15BAF
330
156B5
100
AcDbEntity
  8
图框
 62
     1
370
    20
100
AcDbMText
 10
1089.142375222864
 20
491.0822866326808
 30
0.0
 40
2.005930044038334
 41
5.047240019334847
 46
0.0
 71
     1
 72
     5
  1
{\fArial|b0|i0|c0|p34;N}
  7
Chinese
 73
     1
 44
1.0
1001
AcDbBlockRepETag
1070
     1
1071
       20
1005
15BAF
  0
MTEXT
  5
15BB0
330
156B5
100
AcDbEntity
  8
图框
100
AcDbMText
 10
1069.142012769545
 20
487.9667319294409
 30
0.0
 40
2.252848170144607
 41
21.65869686878327
 46
7.863925338579296
 71
     5
 72
     5
  1
{\W0.5;\C1;All Dimensions in mm\POriginal Size DIN A 4}
  7
Romans字体
 73
     1
 44
1.0
1001
AcDbBlockRepETag
1070
     1
1071
       21
1005
15BB0
1001
ACAD
1000
ACAD_MTEXT_DEFINED_HEIGHT_BEGIN
1070
    46
1040
7.863925338579296
1000
ACAD_MTEXT_DEFINED_HEIGHT_END
  0
MTEXT
  5
15BB1
330
156B5
100
AcDbEntity
  8
图框
  6
ByBlock
 62
     6
370
    18
100
AcDbMText
 10
1127.40434942308
 20
508.7896535755975
 30
0.0
 40
2.651776162684904
 41
2.557913877927211
 46
0.0
 71
     1
 72
     5
  1
A
  7
Romans字体
 11
0.0000000000000001
 21
1.0
 31
0.0
 73
     1
 44
1.0
1001
AcDbBlockRepETag
1070
     1
1071
       22
1005
15BB1
  0
MTEXT
  5
15BB2
330
156B5
100
AcDbEntity
  8
图框
 62
     6
100
AcDbMText
 10
1127.40434942308
 20
556.3746573232886
 30
0.0
 40
2.651776162684904
 41
2.557913877927211
 46
0.0
 71
     1
 72
     5
  1
B
  7
Romans字体
 11
0.0000000000000001
 21
1.0
 31
0.0
 73
     1
 44
1.0
1001
AcDbBlockRepETag
1070
     1
1071
       23
1005
15BB2
  0
MTEXT
  5
15BB3
330
156B5
100
AcDbEntity
  8
图框
 62
     6
100
AcDbMText
 10
1127.40434942308
 20
607.5539372630998
 30
0.0
 40
2.651776162684904
 41
2.557913877927211
 46
0.0
 71
     1
 72
     5
  1
C
  7
Romans字体
 11
0.0000000000000001
 21
1.0
 31
0.0
 73
     1
 44
1.0
1001
AcDbBlockRepETag
1070
     1
1071
       24
1005
15BB3
  0
MTEXT
  5
15BB4
330
156B5
100
AcDbEntity
  8
图框
 62
     6
100
AcDbMText
 10
1127.40434942308
 20
658.7332172029115
 30
0.0
 40
2.651776162684904
 41
2.557913877927211
 46
0.0
 71
     1
 72
     5
  1
D
  7
Romans字体
 11
0.0000000000000001
 21
1.0
 31
0.0
 73
     1
 44
1.0
1001
AcDbBlockRepETag
1070
     1
1071
       25
1005
15BB4
  0
LINE
  5
15BB5
330
156B5
100
AcDbEntity
  8
图框
 62
     6
100
AcDbLine
 10
1130.411601781241
 20
634.0726090796082
 30
0.0
 11
1126.928502610363
 21
634.0726090796082
 31
0.0
1001
AcDbBlockRepETag
1070
     1
1071
       26
1005
15BB5
  0
LINE
  5
15BB6
330
156B5
100
AcDbEntity
  8
图框
 62
     6
100
AcDbLine
 10
1130.411601781241
 20
582.89332913979
 30
0.0
 11
1126.928502610363
 21
582.89332913979
 31
0.0
1001
AcDbBlockRepETag
1070
     1
1071
       27
1005
15BB6
  0
MTEXT
  5
15BB7
330
156B5
100
AcDbEntity
  8
图框
 62
     6
100
AcDbMText
 10
1105.329704038389
 20
483.6164543011163
 30
0.0
 40
2.651776162684904
 41
2.557913877927211
 46
0.0
 71
     1
 72
     5
  1
6
  7
Romans字体
 73
     1
 44
1.0
1001
AcDbBlockRepETag
1070
     1
1071
       28
1005
15BB7
  0
LINE
  5
15BB8
330
156B5
100
AcDbEntity
  8
图框
 62
     6
100
AcDbLine
 10
1081.088565155284
 20
484.0347692601515
 30
0.0
 11
1081.088565155284
 21
480.5347692601475
 31
0.0
1001
AcDbBlockRepETag
1070
     1
1071
       29
1005
15BB8
  0
MTEXT
  5
15BB9
330
156B5
100
AcDbEntity
  8
图框
 62
     6
100
AcDbMText
 10
1055.900596365941
 20
483.520053108993
 30
0.0
 40
2.651776162684904
 41
2.557913877927211
 46
0.0
 71
     1
 72
     5
  1
5
  7
Romans字体
 73
     1
 44
1.0
1001
AcDbBlockRepETag
1070
     1
1071
       30
1005
15BB9
  0
LINE
  5
15BBA
330
156B5
100
AcDbEntity
  8
图框
 62
     6
100
AcDbLine
 10
1031.553386436349
 20
484.0347692601515
 30
0.0
 11
1031.553386436349
 21
480.5347692601475
 31
0.0
1001
AcDbBlockRepETag
1070
     1
1071
       31
1005
15BBA
  0
MTEXT
  5
15BBB
330
156B5
100
AcDbEntity
  8
图框
 62
     6
100
AcDbMText
 10
1006.383180575197
 20
483.5687958215896
 30
0.0
 40
2.651776162684904
 41
2.557913877927211
 46
0.0
 71
     1
 72
     5
  1
4
  7
Romans字体
 73
     1
 44
1.0
1001
AcDbBlockRepETag
1070
     1
1071
       32
1005
15BBB
  0
LINE
  5
15BBC
330
156B5
100
AcDbEntity
  8
图框
 62
     6
100
AcDbLine
 10
982.0182077173887
 20
484.0347692601515
 30
0.0
 11
982.0182077173887
 21
480.5347692601475
 31
0.0
1001
AcDbBlockRepETag
1070
     1
1071
       33
1005
15BBC
  0
MTEXT
  5
15BBD
330
156B5
100
AcDbEntity
  8
图框
 62
     6
100
AcDbMText
 10
956.8302389280352
 20
483.5989680297948
 30
0.0
 40
2.651776162684904
 41
2.557913877927211
 46
0.0
 71
     1
 72
     5
  1
3
  7
Romans字体
 73
     1
 44
1.0
1001
AcDbBlockRepETag
1070
     1
1071
       34
1005
15BBD
  0
LINE
  5
15BBE
330
156B5
100
AcDbEntity
  8
图框
 62
     6
100
AcDbLine
 10
932.4830289984245
 20
484.0347692601515
 30
0.0
 11
932.4830289984245
 21
480.5347692601475
 31
0.0
1001
AcDbBlockRepETag
1070
     1
1071
       35
1005
15BBE
  0
MTEXT
  5
15BBF
330
156B5
100
AcDbEntity
  8
图框
 62
     6
100
AcDbMText
 10
906.0252349826365
 20
483.6475250013156
 30
0.0
 40
2.651776162684904
 41
2.557913877927211
 46
0.0
 71
     1
 72
     5
  1
2
  7
Romans字体
 73
     1
 44
1.0
1001
AcDbBlockRepETag
1070
     1
1071
       36
1005
15BBF
  0
LINE
  5
15BC0
330
156B5
100
AcDbEntity
  8
图框
 62
     6
100
AcDbLine
 10
882.9478502794648
 20
484.0347692601515
 30
0.0
 11
882.9478502794648
 21
480.5347692601475
 31
0.0
1001
AcDbBlockRepETag
1070
     1
1071
       37
1005
15BC0
  0
MTEXT
  5
15BC1
330
156B5
100
AcDbEntity
  8
图框
 62
     6
100
AcDbMText
 10
857.7598814901191
 20
483.651829494754
 30
0.0
 40
2.651776162684904
 41
2.557913877927211
 46
0.0
 71
     1
 72
     5
  1
1
  7
Romans字体
 73
     1
 44
1.0
1001
AcDbBlockRepETag
1070
     1
1071
       38
1005
15BC1
  0
LINE
  5
15BC2
330
156B5
100
AcDbEntity
  8
图框
370
    50
100
AcDbLine
 10
836.8548209370597
 20
484.0347692601515
 30
0.0
 11
1126.928502610363
 21
484.0347692601515
 31
0.0
1001
AcDbBlockRepETag
1070
     1
1071
       39
1005
15BC2
  0
LINE
  5
15BC3
330
156B5
100
AcDbEntity
  8
图框
370
    50
100
AcDbLine
 10
836.9128518455362
 20
484.0178684310246
 30
0.0
 11
836.9128518455394
 21
675.0207195125422
 31
0.0
1001
AcDbBlockRepETag
1070
     1
1071
       40
1005
15BC3
  0
MTEXT
  5
15BC4
330
156B5
100
AcDbEntity
  8
图框
 62
     6
100
AcDbMText
 10
833.8475685789031
 20
658.7332172029115
 30
0.0
 40
2.651776162684904
 41
2.557913877927211
 46
0.0
 71
     1
 72
     5
  1
D
  7
Romans字体
 11
0.0000000000000001
 21
1.0
 31
0.0
 73
     1
 44
1.0
1001
AcDbBlockRepETag
1070
     1
1071
       41
1005
15BC4
  0
LINE
  5
15BC5
330
156B5
100
AcDbEntity
  8
图框
 62
     6
100
AcDbLine
 10
836.9128518455386
 20
634.0726090796082
 30
0.0
 11
833.4128518455365
 21
634.0726090796082
 31
0.0
1001
AcDbBlockRepETag
1070
     1
1071
       42
1005
15BC5
  0
MTEXT
  5
15BC6
330
156B5
100
AcDbEntity
  8
图框
 62
     6
100
AcDbMText
 10
833.9039177480142
 20
607.5539372630998
 30
0.0
 40
2.651776162684904
 41
2.557913877927211
 46
0.0
 71
     1
 72
     5
  1
C
  7
Romans字体
 11
0.0000000000000001
 21
1.0
 31
0.0
 73
     1
 44
1.0
1001
AcDbBlockRepETag
1070
     1
1071
       43
1005
15BC6
  0
LINE
  5
15BC7
330
156B5
100
AcDbEntity
  8
图框
 62
     6
100
AcDbLine
 10
836.9128518455378
 20
582.89332913979
 30
0.0
 11
833.4128518455365
 21
582.89332913979
 31
0.0
1001
AcDbBlockRepETag
1070
     1
1071
       44
1005
15BC7
  0
MTEXT
  5
15BC8
330
156B5
100
AcDbEntity
  8
图框
 62
     6
100
AcDbMText
 10
833.9039177480142
 20
556.3746573232886
 30
0.0
 40
2.651776162684904
 41
2.557913877927211
 46
0.0
 71
     1
 72
     5
  1
B
  7
Romans字体
 11
0.0000000000000001
 21
1.0
 31
0.0
 73
     1
 44
1.0
1001
AcDbBlockRepETag
1070
     1
1071
       45
1005
15BC8
  0
LINE
  5
15BC9
330
156B5
100
AcDbEntity
  8
图框
 62
     6
100
AcDbLine
 10
836.9128518455367
 20
531.714049199969
 30
0.0
 11
833.4128518455365
 21
531.714049199969
 31
0.0
1001
AcDbBlockRepETag
1070
     1
1071
       46
1005
15BC9
  0
MTEXT
  5
15BCA
330
156B5
100
AcDbEntity
  8
图框
 62
     6
100
AcDbMText
 10
833.9039177480142
 20
508.7896535755975
 30
0.0
 40
2.651776162684904
 41
2.557913877927211
 46
0.0
 71
     1
 72
     5
  1
A
  7
Romans字体
 11
0.0000000000000001
 21
1.0
 31
0.0
 73
     1
 44
1.0
1001
AcDbBlockRepETag
1070
     1
1071
       47
1005
15BCA
  0
LINE
  5
15BCB
330
156B5
100
AcDbEntity
  8
图框
370
    -3
100
AcDbLine
 10
836.9128518455394
 20
675.0207195125422
 30
0.0
 11
836.9128518455394
 21
684.5021384922564
 31
0.0
1001
AcDbBlockRepETag
1070
     1
1071
       48
1005
15BCB
  0
LINE
  5
15BCC
330
156B5
100
AcDbEntity
  8
图框
370
    -3
100
AcDbLine
 10
842.6237321475781
 20
675.5347692601515
 30
0.0
 11
842.6237321475781
 21
685.0161882398658
 31
0.0
1001
AcDbBlockRepETag
1070
     1
1071
       49
1005
15BCC
  0
LINE
  5
15BCD
330
156B5
100
AcDbEntity
  8
图框
370
    -3
100
AcDbLine
 10
848.3346124496179
 20
675.5347692601515
 30
0.0
 11
848.3346124496179
 21
685.0161882398658
 31
0.0
1001
AcDbBlockRepETag
1070
     1
1071
       50
1005
15BCD
  0
LINE
  5
15BCE
330
156B5
100
AcDbEntity
  8
图框
370
    -3
100
AcDbLine
 10
854.0454927516588
 20
675.5347692601515
 30
0.0
 11
854.0454927516588
 21
685.0161882398658
 31
0.0
1001
AcDbBlockRepETag
1070
     1
1071
       51
1005
15BCE
  0
LINE
  5
15BCF
330
156B5
100
AcDbEntity
  8
图框
370
    -3
100
AcDbLine
 10
861.5351874539182
 20
675.5347692601515
 30
0.0
 11
861.5351874539182
 21
686.7901958362482
 31
0.0
1001
AcDbBlockRepETag
1070
     1
1071
       52
1005
15BCF
  0
MTEXT
  5
15BD0
330
156B5
100
AcDbEntity
  8
图框
 62
     6
100
AcDbMText
 10
1105.329704038389
 20
678.859919059449
 30
0.0
 40
2.651776162684904
 41
2.557913877927211
 46
0.0
 71
     1
 72
     5
  1
6
  7
Romans字体
 73
     1
 44
1.0
1001
AcDbBlockRepETag
1070
     1
1071
       53
1005
15BD0
  0
LINE
  5
15BD1
330
156B5
100
AcDbEntity
  8
图框
 62
     6
100
AcDbLine
 10
1081.088565155284
 20
679.0347692601516
 30
0.0
 11
1081.088565155284
 21
675.5347692601515
 31
0.0
1001
AcDbBlockRepETag
1070
     1
1071
       54
1005
15BD1
  0
MTEXT
  5
15BD2
330
156B5
100
AcDbEntity
  8
图框
 62
     6
100
AcDbMText
 10
1055.900596365941
 20
678.859919059449
 30
0.0
 40
2.651776162684904
 41
2.557913877927211
 46
0.0
 71
     1
 72
     5
  1
5
  7
Romans字体
 73
     1
 44
1.0
1001
AcDbBlockRepETag
1070
     1
1071
       55
1005
15BD2
  0
LINE
  5
15BD3
330
156B5
100
AcDbEntity
  8
图框
 62
     6
100
AcDbLine
 10
1031.553386436349
 20
679.0347692601516
 30
0.0
 11
1031.553386436349
 21
675.5347692601515
 31
0.0
1001
AcDbBlockRepETag
1070
     1
1071
       56
1005
15BD3
  0
MTEXT
  5
15BD4
330
156B5
100
AcDbEntity
  8
图框
 62
     6
100
AcDbMText
 10
1006.36541764698
 20
678.7312083656147
 30
0.0
 40
2.651776162684904
 41
2.557913877927211
 46
0.0
 71
     1
 72
     5
  1
4
  7
Romans字体
 73
     1
 44
1.0
1001
AcDbBlockRepETag
1070
     1
1071
       57
1005
15BD4
  0
LINE
  5
15BD5
330
156B5
100
AcDbEntity
  8
图框
 62
     6
100
AcDbLine
 10
982.0182077173887
 20
679.0347692601516
 30
0.0
 11
982.0182077173887
 21
675.5347692601515
 31
0.0
1001
AcDbBlockRepETag
1070
     1
1071
       58
1005
15BD5
  0
MTEXT
  5
15BD6
330
156B5
100
AcDbEntity
  8
图框
 62
     6
100
AcDbMText
 10
956.8302389280352
 20
678.859919059449
 30
0.0
 40
2.651776162684904
 41
2.557913877927211
 46
0.0
 71
     1
 72
     5
  1
3
  7
Romans字体
 73
     1
 44
1.0
1001
AcDbBlockRepETag
1070
     1
1071
       59
1005
15BD6
  0
LINE
  5
15BD7
330
156B5
100
AcDbEntity
  8
图框
 62
     6
100
AcDbLine
 10
932.4830289984245
 20
679.0347692601516
 30
0.0
 11
932.4830289984245
 21
675.5347692601515
 31
0.0
1001
AcDbBlockRepETag
1070
     1
1071
       60
1005
15BD7
  0
MTEXT
  5
15BD8
330
156B5
100
AcDbEntity
  8
图框
 62
     6
100
AcDbMText
 10
907.295060209082
 20
678.859919059449
 30
0.0
 40
2.651776162684904
 41
2.557913877927211
 46
0.0
 71
     1
 72
     5
  1
2
  7
Romans字体
 73
     1
 44
1.0
1001
AcDbBlockRepETag
1070
     1
1071
       61
1005
15BD8
  0
LINE
  5
15BD9
330
156B5
100
AcDbEntity
  8
图框
 62
     6
100
AcDbLine
 10
882.9478502794648
 20
678.7962435131815
 30
0.0
 11
882.9478502794648
 21
675.5347692601515
 31
0.0
1001
AcDbBlockRepETag
1070
     1
1071
       62
1005
15BD9
  0
MTEXT
  5
15BDA
330
156B5
100
AcDbEntity
  8
图框
 62
     6
100
AcDbMText
 10
862.6286629643733
 20
678.859919059449
 30
0.0
 40
2.651776162684904
 41
2.557913877927211
 46
0.0
 71
     1
 72
     5
  1
1
  7
Romans字体
 73
     1
 44
1.0
1001
AcDbBlockRepETag
1070
     1
1071
       63
1005
15BDA
  0
LINE
  5
15BDB
330
156B5
100
AcDbEntity
  8
图框
370
    -3
100
AcDbLine
 10
836.9128518455394
 20
675.0207195125422
 30
0.0
 11
836.9128518455394
 21
686.7901958362482
 31
0.0
1001
AcDbBlockRepETag
1070
     1
1071
       64
1005
15BDB
  0
LINE
  5
15BDC
330
156B5
100
AcDbEntity
  8
图框
370
    50
100
AcDbLine
 10
836.9128518455394
 20
675.5347692601515
 30
0.0
 11
1126.928502610363
 21
675.5347692601515
 31
0.0
1001
AcDbBlockRepETag
1070
     1
1071
       65
1005
15BDC
  0
LINE
  5
15BDD
330
156B5
100
AcDbEntity
  8
图框
370
    -3
100
AcDbLine
 10
842.6237321475781
 20
675.5347692601515
 30
0.0
 11
842.6237321475781
 21
686.7901958362482
 31
0.0
1001
AcDbBlockRepETag
1070
     1
1071
       66
1005
15BDD
  0
LINE
  5
15BDE
330
156B5
100
AcDbEntity
  8
图框
370
    -3
100
AcDbLine
 10
848.3346124496179
 20
675.5347692601515
 30
0.0
 11
848.3346124496179
 21
686.7901958362482
 31
0.0
1001
AcDbBlockRepETag
1070
     1
1071
       67
1005
15BDE
  0
MTEXT
  5
15BDF
102
{ACAD_XDICTIONARY
360
15C64
102
}
330
156B5
100
AcDbEntity
  8
图框
100
AcDbMText
 10
857.7903401027889
 20
686.7901958362482
 30
0.0
 40
1.958998408821398
 41
11.25542657609672
 46
7.489694702258906
 71
     4
 72
     5
  1
\pi2.6646;{\fSimSun|b0|i0|c134|p2;档案员\fFangSong_GB2312|b0|i0|c134|p49;\H0.7x;\P\pi1.4159;\Fromans|c134;Filing Clerk\fFangSong_GB2312|b0|i0|c134|p49; }
 11
-0.0000000000000002
 21
-1.0
 31
0.0
 73
     1
 44
1.0
1001
AcDbBlockRepETag
1070
     1
1071
       68
1005
15BDF
1001
ACAD
1000
ACAD_MTEXT_DEFINED_HEIGHT_BEGIN
1070
    46
1040
7.489694702258906
1000
ACAD_MTEXT_DEFINED_HEIGHT_END
  0
MTEXT
  5
15BE0
102
{ACAD_XDICTIONARY
360
15C66
102
}
330
156B5
100
AcDbEntity
  8
图框
100
AcDbMText
 10
845.479172298598
 20
686.7901958362482
 30
0.0
 40
1.958998408821398
 41
11.25542657609672
 46
5.710880302039671
 71
     4
 72
     5
  1
\pi0.63465;{\fSimSun|b0|i0|c134|p2;日期\Fromans|c134;/Date}
 11
-0.0000000000000002
 21
-1.0
 31
0.0
 73
     1
 44
1.0
1001
AcDbBlockRepETag
1070
     1
1071
       69
1005
15BE0
1001
ACAD
1000
ACAD_MTEXT_DEFINED_HEIGHT_BEGIN
1070
    46
1040
5.710880302039671
1000
ACAD_MTEXT_DEFINED_HEIGHT_END
  0
LINE
  5
15BE1
330
156B5
100
AcDbEntity
  8
图框
370
    -3
100
AcDbLine
 10
854.0454927516588
 20
675.5347692601515
 30
0.0
 11
854.0454927516588
 21
686.7901958362482
 31
0.0
1001
AcDbBlockRepETag
1070
     1
1071
       70
1005
15BE1
  0
LINE
  5
15BE2
330
156B5
100
AcDbEntity
  8
图框
370
    -3
100
AcDbLine
 10
1036.653967466372
 20
531.3291676047914
 30
0.0
 11
1036.653967466372
 21
484.0126019753161
 31
0.0
1001
AcDbBlockRepETag
1070
     1
1071
       71
1005
15BE2
  0
LINE
  5
15BE3
330
156B5
100
AcDbEntity
  8
图框
370
    -3
100
AcDbLine
 10
1047.483315900763
 20
507.6708838011533
 30
0.0
 11
1047.483315900763
 21
491.8986945987308
 31
0.0
1001
AcDbBlockRepETag
1070
     1
1071
       72
1005
15BE3
  0
LINE
  5
15BE4
330
156B5
100
AcDbEntity
  8
图框
370
    -3
100
AcDbLine
 10
1058.312664335153
 20
507.6708838011533
 30
0.0
 11
1058.312664335153
 21
484.0347692601515
 31
0.0
1001
AcDbBlockRepETag
1070
     1
1071
       73
1005
15BE4
  0
LINE
  5
15BE5
330
156B5
100
AcDbEntity
  8
图框
370
    25
100
AcDbLine
 10
1048.474135214456
 20
488.1095628329926
 30
0.0
 11
1054.946420288459
 21
488.1095628329926
 31
0.0
1001
AcDbBlockRepETag
1070
     1
1071
       74
1005
15BE5
  0
LINE
  5
15BE6
330
156B5
100
AcDbEntity
  8
图框
370
    25
100
AcDbLine
 10
1054.232527365989
 20
487.0761716842634
 30
0.0
 11
1049.156490914508
 21
486.4576273751
 31
0.0
1001
AcDbBlockRepETag
1070
     1
1071
       75
1005
15BE6
  0
LINE
  5
15BE7
330
156B5
100
AcDbEntity
  8
图框
370
    25
100
AcDbLine
 10
1054.232527365989
 20
489.1429539817209
 30
0.0
 11
1049.156490914508
 21
489.7614982908846
 31
0.0
1001
AcDbBlockRepETag
1070
     1
1071
       76
1005
15BE7
  0
LINE
  5
15BE8
330
156B5
100
AcDbEntity
  8
图框
370
    25
100
AcDbLine
 10
1049.156490914508
 20
489.7614982908846
 30
0.0
 11
1049.156490914508
 21
486.4576273751
 31
0.0
1001
AcDbBlockRepETag
1070
     1
1071
       77
1005
15BE8
  0
LINE
  5
15BE9
330
156B5
100
AcDbEntity
  8
图框
370
    25
100
AcDbLine
 10
1054.232527365989
 20
489.1429539817209
 30
0.0
 11
1054.232527365989
 21
487.0761716842634
 31
0.0
1001
AcDbBlockRepETag
1070
     1
1071
       78
1005
15BE9
  0
CIRCLE
  5
15BEA
330
156B5
100
AcDbEntity
  8
图框
370
    25
100
AcDbCircle
 10
1042.502700458579
 20
488.1095628329926
 30
0.0
 40
1.651935457891863
1001
AcDbBlockRepETag
1070
     1
1071
       79
1005
15BEA
  0
CIRCLE
  5
15BEB
330
156B5
100
AcDbEntity
  8
图框
370
    25
100
AcDbCircle
 10
1042.502700458579
 20
488.1095628329926
 30
0.0
 40
1.033391148728775
1001
AcDbBlockRepETag
1070
     1
1071
       80
1005
15BEB
  0
LINE
  5
15BEC
330
156B5
100
AcDbEntity
  8
图框
370
    25
100
AcDbLine
 10
1040.136872078216
 20
488.1095628329926
 30
0.0
 11
1044.868528838943
 21
488.1095628329926
 31
0.0
1001
AcDbBlockRepETag
1070
     1
1071
       81
1005
15BEC
  0
LINE
  5
15BED
330
156B5
100
AcDbEntity
  8
图框
370
    25
100
AcDbLine
 10
1042.502700458579
 20
490.475391213355
 30
0.0
 11
1042.502700458579
 21
485.743734452629
 31
0.0
1001
AcDbBlockRepETag
1070
     1
1071
       82
1005
15BED
  0
LINE
  5
15BEE
330
156B5
100
AcDbEntity
  8
图框
370
    -3
100
AcDbLine
 10
1069.142012769546
 20
507.6708838011533
 30
0.0
 11
1069.142012769546
 21
491.8986945987308
 31
0.0
1001
AcDbBlockRepETag
1070
     1
1071
       83
1005
15BEE
  0
MTEXT
  5
15BEF
330
156B5
100
AcDbEntity
  8
图框
100
AcDbMText
 10
1086.643735910939
 20
526.8006839312707
 30
0.0
 40
2.154898249703542
 41
13.34474941400573
 46
9.056967347041775
 71
     5
 72
     5
  1
图号{\Ftxt|c134;\P\Fromans|c134;\W0.65;Drawing No.}
 73
     1
 44
1.0
1001
AcDbBlockRepETag
1070
     1
1071
       84
1005
15BEF
1001
ACAD
1000
ACAD_MTEXT_DEFINED_HEIGHT_BEGIN
1070
    46
1040
9.056967347041775
1000
ACAD_MTEXT_DEFINED_HEIGHT_END
  0
LINE
  5
15BF0
330
156B5
100
AcDbEntity
  8
图框
370
    -3
100
AcDbLine
 10
1093.316110617942
 20
531.3291676047914
 30
0.0
 11
1093.316110617942
 21
495.8417418993347
 31
0.0
1001
AcDbBlockRepETag
1070
     1
1071
       85
1005
15BF0
  0
LINE
  5
15BF1
330
156B5
100
AcDbEntity
  8
图框
370
    -3
100
AcDbLine
 10
1047.473969770481
 20
531.3291676047914
 30
0.0
 11
1047.473969770481
 21
507.6708838011533
 31
0.0
1001
AcDbBlockRepETag
1070
     1
1071
       86
1005
15BF1
  0
MTEXT
  5
15BF2
330
156B5
100
AcDbEntity
  8
图框
100
AcDbMText
 10
1063.72733855235
 20
503.7278365005473
 30
0.0
 40
2.252848170144607
 41
10.82934843439208
 46
7.886094601212128
 71
     5
 72
     5
  1
重量\P{\Fromans|c134;Weight}
 73
     1
 44
1.0
1001
AcDbBlockRepETag
1070
     1
1071
       87
1005
15BF2
1001
ACAD
1000
ACAD_MTEXT_DEFINED_HEIGHT_BEGIN
1070
    46
1040
7.886094601212128
1000
ACAD_MTEXT_DEFINED_HEIGHT_END
  0
LINE
  5
15BF3
330
156B5
100
AcDbEntity
  8
图框
370
    -3
100
AcDbLine
 10
1036.653967466372
 20
519.5000257029746
 30
0.0
 11
1079.971361203936
 21
519.5000257029746
 31
0.0
1001
AcDbBlockRepETag
1070
     1
1071
       88
1005
15BF3
  0
MTEXT
  5
15BF4
330
156B5
100
AcDbEntity
  8
图框
100
AcDbMText
 10
1074.556686986741
 20
503.7278365005473
 30
0.0
 40
2.252848170144607
 41
10.82934843438984
 46
7.886094601212141
 71
     5
 72
     5
  1
数量\P{\Fromans|c134;Qty.}
 73
     1
 44
1.0
1001
AcDbBlockRepETag
1070
     1
1071
       89
1005
15BF4
1001
ACAD
1000
ACAD_MTEXT_DEFINED_HEIGHT_BEGIN
1070
    46
1040
7.886094601212141
1000
ACAD_MTEXT_DEFINED_HEIGHT_END
  0
LINE
  5
15BF5
330
156B5
100
AcDbEntity
  8
图框
370
    -3
100
AcDbLine
 10
1079.971361203936
 20
495.8417418993347
 30
0.0
 11
1126.928502610363
 21
495.8417418993342
 31
0.0
1001
AcDbBlockRepETag
1070
     1
1071
       90
1005
15BF5
  0
LINE
  5
15BF6
330
156B5
100
AcDbEntity
  8
图框
370
    -3
100
AcDbLine
 10
1079.971361203936
 20
504.7132992040975
 30
0.0
 11
1126.928502610363
 21
504.7132992040975
 31
0.0
1001
AcDbBlockRepETag
1070
     1
1071
       91
1005
15BF6
  0
MTEXT
  5
15BF7
330
156B5
100
AcDbEntity
  8
图框
100
AcDbMText
 10
1052.893317052817
 20
503.7278365005473
 30
0.0
 40
2.252848170144607
 41
10.83869456467139
 46
7.886094601212101
 71
     5
 72
     5
  1
版本\P{\Fromans|c134;REV.}
 73
     1
 44
1.0
1001
AcDbBlockRepETag
1070
     1
1071
       92
1005
15BF7
1001
ACAD
1000
ACAD_MTEXT_DEFINED_HEIGHT_BEGIN
1070
    46
1040
7.886094601212101
1000
ACAD_MTEXT_DEFINED_HEIGHT_END
  0
MTEXT
  5
15BF8
330
156B5
100
AcDbEntity
  8
图框
100
AcDbMText
 10
1042.068641683568
 20
503.7278365005473
 30
0.0
 40
2.252848170144607
 41
10.8293484343908
 46
7.886094601212136
 71
     5
 72
     5
  1
比例\P{\Fromans|c134;Scale}
 73
     1
 44
1.0
1001
AcDbBlockRepETag
1070
     1
1071
       93
1005
15BF8
1001
ACAD
1000
ACAD_MTEXT_DEFINED_HEIGHT_BEGIN
1070
    46
1040
7.886094601212136
1000
ACAD_MTEXT_DEFINED_HEIGHT_END
  0
LINE
  5
15BF9
330
156B5
100
AcDbEntity
  8
图框
370
    -3
100
AcDbLine
 10
1036.653967466372
 20
507.6708838011533
 30
0.0
 11
1079.971361203936
 21
507.6708838011533
 31
0.0
1001
AcDbBlockRepETag
1070
     1
1071
       94
1005
15BF9
  0
LINE
  5
15BFA
330
156B5
100
AcDbEntity
  8
图框
370
    -3
100
AcDbLine
 10
1036.653967466372
 20
491.8986945987308
 30
0.0
 11
1079.971361203936
 21
491.8986945987308
 31
0.0
1001
AcDbBlockRepETag
1070
     1
1071
       95
1005
15BFA
  0
LINE
  5
15BFB
330
156B5
100
AcDbEntity
  8
图框
370
    -3
100
AcDbLine
 10
1079.971361203936
 20
531.3291676047914
 30
0.0
 11
1079.971361203936
 21
484.0125999975168
 31
0.0
1001
AcDbBlockRepETag
1070
     1
1071
       96
1005
15BFB
  0
MTEXT
  5
15BFC
330
156B5
100
AcDbEntity
  8
图框
100
AcDbMText
 10
1042.063968618426
 20
525.4145966538832
 30
0.0
 40
2.252848170144607
 41
10.82000230410933
 46
11.82914190181708
 71
     5
 72
     5
  1
表面处理\P{\Fromans|c134;Finish}
 73
     1
 44
1.0
1001
AcDbBlockRepETag
1070
     1
1071
       97
1005
15BFC
1001
ACAD
1000
ACAD_MTEXT_DEFINED_HEIGHT_BEGIN
1070
    46
1040
11.82914190181708
1000
ACAD_MTEXT_DEFINED_HEIGHT_END
  0
MTEXT
  5
15BFD
330
156B5
100
AcDbEntity
  8
图框
100
AcDbMText
 10
1042.063968618426
 20
513.5854547520639
 30
0.0
 40
2.252848170144607
 41
10.82000230410933
 46
11.8291419018212
 71
     5
 72
     5
  1
材料\P{\Fromans|c134;Material}
 73
     1
 44
1.0
1001
AcDbBlockRepETag
1070
     1
1071
       98
1005
15BFD
1001
ACAD
1000
ACAD_MTEXT_DEFINED_HEIGHT_BEGIN
1070
    46
1040
11.8291419018212
1000
ACAD_MTEXT_DEFINED_HEIGHT_END
  0
LINE
  5
15BFE
330
156B5
100
AcDbEntity
  8
图框
370
    -3
100
AcDbLine
 10
1079.971361203936
 20
522.27220025775
 30
0.0
 11
1126.928502610363
 21
522.27220025775
 31
0.0
1001
AcDbBlockRepETag
1070
     1
1071
       99
1005
15BFE
  0
LINE
  5
15BFF
330
156B5
100
AcDbEntity
  8
图框
370
    -3
100
AcDbLine
 10
1079.971361203936
 20
513.5854547520641
 30
0.0
 11
1126.928502610363
 21
513.5854547520639
 31
0.0
1001
AcDbBlockRepETag
1070
     1
1071
      100
1005
15BFF
  0
MTEXT
  5
15C00
330
156B5
100
AcDbEntity
  8
图框
100
AcDbMText
 10
1086.643735910939
 20
517.9288275049072
 30
0.0
 40
1.958998408821398
 41
13.34474941400573
 46
8.686745505685811
 71
     5
 72
     5
  1
产品代号\P{\Fromans|c134;Part Code}
 73
     1
 44
1.0
1001
AcDbBlockRepETag
1070
     1
1071
      101
1005
15C00
1001
ACAD
1000
ACAD_MTEXT_DEFINED_HEIGHT_BEGIN
1070
    46
1040
8.686745505685811
1000
ACAD_MTEXT_DEFINED_HEIGHT_END
  0
LINE
  5
15C01
330
156B5
100
AcDbEntity
  8
图框
370
    -3
100
AcDbLine
 10
946.9285026103634
 20
525.7982263931411
 30
0.0
 11
1036.653967466372
 21
525.7982263931411
 31
0.0
1001
AcDbBlockRepETag
1070
     1
1071
      102
1005
15C01
  0
LINE
  5
15C02
330
156B5
100
AcDbEntity
  8
图框
370
    -3
100
AcDbLine
 10
946.9285026103634
 20
520.2672851814959
 30
0.0
 11
1036.653967466372
 21
520.2672851814959
 31
0.0
1001
AcDbBlockRepETag
1070
     1
1071
      103
1005
15C02
  0
LINE
  5
15C03
330
156B5
100
AcDbEntity
  8
图框
370
    35
100
AcDbLine
 10
946.9285026103634
 20
531.3291676047914
 30
0.0
 11
1126.928502610363
 21
531.3291676047914
 31
0.0
1001
AcDbBlockRepETag
1070
     1
1071
      104
1005
15C03
  0
LINE
  5
15C04
330
156B5
100
AcDbEntity
  8
图框
370
    -3
100
AcDbLine
 10
990.6727612856927
 20
509.2054027581959
 30
0.0
 11
990.6727612856927
 21
484.0347692601515
 31
0.0
1001
AcDbBlockRepETag
1070
     1
1071
      105
1005
15C04
  0
MTEXT
  5
15C05
102
{ACAD_XDICTIONARY
360
15C68
102
}
330
156B5
100
AcDbEntity
  8
图框
100
AcDbMText
 10
997.1628169651232
 20
499.816589978722
 30
0.0
 40
2.252848170144607
 41
12.98011135886052
 46
6.19230880992475
 71
     5
 72
     5
  1
{\fSimSun|b0|i0|c134|p2;标准化}\PStand.
  7
Romans字体
 73
     1
 44
1.0
1001
AcDbBlockRepETag
1070
     1
1071
      106
1005
15C05
1001
ACAD
1000
ACAD_MTEXT_DEFINED_HEIGHT_BEGIN
1070
    46
1040
6.19230880992475
1000
ACAD_MTEXT_DEFINED_HEIGHT_END
  0
LINE
  5
15C06
330
156B5
100
AcDbEntity
  8
图框
370
    -3
100
AcDbLine
 10
975.4103773808022
 20
509.2054027581959
 30
0.0
 11
975.4103773808022
 21
484.0347692601515
 31
0.0
1001
AcDbBlockRepETag
1070
     1
1071
      107
1005
15C06
  0
MTEXT
  5
15C07
330
156B5
100
AcDbEntity
  8
图框
100
AcDbMText
 10
984.5089229802068
 20
511.9708733640202
 30
0.0
 40
2.448748011026752
 41
38.287899328693
 46
5.530941211648832
 71
     5
 72
     5
  1
  变更描述{\Fromans|c134;/Description}
 73
     1
 44
1.0
1001
AcDbBlockRepETag
1070
     1
1071
      108
1005
15C07
1001
ACAD
1000
ACAD_MTEXT_DEFINED_HEIGHT_BEGIN
1070
    46
1040
5.530941211648832
1000
ACAD_MTEXT_DEFINED_HEIGHT_END
  0
MTEXT
  5
15C08
102
{ACAD_XDICTIONARY
360
15C6A
102
}
330
156B5
100
AcDbEntity
  8
图框
100
AcDbMText
 10
1012.466086049227
 20
511.9708733640202
 30
0.0
 40
1.958998408821398
 41
17.6264268093469
 46
5.530941211648825
 71
     5
 72
     5
  1
{\fSimSun|b0|i0|c134|p2;签名\P\Fromans|c134;Signature} 
 73
     1
 44
1.0
1001
AcDbBlockRepETag
1070
     1
1071
      109
1005
15C08
1001
ACAD
1000
ACAD_MTEXT_DEFINED_HEIGHT_BEGIN
1070
    46
1040
5.530941211648825
1000
ACAD_MTEXT_DEFINED_HEIGHT_END
  0
MTEXT
  5
15C09
102
{ACAD_XDICTIONARY
360
15C6C
102
}
330
156B5
100
AcDbEntity
  8
图框
100
AcDbMText
 10
960.7558556394856
 20
511.9708733640202
 30
0.0
 40
1.958998408821398
 41
9.218235352749283
 46
5.530941211648841
 71
     5
 72
     5
  1
{\fSimSun|b0|i0|c134|p2;处数\P\Fromans|c134;Number }
 73
     1
 44
1.0
1001
AcDbBlockRepETag
1070
     1
1071
      110
1005
15C09
1001
ACAD
1000
ACAD_MTEXT_DEFINED_HEIGHT_BEGIN
1070
    46
1040
5.530941211648841
1000
ACAD_MTEXT_DEFINED_HEIGHT_END
  0
LINE
  5
15C0A
330
156B5
100
AcDbEntity
  8
图框
370
    -3
100
AcDbLine
 10
946.9285026103634
 20
514.7363439698449
 30
0.0
 11
1036.653967466372
 21
514.7363439698449
 31
0.0
1001
AcDbBlockRepETag
1070
     1
1071
      111
1005
15C0A
  0
LINE
  5
15C0B
330
156B5
100
AcDbEntity
  8
图框
370
    -3
100
AcDbLine
 10
946.9285026103634
 20
509.2054027581959
 30
0.0
 11
1036.653967466372
 21
509.2054027581959
 31
0.0
1001
AcDbBlockRepETag
1070
     1
1071
      112
1005
15C0B
  0
LINE
  5
15C0C
330
156B5
100
AcDbEntity
  8
图框
370
    -3
100
AcDbLine
 10
946.9285026103634
 20
502.9127443836848
 30
0.0
 11
1036.653967466372
 21
502.9127443836848
 31
0.0
1001
AcDbBlockRepETag
1070
     1
1071
      113
1005
15C0C
  0
LINE
  5
15C0D
330
156B5
100
AcDbEntity
  8
图框
370
    -3
100
AcDbLine
 10
946.9285026103634
 20
496.620086009173
 30
0.0
 11
1036.653967466372
 21
496.620086009173
 31
0.0
1001
AcDbBlockRepETag
1070
     1
1071
      114
1005
15C0D
  0
LINE
  5
15C0E
330
156B5
100
AcDbEntity
  8
图框
370
    35
380
     1
100
AcDbLine
 10
946.9285026103634
 20
531.3291676047914
 30
0.0
 11
946.9285026103634
 21
484.0347692601515
 31
0.0
1001
AcDbBlockRepETag
1070
     1
1071
      115
1005
15C0E
  0
LINE
  5
15C0F
330
156B5
100
AcDbEntity
  8
图框
370
    -3
100
AcDbLine
 10
1021.301636813399
 20
531.3291676047914
 30
0.0
 11
1021.301636813399
 21
484.0347692601515
 31
0.0
1001
AcDbBlockRepETag
1070
     1
1071
      116
1005
15C0F
  0
LINE
  5
15C10
330
156B5
100
AcDbEntity
  8
图框
370
    -3
100
AcDbLine
 10
1003.652872644553
 20
531.3291676047914
 30
0.0
 11
1003.652872644553
 21
484.0347692601515
 31
0.0
1001
AcDbBlockRepETag
1070
     1
1071
      117
1005
15C10
  0
LINE
  5
15C11
330
156B5
100
AcDbEntity
  8
图框
370
    -3
100
AcDbLine
 10
965.3649733158603
 20
531.3291676047914
 30
0.0
 11
965.3649733158603
 21
509.2054027581959
 31
0.0
1001
AcDbBlockRepETag
1070
     1
1071
      118
1005
15C11
  0
LINE
  5
15C12
330
156B5
100
AcDbEntity
  8
图框
370
    -3
100
AcDbLine
 10
956.1467379631109
 20
531.3291676047914
 30
0.0
 11
956.1467379631109
 21
509.2054027581959
 31
0.0
1001
AcDbBlockRepETag
1070
     1
1071
      119
1005
15C12
  0
MTEXT
  5
15C13
102
{ACAD_XDICTIONARY
360
15C6E
102
}
330
156B5
100
AcDbEntity
  8
图框
100
AcDbMText
 10
951.537620286737
 20
511.9708733640202
 30
0.0
 40
1.958998408821398
 41
9.218235352747692
 46
5.530941211648832
 71
     5
 72
     5
  1
{\fSimSun|b0|i0|c134|p2;标记\P\Fromans|c134;Mark}
 73
     1
 44
1.0
1001
AcDbBlockRepETag
1070
     1
1071
      120
1005
15C13
1001
ACAD
1000
ACAD_MTEXT_DEFINED_HEIGHT_BEGIN
1070
    46
1040
5.530941211648832
1000
ACAD_MTEXT_DEFINED_HEIGHT_END
  0
MTEXT
  5
15C14
102
{ACAD_XDICTIONARY
360
15C70
102
}
330
156B5
100
AcDbEntity
  8
图框
100
AcDbMText
 10
953.4185582897936
 20
493.4737568219182
 30
0.0
 40
2.252848170144607
 41
12.98011135886041
 46
6.292658374510382
 71
     5
 72
     5
  1
{\fSimSun|b0|i0|c134|p2;审核\P\Fromans|c134;Checked}
 73
     1
 44
1.0
1001
AcDbBlockRepETag
1070
     1
1071
      121
1005
15C14
1001
ACAD
1000
ACAD_MTEXT_DEFINED_HEIGHT_BEGIN
1070
    46
1040
6.292658374510382
1000
ACAD_MTEXT_DEFINED_HEIGHT_END
  0
MTEXT
  5
15C15
102
{ACAD_XDICTIONARY
360
15C72
102
}
330
156B5
100
AcDbEntity
  8
图框
100
AcDbMText
 10
953.4185582897936
 20
499.8775635376777
 30
0.0
 40
2.252848170144607
 41
12.98011135886041
 46
6.070361692014189
 71
     5
 72
     5
  1
{\fSimSun|b0|i0|c134|p2;绘图\P\Fromans|c134;Drawn\Ftxt|c134; }
 73
     1
 44
1.0
1001
AcDbBlockRepETag
1070
     1
1071
      122
1005
15C15
1001
ACAD
1000
ACAD_MTEXT_DEFINED_HEIGHT_BEGIN
1070
    46
1040
6.070361692014189
1000
ACAD_MTEXT_DEFINED_HEIGHT_END
  0
ARC
  5
15C16
330
156B5
100
AcDbEntity
  8
图框
 62
     4
370
    35
100
AcDbCircle
 10
1086.900627017421
 20
490.0179944151195
 30
0.0
 40
4.063310408393665
100
AcDbArc
 50
18.95237904564806
 51
161.0476209543519
1001
AcDbBlockRepETag
1070
     1
1071
      123
1005
15C16
  0
ARC
  5
15C17
330
156B5
100
AcDbEntity
  8
图框
 62
     4
370
    35
100
AcDbCircle
 10
1086.900627017421
 20
490.0179944151195
 30
0.0
 40
4.063310408393665
100
AcDbArc
 50
198.952379045648
 51
341.0476209543519
1001
AcDbBlockRepETag
1070
     1
1071
      124
1005
15C17
  0
LINE
  5
15C18
330
156B5
100
AcDbEntity
  8
图框
 62
     4
370
    35
100
AcDbLine
 10
1083.057593369548
 20
488.6983035966752
 30
0.0
 11
1090.74366066529
 21
488.6983035966752
 31
0.0
1001
AcDbBlockRepETag
1070
     1
1071
      125
1005
15C18
  0
LINE
  5
15C19
330
156B5
100
AcDbEntity
  8
图框
 62
     4
370
    35
100
AcDbLine
 10
1083.057593369548
 20
491.3376852335652
 30
0.0
 11
1090.74366066529
 21
491.3376852335652
 31
0.0
1001
AcDbBlockRepETag
1070
     1
1071
      126
1005
15C19
  0
MTEXT
  5
15C1A
330
156B5
100
AcDbEntity
  8
图框
 62
     1
370
    20
100
AcDbMText
 10
1083.034582879669
 20
491.0506288081688
 30
0.0
 40
2.005930044038334
 41
5.047240019334847
 46
0.0
 71
     1
 72
     5
  1
{\fArial|b0|i0|c0|p34;W}
  7
Chinese
 73
     1
 44
1.0
1001
AcDbBlockRepETag
1070
     1
1071
      127
1005
15C1A
  0
LINE
  5
15C1B
330
156B5
100
AcDbEntity
  8
图框
370
    -3
100
AcDbLine
 10
946.9285026103634
 20
490.327427634663
 30
0.0
 11
1036.653967466372
 21
490.327427634663
 31
0.0
1001
AcDbBlockRepETag
1070
     1
1071
      128
1005
15C1B
  0
LINE
  5
15C1C
330
156B5
100
AcDbEntity
  8
图框
370
    -3
100
AcDbLine
 10
959.9086139692238
 20
509.2054027581959
 30
0.0
 11
959.9086139692238
 21
484.0347692601515
 31
0.0
1001
AcDbBlockRepETag
1070
     1
1071
      129
1005
15C1C
  0
MTEXT
  5
15C1D
330
156B5
100
AcDbEntity
  8
图框
100
AcDbMText
 10
967.6594956750129
 20
506.0590735709403
 30
0.0
 40
2.252848170144607
 41
15.50176341157869
 46
6.292658374511246
 71
     5
 72
     5
  1
姓名{\Fromans|c134;/Name\Ftxt|c134; }
 73
     1
 44
1.0
1001
AcDbBlockRepETag
1070
     1
1071
      130
1005
15C1D
1001
ACAD
1000
ACAD_MTEXT_DEFINED_HEIGHT_BEGIN
1070
    46
1040
6.292658374511246
1000
ACAD_MTEXT_DEFINED_HEIGHT_END
  0
MTEXT
  5
15C1E
330
156B5
100
AcDbEntity
  8
图框
100
AcDbMText
 10
983.0415693332477
 20
506.0590735709403
 30
0.0
 40
2.252848170144607
 41
15.26238390489042
 46
6.2926583745112
 71
     5
 72
     5
  1
日期{\Fromans|c134;/Date}
 73
     1
 44
1.0
1001
AcDbBlockRepETag
1070
     1
1071
      131
1005
15C1E
1001
ACAD
1000
ACAD_MTEXT_DEFINED_HEIGHT_BEGIN
1070
    46
1040
6.2926583745112
1000
ACAD_MTEXT_DEFINED_HEIGHT_END
  0
LINE
  5
15C1F
330
156B5
100
AcDbEntity
  8
图框
370
    -3
100
AcDbLine
 10
946.9285026103634
 20
509.2054027581959
 30
0.0
 11
959.9086139692238
 21
502.9127443836848
 31
0.0
1001
AcDbBlockRepETag
1070
     1
1071
      132
1005
15C1F
  0
MTEXT
  5
15C20
330
156B5
100
AcDbEntity
  8
图框
100
AcDbMText
 10
1012.931405110086
 20
506.0185715840725
 30
0.0
 40
2.252848170144607
 41
16.93492221063566
 46
0.0
 71
     5
 72
     5
  1
姓名{\Fromans|c134;/Name}
 73
     1
 44
1.0
1001
AcDbBlockRepETag
1070
     1
1071
      133
1005
15C20
  0
MTEXT
  5
15C21
330
156B5
100
AcDbEntity
  8
图框
100
AcDbMText
 10
1028.977802139886
 20
506.0590735709403
 30
0.0
 40
2.252848170144607
 41
15.35233065297283
 46
6.292658374511256
 71
     5
 72
     5
  1
日期{\Fromans|c134;/Date}
 73
     1
 44
1.0
1001
AcDbBlockRepETag
1070
     1
1071
      134
1005
15C21
1001
ACAD
1000
ACAD_MTEXT_DEFINED_HEIGHT_BEGIN
1070
    46
1040
6.292658374511256
1000
ACAD_MTEXT_DEFINED_HEIGHT_END
  0
LINE
  5
15C22
330
156B5
100
AcDbEntity
  8
图框
370
    -3
100
AcDbLine
 10
1003.652872644553
 20
502.9127443836848
 30
0.0
 11
990.6727612856927
 21
509.2054027581959
 31
0.0
1001
AcDbBlockRepETag
1070
     1
1071
      135
1005
15C22
  0
MTEXT
  5
15C23
102
{ACAD_XDICTIONARY
360
15C74
102
}
330
156B5
100
AcDbEntity
  8
图框
100
AcDbMText
 10
997.1628169651232
 20
487.1810984474071
 30
0.0
 40
2.252848170144607
 41
12.98011135886052
 46
6.292658374511517
 71
     5
 72
     5
  1
{\fSimSun|b0|i0|c134|p2;批准\P\Fromans|c134;Approved}
 73
     1
 44
1.0
1001
AcDbBlockRepETag
1070
     1
1071
      136
1005
15C23
1001
ACAD
1000
ACAD_MTEXT_DEFINED_HEIGHT_BEGIN
1070
    46
1040
6.292658374511517
1000
ACAD_MTEXT_DEFINED_HEIGHT_END
  0
MTEXT
  5
15C24
102
{ACAD_XDICTIONARY
360
15C76
102
}
330
156B5
100
AcDbEntity
  8
图框
100
AcDbMText
 10
953.4185582897936
 20
487.1810984474071
 30
0.0
 40
2.252848170144607
 41
12.98011135886041
 46
6.292658374511495
 71
     5
 72
     5
  1
{\fSimSun|b0|i0|c134|p2;工艺\P\Fromans|c134;Process}
 73
     1
 44
1.0
1001
AcDbBlockRepETag
1070
     1
1071
      137
1005
15C24
1001
ACAD
1000
ACAD_MTEXT_DEFINED_HEIGHT_BEGIN
1070
    46
1040
6.292658374511495
1000
ACAD_MTEXT_DEFINED_HEIGHT_END
  0
MTEXT
  5
15C25
102
{ACAD_XDICTIONARY
360
15C78
102
}
330
156B5
100
AcDbEntity
  8
图框
100
AcDbMText
 10
1028.977802139886
 20
511.8287965307664
 30
0.0
 40
1.958998408821398
 41
15.3523306529728
 46
5.246787545140668
 71
     5
 72
     5
  1
{\fSimSun|b0|i0|c134|p2;日期\P\Fromans|c134;Date}
 73
     1
 44
1.0
1001
AcDbBlockRepETag
1070
     1
1071
      138
1005
15C25
1001
ACAD
1000
ACAD_MTEXT_DEFINED_HEIGHT_BEGIN
1070
    46
1040
5.246787545140668
1000
ACAD_MTEXT_DEFINED_HEIGHT_END
  0
MTEXT
  5
15C26
330
156B5
100
AcDbEntity
  8
图框
100
AcDbMText
 10
1086.643735910939
 20
509.1493769780809
 30
0.0
 40
2.154898249703542
 41
13.34474941400573
 46
8.87215554796615
 71
     5
 72
     5
  1
产品料号\P{\Fromans|c134;Part No.}
 73
     1
 44
1.0
1001
AcDbBlockRepETag
1070
     1
1071
      139
1005
15C26
1001
ACAD
1000
ACAD_MTEXT_DEFINED_HEIGHT_BEGIN
1070
    46
1040
8.87215554796615
1000
ACAD_MTEXT_DEFINED_HEIGHT_END
  0
MTEXT
  5
15C27
330
156B5
100
AcDbEntity
  8
图框
100
AcDbMText
 10
1086.643735910939
 20
500.2775205517163
 30
0.0
 40
1.958998408821398
 41
13.34474941400573
 46
8.871557304763321
 71
     5
 72
     5
  1
产品名称\P{\Fromans|c134;Part Name}
 73
     1
 44
1.0
1001
AcDbBlockRepETag
1070
     1
1071
      140
1005
15C27
1001
ACAD
1000
ACAD_MTEXT_DEFINED_HEIGHT_BEGIN
1070
    46
1040
8.871557304763321
1000
ACAD_MTEXT_DEFINED_HEIGHT_END
  0
LINE
  5
15C28
330
156B5
100
AcDbEntity
  8
图框
 62
     1
370
    18
100
AcDbLine
 10
833.4128518455365
 20
690.5347692601515
 30
0.0
 11
833.4128518455365
 21
480.5347692601515
 31
0.0
1001
AcDbBlockRepETag
1070
     1
1071
      141
1005
15C28
  0
LINE
  5
15C29
330
156B5
100
AcDbEntity
  8
图框
 62
     1
370
    18
100
AcDbLine
 10
833.4128518455365
 20
480.5347692601515
 30
0.0
 11
1130.411601781236
 21
480.5347692601515
 31
0.0
1001
AcDbBlockRepETag
1070
     1
1071
      142
1005
15C29
  0
LINE
  5
15C2A
330
156B5
100
AcDbEntity
  8
图框
 62
     1
370
    18
100
AcDbLine
 10
833.4128518455365
 20
690.5347692601515
 30
0.0
 11
1130.411601781236
 21
690.5347692601515
 31
0.0
1001
AcDbBlockRepETag
1070
     1
1071
      143
1005
15C2A
  0
LINE
  5
15C2B
330
156B5
100
AcDbEntity
  8
图框
 62
     1
370
    18
100
AcDbLine
 10
1130.411601781236
 20
480.5347692601515
 30
0.0
 11
1130.411601781236
 21
690.5347692601515
 31
0.0
1001
AcDbBlockRepETag
1070
     1
1071
      144
1005
15C2B
  0
LINE
  5
15C2C
330
156B5
100
AcDbEntity
  8
图框
370
    18
100
AcDbLine
 10
836.9128518455394
 20
686.7901958362482
 30
0.0
 11
861.5351874539182
 21
686.7901958362482
 31
0.0
1001
AcDbBlockRepETag
1070
     1
1071
      145
1005
15C2C
  0
LINE
  5
15C2D
330
156B5
100
AcDbEntity
  8
图框
370
    50
100
AcDbLine
 10
1126.928502610363
 20
484.3410054693078
 30
0.0
 11
1126.928502610363
 21
675.5347692601515
 31
0.0
1001
AcDbBlockRepETag
1070
     1
1071
      146
1005
15C2D
  0
MTEXT
  5
15C2E
330
156B5
100
AcDbEntity
  8
图框
 62
     3
100
AcDbMText
 10
1052.897990117958
 20
495.8417418993364
 30
0.0
 40
2.985513575034151
 41
10.82934843439114
 46
7.886094601211307
 71
     5
 72
     5
  1
V1.1
  7
Romans字体
 73
     1
 44
1.0
1001
AcDbBlockRepETag
1070
     1
1071
      147
1005
15C2E
1001
ACAD
1000
ACAD_MTEXT_DEFINED_HEIGHT_BEGIN
1070
    46
1040
7.886094601211307
1000
ACAD_MTEXT_DEFINED_HEIGHT_END
  0
LINE
  5
15C2F
330
156B5
100
AcDbEntity
  8
图框
 62
     6
100
AcDbLine
 10
1126.911601781236
 20
531.714049199969
 30
0.0
 11
1130.411601781236
 21
531.714049199969
 31
0.0
1001
AcDbBlockRepETag
1070
     1
1071
      148
1005
15C2F
  0
ENDBLK
  5
1574D
330
156B5
100
AcDbEntity
  8
0
100
AcDbBlockEnd
  0
BLOCK
  5
157DF
330
157DE
100
AcDbEntity
  8
0
100
AcDbBlockBegin
  2
*D6
 70
     1
 10
0.0
 20
0.0
 30
0.0
  3
*D6
  1

  0
LINE
  5
157E0
330
157DE
100
AcDbEntity
  8
DIM
 62
     6
370
    -2
100
AcDbLine
 10
831.3177651599172
 20
220.4788945215835
 30
0.0
 11
836.5996681599176
 21
220.4788945215835
 31
0.0
  0
LINE
  5
157E1
330
157DE
100
AcDbEntity
  8
DIM
 62
     6
370
    -2
100
AcDbLine
 10
831.3177651599172
 20
218.8938945215835
 30
0.0
 11
836.5996681599176
 21
218.8938945215835
 31
0.0
  0
LINE
  5
157E2
330
157DE
100
AcDbEntity
  8
DIM
 62
     1
370
    -2
100
AcDbLine
 10
836.0996681599173
 20
217.3938945215835
 30
0.0
 11
836.0996681599173
 21
215.8938945215835
 31
0.0
  0
LINE
  5
157E3
330
157DE
100
AcDbEntity
  8
DIM
 62
     1
370
    -2
100
AcDbLine
 10
836.0996681599173
 20
221.9788945215835
 30
0.0
 11
836.0996681599173
 21
229.1217516644406
 31
0.0
  0
SOLID
  5
157E4
330
157DE
100
AcDbEntity
  8
DIM
 62
     1
100
AcDbTrace
 10
835.8496681599174
 20
217.3938945215835
 30
0.0
 11
836.3496681599174
 21
217.3938945215835
 31
0.0
 12
836.0996681599173
 22
218.8938945215835
 32
0.0
 13
836.0996681599173
 23
218.8938945215835
 33
0.0
  0
SOLID
  5
157E5
330
157DE
100
AcDbEntity
  8
DIM
 62
     1
100
AcDbTrace
 10
835.8496681599174
 20
221.9788945215835
 30
0.0
 11
836.3496681599174
 21
221.9788945215835
 31
0.0
 12
836.0996681599173
 22
220.4788945215835
 32
0.0
 13
836.0996681599173
 23
220.4788945215835
 33
0.0
  0
MTEXT
  5
157E6
330
157DE
100
AcDbEntity
  8
DIM
 62
     4
100
AcDbMText
 10
834.5996681599174
 20
226.3003230930122
 30
0.0
 40
2.0
 41
0.0
 46
0.0
 71
     5
 72
     1
  1
\A1;{\Fromand,hztxt|c134;%%C1.6}
  7
Romans字体
 11
0.0000000000000001
 21
1.0
 31
0.0
 73
     1
 44
1.0
  0
POINT
  5
157E7
330
157DE
100
AcDbEntity
  8
Defpoints
 62
     0
100
AcDbPoint
 10
831.1177651599171
 20
220.4788945215835
 30
0.0
  0
POINT
  5
157E8
330
157DE
100
AcDbEntity
  8
Defpoints
 62
     0
100
AcDbPoint
 10
831.1177651599171
 20
218.8938945215835
 30
0.0
  0
POINT
  5
157E9
330
157DE
100
AcDbEntity
  8
Defpoints
 62
     0
100
AcDbPoint
 10
836.0996681599173
 20
218.8938945215835
 30
0.0
  0
ENDBLK
  5
157EA
330
157DE
100
AcDbEntity
  8
0
100
AcDbBlockEnd
  0
BLOCK
  5
157EC
330
157EB
100
AcDbEntity
  8
0
100
AcDbBlockBegin
  2
*D7
 70
     1
 10
0.0
 20
0.0
 30
0.0
  3
*D7
  1

  0
LINE
  5
157ED
330
157EB
100
AcDbEntity
  8
DIM
 62
     6
370
    -2
100
AcDbLine
 10
802.9425261599172
 20
220.1863945215835
 30
0.0
 11
799.2210428091574
 21
220.1863945215835
 31
0.0
  0
LINE
  5
157EE
330
157EB
100
AcDbEntity
  8
DIM
 62
     6
370
    -2
100
AcDbLine
 10
802.9425261599172
 20
219.1863945215835
 30
0.0
 11
799.2210428091574
 21
219.1863945215835
 31
0.0
  0
LINE
  5
157EF
330
157EB
100
AcDbEntity
  8
DIM
 62
     1
370
    -2
100
AcDbLine
 10
799.7210428091574
 20
217.6863945215835
 30
0.0
 11
799.7210428091574
 21
216.1863945215835
 31
0.0
  0
LINE
  5
157F0
330
157EB
100
AcDbEntity
  8
DIM
 62
     1
370
    -2
100
AcDbLine
 10
799.7210428091574
 20
221.6863945215835
 30
0.0
 11
799.7210428091574
 21
226.1863945215835
 31
0.0
  0
SOLID
  5
157F1
330
157EB
100
AcDbEntity
  8
DIM
 62
     1
100
AcDbTrace
 10
799.4710428091574
 20
217.6863945215835
 30
0.0
 11
799.9710428091574
 21
217.6863945215835
 31
0.0
 12
799.7210428091574
 22
219.1863945215835
 32
0.0
 13
799.7210428091574
 23
219.1863945215835
 33
0.0
  0
SOLID
  5
157F2
330
157EB
100
AcDbEntity
  8
DIM
 62
     1
100
AcDbTrace
 10
799.4710428091574
 20
221.6863945215835
 30
0.0
 11
799.9710428091574
 21
221.6863945215835
 31
0.0
 12
799.7210428091574
 22
220.1863945215835
 32
0.0
 13
799.7210428091574
 23
220.1863945215835
 33
0.0
  0
MTEXT
  5
157F3
330
157EB
100
AcDbEntity
  8
DIM
 62
     4
100
AcDbMText
 10
798.2210428091574
 20
224.6863945215836
 30
0.0
 40
2.0
 41
0.0
 46
0.0
 71
     5
 72
     1
  1
\A1;{\Fromand,hztxt|c134;%%C}1
  7
Romans字体
 11
0.0000000000000001
 21
1.0
 31
0.0
 73
     1
 44
1.0
  0
POINT
  5
157F4
330
157EB
100
AcDbEntity
  8
Defpoints
 62
     0
100
AcDbPoint
 10
803.1425261599173
 20
220.1863945215835
 30
0.0
  0
POINT
  5
157F5
330
157EB
100
AcDbEntity
  8
Defpoints
 62
     0
100
AcDbPoint
 10
803.1425261599173
 20
219.1863945215835
 30
0.0
  0
POINT
  5
157F6
330
157EB
100
AcDbEntity
  8
Defpoints
 62
     0
100
AcDbPoint
 10
799.7210428091574
 20
219.1863945215835
 30
0.0
  0
ENDBLK
  5
157F7
330
157EB
100
AcDbEntity
  8
0
100
AcDbBlockEnd
  0
BLOCK
  5
157F9
330
157F8
100
AcDbEntity
  8
0
100
AcDbBlockBegin
  2
*D8
 70
     1
 10
0.0
 20
0.0
 30
0.0
  3
*D8
  1

  0
LINE
  5
157FA
330
157F8
100
AcDbEntity
  8
DIM
 62
     6
370
    -2
100
AcDbLine
 10
807.4425261599172
 20
221.2813945215835
 30
0.0
 11
796.9655470543109
 21
221.2813945215835
 31
0.0
  0
LINE
  5
157FB
330
157F8
100
AcDbEntity
  8
DIM
 62
     6
370
    -2
100
AcDbLine
 10
807.4425261599172
 20
218.0913945215835
 30
0.0
 11
796.9655470543109
 21
218.0913945215835
 31
0.0
  0
LINE
  5
157FC
330
157F8
100
AcDbEntity
  8
DIM
 62
     1
370
    -2
100
AcDbLine
 10
797.4655470543109
 20
216.5913945215835
 30
0.0
 11
797.4655470543109
 21
215.0913945215835
 31
0.0
  0
LINE
  5
157FD
330
157F8
100
AcDbEntity
  8
DIM
 62
     1
370
    -2
100
AcDbLine
 10
797.4655470543109
 20
222.7813945215835
 30
0.0
 11
797.4655470543109
 21
229.9242516644407
 31
0.0
  0
SOLID
  5
157FE
330
157F8
100
AcDbEntity
  8
DIM
 62
     1
100
AcDbTrace
 10
797.2155470543111
 20
216.5913945215835
 30
0.0
 11
797.715547054311
 21
216.5913945215835
 31
0.0
 12
797.4655470543109
 22
218.0913945215835
 32
0.0
 13
797.4655470543109
 23
218.0913945215835
 33
0.0
  0
SOLID
  5
157FF
330
157F8
100
AcDbEntity
  8
DIM
 62
     1
100
AcDbTrace
 10
797.2155470543111
 20
222.7813945215835
 30
0.0
 11
797.715547054311
 21
222.7813945215835
 31
0.0
 12
797.4655470543109
 22
221.2813945215835
 32
0.0
 13
797.4655470543109
 23
221.2813945215835
 33
0.0
  0
MTEXT
  5
15800
330
157F8
100
AcDbEntity
  8
DIM
 62
     4
100
AcDbMText
 10
795.9655470543109
 20
227.1028230930122
 30
0.0
 40
2.0
 41
0.0
 46
0.0
 71
     5
 72
     1
  1
\A1;{\Fromand,hztxt|c134;%%C3.2}
  7
Romans字体
 11
0.0000000000000001
 21
1.0
 31
0.0
 73
     1
 44
1.0
  0
POINT
  5
15801
330
157F8
100
AcDbEntity
  8
Defpoints
 62
     0
100
AcDbPoint
 10
807.6425261599172
 20
221.2813945215835
 30
0.0
  0
POINT
  5
15802
330
157F8
100
AcDbEntity
  8
Defpoints
 62
     0
100
AcDbPoint
 10
807.6425261599172
 20
218.0913945215835
 30
0.0
  0
POINT
  5
15803
330
157F8
100
AcDbEntity
  8
Defpoints
 62
     0
100
AcDbPoint
 10
797.4655470543109
 20
218.0913945215835
 30
0.0
  0
ENDBLK
  5
15804
330
157F8
100
AcDbEntity
  8
0
100
AcDbBlockEnd
  0
BLOCK
  5
15806
330
15805
100
AcDbEntity
  8
0
100
AcDbBlockBegin
  2
*D9
 70
     1
 10
0.0
 20
0.0
 30
0.0
  3
*D9
  1

  0
LINE
  5
15807
330
15805
100
AcDbEntity
  8
DIM
 62
     6
370
    -2
100
AcDbLine
 10
807.6425261599172
 20
217.8913945215835
 30
0.0
 11
807.6425261599172
 21
215.5743495215835
 31
0.0
  0
LINE
  5
15808
330
15805
100
AcDbEntity
  8
DIM
 62
     6
370
    -2
100
AcDbLine
 10
802.6425261599174
 20
219.4863945215835
 30
0.0
 11
802.6425261599174
 21
215.5743495215835
 31
0.0
  0
LINE
  5
15809
330
15805
100
AcDbEntity
  8
DIM
 62
     1
370
    -2
100
AcDbLine
 10
806.1425261599174
 20
216.0743495215835
 30
0.0
 11
804.1425261599172
 21
216.0743495215835
 31
0.0
  0
SOLID
  5
1580A
330
15805
100
AcDbEntity
  8
DIM
 62
     1
100
AcDbTrace
 10
806.1425261599174
 20
216.3243495215835
 30
0.0
 11
806.1425261599174
 21
215.8243495215835
 31
0.0
 12
807.6425261599172
 22
216.0743495215835
 32
0.0
 13
807.6425261599172
 23
216.0743495215835
 33
0.0
  0
SOLID
  5
1580B
330
15805
100
AcDbEntity
  8
DIM
 62
     1
100
AcDbTrace
 10
804.1425261599172
 20
216.3243495215835
 30
0.0
 11
804.1425261599172
 21
215.8243495215835
 31
0.0
 12
802.6425261599174
 22
216.0743495215835
 32
0.0
 13
802.6425261599174
 23
216.0743495215835
 33
0.0
  0
MTEXT
  5
1580C
330
15805
100
AcDbEntity
  8
DIM
 62
     4
100
AcDbMText
 10
805.0958031599174
 20
217.5743495215835
 30
0.0
 40
2.0
 41
0.0
 46
0.0
 71
     5
 72
     1
  1
\A1;5
  7
Romans字体
 73
     1
 44
1.0
  0
POINT
  5
1580D
330
15805
100
AcDbEntity
  8
Defpoints
 62
     0
100
AcDbPoint
 10
807.6425261599172
 20
218.0913945215835
 30
0.0
  0
POINT
  5
1580E
330
15805
100
AcDbEntity
  8
Defpoints
 62
     0
100
AcDbPoint
 10
802.6425261599174
 20
219.6863945215835
 30
0.0
  0
POINT
  5
1580F
330
15805
100
AcDbEntity
  8
Defpoints
 62
     0
100
AcDbPoint
 10
802.6425261599174
 20
216.0743495215835
 30
0.0
  0
ENDBLK
  5
15810
330
15805
100
AcDbEntity
  8
0
100
AcDbBlockEnd
  0
BLOCK
  5
15812
330
15811
100
AcDbEntity
  8
0
100
AcDbBlockBegin
  2
*D10
 70
     1
 10
0.0
 20
0.0
 30
0.0
  3
*D10
  1

  0
LINE
  5
15813
330
15811
100
AcDbEntity
  8
DIM
 62
     6
370
    -2
100
AcDbLine
 10
802.6425261599174
 20
219.4863945215835
 30
0.0
 11
802.6425261599174
 21
213.1861048321741
 31
0.0
  0
LINE
  5
15814
330
15811
100
AcDbEntity
  8
DIM
 62
     6
370
    -2
100
AcDbLine
 10
832.6394181599175
 20
219.4863945215835
 30
0.0
 11
832.6394181599175
 21
213.1861048321741
 31
0.0
  0
LINE
  5
15815
330
15811
100
AcDbEntity
  8
DIM
 62
     1
370
    -2
100
AcDbLine
 10
804.1425261599172
 20
213.686104832174
 30
0.0
 11
831.1394181599174
 21
213.686104832174
 31
0.0
  0
SOLID
  5
15816
330
15811
100
AcDbEntity
  8
DIM
 62
     1
100
AcDbTrace
 10
804.1425261599172
 20
213.9361048321741
 30
0.0
 11
804.1425261599172
 21
213.4361048321741
 31
0.0
 12
802.6425261599174
 22
213.686104832174
 32
0.0
 13
802.6425261599174
 23
213.686104832174
 33
0.0
  0
SOLID
  5
15817
330
15811
100
AcDbEntity
  8
DIM
 62
     1
100
AcDbTrace
 10
831.1394181599174
 20
213.9361048321741
 30
0.0
 11
831.1394181599174
 21
213.4361048321741
 31
0.0
 12
832.6394181599175
 22
213.686104832174
 32
0.0
 13
832.6394181599175
 23
213.686104832174
 33
0.0
  0
MTEXT
  5
15818
330
15811
100
AcDbEntity
  8
DIM
 62
     4
100
AcDbMText
 10
817.6270230101202
 20
215.1861048321741
 30
0.0
 40
2.0
 41
0.0
 46
0.0
 71
     5
 72
     1
  1
\A1;30
  7
Romans字体
 73
     1
 44
1.0
  0
POINT
  5
15819
330
15811
100
AcDbEntity
  8
Defpoints
 62
     0
100
AcDbPoint
 10
802.6425261599174
 20
219.6863945215835
 30
0.0
  0
POINT
  5
1581A
330
15811
100
AcDbEntity
  8
Defpoints
 62
     0
100
AcDbPoint
 10
832.6394181599175
 20
219.6863945215835
 30
0.0
  0
POINT
  5
1581B
330
15811
100
AcDbEntity
  8
Defpoints
 62
     0
100
AcDbPoint
 10
832.6394181599175
 20
213.686104832174
 30
0.0
  0
ENDBLK
  5
1581C
330
15811
100
AcDbEntity
  8
0
100
AcDbBlockEnd
  0
BLOCK
  5
1590C
330
1590B
100
AcDbEntity
  8
0
100
AcDbBlockBegin
  2
*D11
 70
     1
 10
0.0
 20
0.0
 30
0.0
  3
*D11
  1

  0
LINE
  5
15A2B
330
1590B
100
AcDbEntity
  8
DIM
 62
     6
370
    -2
100
AcDbLine
 10
444.6970766956876
 20
348.5549987465148
 30
0.0
 11
449.9789796956881
 21
348.5549987465148
 31
0.0
  0
LINE
  5
15A2C
330
1590B
100
AcDbEntity
  8
DIM
 62
     6
370
    -2
100
AcDbLine
 10
444.6970766956876
 20
346.9699987465148
 30
0.0
 11
449.9789796956881
 21
346.9699987465148
 31
0.0
  0
LINE
  5
15A2D
330
1590B
100
AcDbEntity
  8
DIM
 62
     1
370
    -2
100
AcDbLine
 10
449.4789796956879
 20
345.4699987465148
 30
0.0
 11
449.4789796956879
 21
343.9699987465147
 31
0.0
  0
LINE
  5
15A2E
330
1590B
100
AcDbEntity
  8
DIM
 62
     1
370
    -2
100
AcDbLine
 10
449.4789796956879
 20
350.0549987465148
 30
0.0
 11
449.4789796956879
 21
357.0549987465148
 31
0.0
  0
SOLID
  5
15A2F
330
1590B
100
AcDbEntity
  8
DIM
 62
     1
100
AcDbTrace
 10
449.2289796956881
 20
345.4699987465148
 30
0.0
 11
449.7289796956882
 21
345.4699987465148
 31
0.0
 12
449.4789796956879
 22
346.9699987465148
 32
0.0
 13
449.4789796956879
 23
346.9699987465148
 33
0.0
  0
SOLID
  5
15A30
330
1590B
100
AcDbEntity
  8
DIM
 62
     1
100
AcDbTrace
 10
449.2289796956881
 20
350.0549987465148
 30
0.0
 11
449.7289796956882
 21
350.0549987465148
 31
0.0
 12
449.4789796956879
 22
348.5549987465148
 32
0.0
 13
449.4789796956879
 23
348.5549987465148
 33
0.0
  0
MTEXT
  5
15A31
330
1590B
100
AcDbEntity
  8
DIM
 62
     4
100
AcDbMText
 10
447.9789796956882
 20
354.3049987465149
 30
0.0
 40
2.0
 41
0.0
 46
0.0
 71
     5
 72
     1
  1
\A1;%%C1.6
  7
Romans字体
 11
0.0000000000000001
 21
1.0
 31
0.0
 73
     1
 44
1.0
  0
POINT
  5
15A32
330
1590B
100
AcDbEntity
  8
Defpoints
 62
     0
100
AcDbPoint
 10
444.4970766956877
 20
348.5549987465148
 30
0.0
  0
POINT
  5
15A33
330
1590B
100
AcDbEntity
  8
Defpoints
 62
     0
100
AcDbPoint
 10
444.4970766956877
 20
346.9699987465148
 30
0.0
  0
POINT
  5
15A34
330
1590B
100
AcDbEntity
  8
Defpoints
 62
     0
100
AcDbPoint
 10
449.4789796956879
 20
346.9699987465148
 30
0.0
  0
ENDBLK
  5
1590D
330
1590B
100
AcDbEntity
  8
0
100
AcDbBlockEnd
  0
BLOCK
  5
15919
330
15918
100
AcDbEntity
  8
0
100
AcDbBlockBegin
  2
*D12
 70
     1
 10
0.0
 20
0.0
 30
0.0
  3
*D12
  1

  0
LINE
  5
15A35
330
15918
100
AcDbEntity
  8
DIM
 62
     6
370
    -2
100
AcDbLine
 10
416.3218376956876
 20
348.2624987465148
 30
0.0
 11
412.6003543449279
 21
348.2624987465148
 31
0.0
  0
LINE
  5
15A36
330
15918
100
AcDbEntity
  8
DIM
 62
     6
370
    -2
100
AcDbLine
 10
416.3218376956876
 20
347.2624987465148
 30
0.0
 11
412.6003543449279
 21
347.2624987465148
 31
0.0
  0
LINE
  5
15A37
330
15918
100
AcDbEntity
  8
DIM
 62
     1
370
    -2
100
AcDbLine
 10
413.100354344928
 20
345.7624987465148
 30
0.0
 11
413.100354344928
 21
344.2624987465148
 31
0.0
  0
LINE
  5
15A38
330
15918
100
AcDbEntity
  8
DIM
 62
     1
370
    -2
100
AcDbLine
 10
413.100354344928
 20
349.7624987465148
 30
0.0
 11
413.100354344928
 21
354.298213032229
 31
0.0
  0
SOLID
  5
15A39
330
15918
100
AcDbEntity
  8
DIM
 62
     1
100
AcDbTrace
 10
412.8503543449276
 20
345.7624987465148
 30
0.0
 11
413.3503543449275
 21
345.7624987465148
 31
0.0
 12
413.100354344928
 22
347.2624987465148
 32
0.0
 13
413.100354344928
 23
347.2624987465148
 33
0.0
  0
SOLID
  5
15A3A
330
15918
100
AcDbEntity
  8
DIM
 62
     1
100
AcDbTrace
 10
412.8503543449276
 20
349.7624987465148
 30
0.0
 11
413.3503543449275
 21
349.7624987465148
 31
0.0
 12
413.100354344928
 22
348.2624987465148
 32
0.0
 13
413.100354344928
 23
348.2624987465148
 33
0.0
  0
MTEXT
  5
15A3B
330
15918
100
AcDbEntity
  8
DIM
 62
     4
100
AcDbMText
 10
411.6003543449279
 20
352.8339273179434
 30
0.0
 40
2.0
 41
0.0
 46
0.0
 71
     5
 72
     1
  1
\A1;%%C1
  7
Romans字体
 11
0.0000000000000001
 21
1.0
 31
0.0
 73
     1
 44
1.0
  0
POINT
  5
15A3C
330
15918
100
AcDbEntity
  8
Defpoints
 62
     0
100
AcDbPoint
 10
416.5218376956876
 20
348.2624987465148
 30
0.0
  0
POINT
  5
15A3D
330
15918
100
AcDbEntity
  8
Defpoints
 62
     0
100
AcDbPoint
 10
416.5218376956876
 20
347.2624987465148
 30
0.0
  0
POINT
  5
15A3E
330
15918
100
AcDbEntity
  8
Defpoints
 62
     0
100
AcDbPoint
 10
413.100354344928
 20
347.2624987465148
 30
0.0
  0
ENDBLK
  5
1591A
330
15918
100
AcDbEntity
  8
0
100
AcDbBlockEnd
  0
BLOCK
  5
15926
330
15925
100
AcDbEntity
  8
0
100
AcDbBlockBegin
  2
*D13
 70
     1
 10
0.0
 20
0.0
 30
0.0
  3
*D13
  1

  0
LINE
  5
15A3F
330
15925
100
AcDbEntity
  8
DIM
 62
     6
370
    -2
100
AcDbLine
 10
420.8218376956875
 20
349.3574987465148
 30
0.0
 11
408.7345326387493
 21
349.3574987465148
 31
0.0
  0
LINE
  5
15A40
330
15925
100
AcDbEntity
  8
DIM
 62
     6
370
    -2
100
AcDbLine
 10
420.8218376956875
 20
346.1674987465148
 30
0.0
 11
408.7345326387493
 21
346.1674987465148
 31
0.0
  0
LINE
  5
15A41
330
15925
100
AcDbEntity
  8
DIM
 62
     1
370
    -2
100
AcDbLine
 10
409.2345326387492
 20
344.6674987465148
 30
0.0
 11
409.2345326387492
 21
343.1674987465147
 31
0.0
  0
LINE
  5
15A42
330
15925
100
AcDbEntity
  8
DIM
 62
     1
370
    -2
100
AcDbLine
 10
409.2345326387492
 20
350.8574987465148
 30
0.0
 11
409.2345326387492
 21
357.8574987465148
 31
0.0
  0
SOLID
  5
15A43
330
15925
100
AcDbEntity
  8
DIM
 62
     1
100
AcDbTrace
 10
408.9845326387488
 20
344.6674987465148
 30
0.0
 11
409.4845326387488
 21
344.6674987465148
 31
0.0
 12
409.2345326387492
 22
346.1674987465148
 32
0.0
 13
409.2345326387492
 23
346.1674987465148
 33
0.0
  0
SOLID
  5
15A44
330
15925
100
AcDbEntity
  8
DIM
 62
     1
100
AcDbTrace
 10
408.9845326387488
 20
350.8574987465148
 30
0.0
 11
409.4845326387488
 21
350.8574987465148
 31
0.0
 12
409.2345326387492
 22
349.3574987465148
 32
0.0
 13
409.2345326387492
 23
349.3574987465148
 33
0.0
  0
MTEXT
  5
15A45
330
15925
100
AcDbEntity
  8
DIM
 62
     4
100
AcDbMText
 10
407.7345326387491
 20
355.1074987465149
 30
0.0
 40
2.0
 41
0.0
 46
0.0
 71
     5
 72
     1
  1
\A1;%%C3.2
  7
Romans字体
 11
0.0000000000000001
 21
1.0
 31
0.0
 73
     1
 44
1.0
  0
POINT
  5
15A46
330
15925
100
AcDbEntity
  8
Defpoints
 62
     0
100
AcDbPoint
 10
421.0218376956878
 20
349.3574987465148
 30
0.0
  0
POINT
  5
15A47
330
15925
100
AcDbEntity
  8
Defpoints
 62
     0
100
AcDbPoint
 10
421.0218376956878
 20
346.1674987465148
 30
0.0
  0
POINT
  5
15A48
330
15925
100
AcDbEntity
  8
Defpoints
 62
     0
100
AcDbPoint
 10
409.2345326387492
 20
346.1674987465148
 30
0.0
  0
ENDBLK
  5
15927
330
15925
100
AcDbEntity
  8
0
100
AcDbBlockEnd
  0
BLOCK
  5
15933
330
15932
100
AcDbEntity
  8
0
100
AcDbBlockBegin
  2
*D14
 70
     1
 10
0.0
 20
0.0
 30
0.0
  3
*D14
  1

  0
LINE
  5
15A49
330
15932
100
AcDbEntity
  8
DIM
 62
     6
370
    -2
100
AcDbLine
 10
421.0218376956878
 20
345.9674987465148
 30
0.0
 11
421.0218376956878
 21
342.0034640195317
 31
0.0
  0
LINE
  5
15A4A
330
15932
100
AcDbEntity
  8
DIM
 62
     6
370
    -2
100
AcDbLine
 10
416.0218376956875
 20
347.5624987465148
 30
0.0
 11
416.0218376956875
 21
342.0034640195317
 31
0.0
  0
LINE
  5
15A4B
330
15932
100
AcDbEntity
  8
DIM
 62
     1
370
    -2
100
AcDbLine
 10
419.5218376956876
 20
342.5034640195317
 30
0.0
 11
417.5218376956878
 21
342.5034640195317
 31
0.0
  0
SOLID
  5
15A4C
330
15932
100
AcDbEntity
  8
DIM
 62
     1
100
AcDbTrace
 10
419.5218376956876
 20
342.7534640195318
 30
0.0
 11
419.5218376956876
 21
342.2534640195317
 31
0.0
 12
421.0218376956878
 22
342.5034640195317
 32
0.0
 13
421.0218376956878
 23
342.5034640195317
 33
0.0
  0
SOLID
  5
15A4D
330
15932
100
AcDbEntity
  8
DIM
 62
     1
100
AcDbTrace
 10
417.5218376956878
 20
342.7534640195318
 30
0.0
 11
417.5218376956878
 21
342.2534640195317
 31
0.0
 12
416.0218376956875
 22
342.5034640195317
 32
0.0
 13
416.0218376956875
 23
342.5034640195317
 33
0.0
  0
MTEXT
  5
15A4E
330
15932
100
AcDbEntity
  8
DIM
 62
     4
100
AcDbMText
 10
418.4751146956878
 20
344.0034640195317
 30
0.0
 40
2.0
 41
0.0
 46
0.0
 71
     5
 72
     1
  1
\A1;5
  7
Romans字体
 73
     1
 44
1.0
  0
POINT
  5
15A4F
330
15932
100
AcDbEntity
  8
Defpoints
 62
     0
100
AcDbPoint
 10
421.0218376956878
 20
346.1674987465148
 30
0.0
  0
POINT
  5
15A50
330
15932
100
AcDbEntity
  8
Defpoints
 62
     0
100
AcDbPoint
 10
416.0218376956875
 20
347.7624987465148
 30
0.0
  0
POINT
  5
15A51
330
15932
100
AcDbEntity
  8
Defpoints
 62
     0
100
AcDbPoint
 10
416.0218376956875
 20
342.5034640195317
 30
0.0
  0
ENDBLK
  5
15934
330
15932
100
AcDbEntity
  8
0
100
AcDbBlockEnd
  0
BLOCK
  5
1593F
330
1593E
100
AcDbEntity
  8
0
100
AcDbBlockBegin
  2
*D15
 70
     1
 10
0.0
 20
0.0
 30
0.0
  3
*D15
  1

  0
LINE
  5
15A52
330
1593E
100
AcDbEntity
  8
DIM
 62
     6
370
    -2
100
AcDbLine
 10
416.0218376956875
 20
347.5624987465148
 30
0.0
 11
416.0218376956875
 21
338.0362441944435
 31
0.0
  0
LINE
  5
15A53
330
1593E
100
AcDbEntity
  8
DIM
 62
     6
370
    -2
100
AcDbLine
 10
446.0187296956878
 20
347.5624987465148
 30
0.0
 11
446.0187296956878
 21
338.0362441944435
 31
0.0
  0
LINE
  5
15A54
330
1593E
100
AcDbEntity
  8
DIM
 62
     1
370
    -2
100
AcDbLine
 10
417.5218376956878
 20
338.5362441944435
 30
0.0
 11
444.518729695688
 21
338.5362441944435
 31
0.0
  0
SOLID
  5
15A55
330
1593E
100
AcDbEntity
  8
DIM
 62
     1
100
AcDbTrace
 10
417.5218376956878
 20
338.7862441944435
 30
0.0
 11
417.5218376956878
 21
338.2862441944435
 31
0.0
 12
416.0218376956875
 22
338.5362441944435
 32
0.0
 13
416.0218376956875
 23
338.5362441944435
 33
0.0
  0
SOLID
  5
15A56
330
1593E
100
AcDbEntity
  8
DIM
 62
     1
100
AcDbTrace
 10
444.518729695688
 20
338.7862441944435
 30
0.0
 11
444.518729695688
 21
338.2862441944435
 31
0.0
 12
446.0187296956878
 22
338.5362441944435
 32
0.0
 13
446.0187296956878
 23
338.5362441944435
 33
0.0
  0
MTEXT
  5
15A57
330
1593E
100
AcDbEntity
  8
DIM
 62
     4
100
AcDbMText
 10
431.0063345458908
 20
340.0362441944435
 30
0.0
 40
2.0
 41
0.0
 46
0.0
 71
     5
 72
     1
  1
\A1;30
  7
Romans字体
 73
     1
 44
1.0
  0
POINT
  5
15A58
330
1593E
100
AcDbEntity
  8
Defpoints
 62
     0
100
AcDbPoint
 10
416.0218376956875
 20
347.7624987465148
 30
0.0
  0
POINT
  5
15A59
330
1593E
100
AcDbEntity
  8
Defpoints
 62
     0
100
AcDbPoint
 10
446.0187296956878
 20
347.7624987465148
 30
0.0
  0
POINT
  5
15A5A
330
1593E
100
AcDbEntity
  8
Defpoints
 62
     0
100
AcDbPoint
 10
446.0187296956878
 20
338.5362441944435
 30
0.0
  0
ENDBLK
  5
15940
330
1593E
100
AcDbEntity
  8
0
100
AcDbBlockEnd
  0
ENDSEC
  0
SECTION
  2
ENTITIES
  0
HATCH
  5
28AE
330
1F
100
AcDbEntity
  8
图层 1
 62
     7
100
AcDbHatch
 10
0.0
 20
0.0
 30
0.0
210
0.0
220
0.0
230
1.0
  2
SOLID
 70
     1
 71
     0
 91
        1
 92
        1
 93
        2
 72
     4
 94
        3
 73
     0
 74
     0
 95
       17
 96
       13
 40
0.0
 40
0.0
 40
0.0
 40
0.0
 40
0.3527780104152769
 40
0.3527780104152769
 40
0.3527780104152769
 40
0.7055560208305538
 40
0.7055560208305538
 40
0.7055560208305538
 40
1.058334031245828
 40
1.058334031245828
 40
1.058334031245828
 40
1.411112041661104
 40
1.411112041661104
 40
1.411112041661104
 40
1.411112041661104
 10
11.07013262565829
 20
29.50312817963231
 10
11.07013262565829
 20
29.50312817963231
 10
10.9431807732774
 20
29.50312817963231
 10
10.9431807732774
 20
29.50312817963231
 10
10.9431807732774
 20
29.50312817963231
 10
10.85843136843155
 20
29.22786486877117
 10
10.85843136843155
 20
29.22786486877117
 10
10.85843136843155
 20
29.22786486877117
 10
10.90080607085448
 20
29.2068497724476
 10
10.90080607085448
 20
29.2068497724476
 10
10.94455881238059
 20
29.31571486159919
 10
11.00346998404173
 20
29.40907701083995
 10
11.07013262565829
 20
29.50312817963231
 72
     1
 10
11.07013262565829
 20
29.50312817963231
 11
11.07013262565829
 21
29.50312817963231
 97
        0
 75
     0
 76
     1
 98
        0
450
        0
451
        0
460
0.0
461
0.0
452
        0
462
0.0
453
        0
470

  0
HATCH
  5
2C65
330
1F
100
AcDbEntity
  8
图层 1
 62
     7
100
AcDbHatch
 10
0.0
 20
0.0
 30
0.0
210
0.0
220
0.0
230
1.0
  2
SOLID
 70
     1
 71
     0
 91
        1
 92
        1
 93
        2
 72
     4
 94
        3
 73
     0
 74
     0
 95
       47
 96
       43
 40
0.0
 40
0.0
 40
0.0
 40
0.0
 40
0.3527780104152769
 40
0.3527780104152769
 40
0.3527780104152769
 40
0.7055560208305538
 40
0.7055560208305538
 40
0.7055560208305538
 40
1.058334031245828
 40
1.058334031245828
 40
1.058334031245828
 40
1.411112041661104
 40
1.411112041661104
 40
1.411112041661104
 40
1.763890052076384
 40
1.763890052076384
 40
1.763890052076384
 40
2.116668062491659
 40
2.116668062491659
 40
2.116668062491659
 40
2.469446072906936
 40
2.469446072906936
 40
2.469446072906936
 40
2.822224083322215
 40
2.822224083322215
 40
2.822224083322215
 40
3.175002093737492
 40
3.175002093737492
 40
3.175002093737492
 40
3.527780104152768
 40
3.527780104152768
 40
3.527780104152768
 40
3.880558114568044
 40
3.880558114568044
 40
3.880558114568044
 40
4.233336124983321
 40
4.233336124983321
 40
4.233336124983321
 40
4.586114135398599
 40
4.586114135398599
 40
4.586114135398599
 40
4.938892145813873
 40
4.938892145813873
 40
4.938892145813873
 40
4.938892145813873
 10
162.8986914070121
 20
257.4895347631509
 10
162.8986914070121
 20
257.4895347631509
 10
162.9200510131114
 20
257.4471600607279
 10
162.9200510131114
 20
257.4471600607279
 10
162.9200510131114
 20
257.4471600607279
 10
162.9200510131114
 20
257.404785358305
 10
162.9200510131114
 20
257.404785358305
 10
162.9200510131114
 20
257.404785358305
 10
162.8986914070121
 20
257.36258291077
 10
162.8986914070121
 20
257.36258291077
 10
162.8986914070121
 20
257.36258291077
 10
162.8986914070121
 20
257.320208208347
 10
162.8986914070121
 20
257.320208208347
 10
162.8986914070121
 20
257.320208208347
 10
162.8563167045891
 20
257.2990208571356
 10
162.8563167045891
 20
257.2990208571356
 10
162.8563167045891
 20
257.2990208571356
 10
162.8139420021662
 20
257.2563016449369
 10
162.8139420021662
 20
257.2563016449369
 10
162.8139420021662
 20
257.2563016449369
 10
162.7295371070961
 20
257.2563016449369
 10
162.7295371070961
 20
257.2563016449369
 10
162.7295371070961
 20
257.2563016449369
 10
162.6658027985738
 20
257.2778335059241
 10
162.6658027985738
 20
257.2778335059241
 10
162.6658027985738
 20
257.2778335059241
 10
162.6237726059267
 20
257.2990208571356
 10
162.6237726059267
 20
257.2990208571356
 10
162.6237726059267
 20
257.2990208571356
 10
162.5813979035038
 20
257.3413955595585
 10
162.5813979035038
 20
257.3413955595585
 10
162.5813979035038
 20
257.3413955595585
 10
162.5813979035038
 20
257.4895347631509
 10
162.5813979035038
 20
257.4895347631509
 10
162.5813979035038
 20
257.4895347631509
 10
162.6447877022503
 20
257.5525800521216
 10
162.6447877022503
 20
257.5525800521216
 10
162.6447877022503
 20
257.5525800521216
 10
162.7081775009967
 20
257.5525800521216
 10
162.7081775009967
 20
257.5525800521216
 10
162.8749202324821
 20
257.5424170137356
 10
162.7918933765152
 20
257.5939212252171
 10
162.8986914070121
 20
257.4895347631509
 72
     1
 10
162.8986914070121
 20
257.4895347631509
 11
162.8986914070121
 21
257.4895347631509
 97
        0
 75
     0
 76
     1
 98
        0
450
        0
451
        0
460
0.0
461
0.0
452
        0
462
0.0
453
        0
470

  0
HATCH
  5
2EE7
330
1F
100
AcDbEntity
  8
图层 1
 62
     7
100
AcDbHatch
 10
0.0
 20
0.0
 30
0.0
210
0.0
220
0.0
230
1.0
  2
SOLID
 70
     1
 71
     0
 91
        1
 92
        1
 93
        2
 72
     4
 94
        3
 73
     0
 74
     0
 95
       56
 96
       52
 40
0.0
 40
0.0
 40
0.0
 40
0.0
 40
0.3527780104152769
 40
0.3527780104152769
 40
0.3527780104152769
 40
0.7055560208305538
 40
0.7055560208305538
 40
0.7055560208305538
 40
1.058334031245828
 40
1.058334031245828
 40
1.058334031245828
 40
1.411112041661104
 40
1.411112041661104
 40
1.411112041661104
 40
1.763890052076384
 40
1.763890052076384
 40
1.763890052076384
 40
2.116668062491659
 40
2.116668062491659
 40
2.116668062491659
 40
2.469446072906936
 40
2.469446072906936
 40
2.469446072906936
 40
2.822224083322215
 40
2.822224083322215
 40
2.822224083322215
 40
3.175002093737492
 40
3.175002093737492
 40
3.175002093737492
 40
3.527780104152768
 40
3.527780104152768
 40
3.527780104152768
 40
3.880558114568044
 40
3.880558114568044
 40
3.880558114568044
 40
4.233336124983321
 40
4.233336124983321
 40
4.233336124983321
 40
4.586114135398599
 40
4.586114135398599
 40
4.586114135398599
 40
4.938892145813873
 40
4.938892145813873
 40
4.938892145813873
 40
5.291670156229153
 40
5.291670156229153
 40
5.291670156229153
 40
5.64444816664443
 40
5.64444816664443
 40
5.64444816664443
 40
5.997226177059705
 40
5.997226177059705
 40
5.997226177059705
 40
5.997226177059705
 10
185.4837187788815
 20
241.4451977396596
 10
185.4837187788815
 20
241.4451977396596
 10
185.4837187788815
 20
241.4028230372367
 10
185.4837187788815
 20
241.4028230372367
 10
185.4837187788815
 20
241.4028230372367
 10
185.5047338752051
 20
241.3604483348137
 10
185.5047338752051
 20
241.3604483348137
 10
185.4520238795082
 20
241.2782827532863
 10
185.4671823096433
 20
241.1897437409066
 10
185.335579575289
 20
241.2119646214456
 10
185.335579575289
 20
241.2119646214456
 10
185.2932048728662
 20
241.2119646214456
 10
185.2932048728662
 20
241.2119646214456
 10
185.2932048728662
 20
241.2119646214456
 10
185.2294705643439
 20
241.2334964824328
 10
185.2294705643439
 20
241.2334964824328
 10
185.2294705643439
 20
241.2334964824328
 10
185.1660807655974
 20
241.2543393238685
 10
185.1660807655974
 20
241.2543393238685
 10
185.1660807655974
 20
241.2543393238685
 10
185.1450656692739
 20
241.2758711848558
 10
185.1450656692739
 20
241.2758711848558
 10
185.1450656692739
 20
241.2758711848558
 10
185.1450656692739
 20
241.2967140262914
 10
185.1450656692739
 20
241.2967140262914
 10
185.1450656692739
 20
241.2967140262914
 10
185.1237060631745
 20
241.3604483348137
 10
185.1237060631745
 20
241.3604483348137
 10
185.1237060631745
 20
241.3604483348137
 10
185.1237060631745
 20
241.4028230372367
 10
185.1237060631745
 20
241.4028230372367
 10
185.1237060631745
 20
241.4028230372367
 10
185.1660807655974
 20
241.4875724420825
 10
185.1660807655974
 20
241.4875724420825
 10
185.1660807655974
 20
241.4875724420825
 10
185.2084554680203
 20
241.5085875384061
 10
185.2084554680203
 20
241.5085875384061
 10
185.2084554680203
 20
241.5085875384061
 10
185.2718452667668
 20
241.5297748896175
 10
185.2718452667668
 20
241.5297748896175
 10
185.2718452667668
 20
241.5297748896175
 10
185.3565946716127
 20
241.5297748896175
 10
185.3565946716127
 20
241.5297748896175
 10
185.3565946716127
 20
241.5297748896175
 10
185.4199844703592
 20
241.5085875384061
 10
185.4199844703592
 20
241.5085875384061
 10
185.4199844703592
 20
241.5085875384061
 10
185.4623591727821
 20
241.4875724420825
 10
185.4623591727821
 20
241.4875724420825
 10
185.4623591727821
 20
241.4875724420825
 10
185.4837187788815
 20
241.4451977396596
 10
185.4837187788815
 20
241.4451977396596
 72
     1
 10
185.4837187788815
 20
241.4451977396596
 11
185.4837187788815
 21
241.4451977396596
 97
        0
 75
     0
 76
     1
 98
        0
450
        0
451
        0
460
0.0
461
0.0
452
        0
462
0.0
453
        0
470

  0
HATCH
  5
2F93
330
1F
100
AcDbEntity
  8
图层 1
 62
     7
100
AcDbHatch
 10
0.0
 20
0.0
 30
0.0
210
0.0
220
0.0
230
1.0
  2
SOLID
 70
     1
 71
     0
 91
        1
 92
        1
 93
        2
 72
     4
 94
        3
 73
     0
 74
     0
 95
       38
 96
       34
 40
0.0
 40
0.0
 40
0.0
 40
0.0
 40
0.3527780104152769
 40
0.3527780104152769
 40
0.3527780104152769
 40
0.7055560208305538
 40
0.7055560208305538
 40
0.7055560208305538
 40
1.058334031245828
 40
1.058334031245828
 40
1.058334031245828
 40
1.411112041661104
 40
1.411112041661104
 40
1.411112041661104
 40
1.763890052076384
 40
1.763890052076384
 40
1.763890052076384
 40
2.116668062491659
 40
2.116668062491659
 40
2.116668062491659
 40
2.469446072906936
 40
2.469446072906936
 40
2.469446072906936
 40
2.822224083322215
 40
2.822224083322215
 40
2.822224083322215
 40
3.175002093737492
 40
3.175002093737492
 40
3.175002093737492
 40
3.527780104152768
 40
3.527780104152768
 40
3.527780104152768
 40
3.880558114568044
 40
3.880558114568044
 40
3.880558114568044
 40
3.880558114568044
 10
185.907121293335
 20
220.1937677098971
 10
185.9005756075949
 20
220.0449394867532
 10
185.9329595265197
 20
220.1136691870245
 10
185.864746590912
 20
219.9817219428946
 10
185.864746590912
 20
219.9817219428946
 10
185.822371888489
 20
219.9605345916831
 10
185.822371888489
 20
219.9605345916831
 10
185.822371888489
 20
219.9605345916831
 10
185.6528730787974
 20
219.9605345916831
 10
185.6528730787974
 20
219.9605345916831
 10
185.6528730787974
 20
219.9605345916831
 10
185.5894832800509
 20
220.002909294106
 10
185.5894832800509
 20
220.002909294106
 10
185.5894832800509
 20
220.002909294106
 10
185.5681236739515
 20
220.0240966453175
 10
185.5681236739515
 20
220.0240966453175
 10
185.5681236739515
 20
220.0240966453175
 10
185.5681236739515
 20
220.045283996529
 10
185.5681236739515
 20
220.045283996529
 10
185.5681236739515
 20
220.045283996529
 10
185.547108577628
 20
220.0876586989519
 10
185.547108577628
 20
220.0876586989519
 10
185.547108577628
 20
220.0876586989519
 10
185.547108577628
 20
220.1513930074742
 10
185.547108577628
 20
220.1513930074742
 10
185.547108577628
 20
220.1513930074742
 10
185.5894832800509
 20
220.23614241232
 10
185.5894832800509
 20
220.23614241232
 10
185.5894832800509
 20
220.23614241232
 10
185.6318579824738
 20
220.2573297635315
 10
185.6318579824738
 20
220.2573297635315
 10
185.7055830744942
 20
220.2566407439799
 10
185.8416644359337
 20
220.3310548555519
 10
185.907121293335
 20
220.1937677098971
 72
     1
 10
185.907121293335
 20
220.1937677098971
 11
185.907121293335
 21
220.1937677098971
 97
        0
 75
     0
 76
     1
 98
        0
450
        0
451
        0
460
0.0
461
0.0
452
        0
462
0.0
453
        0
470

  0
HATCH
  5
2FDE
330
1F
100
AcDbEntity
  8
图层 1
 62
     7
100
AcDbHatch
 10
0.0
 20
0.0
 30
0.0
210
0.0
220
0.0
230
1.0
  2
SOLID
 70
     1
 71
     0
 91
        1
 92
        1
 93
        2
 72
     4
 94
        3
 73
     0
 74
     0
 95
       50
 96
       46
 40
0.0
 40
0.0
 40
0.0
 40
0.0
 40
0.3527780104152769
 40
0.3527780104152769
 40
0.3527780104152769
 40
0.7055560208305538
 40
0.7055560208305538
 40
0.7055560208305538
 40
1.058334031245828
 40
1.058334031245828
 40
1.058334031245828
 40
1.411112041661104
 40
1.411112041661104
 40
1.411112041661104
 40
1.763890052076384
 40
1.763890052076384
 40
1.763890052076384
 40
2.116668062491659
 40
2.116668062491659
 40
2.116668062491659
 40
2.469446072906936
 40
2.469446072906936
 40
2.469446072906936
 40
2.822224083322215
 40
2.822224083322215
 40
2.822224083322215
 40
3.175002093737492
 40
3.175002093737492
 40
3.175002093737492
 40
3.527780104152768
 40
3.527780104152768
 40
3.527780104152768
 40
3.880558114568044
 40
3.880558114568044
 40
3.880558114568044
 40
4.233336124983321
 40
4.233336124983321
 40
4.233336124983321
 40
4.586114135398599
 40
4.586114135398599
 40
4.586114135398599
 40
4.938892145813873
 40
4.938892145813873
 40
4.938892145813873
 40
5.291670156229153
 40
5.291670156229153
 40
5.291670156229153
 40
5.291670156229153
 10
180.9117295442905
 20
208.9327766684477
 10
180.9117295442905
 20
208.9327766684477
 10
180.9117295442905
 20
208.7637946234197
 10
180.9117295442905
 20
208.7637946234197
 10
181.2273004989198
 20
208.6749111012643
 10
181.3833634273555
 20
208.6776671794706
 10
181.6948002646751
 20
208.5097186637701
 10
181.9542161258496
 20
208.4294478860095
 10
182.1388733656765
 20
208.2134402565853
 10
182.3297317814676
 20
208.02292635057
 10
182.3297317814676
 20
208.02292635057
 10
182.435496282637
 20
208.065301052993
 10
182.435496282637
 20
208.065301052993
 10
182.288390608372
 20
208.2733849575739
 10
182.3752070718726
 20
208.2134402565853
 10
182.1605774815516
 20
208.3824223016133
 10
182.1605774815516
 20
208.3824223016133
 10
182.1182027791287
 20
208.4247970040363
 10
182.1182027791287
 20
208.4247970040363
 10
182.1182027791287
 20
208.4247970040363
 10
182.0968431730294
 20
208.467516216235
 10
182.0968431730294
 20
208.467516216235
 10
182.0968431730294
 20
208.467516216235
 10
182.0544684706064
 20
208.4883590576707
 10
182.0544684706064
 20
208.4883590576707
 10
182.0544684706064
 20
208.4883590576707
 10
181.9910786718599
 20
208.5305615052057
 10
181.9910786718599
 20
208.5305615052057
 10
181.9910786718599
 20
208.5305615052057
 10
181.948703969437
 20
208.552093366193
 10
181.948703969437
 20
208.552093366193
 10
181.948703969437
 20
208.552093366193
 10
181.9063292670141
 20
208.5729362076286
 10
181.9063292670141
 20
208.5729362076286
 10
181.9063292670141
 20
208.5729362076286
 10
181.8639545645911
 20
208.6156554198274
 10
181.8639545645911
 20
208.6156554198274
 10
181.8639545645911
 20
208.6156554198274
 10
181.821924371944
 20
208.6368427710388
 10
181.821924371944
 20
208.6368427710388
 10
181.6637943848536
 20
208.6742220817127
 10
181.5452830219797
 20
208.8092699138248
 10
181.3771622513911
 20
208.8061693258427
 10
181.2803550043924
 20
208.8573290275484
 10
181.0126709085988
 20
208.8971199066528
 10
180.9117295442905
 20
208.9327766684477
 72
     1
 10
180.9117295442905
 20
208.9327766684477
 11
180.9117295442905
 21
208.9327766684477
 97
        0
 75
     0
 76
     1
 98
        0
450
        0
451
        0
460
0.0
461
0.0
452
        0
462
0.0
453
        0
470

  0
HATCH
  5
35C8
330
1F
100
AcDbEntity
  8
图层 1
 62
     7
100
AcDbHatch
 10
0.0
 20
0.0
 30
0.0
210
0.0
220
0.0
230
1.0
  2
SOLID
 70
     1
 71
     0
 91
        1
 92
        1
 93
        2
 72
     4
 94
        3
 73
     0
 74
     0
 95
       38
 96
       34
 40
0.0
 40
0.0
 40
0.0
 40
0.0
 40
0.3527780104152769
 40
0.3527780104152769
 40
0.3527780104152769
 40
0.7055560208305538
 40
0.7055560208305538
 40
0.7055560208305538
 40
1.058334031245828
 40
1.058334031245828
 40
1.058334031245828
 40
1.411112041661104
 40
1.411112041661104
 40
1.411112041661104
 40
1.763890052076384
 40
1.763890052076384
 40
1.763890052076384
 40
2.116668062491659
 40
2.116668062491659
 40
2.116668062491659
 40
2.469446072906936
 40
2.469446072906936
 40
2.469446072906936
 40
2.822224083322215
 40
2.822224083322215
 40
2.822224083322215
 40
3.175002093737492
 40
3.175002093737492
 40
3.175002093737492
 40
3.527780104152768
 40
3.527780104152768
 40
3.527780104152768
 40
3.880558114568044
 40
3.880558114568044
 40
3.880558114568044
 40
3.880558114568044
 10
189.145513185819
 20
166.8326485368285
 10
189.207869455238
 20
166.740492171803
 10
189.1317327947871
 20
166.6833035490209
 10
189.103138483396
 20
166.6209472796017
 10
189.103138483396
 20
166.6209472796017
 10
189.0607637809731
 20
166.5997599283903
 10
189.0607637809731
 20
166.5997599283903
 10
189.0607637809731
 20
166.5997599283903
 10
188.9973739822266
 20
166.5785725771788
 10
188.9973739822266
 20
166.5785725771788
 10
188.9973739822266
 20
166.5785725771788
 10
188.9549992798037
 20
166.5997599283903
 10
188.9549992798037
 20
166.5997599283903
 10
188.9549992798037
 20
166.5997599283903
 10
188.8916094810572
 20
166.5997599283903
 10
188.8916094810572
 20
166.5997599283903
 10
188.8916094810572
 20
166.5997599283903
 10
188.8492347786343
 20
166.6209472796017
 10
188.8492347786343
 20
166.6209472796017
 10
188.8492347786343
 20
166.6209472796017
 10
188.8278751725349
 20
166.6633219820247
 10
188.8278751725349
 20
166.6633219820247
 10
188.8278751725349
 20
166.6633219820247
 10
188.8068600762114
 20
166.6845093332361
 10
188.8068600762114
 20
166.6845093332361
 10
188.8068600762114
 20
166.6845093332361
 10
188.8068600762114
 20
166.8326485368285
 10
188.8068600762114
 20
166.8326485368285
 10
188.8068600762114
 20
166.8326485368285
 10
188.8702498749578
 20
166.896038335575
 10
188.8702498749578
 20
166.896038335575
 10
189.0228677056355
 20
166.8819134347673
 10
189.0686875058164
 20
166.9411691162043
 10
189.145513185819
 20
166.8326485368285
 72
     1
 10
189.145513185819
 20
166.8326485368285
 11
189.145513185819
 21
166.8326485368285
 97
        0
 75
     0
 76
     1
 98
        0
450
        0
451
        0
460
0.0
461
0.0
452
        0
462
0.0
453
        0
470

  0
HATCH
  5
35D8
330
1F
100
AcDbEntity
  8
图层 1
 62
     7
100
AcDbHatch
 10
0.0
 20
0.0
 30
0.0
210
0.0
220
0.0
230
1.0
  2
SOLID
 70
     1
 71
     0
 91
        1
 92
        1
 93
        2
 72
     4
 94
        3
 73
     0
 74
     0
 95
       68
 96
       64
 40
0.0
 40
0.0
 40
0.0
 40
0.0
 40
0.3527780104152769
 40
0.3527780104152769
 40
0.3527780104152769
 40
0.7055560208305538
 40
0.7055560208305538
 40
0.7055560208305538
 40
1.058334031245828
 40
1.058334031245828
 40
1.058334031245828
 40
1.411112041661104
 40
1.411112041661104
 40
1.411112041661104
 40
1.763890052076384
 40
1.763890052076384
 40
1.763890052076384
 40
2.116668062491659
 40
2.116668062491659
 40
2.116668062491659
 40
2.469446072906936
 40
2.469446072906936
 40
2.469446072906936
 40
2.822224083322215
 40
2.822224083322215
 40
2.822224083322215
 40
3.175002093737492
 40
3.175002093737492
 40
3.175002093737492
 40
3.527780104152768
 40
3.527780104152768
 40
3.527780104152768
 40
3.880558114568044
 40
3.880558114568044
 40
3.880558114568044
 40
4.233336124983321
 40
4.233336124983321
 40
4.233336124983321
 40
4.586114135398599
 40
4.586114135398599
 40
4.586114135398599
 40
4.938892145813873
 40
4.938892145813873
 40
4.938892145813873
 40
5.291670156229153
 40
5.291670156229153
 40
5.291670156229153
 40
5.64444816664443
 40
5.64444816664443
 40
5.64444816664443
 40
5.997226177059705
 40
5.997226177059705
 40
5.997226177059705
 40
6.350004187474984
 40
6.350004187474984
 40
6.350004187474984
 40
6.702782197890257
 40
6.702782197890257
 40
6.702782197890257
 40
7.055560208305537
 40
7.055560208305537
 40
7.055560208305537
 40
7.408338218720808
 40
7.408338218720808
 40
7.408338218720808
 40
7.408338218720808
 10
174.7732543591544
 20
135.4846705078077
 10
174.7732543591544
 20
135.4846705078077
 10
174.7732543591544
 20
135.3789060066383
 10
174.7732543591544
 20
135.3789060066383
 10
174.7732543591544
 20
135.3789060066383
 10
174.8156290615773
 20
135.3789060066383
 10
174.8156290615773
 20
135.3789060066383
 10
174.8156290615773
 20
135.3789060066383
 10
174.8580037640002
 20
135.3578909103147
 10
174.8580037640002
 20
135.3578909103147
 10
174.8580037640002
 20
135.3578909103147
 10
174.9213935627468
 20
135.3578909103147
 10
174.9213935627468
 20
135.3578909103147
 10
174.9213935627468
 20
135.3578909103147
 10
174.9637682651697
 20
135.3365313042154
 10
174.9637682651697
 20
135.3365313042154
 10
174.9637682651697
 20
135.3365313042154
 10
174.9847833614933
 20
135.3365313042154
 10
174.9847833614933
 20
135.3365313042154
 10
174.9847833614933
 20
135.3365313042154
 10
175.0271580639162
 20
135.3155162078918
 10
175.0271580639162
 20
135.3155162078918
 10
175.0271580639162
 20
135.3155162078918
 10
175.0485176700155
 20
135.2941566017924
 10
175.0485176700155
 20
135.2941566017924
 10
175.0485176700155
 20
135.2941566017924
 10
175.0695327663391
 20
135.2941566017924
 10
175.0695327663391
 20
135.2941566017924
 10
175.0695327663391
 20
135.2941566017924
 10
175.0908923724385
 20
135.2731415054689
 10
175.0908923724385
 20
135.2731415054689
 10
175.0908923724385
 20
135.2731415054689
 10
175.1332670748614
 20
135.2731415054689
 10
175.1332670748614
 20
135.2731415054689
 10
175.1332670748614
 20
135.2731415054689
 10
175.154282171185
 20
135.2517818993695
 10
175.154282171185
 20
135.2517818993695
 10
175.154282171185
 20
135.2517818993695
 10
175.154282171185
 20
135.3578909103147
 10
175.154282171185
 20
135.3578909103147
 10
175.154282171185
 20
135.3578909103147
 10
175.1332670748614
 20
135.3789060066383
 10
175.1332670748614
 20
135.3789060066383
 10
175.1332670748614
 20
135.3789060066383
 10
175.0908923724385
 20
135.3789060066383
 10
175.0908923724385
 20
135.3789060066383
 10
175.0908923724385
 20
135.3789060066383
 10
175.0908923724385
 20
135.3999211029619
 10
175.0908923724385
 20
135.3999211029619
 10
175.0908923724385
 20
135.3999211029619
 10
175.0695327663391
 20
135.3999211029619
 10
175.0695327663391
 20
135.3999211029619
 10
175.0695327663391
 20
135.3999211029619
 10
175.0271580639162
 20
135.4212807090612
 10
175.0271580639162
 20
135.4212807090612
 10
175.0271580639162
 20
135.4212807090612
 10
175.0061429675926
 20
135.4212807090612
 10
175.0061429675926
 20
135.4212807090612
 10
175.0061429675926
 20
135.4212807090612
 10
174.9637682651697
 20
135.4422958053848
 10
174.9637682651697
 20
135.4422958053848
 10
174.8996894468716
 20
135.4498750204523
 10
174.8394002361073
 20
135.4860485469109
 10
174.7732543591544
 20
135.4846705078077
 72
     1
 10
174.7732543591544
 20
135.4846705078077
 11
174.7732543591544
 21
135.4846705078077
 97
        0
 75
     0
 76
     1
 98
        0
450
        0
451
        0
460
0.0
461
0.0
452
        0
462
0.0
453
        0
470

  0
HATCH
  5
3807
330
1F
100
AcDbEntity
  8
图层 1
 62
     7
100
AcDbHatch
 10
0.0
 20
0.0
 30
0.0
210
0.0
220
0.0
230
1.0
  2
SOLID
 70
     1
 71
     0
 91
        1
 92
        1
 93
        2
 72
     4
 94
        3
 73
     0
 74
     0
 95
       29
 96
       25
 40
0.0
 40
0.0
 40
0.0
 40
0.0
 40
0.3527780104152769
 40
0.3527780104152769
 40
0.3527780104152769
 40
0.7055560208305538
 40
0.7055560208305538
 40
0.7055560208305538
 40
1.058334031245828
 40
1.058334031245828
 40
1.058334031245828
 40
1.411112041661104
 40
1.411112041661104
 40
1.411112041661104
 40
1.763890052076384
 40
1.763890052076384
 40
1.763890052076384
 40
2.116668062491659
 40
2.116668062491659
 40
2.116668062491659
 40
2.469446072906936
 40
2.469446072906936
 40
2.469446072906936
 40
2.822224083322215
 40
2.822224083322215
 40
2.822224083322215
 40
2.822224083322215
 10
175.4929352807925
 20
164.0174869039101
 10
175.4929352807925
 20
164.0174869039101
 10
175.5139503771161
 20
163.9751122014871
 10
175.5139503771161
 20
163.9751122014871
 10
175.5139503771161
 20
163.9751122014871
 10
175.5139503771161
 20
163.9327374990642
 10
175.5139503771161
 20
163.9327374990642
 10
175.5139503771161
 20
163.9327374990642
 10
175.4929352807925
 20
163.8903627966413
 10
175.4929352807925
 20
163.8903627966413
 10
175.4929352807925
 20
163.8903627966413
 10
175.471920184469
 20
163.8691754454298
 10
175.471920184469
 20
163.8691754454298
 10
175.471920184469
 20
163.8691754454298
 10
175.4505605783696
 20
163.8269729978948
 10
175.4505605783696
 20
163.8269729978948
 10
175.3571984291289
 20
163.7715069239916
 10
175.272449024283
 20
163.8195660377152
 10
175.1966568736079
 20
163.8691754454298
 10
175.208370205985
 20
163.9930267098286
 10
175.1563492298397
 20
164.0216210212197
 10
175.2600466723544
 20
164.0596893514451
 10
175.3330827448232
 20
164.1094710140476
 10
175.4357466580104
 20
164.0753645462439
 10
175.4929352807925
 20
164.0174869039101
 72
     1
 10
175.4929352807925
 20
164.0174869039101
 11
175.4929352807925
 21
164.0174869039101
 97
        0
 75
     0
 76
     1
 98
        0
450
        0
451
        0
460
0.0
461
0.0
452
        0
462
0.0
453
        0
470

  0
HATCH
  5
3895
330
1F
100
AcDbEntity
  8
图层 1
 62
     7
100
AcDbHatch
 10
0.0
 20
0.0
 30
0.0
210
0.0
220
0.0
230
1.0
  2
SOLID
 70
     1
 71
     0
 91
        1
 92
        1
 93
        2
 72
     4
 94
        3
 73
     0
 74
     0
 95
       11
 96
        7
 40
0.0
 40
0.0
 40
0.0
 40
0.0
 40
0.3527780104152769
 40
0.3527780104152769
 40
0.3527780104152769
 40
0.7055560208305538
 40
0.7055560208305538
 40
0.7055560208305538
 40
0.7055560208305538
 10
174.9213935627468
 20
174.5369206529582
 10
174.9213935627468
 20
174.5369206529582
 10
174.9213935627468
 20
174.3043765542958
 10
174.9213935627468
 20
174.3043765542958
 10
174.9213935627468
 20
174.3043765542958
 10
174.9213935627468
 20
174.5369206529582
 10
174.9213935627468
 20
174.5369206529582
 72
     1
 10
174.9213935627468
 20
174.5369206529582
 11
174.9213935627468
 21
174.5369206529582
 97
        0
 75
     0
 76
     1
 98
        0
450
        0
451
        0
460
0.0
461
0.0
452
        0
462
0.0
453
        0
470

  0
HATCH
  5
3943
330
1F
100
AcDbEntity
  8
图层 1
 62
     7
100
AcDbHatch
 10
0.0
 20
0.0
 30
0.0
210
0.0
220
0.0
230
1.0
  2
SOLID
 70
     1
 71
     0
 91
        1
 92
        1
 93
        2
 72
     4
 94
        3
 73
     0
 74
     0
 95
      131
 96
      127
 40
0.0
 40
0.0
 40
0.0
 40
0.0
 40
0.3527780104152769
 40
0.3527780104152769
 40
0.3527780104152769
 40
0.7055560208305538
 40
0.7055560208305538
 40
0.7055560208305538
 40
1.058334031245828
 40
1.058334031245828
 40
1.058334031245828
 40
1.411112041661104
 40
1.411112041661104
 40
1.411112041661104
 40
1.763890052076384
 40
1.763890052076384
 40
1.763890052076384
 40
2.116668062491659
 40
2.116668062491659
 40
2.116668062491659
 40
2.469446072906936
 40
2.469446072906936
 40
2.469446072906936
 40
2.822224083322215
 40
2.822224083322215
 40
2.822224083322215
 40
3.175002093737492
 40
3.175002093737492
 40
3.175002093737492
 40
3.527780104152768
 40
3.527780104152768
 40
3.527780104152768
 40
3.880558114568044
 40
3.880558114568044
 40
3.880558114568044
 40
4.233336124983321
 40
4.233336124983321
 40
4.233336124983321
 40
4.586114135398599
 40
4.586114135398599
 40
4.586114135398599
 40
4.938892145813873
 40
4.938892145813873
 40
4.938892145813873
 40
5.291670156229153
 40
5.291670156229153
 40
5.291670156229153
 40
5.64444816664443
 40
5.64444816664443
 40
5.64444816664443
 40
5.997226177059705
 40
5.997226177059705
 40
5.997226177059705
 40
6.350004187474984
 40
6.350004187474984
 40
6.350004187474984
 40
6.702782197890257
 40
6.702782197890257
 40
6.702782197890257
 40
7.055560208305537
 40
7.055560208305537
 40
7.055560208305537
 40
7.408338218720808
 40
7.408338218720808
 40
7.408338218720808
 40
7.76111622913609
 40
7.76111622913609
 40
7.76111622913609
 40
8.113894239551369
 40
8.113894239551369
 40
8.113894239551369
 40
8.466672249966642
 40
8.466672249966642
 40
8.466672249966642
 40
8.819450260381922
 40
8.819450260381922
 40
8.819450260381922
 40
9.172228270797198
 40
9.172228270797198
 40
9.172228270797198
 40
9.525006281212476
 40
9.525006281212476
 40
9.525006281212476
 40
9.877784291627751
 40
9.877784291627751
 40
9.877784291627751
 40
10.23056230204303
 40
10.23056230204303
 40
10.23056230204303
 40
10.58334031245831
 40
10.58334031245831
 40
10.58334031245831
 40
10.93611832287358
 40
10.93611832287358
 40
10.93611832287358
 40
11.28889633328886
 40
11.28889633328886
 40
11.28889633328886
 40
11.64167434370414
 40
11.64167434370414
 40
11.64167434370414
 40
11.99445235411941
 40
11.99445235411941
 40
11.99445235411941
 40
12.34723036453469
 40
12.34723036453469
 40
12.34723036453469
 40
12.70000837494997
 40
12.70000837494997
 40
12.70000837494997
 40
13.05278638536524
 40
13.05278638536524
 40
13.05278638536524
 40
13.40556439578052
 40
13.40556439578052
 40
13.40556439578052
 40
13.7583424061958
 40
13.7583424061958
 40
13.7583424061958
 40
14.11112041661107
 40
14.11112041661107
 40
14.11112041661107
 40
14.46389842702635
 40
14.46389842702635
 40
14.46389842702635
 40
14.81667643744163
 40
14.81667643744163
 40
14.81667643744163
 40
14.81667643744163
 10
173.3972823146245
 20
126.8274843518258
 10
173.3972823146245
 20
126.8274843518258
 10
173.3972823146245
 20
126.7217198506564
 10
173.3972823146245
 20
126.7217198506564
 10
173.3972823146245
 20
126.7217198506564
 10
173.4186419207238
 20
126.7217198506564
 10
173.4186419207238
 20
126.7217198506564
 10
173.4186419207238
 20
126.7217198506564
 10
173.4820317194703
 20
126.7007047543328
 10
173.4820317194703
 20
126.7007047543328
 10
173.4820317194703
 20
126.7007047543328
 10
173.5244064218933
 20
126.6793451482334
 10
173.5244064218933
 20
126.6793451482334
 10
173.5244064218933
 20
126.6793451482334
 10
173.5877962206398
 20
126.6793451482334
 10
173.5877962206398
 20
126.6793451482334
 10
173.5877962206398
 20
126.6793451482334
 10
173.6301709230627
 20
126.6583300519099
 10
173.6301709230627
 20
126.6583300519099
 10
173.7955356154449
 20
126.5911506456296
 10
173.759706598762
 20
126.6380039751379
 10
173.9478089363468
 20
126.5525655507404
 10
173.9478089363468
 20
126.5525655507404
 10
173.9688240326703
 20
126.4464565397952
 10
173.9688240326703
 20
126.4464565397952
 10
173.9688240326703
 20
126.4464565397952
 10
174.0325583411926
 20
126.5101908483175
 10
174.0325583411926
 20
126.5101908483175
 10
174.0325583411926
 20
126.5101908483175
 10
174.0749330436156
 20
126.5101908483175
 10
174.0749330436156
 20
126.5101908483175
 10
174.0749330436156
 20
126.5101908483175
 10
174.1593379386856
 20
126.4678161458946
 10
174.1593379386856
 20
126.4678161458946
 10
174.1593379386856
 20
126.4678161458946
 10
174.180697544785
 20
126.4464565397952
 10
174.180697544785
 20
126.4464565397952
 10
174.2464989119621
 20
126.3982251711837
 10
174.3298702777047
 20
126.3716979184474
 10
174.3922265471239
 20
126.3196769423022
 10
174.608234176548
 20
126.2059887162895
 10
174.7749769080334
 20
126.0278771622029
 10
174.9637682651697
 20
125.8749148217494
 10
174.9637682651697
 20
125.8749148217494
 10
175.0061429675926
 20
125.9172895241723
 10
175.0061429675926
 20
125.9172895241723
 10
174.961356696739
 20
125.9631093243532
 10
174.782211613325
 20
126.1246844092016
 10
174.7308796567315
 20
126.1501781326105
 10
174.7308796567315
 20
126.1501781326105
 10
174.6885049543085
 20
126.1925528350335
 10
174.6885049543085
 20
126.1925528350335
 10
174.6885049543085
 20
126.1925528350335
 10
174.667489857985
 20
126.2349275374564
 10
174.667489857985
 20
126.2349275374564
 10
174.667489857985
 20
126.2349275374564
 10
174.625115155562
 20
126.2559426337799
 10
174.625115155562
 20
126.2559426337799
 10
174.625115155562
 20
126.2559426337799
 10
174.5827404531391
 20
126.2983173362029
 10
174.5827404531391
 20
126.2983173362029
 10
174.5827404531391
 20
126.2983173362029
 10
174.5403657507162
 20
126.3196769423022
 10
174.5403657507162
 20
126.3196769423022
 10
174.5403657507162
 20
126.3196769423022
 10
174.4979910482932
 20
126.3620516447252
 10
174.4979910482932
 20
126.3620516447252
 10
174.4735308542117
 20
126.3875453681341
 10
174.3247026310678
 20
126.4695386947736
 10
174.2864620459544
 20
126.4888312422181
 10
174.2864620459544
 20
126.4888312422181
 10
174.2654469496308
 20
126.5101908483175
 10
174.2654469496308
 20
126.5101908483175
 10
174.2654469496308
 20
126.5101908483175
 10
174.2230722472079
 20
126.5312059446411
 10
174.2230722472079
 20
126.5312059446411
 10
174.2230722472079
 20
126.5312059446411
 10
174.2017126411085
 20
126.5525655507404
 10
174.2017126411085
 20
126.5525655507404
 10
174.2017126411085
 20
126.5525655507404
 10
174.1383228423621
 20
126.573580647064
 10
174.1383228423621
 20
126.573580647064
 10
174.1383228423621
 20
126.573580647064
 10
174.1169632362627
 20
126.5945957433876
 10
174.1169632362627
 20
126.5945957433876
 10
174.1169632362627
 20
126.5945957433876
 10
174.0959481399391
 20
126.7007047543328
 10
174.0959481399391
 20
126.7007047543328
 10
174.0959481399391
 20
126.7007047543328
 10
174.0325583411926
 20
126.6369704458105
 10
174.0325583411926
 20
126.6369704458105
 10
174.0325583411926
 20
126.6369704458105
 10
173.9901836387697
 20
126.6369704458105
 10
173.9901836387697
 20
126.6369704458105
 10
173.9901836387697
 20
126.6369704458105
 10
173.9054342339239
 20
126.6793451482334
 10
173.9054342339239
 20
126.6793451482334
 10
173.9054342339239
 20
126.6793451482334
 10
173.8420444351773
 20
126.7007047543328
 10
173.8420444351773
 20
126.7007047543328
 10
173.8420444351773
 20
126.7007047543328
 10
173.7996697327544
 20
126.7217198506564
 10
173.7996697327544
 20
126.7217198506564
 10
173.7996697327544
 20
126.7217198506564
 10
173.7572950303315
 20
126.7217198506564
 10
173.7572950303315
 20
126.7217198506564
 10
173.7572950303315
 20
126.7217198506564
 10
173.6725456254856
 20
126.7640945530793
 10
173.6725456254856
 20
126.7640945530793
 10
173.6725456254856
 20
126.7640945530793
 10
173.6515305291621
 20
126.7640945530793
 10
173.6515305291621
 20
126.7640945530793
 10
173.6515305291621
 20
126.7640945530793
 10
173.5667811243162
 20
126.7851096494029
 10
173.5667811243162
 20
126.7851096494029
 10
173.5667811243162
 20
126.7851096494029
 10
173.5033913255697
 20
126.8064692555022
 10
173.5033913255697
 20
126.8064692555022
 10
173.5033913255697
 20
126.8064692555022
 10
173.4396570170474
 20
126.8064692555022
 10
173.4396570170474
 20
126.8064692555022
 10
173.4396570170474
 20
126.8064692555022
 10
173.4186419207238
 20
126.8274843518258
 10
173.4186419207238
 20
126.8274843518258
 10
173.4186419207238
 20
126.8274843518258
 10
173.3972823146245
 20
126.8274843518258
 10
173.3972823146245
 20
126.8274843518258
 72
     1
 10
173.3972823146245
 20
126.8274843518258
 11
173.3972823146245
 21
126.8274843518258
 97
        0
 75
     0
 76
     1
 98
        0
450
        0
451
        0
460
0.0
461
0.0
452
        0
462
0.0
453
        0
470

  0
HATCH
  5
4842
330
1F
100
AcDbEntity
  8
图层 1
 62
     7
100
AcDbHatch
 10
0.0
 20
0.0
 30
0.0
210
0.0
220
0.0
230
1.0
  2
SOLID
 70
     1
 71
     0
 91
        1
 92
        1
 93
        2
 72
     4
 94
        3
 73
     0
 74
     0
 95
       47
 96
       43
 40
0.0
 40
0.0
 40
0.0
 40
0.0
 40
0.3527780104152769
 40
0.3527780104152769
 40
0.3527780104152769
 40
0.7055560208305538
 40
0.7055560208305538
 40
0.7055560208305538
 40
1.058334031245828
 40
1.058334031245828
 40
1.058334031245828
 40
1.411112041661104
 40
1.411112041661104
 40
1.411112041661104
 40
1.763890052076384
 40
1.763890052076384
 40
1.763890052076384
 40
2.116668062491659
 40
2.116668062491659
 40
2.116668062491659
 40
2.469446072906936
 40
2.469446072906936
 40
2.469446072906936
 40
2.822224083322215
 40
2.822224083322215
 40
2.822224083322215
 40
3.175002093737492
 40
3.175002093737492
 40
3.175002093737492
 40
3.527780104152768
 40
3.527780104152768
 40
3.527780104152768
 40
3.880558114568044
 40
3.880558114568044
 40
3.880558114568044
 40
4.233336124983321
 40
4.233336124983321
 40
4.233336124983321
 40
4.586114135398599
 40
4.586114135398599
 40
4.586114135398599
 40
4.938892145813873
 40
4.938892145813873
 40
4.938892145813873
 40
4.938892145813873
 10
180.1920486226523
 20
255.6479577566324
 10
180.1920486226523
 20
255.6479577566324
 10
180.2130637189759
 20
255.6055830542095
 10
180.2130637189759
 20
255.6055830542095
 10
180.2130637189759
 20
255.6055830542095
 10
180.2130637189759
 20
255.5210059042515
 10
180.2130637189759
 20
255.5210059042515
 10
180.2130637189759
 20
255.5210059042515
 10
180.1920486226523
 20
255.4786312018286
 10
180.1920486226523
 20
255.4786312018286
 10
180.1920486226523
 20
255.4786312018286
 10
180.1496739202294
 20
255.4359119896299
 10
180.1496739202294
 20
255.4359119896299
 10
180.1496739202294
 20
255.4359119896299
 10
180.1283143141301
 20
255.4147246384184
 10
180.1283143141301
 20
255.4147246384184
 10
180.1283143141301
 20
255.4147246384184
 10
180.0225498129606
 20
255.4147246384184
 10
180.0225498129606
 20
255.4147246384184
 10
180.0225498129606
 20
255.4147246384184
 10
179.9591600142141
 20
255.4359119896299
 10
179.9591600142141
 20
255.4359119896299
 10
179.9591600142141
 20
255.4359119896299
 10
179.9167853117912
 20
255.4570993408414
 10
179.9167853117912
 20
255.4570993408414
 10
179.9167853117912
 20
255.4570993408414
 10
179.8957702154676
 20
255.4786312018286
 10
179.8957702154676
 20
255.4786312018286
 10
179.8957702154676
 20
255.4786312018286
 10
179.8744106093683
 20
255.4994740432643
 10
179.8744106093683
 20
255.4994740432643
 10
179.8744106093683
 20
255.4994740432643
 10
179.8744106093683
 20
255.6479577566324
 10
179.8744106093683
 20
255.6479577566324
 10
179.9608825630931
 20
255.7323626517025
 10
180.045631967939
 20
255.7085914771726
 10
180.1496739202294
 20
255.7115198102668
 10
180.1496739202294
 20
255.7115198102668
 10
180.170689016553
 20
255.6688005980681
 10
180.170689016553
 20
255.6688005980681
 10
180.170689016553
 20
255.6688005980681
 10
180.1920486226523
 20
255.6479577566324
 10
180.1920486226523
 20
255.6479577566324
 72
     1
 10
180.1920486226523
 20
255.6479577566324
 11
180.1920486226523
 21
255.6479577566324
 97
        0
 75
     0
 76
     1
 98
        0
450
        0
451
        0
460
0.0
461
0.0
452
        0
462
0.0
453
        0
470

  0
MTEXT
  5
12C4B
102
{ACAD_XDICTIONARY
360
15C5F
102
}
330
1F
100
AcDbEntity
  8
打标文字
 62
     3
100
AcDbMText
 10
478.7130543196984
 20
353.8475731858718
 30
0.0
 40
1.5
 41
43.12740902174065
 46
53.91180554791946
 71
     1
 72
     5
  3
\A1;{\f仿宋_GB2312|b0|i0|c134|p49;技术参数}:\P- {\f仿宋_GB2312|b0|i0|c134|p49;材料}: {\f仿宋_GB2312|b0|i0|c134|p49;铜合金}\P- {\f仿宋_GB2312|b0|i0|c134|p49;表面处理}: {\f仿宋_GB2312|b0|i0|c134|p49;镀银}\P- {\f仿宋_GB2312|b0|i0|c134|p49;额定电流}: 7.5A\P- {\f仿宋_GB2312|b0|i0|c134|p4
  3
9;接触电阻}: ≤3mΩ\P- {\f仿宋_GB2312|b0|i0|c134|p49;可插拔次数}: {\f仿宋_GB2312|b0|i0|c134|p49;≥}500\P\PTechnical specification:\P- Material: copper alloy\P- Surface: hard-silver plated\P- Rated current: 7.5A\P- Contact resistance: ≤3mΩ\P- Mating cycles: {\f仿宋_GB2
  1
312|b0|i0|c134|p49;≥}500
  7
Romans字体
 73
     1
 44
1.0
1001
ACAD
1000
ACAD_MTEXT_DEFINED_HEIGHT_BEGIN
1070
    46
1040
53.91180554791946
1000
ACAD_MTEXT_DEFINED_HEIGHT_END
  0
LINE
  5
13093
330
1F
100
AcDbEntity
  8
图框
 62
     1
370
    18
100
AcDbLine
 10
362.2152432364329
 20
289.5734203896823
 30
0.0
 11
510.7146182042826
 21
289.5734203896823
 31
0.0
1001
AcDbBlockRepETag
1070
     1
1071
      143
1005
13093
  0
MTEXT
  5
15759
330
1F
100
AcDbEntity
  8
图框
 62
     3
100
AcDbMText
 10
500.5699715582569
 20
303.8807246626868
 30
0.0
 40
1.492756790756673
 41
16.8061960326837
 46
4.436077783610277
 71
     5
 72
     5
  1
1010171140001
  7
Romans字体
 73
     1
 44
1.0
1001
ACAD
1000
ACAD_MTEXT_DEFINED_HEIGHT_BEGIN
1070
    46
1040
4.436077783610277
1000
ACAD_MTEXT_DEFINED_HEIGHT_END
  0
INSERT
  5
1575A
330
1F
100
AcDbEntity
  8
DIM
100
AcDbBlockReference
  2
A4图框-NEW
 10
-54.49118295341975
 20
49.30603562116562
 30
0.0
 41
0.5000000004978915
 42
0.5000000004978915
 43
0.5000000004979071
  0
MTEXT
  5
1575B
330
1F
100
AcDbEntity
  8
图框
 62
     3
100
AcDbMText
 10
477.4162226521001
 20
297.008445458167
 30
0.0
 40
1.492756790756673
 41
5.414673580594388
 46
3.943047606109156
 71
     5
 72
     5
  1
0.8g
  7
Romans字体
 73
     1
 44
1.0
1001
ACAD
1000
ACAD_MTEXT_DEFINED_HEIGHT_BEGIN
1070
    46
1040
3.943047606109156
1000
ACAD_MTEXT_DEFINED_HEIGHT_END
  0
MTEXT
  5
1575C
330
1F
100
AcDbEntity
  8
图框
 62
     3
100
AcDbMText
 10
466.5431384072173
 20
297.2269068177162
 30
0.0
 40
1.492756789003581
 41
5.414674222587238
 46
3.943047304531788
 71
     5
 72
     5
  1
1:2
  7
Romans字体
 73
     1
 44
1.0
1001
ACAD
1000
ACAD_MTEXT_DEFINED_HEIGHT_BEGIN
1070
    46
1040
3.943047304531788
1000
ACAD_MTEXT_DEFINED_HEIGHT_END
  0
MTEXT
  5
1575D
330
1F
100
AcDbEntity
  8
图框
 62
     3
100
AcDbMText
 10
500.5699709063939
 20
308.2704496314993
 30
0.0
 40
1.492756789003581
 41
16.80619601294652
 46
4.343372757168116
 71
     5
 72
     5
  1
CDSM-P1.0
  7
Romans字体
 73
     1
 44
1.0
1001
ACAD
1000
ACAD_MTEXT_DEFINED_HEIGHT_BEGIN
1070
    46
1040
4.343372757168116
1000
ACAD_MTEXT_DEFINED_HEIGHT_END
  0
LINE
  5
15898
330
1F
100
AcDbEntity
  8
0
100
AcDbLine
 10
430.0418506956876
 20
347.1647387465148
 30
0.0
 11
430.0418506956876
 21
347.1647387465148
 31
0.0
  0
LINE
  5
15899
330
1F
100
AcDbEntity
  8
0
100
AcDbLine
 10
430.3076216956879
 20
346.0153487465148
 30
0.0
 11
430.3076066967362
 21
346.0152487465148
 31
0.0
  0
LWPOLYLINE
  5
1589A
330
1F
100
AcDbEntity
  8
0
100
AcDbPolyline
 90
        3
 70
     0
 43
0.0
 10
430.3076066956879
 20
346.0152487465148
 10
430.249052598952
 20
346.2650411503159
 10
430.0418497406032
 20
347.1644085508032
  0
LWPOLYLINE
  5
1589B
330
1F
100
AcDbEntity
  8
0
100
AcDbPolyline
 90
        3
 70
     0
 43
0.0
 10
430.0419246956876
 20
348.3443587465148
 10
430.2193806694405
 20
349.1212955374436
 10
430.3069886956023
 20
349.5100587447169
  0
LINE
  5
1589C
330
1F
100
AcDbEntity
  8
0
100
AcDbLine
 10
430.0418506956876
 20
348.3456087465148
 30
0.0
 11
430.0418506956876
 21
348.3456087465148
 31
0.0
  0
LINE
  5
1589D
330
1F
100
AcDbEntity
  8
0
100
AcDbLine
 10
431.715499695688
 20
348.3502287465148
 30
0.0
 11
430.0419248321452
 21
348.3443587470747
 31
0.0
  0
LINE
  5
1589E
330
1F
100
AcDbEntity
  8
0
100
AcDbLine
 10
431.7155036956878
 20
348.3502287465148
 30
0.0
 11
431.7264176956879
 21
348.3510187465148
 31
0.0
  0
LINE
  5
1589F
330
1F
100
AcDbEntity
  8
0
100
AcDbLine
 10
431.7244466956878
 20
347.1708987465148
 30
0.0
 11
431.7136536956878
 21
347.1701287465148
 31
0.0
  0
LINE
  5
158A0
330
1F
100
AcDbEntity
  8
0
100
AcDbLine
 10
430.0418496956877
 20
347.1644087465147
 30
0.0
 11
431.7136515056176
 21
347.1701287457733
 31
0.0
  0
LINE
  5
158A1
330
1F
100
AcDbEntity
  8
0
100
AcDbLine
 10
430.3076066956879
 20
346.0152487465148
 30
0.0
 11
431.7930595471175
 21
346.7584386721987
 31
0.0
  0
LWPOLYLINE
  5
158A2
330
1F
100
AcDbEntity
  8
0
100
AcDbPolyline
 90
        5
 70
     0
 43
0.0
 10
431.7136516956881
 20
347.1701287465148
 10
431.7296648650091
 20
346.9902514251836
 10
431.7493465647142
 20
346.8560875271917
 10
431.7714835765676
 20
346.7763042363604
 10
431.794862682335
 20
346.7595687365112
  0
LINE
  5
158A3
330
1F
100
AcDbEntity
  8
0
100
AcDbLine
 10
431.7948656956878
 20
346.7595687465149
 30
0.0
 11
430.3075336956878
 21
346.0158987465149
 31
0.0
  0
LINE
  5
158A4
330
1F
100
AcDbEntity
  8
0
100
AcDbLine
 10
431.7955796956876
 20
348.7652487465148
 30
0.0
 11
430.306988844442
 21
349.5100586720398
 31
0.0
  0
LWPOLYLINE
  5
158A5
330
1F
100
AcDbEntity
  8
0
100
AcDbPolyline
 90
        5
 70
     0
 43
0.0
 10
431.797865695688
 20
348.7637687465148
 10
431.7741714015189
 20
348.7483704708373
 10
431.7514735756843
 20
348.6695250214654
 10
431.7313803113782
 20
348.5344164584137
 10
431.7154997017945
 20
348.3502288416968
  0
LWPOLYLINE
  5
158A6
330
1F
100
AcDbEntity
  8
0
100
AcDbPolyline
 90
        3
 70
     0
 43
0.0
 10
430.3067846956877
 20
349.5094687465148
 10
430.9422389372262
 20
349.1916790828131
 10
431.651808492634
 20
348.8368188480688
  0
LINE
  5
158A7
330
1F
100
AcDbEntity
  8
0
100
AcDbLine
 10
431.6518086956874
 20
348.8368187465149
 30
0.0
 11
430.306859830177
 21
349.5100186791407
 31
0.0
  0
LWPOLYLINE
  5
158A8
330
1F
100
AcDbEntity
  8
0
100
AcDbPolyline
 90
        3
 70
     0
 43
0.0
 10
431.8340446956876
 20
348.6624987465148
 10
431.8163632004718
 20
348.7325062329943
 10
431.797865705499
 20
348.763768741131
  0
LWPOLYLINE
  5
158A9
330
1F
100
AcDbEntity
  8
0
100
AcDbPolyline
 90
        5
 70
     0
 43
0.0
 10
431.7948626956876
 20
346.7595687465149
 10
431.8046364582775
 20
346.7688649917882
 10
431.8142865647224
 20
346.7896137301456
 10
431.8237227338573
 20
346.8210724622821
 10
431.8328546845163
 20
346.8624986888927
  0
LWPOLYLINE
  5
158AA
330
1F
100
AcDbEntity
  8
0
100
AcDbPolyline
 90
        5
 70
     0
 43
0.0
 10
431.7244486956878
 20
347.1709087465149
 10
431.7385307402266
 20
347.0267909527548
 10
431.755328065267
 20
346.9230287713681
 10
431.7743797022678
 20
346.8627740759309
 10
431.7952246826862
 20
346.8491787400195
  0
LWPOLYLINE
  5
158AB
330
1F
100
AcDbEntity
  8
0
100
AcDbPolyline
 90
        3
 70
     0
 43
0.0
 10
431.7952246956878
 20
346.8491787465148
 10
431.8010461899
 20
346.8539974898205
 10
431.8067686843241
 20
346.8624987258567
  0
LWPOLYLINE
  5
158AC
330
1F
100
AcDbEntity
  8
0
100
AcDbPolyline
 90
        3
 70
     0
 43
0.0
 10
431.8075436956879
 20
348.6624987465148
 10
431.8026313257607
 20
348.6697987405804
 10
431.7965677090646
 20
348.6751187378569
  0
LWPOLYLINE
  5
158AD
330
1F
100
AcDbEntity
  8
0
100
AcDbPolyline
 90
        5
 70
     0
 43
0.0
 10
431.7965676956879
 20
348.6751187465149
 10
431.7761884169055
 20
348.6612445324868
 10
431.7572707001767
 20
348.6005375172704
 10
431.7404642327584
 20
348.4960961372046
 10
431.7264187019069
 20
348.3510188286285
  0
LWPOLYLINE
  5
158AE
330
1F
100
AcDbEntity
  8
0
100
AcDbPolyline
 90
       19
 70
     0
 43
0.0
 10
430.2890756956877
 20
349.4289987465148
 10
430.2890446956877
 20
349.4290187465148
 10
430.2890136956873
 20
349.4290287465148
 10
430.2889826956881
 20
349.4290487465148
 10
430.288951695688
 20
349.4290587465148
 10
430.2889206956877
 20
349.4290787465148
 10
430.2888896956877
 20
349.4290887465148
 10
430.2888586956878
 20
349.4291087465148
 10
430.2888276956879
 20
349.4291287465149
 10
430.2887966956879
 20
349.4291387465148
 10
430.2887656956878
 20
349.4291587465148
 10
430.2887356956877
 20
349.4291687465148
 10
430.2887036956875
 20
349.4291887465148
 10
430.2886726956876
 20
349.4291987465148
 10
430.288642695688
 20
349.4292187465148
 10
430.288615695688
 20
349.4292287465148
 10
430.2885806956878
 20
349.4292487465147
 10
430.2885266956876
 20
349.4292787465148
 10
430.2884566956877
 20
349.4293087465148
  0
LINE
  5
158AF
330
1F
100
AcDbEntity
  8
0
100
AcDbLine
 10
430.121850695688
 20
348.7113987465148
 30
0.0
 11
430.121850695688
 21
348.6937587465148
 31
0.0
  0
LINE
  5
158B0
330
1F
100
AcDbEntity
  8
0
100
AcDbLine
 10
421.0218376956878
 20
349.3574987465148
 30
0.0
 11
421.0218376956878
 21
346.1674987465148
 31
0.0
  0
LINE
  5
158B1
330
1F
100
AcDbEntity
  8
0
100
AcDbLine
 10
428.0218376956876
 20
346.1674987465148
 30
0.0
 11
428.0218376956876
 21
349.3574987465148
 31
0.0
  0
LINE
  5
158B2
330
1F
100
AcDbEntity
  8
0
100
AcDbLine
 10
430.0218376956878
 20
346.4974987465148
 30
0.0
 11
430.0218376956878
 21
349.0274987465148
 31
0.0
  0
LINE
  5
158B3
330
1F
100
AcDbEntity
  8
0
100
AcDbLine
 10
432.0187686956876
 20
346.5374987465148
 30
0.0
 11
432.0187686956876
 21
348.9874987465148
 31
0.0
  0
ARC
  5
158B4
330
1F
100
AcDbEntity
  8
0
100
AcDbCircle
 10
420.5218376956876
 20
348.7624987465149
 30
0.0
 40
0.5
100
AcDbArc
 50
270.0
 51
0.0
  0
LWPOLYLINE
  5
158B5
330
1F
100
AcDbEntity
  8
0
100
AcDbPolyline
 90
       29
 70
     0
 43
0.0
 10
420.5218346956876
 20
347.2624987465148
 10
420.5456606956876
 20
347.2619487465148
 42
-0.012803159
 10
420.5698036956879
 20
347.2601887465148
 42
-0.012156123
 10
420.5942896956877
 20
347.2571987465148
 42
-0.011974158
 10
420.6190126956876
 20
347.2529687465148
 42
-0.012480804
 10
420.6438646956875
 20
347.2473687465148
 42
-0.012719809
 10
420.668741695688
 20
347.2404287465148
 42
-0.012875473
 10
420.693542695688
 20
347.2320787465148
 42
-0.012977023
 10
420.7181596956877
 20
347.2223387465148
 42
-0.013184251
 10
420.7424656956876
 20
347.2111687465148
 42
-0.01329403
 10
420.7663576956877
 20
347.1986287465148
 42
-0.013438601
 10
420.7896966956877
 20
347.1846787465148
 42
-0.013510844
 10
420.8123916956878
 20
347.1694087465148
 42
-0.01360876
 10
420.8342976956878
 20
347.1528287465148
 42
-0.013662848
 10
420.8553406956877
 20
347.1350287465148
 42
-0.013732642
 10
420.8753796956877
 20
347.1160387465148
 42
-0.013722963
 10
420.8943636956878
 20
347.0959987465148
 42
-0.013659282
 10
420.9121606956879
 20
347.0749687465148
 42
-0.013732757
 10
420.9287506956881
 20
347.0530587465148
 42
-0.013897681
 10
420.9440196956879
 20
347.0303087465148
 42
-0.013543934
 10
420.9579686956876
 20
347.0070187465148
 42
-0.01272659
 10
420.9705016956879
 20
346.9833187465149
 42
-0.013686517
 10
420.9816836956878
 20
346.9588287465148
 42
-0.015725802
 10
420.9914526956877
 20
346.9334587465148
 42
-0.012376221
 10
420.999770695688
 20
346.9094087465148
 42
-0.0053921347
 10
421.0065576956877
 20
346.8874987465148
 42
-0.016185744
 10
421.0123046956878
 20
346.8596787465147
 42
-0.027067143
 10
421.017410695688
 20
346.8174487465148
 42
-0.013868327
 10
421.021839695688
 20
346.7624987465149
 42
-0.0076246048
  0
LINE
  5
158B6
330
1F
100
AcDbEntity
  8
0
100
AcDbLine
 10
416.5218376956876
 20
347.2624987465148
 30
0.0
 11
420.5218346956876
 21
347.2624987465148
 31
0.0
  0
LINE
  5
158B7
330
1F
100
AcDbEntity
  8
0
100
AcDbLine
 10
420.5218346956876
 20
348.2624987465148
 30
0.0
 11
416.5218376956876
 21
348.2624987465148
 31
0.0
  0
ARC
  5
158B8
330
1F
100
AcDbEntity
  8
0
100
AcDbCircle
 10
416.5218376956876
 20
347.7624987465148
 30
0.0
 40
0.5
100
AcDbArc
 50
90.0
 51
270.0
  0
LINE
  5
158B9
330
1F
100
AcDbEntity
  8
0
100
AcDbLine
 10
421.0218376956878
 20
349.3574987465148
 30
0.0
 11
428.0218376956876
 21
349.3574987465148
 31
0.0
  0
LINE
  5
158BA
330
1F
100
AcDbEntity
  8
0
100
AcDbLine
 10
421.0218376956878
 20
346.1674987465148
 30
0.0
 11
428.0218376956876
 21
346.1674987465148
 31
0.0
  0
LINE
  5
158BB
330
1F
100
AcDbEntity
  8
0
100
AcDbLine
 10
428.0218376956876
 20
349.0274987465148
 30
0.0
 11
430.0218376956878
 21
349.0274987465148
 31
0.0
  0
LINE
  5
158BC
330
1F
100
AcDbEntity
  8
0
100
AcDbLine
 10
428.0218376956876
 20
346.4974987465148
 30
0.0
 11
430.0218376956878
 21
346.4974987465148
 31
0.0
  0
LINE
  5
158BD
330
1F
100
AcDbEntity
  8
0
100
AcDbLine
 10
430.018768695688
 20
348.6624987465148
 30
0.0
 11
430.1147066956878
 21
348.6624987465148
 31
0.0
  0
LINE
  5
158BE
330
1F
100
AcDbEntity
  8
0
100
AcDbLine
 10
431.7768546956878
 20
348.6624987465148
 30
0.0
 11
432.0187686956876
 21
348.6624987465148
 31
0.0
  0
LINE
  5
158BF
330
1F
100
AcDbEntity
  8
0
100
AcDbLine
 10
430.018768695688
 20
346.8624987465148
 30
0.0
 11
430.1111846956877
 21
346.8624987465148
 31
0.0
  0
LINE
  5
158C0
330
1F
100
AcDbEntity
  8
0
100
AcDbLine
 10
431.7745266956877
 20
346.8624987465148
 30
0.0
 11
432.0187686956876
 21
346.8624987465148
 31
0.0
  0
LINE
  5
158C1
330
1F
100
AcDbEntity
  8
0
100
AcDbLine
 10
432.0187686956876
 20
348.9874987465148
 30
0.0
 11
432.3862686956878
 21
348.9874987465148
 31
0.0
  0
LINE
  5
158C2
330
1F
100
AcDbEntity
  8
0
100
AcDbLine
 10
432.3862686956878
 20
346.5374987465148
 30
0.0
 11
432.3862686956878
 21
348.9874987465148
 31
0.0
  0
LINE
  5
158C3
330
1F
100
AcDbEntity
  8
0
100
AcDbLine
 10
432.0187686956876
 20
346.5374987465148
 30
0.0
 11
432.3862686956878
 21
346.5374987465148
 31
0.0
  0
LINE
  5
158C4
330
1F
100
AcDbEntity
  8
0
100
AcDbLine
 10
432.3862686956878
 20
348.9874987465148
 30
0.0
 11
432.8187686956876
 21
348.5549987465148
 31
0.0
  0
LINE
  5
158C5
330
1F
100
AcDbEntity
  8
0
100
AcDbLine
 10
432.8187686956876
 20
346.9699987465148
 30
0.0
 11
432.8187686956876
 21
348.5549987465148
 31
0.0
  0
LINE
  5
158C6
330
1F
100
AcDbEntity
  8
0
100
AcDbLine
 10
432.3862686956878
 20
346.5374987465148
 30
0.0
 11
432.8187686956876
 21
346.9699987465148
 31
0.0
  0
LINE
  5
158C7
330
1F
100
AcDbEntity
  8
0
100
AcDbLine
 10
432.8187686956876
 20
346.9699987465148
 30
0.0
 11
444.4970766956877
 21
346.9699987465148
 31
0.0
  0
LINE
  5
158C8
330
1F
100
AcDbEntity
  8
0
100
AcDbLine
 10
432.8187686956876
 20
348.5549987465148
 30
0.0
 11
444.4970766956877
 21
348.5549987465148
 31
0.0
  0
LINE
  5
158C9
330
1F
100
AcDbEntity
  8
0
100
AcDbLine
 10
444.9196946956877
 20
347.0636987465149
 30
0.0
 11
445.8455536956877
 21
347.4954287465148
 31
0.0
  0
LINE
  5
158CA
330
1F
100
AcDbEntity
  8
0
100
AcDbLine
 10
444.9196956956877
 20
348.4613087465147
 30
0.0
 11
445.8455536956877
 21
348.0295687465148
 31
0.0
  0
ARC
  5
158CB
330
1F
100
AcDbEntity
  8
0
100
AcDbCircle
 10
445.7187686956878
 20
347.7576787465149
 30
0.0
 40
0.3
100
AcDbArc
 50
0.920789280000427
 51
64.99999999999315
  0
ARC
  5
158CC
330
1F
100
AcDbEntity
  8
0
100
AcDbCircle
 10
445.7187686956878
 20
347.7673187465148
 30
0.0
 40
0.3
100
AcDbArc
 50
295.0000000000068
 51
359.0792099999977
  0
ARC
  5
158CD
330
1F
100
AcDbEntity
  8
0
100
AcDbCircle
 10
444.497073695688
 20
347.5549987465148
 30
0.0
 40
1.0
100
AcDbArc
 50
64.99999999999315
 51
90.0
  0
LWPOLYLINE
  5
158CE
330
1F
100
AcDbEntity
  8
0
100
AcDbPolyline
 90
       29
 70
     0
 43
0.0
 10
444.4970766956877
 20
346.9699987465148
 10
444.5115186956877
 20
346.9701087465148
 42
0.003613243
 10
444.5259746956875
 20
346.9704187465148
 42
0.0035990788
 10
444.540446695688
 20
346.9709387465148
 42
0.0035944056
 10
444.5549276956874
 20
346.9716787465149
 42
0.0036060548
 10
444.5694136956878
 20
346.9726187465148
 42
0.0036117618
 10
444.5838996956878
 20
346.9737787465148
 42
0.003614726
 10
444.5983816956879
 20
346.9751487465148
 42
0.0036166647
 10
444.6128536956877
 20
346.9767287465148
 42
0.003620771
 10
444.6273126956874
 20
346.9785187465148
 42
0.0036232486
 10
444.6417526956881
 20
346.9805187465148
 42
0.0036264459
 10
444.6561696956877
 20
346.9827387465148
 42
0.003627178
 10
444.6705596956877
 20
346.9851587465148
 42
0.0036272809
 10
444.6849156956877
 20
346.9877987465149
 42
0.003630712
 10
444.6992366956878
 20
346.9906487465148
 42
0.0036379792
 10
444.7135166956877
 20
346.9937087465148
 42
0.0036294186
 10
444.7277476956879
 20
346.9969687465148
 42
0.0036077227
 10
444.7419216956879
 20
347.0004387465148
 42
0.003638023
 10
444.7560556956879
 20
347.0041187465148
 42
0.0037093981
 10
444.7701486956876
 20
347.0080087465148
 42
0.0036050922
 10
444.7841256956873
 20
347.0120887465148
 42
0.0033684384
 10
444.7979536956878
 20
347.0163287465148
 42
0.0037097469
 10
444.8119216956881
 20
347.0208587465148
 42
0.0044091978
 10
444.8261206956876
 20
347.0257287465148
 42
0.003357201
 10
444.8394096956877
 20
347.0304187465148
 42
0.001179526
 10
444.8513856956878
 20
347.0347587465148
 42
0.004706353
 10
444.8665556956877
 20
347.0407587465148
 42
0.008082299
 10
444.8896376956877
 20
347.0505487465148
 42
0.0039665208
 10
444.9196956956877
 20
347.0636887465148
 42
0.0021077682
  0
LINE
  5
158CF
330
1F
100
AcDbEntity
  8
0
100
AcDbLine
 10
374.0684739538533
 20
309.1067276266958
 30
0.0
 11
371.6437939538532
 21
310.5066176266958
 31
0.0
  0
LWPOLYLINE
  5
158D0
330
1F
100
AcDbEntity
  8
0
100
AcDbPolyline
 90
       49
 70
     0
 43
0.0
 10
371.6437939538532
 20
310.5066176266958
 10
371.6264039538533
 20
310.5153376266957
 42
0.029195778
 10
371.6079539538532
 20
310.5220776266957
 42
0.028671639
 10
371.5883839538533
 20
310.5267776266958
 42
0.027401641
 10
371.567873953853
 20
310.5294476266958
 42
0.026376453
 10
371.5465639538534
 20
310.5299576266958
 42
0.024893371
 10
371.5246139538531
 20
310.5284076266958
 42
0.023103764
 10
371.5021739538534
 20
310.5247476266957
 42
0.021294041
 10
371.4794039538533
 20
310.5191276266958
 42
0.019594371
 10
371.456463953853
 20
310.5115476266957
 42
0.017998786
 10
371.433513953853
 20
310.5021976266958
 42
0.016480974
 10
371.410703953853
 20
310.4911376266958
 42
0.015164125
 10
371.388183953853
 20
310.4785576266958
 42
0.013926123
 10
371.3660739538532
 20
310.4645776266957
 42
0.0129022
 10
371.3444839538533
 20
310.4493876266958
 42
0.011916362
 10
371.3235339538532
 20
310.4331276266958
 42
0.01112742
 10
371.303273953853
 20
310.4159876266958
 42
0.010333543
 10
371.2838139538531
 20
310.3980876266958
 42
0.0097516627
 10
371.2651739538533
 20
310.3796276266958
 42
0.0091682243
 10
371.247433953853
 20
310.3607076266957
 42
0.0086596716
 10
371.2305639538532
 20
310.3414976266958
 42
0.0080137608
 10
371.2145739538532
 20
310.3220376266958
 42
0.0079900823
 10
371.199013953853
 20
310.3018576266958
 42
0.0078921497
 10
371.1835439538532
 20
310.2804076266957
 42
0.0076409886
 10
371.1682239538532
 20
310.2577276266957
 42
0.007978882
 10
371.1532239538533
 20
310.2338576266957
 42
0.0081585982
 10
371.1386439538533
 20
310.2088876266958
 42
0.0083384308
 10
371.124613953853
 20
310.1828376266957
 42
0.0084779143
 10
371.1112239538534
 20
310.1558276266957
 42
0.008785788
 10
371.0986439538533
 20
310.1279276266958
 42
0.0090340964
 10
371.086973953853
 20
310.0993076266957
 42
0.0093976922
 10
371.0763739538534
 20
310.0700876266957
 42
0.0097342523
 10
371.0669139538532
 20
310.0404476266958
 42
0.010195262
 10
371.0587739538532
 20
310.0105576266957
 42
0.010667324
 10
371.0519939538531
 20
309.9806176266957
 42
0.01126548
 10
371.0467139538532
 20
309.9508476266958
 42
0.011870135
 10
371.0429439538529
 20
309.9214276266959
 42
0.012541272
 10
371.0408039538533
 20
309.8926076266959
 42
0.01343716
 10
371.0402739538531
 20
309.8645376266958
 42
0.014568541
 10
371.0414239538532
 20
309.8374476266958
 42
0.015302362
 10
371.0441039538531
 20
309.8115376266957
 42
0.015494898
 10
371.048323953853
 20
309.7870476266958
 42
0.017937337
 10
371.0542439538532
 20
309.7638276266958
 42
0.022356441
 10
371.0619739538533
 20
309.7419876266958
 42
0.019340004
 10
371.0701539538531
 20
309.7224276266958
 42
0.0091842282
 10
371.078313953853
 20
309.7055876266958
 42
0.027535473
 10
371.091023953853
 20
309.6879976266958
 42
0.051453286
 10
371.1131939538532
 20
309.6661176266958
 42
0.028723175
 10
371.1437939538531
 20
309.6405976266958
 42
0.01622464
  0
LINE
  5
158D1
330
1F
100
AcDbEntity
  8
0
100
AcDbLine
 10
371.1437939538531
 20
309.6405976266958
 30
0.0
 11
373.5684739538533
 21
308.2407076266957
 31
0.0
  0
LWPOLYLINE
  5
158D2
330
1F
100
AcDbEntity
  8
0
100
AcDbPolyline
 90
       49
 70
     0
 43
0.0
 10
374.5757739538532
 20
309.5387976266957
 10
374.5306439538532
 20
309.5117376266959
 42
0.0093328197
 10
374.4846639538532
 20
309.4819376266958
 42
0.0083744247
 10
374.4377939538531
 20
309.4493076266958
 42
0.0079338482
 10
374.3901639538532
 20
309.4138776266957
 42
0.0080603557
 10
374.341903953853
 20
309.3754476266958
 42
0.0079606831
 10
374.2931539538532
 20
309.3340776266958
 42
0.0078443783
 10
374.2440539538534
 20
309.2896476266957
 42
0.007691137
 10
374.194763953853
 20
309.2422576266959
 42
0.0076512982
 10
374.1454539538532
 20
309.1917976266957
 42
0.0075425073
 10
374.096313953853
 20
309.1384476266958
 42
0.0075069497
 10
374.0475539538534
 20
309.0821276266958
 42
0.0074230107
 10
373.999343953853
 20
309.0230576266959
 42
0.0074119143
 10
373.951943953853
 20
308.9612376266958
 42
0.0073608822
 10
373.9055339538531
 20
308.8969276266958
 42
0.0073721709
 10
373.860373953853
 20
308.8301876266958
 42
0.007355366
 10
373.8166339538534
 20
308.7613276266957
 42
0.0073921999
 10
373.7745939538531
 20
308.6904776266958
 42
0.00741267
 10
373.7343939538531
 20
308.6179576266957
 42
0.007477041
 10
373.6963139538528
 20
308.5439876266958
 42
0.007537684
 10
373.660453953853
 20
308.4688876266958
 42
0.0076320652
 10
373.6270739538531
 20
308.3929376266957
 42
0.0077361798
 10
373.596243953853
 20
308.3164676266958
 42
0.0078631664
 10
373.5681839538533
 20
308.2397776266958
 42
0.0080142972
 10
373.5429039538532
 20
308.1631976266958
 42
0.00817658
 10
373.520603953853
 20
308.0870476266958
 42
0.0083784312
 10
373.501213953853
 20
308.0116176266959
 42
0.0085786616
 10
373.4849139538533
 20
307.9372376266958
 42
0.008834563
 10
373.4715739538533
 20
307.8641376266958
 42
0.0090743706
 10
373.4613039538531
 20
307.7926576266956
 42
0.0093872844
 10
373.453943953853
 20
307.7229576266958
 42
0.0096685679
 10
373.4495639538532
 20
307.6553476266958
 42
0.010037299
 10
373.4479539538534
 20
307.5899176266958
 42
0.01035249
 10
373.4491339538532
 20
307.5269476266957
 42
0.010781008
 10
373.452883953853
 20
307.4664776266957
 42
0.011145689
 10
373.4591739538532
 20
307.4087176266958
 42
0.011596572
 10
373.4677739538533
 20
307.3536576266958
 42
0.011909344
 10
373.478603953853
 20
307.3014876266957
 42
0.012480555
 10
373.491493953853
 20
307.2520776266959
 42
0.01306768
 10
373.506363953853
 20
307.2055876266958
 42
0.01327431
 10
373.5228139538531
 20
307.1619676266958
 42
0.012768834
 10
373.5407139538533
 20
307.1213576266958
 42
0.014360744
 10
373.560493953853
 20
307.0832176266959
 42
0.017606502
 10
373.582273953853
 20
307.0474576266958
 42
0.013874401
 10
373.6033039538534
 20
307.0154276266957
 42
0.0031974259
 10
373.6229239538528
 20
306.9873376266958
 42
0.020601968
 10
373.6528539538531
 20
306.9551076266959
 42
0.039910368
 10
373.7054839538532
 20
306.9105276266958
 42
0.01907058
 10
373.7782839538531
 20
306.8551776266958
 42
0.0096613663
  0
LWPOLYLINE
  5
158D3
330
1F
100
AcDbEntity
  8
0
100
AcDbPolyline
 90
       29
 70
     0
 43
0.0
 10
375.3732839538528
 20
309.6177976266958
 10
375.3496739538531
 20
309.6306176266958
 42
0.012259911
 10
375.3255639538533
 20
309.6422376266958
 42
0.01244027
 10
375.300913953853
 20
309.6525976266958
 42
0.012383152
 10
375.2757939538533
 20
309.6617476266958
 42
0.01212805
 10
375.2502239538531
 20
309.6696676266958
 42
0.011906058
 10
375.2242639538532
 20
309.6763976266958
 42
0.011653832
 10
375.1979539538534
 20
309.6819176266958
 42
0.011387673
 10
375.1713239538532
 20
309.6862776266958
 42
0.011069423
 10
375.1444039538534
 20
309.6894576266957
 42
0.010760822
 10
375.1172639538531
 20
309.6915176266958
 42
0.010416132
 10
375.0899039538531
 20
309.6924376266958
 42
0.010085336
 10
375.0623939538531
 20
309.6922976266957
 42
0.0097230291
 10
375.0347539538528
 20
309.6910676266958
 42
0.0093944043
 10
375.0070239538532
 20
309.6888176266958
 42
0.0090497393
 10
374.9792439538532
 20
309.6855476266958
 42
0.0087065749
 10
374.9514339538531
 20
309.6813276266958
 42
0.0083227454
 10
374.9236539538533
 20
309.6761476266958
 42
0.0080698146
 10
374.8958939538529
 20
309.6700576266957
 42
0.007869358
 10
374.8681639538531
 20
309.6630676266958
 42
0.0073975792
 10
374.8406439538531
 20
309.6552976266958
 42
0.0067075638
 10
374.8133939538534
 20
309.6467976266958
 42
0.007020845
 10
374.785903953853
 20
309.6373176266957
 42
0.0078466422
 10
374.7579939538531
 20
309.6267576266959
 42
0.0059162041
 10
374.731883953853
 20
309.6163976266958
 42
0.002389654
 10
374.7083639538532
 20
309.6066576266959
 42
0.0075941039
 10
374.6787539538532
 20
309.5928176266958
 42
0.012154148
 10
374.6339539538532
 20
309.5698576266958
 42
0.0058906136
 10
374.5757739538532
 20
309.5387976266957
 42
0.0031628877
  0
ARC
  5
158D4
330
1F
100
AcDbEntity
  8
0
100
AcDbCircle
 10
371.3937939538532
 20
310.0736076266958
 30
0.0
 40
0.5
100
AcDbArc
 50
59.99999999999985
 51
239.9999999999999
  0
LWPOLYLINE
  5
158D5
330
1F
100
AcDbEntity
  8
0
100
AcDbPolyline
 90
       29
 70
     0
 43
0.0
 10
379.5255239538533
 20
306.6810676266958
 10
379.569833953853
 20
306.7056776266958
 42
-0.0095039594
 10
379.614963953853
 20
306.7286076266958
 42
-0.0092730059
 10
379.6609639538533
 20
306.7497976266957
 42
-0.0095316129
 10
379.7076939538533
 20
306.7691376266958
 42
-0.010474786
 10
379.7550339538534
 20
306.7863076266958
 42
-0.011257148
 10
379.8028639538529
 20
306.8011976266958
 42
-0.012029768
 10
379.8510539538534
 20
306.8135576266957
 42
-0.012823916
 10
379.8994439538533
 20
306.8232876266957
 42
-0.013804682
 10
379.9478739538532
 20
306.8301176266958
 42
-0.014748021
 10
379.9961639538533
 20
306.8339776266958
 42
-0.015807996
 10
380.0441439538531
 20
306.8345976266958
 42
-0.016808818
 10
380.0916139538531
 20
306.8319676266958
 42
-0.017889743
 10
380.1383539538533
 20
306.8258176266958
 42
-0.018875947
 10
380.1841839538533
 20
306.8161876266958
 42
-0.019889616
 10
380.2288739538532
 20
306.8028276266958
 42
-0.020622539
 10
380.2722439538534
 20
306.7858676266957
 42
-0.021188274
 10
380.3140339538531
 20
306.7651176266958
 42
-0.02176439
 10
380.3541139538534
 20
306.7406576266957
 42
-0.022419256
 10
380.3922339538531
 20
306.7123176266958
 42
-0.02173445
 10
380.4282339538531
 20
306.6806476266958
 42
-0.020153853
 10
380.4618239538531
 20
306.6456776266958
 42
-0.021550141
 10
380.4931939538533
 20
306.6064076266958
 42
-0.02450416
 10
380.5221639538531
 20
306.5623876266958
 42
-0.017973941
 10
380.5478539538532
 20
306.5189776266957
 42
-0.0067065096
 10
380.569763953853
 20
306.4779776266958
 42
-0.023230682
 10
380.5914139538531
 20
306.4198276266957
 42
-0.03570678
 10
380.6162839538533
 20
306.3236976266958
 42
-0.016105048
 10
380.6437739538533
 20
306.1938276266957
 42
-0.0082015663
  0
LWPOLYLINE
  5
158D6
330
1F
100
AcDbEntity
  8
0
100
AcDbPolyline
 90
       49
 70
     0
 43
0.0
 10
379.3787739538534
 20
304.0027876266958
 10
379.3049339538534
 20
303.9743576266957
 42
-0.01622401
 10
379.2328639538532
 20
303.9520776266958
 42
-0.01816509
 10
379.1625739538531
 20
303.9362276266958
 42
-0.019639645
 10
379.0944039538532
 20
303.9264376266958
 42
-0.020677514
 10
379.0289439538533
 20
303.9228276266958
 42
-0.021998339
 10
378.9663639538531
 20
303.9249276266958
 42
-0.023004522
 10
378.9070239538531
 20
303.9327076266957
 42
-0.024043355
 10
378.8509739538532
 20
303.9455976266958
 42
-0.024578428
 10
378.798503953853
 20
303.9634476266958
 42
-0.025021041
 10
378.7495739538532
 20
303.9856576266958
 42
-0.024773939
 10
378.7043639538533
 20
304.0119876266958
 42
-0.02457991
 10
378.6626939538531
 20
304.0419176266958
 42
-0.023856579
 10
378.624683953853
 20
304.0751776266958
 42
-0.022725492
 10
378.5902039538532
 20
304.1110176266958
 42
-0.020997389
 10
378.559303953853
 20
304.1491476266958
 42
-0.020555312
 10
378.5310939538531
 20
304.1902176266958
 42
-0.019455799
 10
378.5049639538534
 20
304.2353176266958
 42
-0.018220563
 10
378.4809239538532
 20
304.2846476266957
 42
-0.018157255
 10
378.459343953853
 20
304.3386376266957
 42
-0.017470186
 10
378.440443953853
 20
304.3971276266958
 42
-0.016911442
 10
378.4246539538531
 20
304.4602976266958
 42
-0.016110488
 10
378.4121739538532
 20
304.5279176266958
 42
-0.015527287
 10
378.4034439538531
 20
304.6000776266958
 42
-0.014736316
 10
378.3985839538532
 20
304.6764176266958
 42
-0.01415901
 10
378.3980239538532
 20
304.7569076266957
 42
-0.013444034
 10
378.4018039538532
 20
304.8410576266958
 42
-0.012919576
 10
378.4102939538528
 20
304.9286576266957
 42
-0.012309212
 10
378.423433953853
 20
305.0191476266958
 42
-0.011859951
 10
378.441503953853
 20
305.1121376266958
 42
-0.01136645
 10
378.4643039538532
 20
305.2069876266958
 42
-0.01099909
 10
378.4919839538529
 20
305.3031776266958
 42
-0.010618325
 10
378.5242439538533
 20
305.4000476266958
 42
-0.010325714
 10
378.5610839538531
 20
305.4969676266958
 42
-0.010057504
 10
378.602093953853
 20
305.5933176266957
 42
-0.0098511949
 10
378.6471539538529
 20
305.6884076266958
 42
-0.009661741
 10
378.6957339538532
 20
305.7816876266958
 42
-0.0094742998
 10
378.7475939538532
 20
305.8724876266958
 42
-0.0094390632
 10
378.8022639538531
 20
305.9604476266957
 42
-0.0094741652
 10
378.859453953853
 20
306.0449776266958
 42
-0.0092907983
 10
378.918303953853
 20
306.1256176266959
 42
-0.0088184871
 10
378.9783239538533
 20
306.2017876266958
 42
-0.0094998762
 10
379.0402939538532
 20
306.2742276266959
 42
-0.010923036
 10
379.104253953853
 20
306.3428076266959
 42
-0.0090182596
 10
379.1648139538533
 20
306.4044076266958
 42
-0.0044013168
 10
379.2198539538532
 20
306.4576476266958
 42
-0.011812704
 10
379.2887939538531
 20
306.5153776266957
 42
-0.020730593
 10
379.3920339538532
 20
306.5906676266958
 42
-0.011717857
 10
379.5255239538533
 20
306.6810676266958
 42
-0.0068783083
  0
LINE
  5
158D7
330
1F
100
AcDbEntity
  8
0
100
AcDbLine
 10
380.323023953853
 20
306.7600676266957
 30
0.0
 11
375.3732739538531
 21
309.6177976266958
 31
0.0
  0
LINE
  5
158D8
330
1F
100
AcDbEntity
  8
0
100
AcDbLine
 10
373.7782739538528
 20
306.8551776266958
 30
0.0
 11
378.7280239538532
 21
303.9974376266958
 31
0.0
  0
LWPOLYLINE
  5
158D9
330
1F
100
AcDbEntity
  8
0
100
AcDbPolyline
 90
       29
 70
     0
 43
0.0
 10
379.5255239538533
 20
306.4116276266958
 10
379.5455939538533
 20
306.4229476266958
 42
-0.0051771267
 10
379.565893953853
 20
306.4338776266958
 42
-0.0050892079
 10
379.586433953853
 20
306.4443876266958
 42
-0.005165488
 10
379.6071939538533
 20
306.4544576266957
 42
-0.0054490802
 10
379.6281639538534
 20
306.4640576266958
 42
-0.0056713957
 10
379.6493339538533
 20
306.4731576266958
 42
-0.0058830941
 10
379.6706739538532
 20
306.4817276266958
 42
-0.006093728
 10
379.6921739538534
 20
306.4897576266957
 42
-0.0063532327
 10
379.7138239538532
 20
306.4971876266957
 42
-0.0065967669
 10
379.7355839538532
 20
306.5040176266958
 42
-0.0068753169
 10
379.757463953853
 20
306.5101976266957
 42
-0.0071383814
 10
379.7794139538531
 20
306.5157276266958
 42
-0.0074370544
 10
379.8014139538532
 20
306.5205476266958
 42
-0.0077320762
 10
379.8234639538531
 20
306.5246576266957
 42
-0.0080743919
 10
379.8455139538531
 20
306.5280076266958
 42
-0.0083611912
 10
379.8675539538531
 20
306.5305976266957
 42
-0.0086447003
 10
379.889533953853
 20
306.5323876266958
 42
-0.0090544341
 10
379.9114639538534
 20
306.5333576266958
 42
-0.0096254218
 10
379.9333239538532
 20
306.5334576266959
 42
-0.0096604301
 10
379.9549739538534
 20
306.5327376266958
 42
-0.0092893363
 10
379.9763539538532
 20
306.5311776266958
 42
-0.010660082
 10
379.9978539538533
 20
306.5285876266958
 42
-0.013291062
 10
380.0195639538533
 20
306.5248176266958
 42
-0.01025081
 10
380.039843953853
 20
306.5207476266958
 42
-0.003266949
 10
380.0580739538531
 20
306.5166176266958
 42
-0.015195613
 10
380.0807039538532
 20
306.5091376266958
 42
-0.027304086
 10
380.1144639538529
 20
306.4947776266958
 42
-0.013427306
 10
380.158023953853
 20
306.4742776266958
 42
-0.007032315
  0
LWPOLYLINE
  5
158DA
330
1F
100
AcDbEntity
  8
0
100
AcDbPolyline
 90
       49
 70
     0
 43
0.0
 10
378.8930239538532
 20
304.2832276266958
 10
378.865503953853
 20
304.3006776266957
 42
-0.017385276
 10
378.8397239538531
 20
304.3196976266958
 42
-0.018580626
 10
378.8157639538531
 20
304.3403976266958
 42
-0.018481839
 10
378.793553953853
 20
304.3624876266958
 42
-0.0171721
 10
378.7731339538532
 20
304.3857976266958
 42
-0.016461085
 10
378.7542539538531
 20
304.4103176266958
 42
-0.015563797
 10
378.7367339538532
 20
304.4362976266957
 42
-0.015133763
 10
378.7202939538533
 20
304.4640876266957
 42
-0.014870156
 10
378.7048239538531
 20
304.4941976266958
 42
-0.014198226
 10
378.6904139538533
 20
304.5265476266957
 42
-0.014098519
 10
378.6773139538532
 20
304.5611776266957
 42
-0.013737208
 10
378.6655739538533
 20
304.5980176266958
 42
-0.013338717
 10
378.6553739538531
 20
304.6371876266958
 42
-0.012809974
 10
378.6467639538532
 20
304.6785776266958
 42
-0.012464773
 10
378.6399439538532
 20
304.7222476266958
 42
-0.011975904
 10
378.6349539538532
 20
304.7680576266959
 42
-0.011600409
 10
378.6319739538531
 20
304.8160176266959
 42
-0.011128859
 10
378.6310439538533
 20
304.8659576266958
 42
-0.010780061
 10
378.6323139538532
 20
304.9178476266957
 42
-0.01035668
 10
378.6357939538528
 20
304.9714676266958
 42
-0.010037517
 10
378.6416339538531
 20
305.0267476266959
 42
-0.0096675141
 10
378.6497739538531
 20
305.0834376266958
 42
-0.0093872194
 10
378.6603539538532
 20
305.1414076266957
 42
-0.0090746147
 10
378.6732839538532
 20
305.2003976266957
 42
-0.0088345474
 10
378.688663953853
 20
305.2602276266958
 42
-0.0085785881
 10
378.7063439538533
 20
305.3206276266958
 42
-0.0083784713
 10
378.7263939538529
 20
305.3813576266958
 42
-0.008176566
 10
378.7486539538531
 20
305.4421876266959
 42
-0.0080140796
 10
378.773103953853
 20
305.5028276266958
 42
-0.0078632037
 10
378.7995739538533
 20
305.5630676266957
 42
-0.0077368933
 10
378.8280239538532
 20
305.6226276266958
 42
-0.0076318549
 10
378.8582239538532
 20
305.6812976266958
 42
-0.0075350683
 10
378.8901039538532
 20
305.7388076266958
 42
-0.0074777303
 10
378.9234439538532
 20
305.7950076266958
 42
-0.0074219514
 10
378.9581439538533
 20
305.8496176266958
 42
-0.0073896578
 10
378.9939539538531
 20
305.9025476266958
 42
-0.007322265
 10
379.0307439538533
 20
305.9535376266958
 42
-0.0073812883
 10
379.0683539538532
 20
306.0025776266958
 42
-0.0074772646
 10
379.1066639538532
 20
306.0494776266958
 42
-0.0073789584
 10
379.1452639538534
 20
306.0940976266958
 42
-0.0070202878
 10
379.183943953853
 20
306.1362376266957
 42
-0.007627324
 10
379.2233439538531
 20
306.1764276266958
 42
-0.0088592869
 10
379.2635739538531
 20
306.2147276266959
 42
-0.007238821
 10
379.301383953853
 20
306.2492576266957
 42
-0.0033552947
 10
379.3355539538528
 20
306.2792476266957
 42
-0.0096207734
 10
379.3783139538531
 20
306.3125476266959
 42
-0.01688668
 10
379.4424839538533
 20
306.3571776266958
 42
-0.0092938788
 10
379.5255239538533
 20
306.4116276266958
 42
-0.005359998
  0
LWPOLYLINE
  5
158DB
330
1F
100
AcDbEntity
  8
0
100
AcDbPolyline
 90
       49
 70
     0
 43
0.0
 10
380.934213953853
 20
303.5262176266958
 10
380.8966939538532
 20
303.5057576266958
 42
-0.0091754338
 10
380.8593639538532
 20
303.4871576266958
 42
-0.009685755
 10
380.8222239538531
 20
303.4705076266959
 42
-0.010131414
 10
380.7853539538533
 20
303.4557576266958
 42
-0.010552877
 10
380.7489139538534
 20
303.4430076266958
 42
-0.01104934
 10
380.712943953853
 20
303.4321976266958
 42
-0.011510269
 10
380.6775639538532
 20
303.4234076266959
 42
-0.012030318
 10
380.6428339538534
 20
303.4165276266957
 42
-0.012505966
 10
380.608843953853
 20
303.4116376266958
 42
-0.013042231
 10
380.5756339538529
 20
303.4086176266957
 42
-0.013495346
 10
380.5433139538532
 20
303.4075076266958
 42
-0.014003683
 10
380.5118939538534
 20
303.4081876266959
 42
-0.014398042
 10
380.4814639538532
 20
303.4106776266958
 42
-0.014834936
 10
380.4520339538532
 20
303.4148376266958
 42
-0.015120917
 10
380.423683953853
 20
303.4206876266957
 42
-0.015435608
 10
380.396393953853
 20
303.4280776266958
 42
-0.015570778
 10
380.3702339538531
 20
303.4369976266958
 42
-0.015721027
 10
380.3451739538531
 20
303.4473176266959
 42
-0.015673244
 10
380.3212839538533
 20
303.4589976266957
 42
-0.015643879
 10
380.298503953853
 20
303.4719176266957
 42
-0.015422595
 10
380.2768939538532
 20
303.4860376266958
 42
-0.015204523
 10
380.2564139538532
 20
303.5012276266958
 42
-0.014795219
 10
380.2370739538533
 20
303.5174476266957
 42
-0.01447813
 10
380.2188339538528
 20
303.5345876266958
 42
-0.014038279
 10
380.2017039538532
 20
303.5526076266958
 42
-0.013492944
 10
380.1856639538531
 20
303.5713376266958
 42
-0.012775288
 10
380.170733953853
 20
303.5907176266958
 42
-0.012575337
 10
380.1566339538532
 20
303.6109876266958
 42
-0.012137114
 10
380.1431739538529
 20
303.6325076266958
 42
-0.011660347
 10
380.1303139538532
 20
303.6553276266957
 42
-0.011663119
 10
380.1181239538532
 20
303.6795876266958
 42
-0.011421199
 10
380.1066439538532
 20
303.7052176266958
 42
-0.011232302
 10
380.0959639538531
 20
303.7323076266958
 42
-0.010955348
 10
380.0861139538533
 20
303.7608076266959
 42
-0.010773395
 10
380.0771939538531
 20
303.7907776266957
 42
-0.010428284
 10
380.069223953853
 20
303.8221476266958
 42
-0.010129924
 10
380.0623039538531
 20
303.8549676266959
 42
-0.0099191354
 10
380.0564739538531
 20
303.8892176266958
 42
-0.009901083
 10
380.051833953853
 20
303.9249576266958
 42
-0.0092657319
 10
380.0483339538532
 20
303.9618476266958
 42
-0.0083857643
 10
380.046073953853
 20
303.9998176266958
 42
-0.0090792237
 10
380.045263953853
 20
304.0397776266957
 42
-0.01062072
 10
380.0460839538532
 20
304.0820876266958
 42
-0.0076032923
 10
380.0476339538532
 20
304.1225876266957
 42
-0.0022794502
 10
380.0497239538532
 20
304.1598476266958
 42
-0.010677868
 10
380.0557539538531
 20
304.2097276266957
 42
-0.017410851
 10
380.0694339538532
 20
304.2889576266958
 42
-0.007918233
 10
380.0899839538534
 20
304.3941776266958
 42
-0.0039998888
  0
LINE
  5
158DC
330
1F
100
AcDbEntity
  8
0
100
AcDbLine
 10
381.1706039538531
 20
305.8896576266957
 30
0.0
 11
380.158023953853
 21
306.4742776266958
 31
0.0
  0
LINE
  5
158DD
330
1F
100
AcDbEntity
  8
0
100
AcDbLine
 10
378.8930239538532
 20
304.2832276266958
 30
0.0
 11
380.3072439538532
 21
303.4667376266958
 31
0.0
  0
LWPOLYLINE
  5
158DE
330
1F
100
AcDbEntity
  8
0
100
AcDbPolyline
 90
       49
 70
     0
 43
0.0
 10
380.4875739538534
 20
303.7840876266959
 10
380.4788539538531
 20
303.7893276266958
 42
-0.0080913406
 10
380.4703839538533
 20
303.7947976266958
 42
-0.0083157198
 10
380.4621639538531
 20
303.8005176266958
 42
-0.008338657
 10
380.4541839538533
 20
303.8064676266959
 42
-0.0081370113
 10
380.4464439538533
 20
303.8126376266959
 42
-0.0080098771
 10
380.4389439538531
 20
303.8190076266957
 42
-0.00788908
 10
380.4316939538531
 20
303.8255976266958
 42
-0.0077727654
 10
380.424673953853
 20
303.8323576266958
 42
-0.0076081282
 10
380.4178939538533
 20
303.8393176266958
 42
-0.0074763292
 10
380.4113439538533
 20
303.8464376266958
 42
-0.0073171071
 10
380.4050239538533
 20
303.8537276266958
 42
-0.007160277
 10
380.398933953853
 20
303.8611676266958
 42
-0.0069728533
 10
380.393083953853
 20
303.8687476266958
 42
-0.0068501656
 10
380.3874339538534
 20
303.8764776266958
 42
-0.0066596092
 10
380.3819639538533
 20
303.8844076266958
 42
-0.0065723431
 10
380.3766339538534
 20
303.8925676266958
 42
-0.006533766
 10
380.3714139538533
 20
303.9010476266958
 42
-0.0064152804
 10
380.3663239538532
 20
303.9098176266957
 42
-0.0064120093
 10
380.361363953853
 20
303.9188776266958
 42
-0.0063631464
 10
380.3565539538532
 20
303.9282376266958
 42
-0.006306018
 10
380.351893953853
 20
303.9378976266958
 42
-0.0062201559
 10
380.3473839538533
 20
303.9478576266958
 42
-0.0061733668
 10
380.3430439538534
 20
303.9581276266958
 42
-0.0060904913
 10
380.338863953853
 20
303.9686976266958
 42
-0.0060305809
 10
380.3348739538533
 20
303.9795776266958
 42
-0.0059401444
 10
380.3310639538532
 20
303.9907676266958
 42
-0.0058771179
 10
380.3274539538534
 20
304.0022676266957
 42
-0.0057841871
 10
380.3240439538532
 20
304.0140676266958
 42
-0.0057164377
 10
380.3208339538532
 20
304.0261876266957
 42
-0.00562207
 10
380.3178439538533
 20
304.0386076266957
 42
-0.0055532329
 10
380.315083953853
 20
304.0513376266958
 42
-0.0054568624
 10
380.3125439538531
 20
304.0643776266958
 42
-0.005382675
 10
380.3102439538528
 20
304.0777176266958
 42
-0.0052928124
 10
380.3081839538531
 20
304.0913476266958
 42
-0.0052318242
 10
380.3063839538531
 20
304.1052876266958
 42
-0.0051245729
 10
380.3048339538532
 20
304.1195176266958
 42
-0.0050204549
 10
380.3035539538532
 20
304.1340276266958
 42
-0.0049790134
 10
380.3025339538531
 20
304.1488376266958
 42
-0.0050159248
 10
380.3018039538533
 20
304.1639576266959
 42
-0.0047738057
 10
380.3013439538532
 20
304.1792776266957
 42
-0.0043783848
 10
380.3011539538534
 20
304.1947576266958
 42
-0.0047864041
 10
380.3013039538532
 20
304.2107776266958
 42
-0.0056537179
 10
380.3018039538533
 20
304.2274776266958
 42
-0.004149807
 10
380.302443953853
 20
304.2432976266959
 42
-0.0013039623
 10
380.3031739538533
 20
304.2577376266958
 42
-0.005854463
 10
380.304823953853
 20
304.2767676266957
 42
-0.0097758391
 10
380.3082739538531
 20
304.3066876266958
 42
-0.004572253
 10
380.3133539538531
 20
304.3462276266958
 42
-0.0023552161
  0
LINE
  5
158DF
330
1F
100
AcDbEntity
  8
0
100
AcDbLine
 10
380.4875739538534
 20
303.7840876266959
 30
0.0
 11
381.4862639538532
 21
303.2074876266958
 31
0.0
  0
LWPOLYLINE
  5
158E0
330
1F
100
AcDbEntity
  8
0
100
AcDbPolyline
 90
       29
 70
     0
 43
0.0
 10
382.3517839538532
 20
304.7472176266958
 10
382.3712139538534
 20
304.7581876266958
 42
-0.0051771748
 10
382.3908739538533
 20
304.7687676266958
 42
-0.005089258
 10
382.4107639538533
 20
304.7789476266958
 42
-0.0051655417
 10
382.4308739538533
 20
304.7887076266956
 42
-0.0054491399
 10
382.4511839538532
 20
304.7979976266958
 42
-0.0056714608
 10
382.471673953853
 20
304.8068176266958
 42
-0.0058831649
 10
382.4923439538529
 20
304.8151076266958
 42
-0.0060938046
 10
382.5131639538532
 20
304.8228776266957
 42
-0.0063533158
 10
382.5341239538534
 20
304.8300776266958
 42
-0.0065968566
 10
382.5552039538529
 20
304.8366976266958
 42
-0.0068754138
 10
382.5763839538532
 20
304.8426776266958
 42
-0.0071384856
 10
382.5976339538533
 20
304.8480276266958
 42
-0.007437166
 10
382.6189539538532
 20
304.8526976266958
 42
-0.0077321954
 10
382.640293953853
 20
304.8566776266958
 42
-0.0080745192
 10
382.6616539538532
 20
304.8599276266958
 42
-0.0083613258
 10
382.6829939538534
 20
304.8624376266959
 42
-0.0086448414
 10
382.7042739538533
 20
304.8641676266957
 42
-0.0090545836
 10
382.7255139538534
 20
304.8651076266958
 42
-0.0096255814
 10
382.7466839538534
 20
304.8651976266957
 42
-0.0096605903
 10
382.7676539538534
 20
304.8645076266958
 42
-0.0092894894
 10
382.7883539538528
 20
304.8629976266957
 42
-0.010660256
 10
382.8091739538531
 20
304.8604876266958
 42
-0.013291273
 10
382.830203953853
 20
304.8568376266958
 42
-0.010250967
 10
382.8498339538533
 20
304.8528976266958
 42
-0.0032669979
 10
382.8674939538532
 20
304.8488976266958
 42
-0.015195835
 10
382.8894039538532
 20
304.8416476266958
 42
-0.027304437
 10
382.9220939538532
 20
304.8277476266957
 42
-0.013427453
 10
382.9642839538533
 20
304.8078876266957
 42
-0.0070323847
  0
LWPOLYLINE
  5
158E1
330
1F
100
AcDbEntity
  8
0
100
AcDbPolyline
 90
       49
 70
     0
 43
0.0
 10
381.7392839538529
 20
302.6861376266958
 10
381.7126239538534
 20
302.7030276266958
 42
-0.017385861
 10
381.6876639538531
 20
302.7214476266958
 42
-0.018581102
 10
381.6644639538532
 20
302.7414876266958
 42
-0.018482144
 10
381.642953953853
 20
302.7628776266958
 42
-0.017172228
 10
381.6231839538531
 20
302.7854476266958
 42
-0.016461064
 10
381.604903953853
 20
302.8092076266958
 42
-0.015563697
 10
381.5879339538533
 20
302.8343576266958
 42
-0.015133652
 10
381.572013953853
 20
302.8612676266959
 42
-0.014870127
 10
381.5570339538531
 20
302.8904276266957
 42
-0.014198245
 10
381.5430839538532
 20
302.9217476266958
 42
-0.014098509
 10
381.530393953853
 20
302.9552876266958
 42
-0.013737187
 10
381.5190239538533
 20
302.9909576266959
 42
-0.013338706
 10
381.5091439538532
 20
303.0288976266958
 42
-0.012809969
 10
381.5008039538528
 20
303.0689776266958
 42
-0.012464767
 10
381.4942039538532
 20
303.1112676266959
 42
-0.011975898
 10
381.4893639538532
 20
303.1556276266958
 42
-0.011600405
 10
381.4864939538534
 20
303.2020676266957
 42
-0.011128856
 10
381.4855839538532
 20
303.2504276266958
 42
-0.010780059
 10
381.4868239538532
 20
303.3006776266958
 42
-0.010356679
 10
381.4901839538529
 20
303.3526076266958
 42
-0.010037517
 10
381.495833953853
 20
303.4061376266957
 42
-0.0096675153
 10
381.5037239538533
 20
303.4610376266958
 42
-0.0093872214
 10
381.5139739538532
 20
303.5171776266957
 42
-0.0090746172
 10
381.5264939538533
 20
303.5742976266958
 42
-0.0088345507
 10
381.5413839538532
 20
303.6322376266958
 42
-0.0085785919
 10
381.5585039538532
 20
303.6907176266958
 42
-0.0083784757
 10
381.5779239538533
 20
303.7495376266958
 42
-0.0081765708
 10
381.5994739538533
 20
303.8084376266958
 42
-0.0080140846
 10
381.623153953853
 20
303.8671676266958
 42
-0.0078632091
 10
381.6487839538531
 20
303.9254976266958
 42
-0.007736899
 10
381.6763339538534
 20
303.9831776266958
 42
-0.0076318609
 10
381.7055739538531
 20
304.0399876266958
 42
-0.0075350746
 10
381.736453953853
 20
304.0956876266958
 42
-0.0074777369
 10
381.7687439538532
 20
304.1500976266958
 42
-0.0074219582
 10
381.8023339538531
 20
304.2029876266958
 42
-0.0073896648
 10
381.8370139538533
 20
304.2542476266957
 42
-0.0073222721
 10
381.8726439538531
 20
304.3036276266958
 42
-0.0073812959
 10
381.9090639538531
 20
304.3511176266957
 42
-0.0074772722
 10
381.9461639538531
 20
304.3965276266959
 42
-0.0073789662
 10
381.9835439538533
 20
304.4397376266958
 42
-0.0070202952
 10
382.0210039538533
 20
304.4805376266958
 42
-0.0076273322
 10
382.0591539538531
 20
304.5194676266957
 42
-0.0088592966
 10
382.0981139538531
 20
304.5565576266958
 42
-0.007238829
 10
382.1347239538532
 20
304.5899876266958
 42
-0.0033552983
 10
382.167813953853
 20
304.6190376266957
 42
-0.009620784
 10
382.2092239538534
 20
304.6512776266957
 42
-0.016886698
 10
382.2713639538534
 20
304.6944976266957
 42
-0.0092938887
 10
382.3517839538532
 20
304.7472176266958
 42
-0.0053600036
  0
LWPOLYLINE
  5
158E2
330
1F
100
AcDbEntity
  8
0
100
AcDbPolyline
 90
       29
 70
     0
 43
0.0
 10
382.6116439538532
 20
304.5971876266956
 10
382.648733953853
 20
304.6177176266958
 42
-0.010454743
 10
382.686553953853
 20
304.6366876266958
 42
-0.010191162
 10
382.7251539538533
 20
304.6540576266957
 42
-0.01050436
 10
382.764393953853
 20
304.6697076266958
 42
-0.011643537
 10
382.8041539538531
 20
304.6832976266959
 42
-0.012598572
 10
382.8443039538533
 20
304.6947576266958
 42
-0.013547386
 10
382.8847039538532
 20
304.7038176266958
 42
-0.01452596
 10
382.9252039538533
 20
304.7103876266958
 42
-0.015731674
 10
382.9656139538533
 20
304.7141976266958
 42
-0.016887641
 10
383.0057839538532
 20
304.7152076266958
 42
-0.018170487
 10
383.0455039538533
 20
304.7131376266957
 42
-0.0193582
 10
383.0845739538531
 20
304.7079976266958
 42
-0.020602262
 10
383.122793953853
 20
304.6995576266958
 42
-0.021673089
 10
383.1599639538532
 20
304.6878576266958
 42
-0.022699506
 10
383.195843953853
 20
304.6727076266957
 42
-0.023319267
 10
383.2302939538532
 20
304.6542376266958
 42
-0.023667829
 10
383.2630339538532
 20
304.6323276266958
 42
-0.023919038
 10
383.2939639538532
 20
304.6070876266958
 42
-0.024164223
 10
383.3228339538532
 20
304.5784276266958
 42
-0.022996547
 10
383.3495439538533
 20
304.5468576266957
 42
-0.020970143
 10
383.3738839538531
 20
304.5124976266957
 42
-0.021885942
 10
383.3958639538532
 20
304.4744976266958
 42
-0.024220188
 10
383.4153339538529
 20
304.4325476266958
 42
-0.017618653
 10
383.4320939538534
 20
304.3914276266958
 42
-0.0068685542
 10
383.4459439538532
 20
304.3528276266957
 42
-0.022025458
 10
383.4578039538533
 20
304.2994576266957
 42
-0.033185198
 10
383.468453953853
 20
304.2129776266958
 42
-0.015044384
 10
383.4778439538532
 20
304.0970876266958
 42
-0.0077228077
  0
LWPOLYLINE
  5
158E3
330
1F
100
AcDbEntity
  8
0
100
AcDbPolyline
 90
       49
 70
     0
 43
0.0
 10
382.6116439538532
 20
302.5967676266958
 10
382.5515339538533
 20
302.5645576266958
 42
-0.0150018
 10
382.4921939538531
 20
302.5373576266957
 42
-0.016593683
 10
382.433583953853
 20
302.5153876266958
 42
-0.017890159
 10
382.3761139538533
 20
302.4984776266958
 42
-0.019090288
 10
382.3203339538531
 20
302.4868976266958
 42
-0.020576054
 10
382.2664839538534
 20
302.4803276266958
 42
-0.021829873
 10
382.2149139538533
 20
302.4788476266958
 42
-0.023217474
 10
382.1657839538529
 20
302.4820276266958
 42
-0.024242846
 10
382.1194139538534
 20
302.4898276266958
 42
-0.025289836
 10
382.075813953853
 20
302.5017476266958
 42
-0.025702798
 10
382.0352439538533
 20
302.5176376266959
 42
-0.026030949
 10
381.9976039538533
 20
302.5369976266958
 42
-0.025630931
 10
381.9630439538532
 20
302.5596076266958
 42
-0.025154813
 10
381.9314539538531
 20
302.5849676266958
 42
-0.024091877
 10
381.902893953853
 20
302.6128376266958
 42
-0.022938269
 10
381.8770939538532
 20
302.6427876266958
 42
-0.021060825
 10
381.8539339538533
 20
302.6748076266958
 42
-0.020538854
 10
381.8327839538533
 20
302.7096076266958
 42
-0.019789925
 10
381.8132439538532
 20
302.7482176266957
 42
-0.018419531
 10
381.7955439538532
 20
302.7905676266958
 42
-0.018335656
 10
381.7801339538533
 20
302.8367576266958
 42
-0.017693445
 10
381.7672039538534
 20
302.8866576266958
 42
-0.016961534
 10
381.757083953853
 20
302.9404176266958
 42
-0.016039445
 10
381.7499239538534
 20
302.9978076266957
 42
-0.015440761
 10
381.7461139538531
 20
303.0588176266958
 42
-0.014633778
 10
381.7457339538533
 20
303.1231076266958
 42
-0.014025816
 10
381.7491139538534
 20
303.1905576266958
 42
-0.013306622
 10
381.756253953853
 20
303.2607076266958
 42
-0.012786382
 10
381.767433953853
 20
303.3333076266958
 42
-0.012199282
 10
381.7825239538533
 20
303.4078176266958
 42
-0.011766308
 10
381.8017139538533
 20
303.4838476266958
 42
-0.011306875
 10
381.8247539538534
 20
303.5607976266958
 42
-0.010960358
 10
381.8517239538532
 20
303.6381876266958
 42
-0.010630814
 10
381.882283953853
 20
303.7154376266958
 42
-0.010382239
 10
381.9163539538532
 20
303.7919976266958
 42
-0.010146192
 10
381.9535239538532
 20
303.8673376266958
 42
-0.0099251931
 10
381.993583953853
 20
303.9408776266959
 42
-0.0098598327
 10
382.0361639538532
 20
304.0122776266958
 42
-0.00987534
 10
382.0809939538531
 20
304.0810176266958
 42
-0.009666736
 10
382.1273639538532
 20
304.1466676266958
 42
-0.0091674631
 10
382.174873953853
 20
304.2087276266958
 42
-0.0098567776
 10
382.2240839538531
 20
304.2677376266958
 42
-0.011309281
 10
382.2750239538531
 20
304.3235776266958
 42
-0.0093506149
 10
382.3233339538533
 20
304.3737076266958
 42
-0.0046032669
 10
382.3673139538532
 20
304.4170176266959
 42
-0.012213982
 10
382.422423953853
 20
304.4637876266958
 42
-0.021428024
 10
382.5049439538528
 20
304.5244976266959
 42
-0.012169636
 10
382.6116439538532
 20
304.5971876266956
 42
-0.00716506
  0
LINE
  5
158E4
330
1F
100
AcDbEntity
  8
0
100
AcDbLine
 10
383.2241439538528
 20
304.6578676266958
 30
0.0
 11
382.9642839538533
 21
304.8078976266958
 31
0.0
  0
LINE
  5
158E5
330
1F
100
AcDbEntity
  8
0
100
AcDbLine
 10
381.7392839538529
 20
302.6861276266958
 30
0.0
 11
381.999143953853
 21
302.5360976266958
 31
0.0
  0
LWPOLYLINE
  5
158E6
330
1F
100
AcDbEntity
  8
0
100
AcDbPolyline
 90
       29
 70
     0
 43
0.0
 10
382.917473953853
 20
304.0674876266958
 10
382.9300439538533
 20
304.0745876266957
 42
-0.0051772374
 10
382.9427639538532
 20
304.0814276266957
 42
-0.0050893197
 10
382.9556239538533
 20
304.0880076266958
 42
-0.0051656041
 10
382.968633953853
 20
304.0943276266958
 42
-0.0054492056
 10
382.981773953853
 20
304.1003376266957
 42
-0.0056715289
 10
382.9950339538531
 20
304.1060376266958
 42
-0.005883235
 10
383.0084039538533
 20
304.1114076266958
 42
-0.0060938764
 10
383.0218739538532
 20
304.1164376266958
 42
-0.0063533898
 10
383.035433953853
 20
304.1210876266958
 42
-0.006596932
 10
383.0490739538532
 20
304.1253676266958
 42
-0.0068754909
 10
383.0627739538531
 20
304.1292476266958
 42
-0.0071385636
 10
383.0765239538532
 20
304.1327076266958
 42
-0.007437245
 10
383.0903139538531
 20
304.1357276266958
 42
-0.0077322746
 10
383.1041239538532
 20
304.1382976266957
 42
-0.0080745984
 10
383.117933953853
 20
304.1403976266958
 42
-0.0083614036
 10
383.1317439538528
 20
304.1420276266958
 42
-0.0086449172
 10
383.145513953853
 20
304.1431476266958
 42
-0.0090546572
 10
383.1592539538533
 20
304.1437576266957
 42
-0.0096256532
 10
383.1729439538531
 20
304.1438076266958
 42
-0.0096606549
 10
383.1865139538532
 20
304.1433676266958
 42
-0.0092895442
 10
383.1999039538532
 20
304.1423876266958
 42
-0.01066031
 10
383.2133739538532
 20
304.1407576266958
 42
-0.013291326
 10
383.2269739538533
 20
304.1384076266958
 42
-0.010250995
 10
383.2396839538533
 20
304.1358576266958
 42
-0.0032670049
 10
383.2511039538531
 20
304.1332676266957
 42
-0.015195859
 10
383.265273953853
 20
304.1285776266958
 42
-0.027304417
 10
383.2864239538531
 20
304.1195776266957
 42
-0.013427416
 10
383.313713953853
 20
304.1067376266958
 42
-0.0070323591
  0
LWPOLYLINE
  5
158E7
330
1F
100
AcDbEntity
  8
0
100
AcDbPolyline
 90
       49
 70
     0
 43
0.0
 10
382.521213953853
 20
302.7340876266957
 10
382.5039739538533
 20
302.7450176266957
 42
-0.017384893
 10
382.487823953853
 20
302.7569376266959
 42
-0.018580185
 10
382.4728139538533
 20
302.7698976266958
 42
-0.01848136
 10
382.4589039538532
 20
302.7837376266958
 42
-0.017171611
 10
382.446113953853
 20
302.7983476266958
 42
-0.016460638
 10
382.4342839538531
 20
302.8137076266958
 42
-0.015563471
 10
382.4233039538531
 20
302.8299776266958
 42
-0.015133582
 10
382.4130039538531
 20
302.8473876266958
 42
-0.014870164
 10
382.4033139538533
 20
302.8662576266958
 42
-0.014198291
 10
382.3942839538532
 20
302.8865176266958
 42
-0.014098545
 10
382.3860739538531
 20
302.9082176266958
 42
-0.013737225
 10
382.3787239538533
 20
302.9312976266958
 42
-0.013338744
 10
382.3723339538533
 20
302.9558376266958
 42
-0.012810005
 10
382.3669339538533
 20
302.9817676266958
 42
-0.012464802
 10
382.3626639538534
 20
303.0091276266958
 42
-0.011975932
 10
382.359543953853
 20
303.0378176266958
 42
-0.011600438
 10
382.357673953853
 20
303.0678676266958
 42
-0.011128886
 10
382.3570939538532
 20
303.0991576266958
 42
-0.010780088
 10
382.3578939538533
 20
303.1316576266958
 42
-0.010356705
 10
382.3600639538532
 20
303.1652576266958
 42
-0.010037542
 10
382.363723953853
 20
303.1998876266958
 42
-0.0096675372
 10
382.3688239538533
 20
303.2354076266958
 42
-0.0093872414
 10
382.3754539538531
 20
303.2717276266958
 42
-0.0090746353
 10
382.3835539538531
 20
303.3086776266959
 42
-0.008834567
 10
382.3931839538531
 20
303.3461576266958
 42
-0.0085786063
 10
382.4042639538534
 20
303.3839976266958
 42
-0.0083784883
 10
382.4168339538531
 20
303.4220476266958
 42
-0.0081765819
 10
382.4307739538531
 20
303.4601476266958
 42
-0.0080140941
 10
382.4460939538532
 20
303.4981476266958
 42
-0.0078632171
 10
382.462673953853
 20
303.5358876266958
 42
-0.0077369057
 10
382.4804939538532
 20
303.5731976266957
 42
-0.0076318661
 10
382.499413953853
 20
303.6099576266958
 42
-0.0075350786
 10
382.5193839538533
 20
303.6459776266958
 42
-0.0074777394
 10
382.5402739538532
 20
303.6811876266958
 42
-0.0074219597
 10
382.5620139538531
 20
303.7154076266958
 42
-0.0073896649
 10
382.5844439538532
 20
303.7485576266958
 42
-0.007322271
 10
382.607493953853
 20
303.7805076266957
 42
-0.0073812934
 10
382.6310639538533
 20
303.8112276266958
 42
-0.0074772687
 10
382.655053953853
 20
303.8406076266958
 42
-0.0073789613
 10
382.6792439538531
 20
303.8685676266958
 42
-0.0070202896
 10
382.7034739538532
 20
303.8949576266958
 42
-0.0076273249
 10
382.728153953853
 20
303.9201476266957
 42
-0.0088592864
 10
382.7533639538533
 20
303.9441376266958
 42
-0.0072388194
 10
382.7770439538531
 20
303.9657676266958
 42
-0.0033552936
 10
382.7984539538534
 20
303.9845576266959
 42
-0.0096207693
 10
382.8252439538533
 20
304.0054176266957
 42
-0.016886668
 10
382.8654439538532
 20
304.0333776266958
 42
-0.00929387
 10
382.917473953853
 20
304.0674876266958
 42
-0.0053599921
  0
LINE
  5
158E8
330
1F
100
AcDbEntity
  8
0
100
AcDbLine
 10
383.3329439538534
 20
303.9884276266958
 30
0.0
 11
383.319473953853
 21
304.0713476266958
 31
0.0
  0
LINE
  5
158E9
330
1F
100
AcDbEntity
  8
0
100
AcDbLine
 10
382.5547439538532
 20
302.7468076266958
 30
0.0
 11
382.6332939538533
 21
302.7765876266958
 31
0.0
  0
LWPOLYLINE
  5
158EA
330
1F
100
AcDbEntity
  8
0
100
AcDbPolyline
 90
        6
 70
     0
 43
0.0
 10
391.1752839538531
 20
299.2998376266958
 10
391.2811758288531
 20
299.3492670016958
 10
391.3832689538531
 20
299.3737026266958
 10
391.4778309674616
 20
299.3720414779397
 10
391.561545062721
 20
299.3445734366466
 10
391.5715238704656
 20
299.3390976745993
  0
LWPOLYLINE
  5
158EB
330
1F
100
AcDbEntity
  8
0
100
AcDbPolyline
 90
       13
 70
     0
 43
0.0
 10
390.7790239538531
 20
297.9664476266958
 10
390.7753244195219
 20
297.9686244714017
 10
390.7022629961589
 20
298.0328641492178
 10
390.6499258266281
 20
298.1242629621664
 10
390.6228738039668
 20
298.2253299686906
 10
390.6149908819862
 20
298.3412310271834
 10
390.6247215424187
 20
298.4540298693133
 10
390.6498046459459
 20
298.572744516051
 10
390.6892362876124
 20
298.6936444968215
 10
390.7420125624626
 20
298.8129993410496
 10
390.8638732609406
 20
299.0109391260594
 10
391.0126413105595
 20
299.1777752615337
 10
391.175283836008
 20
299.2998375586665
  0
LINE
  5
158EC
330
1F
100
AcDbEntity
  8
0
100
AcDbLine
 10
391.5715239538532
 20
299.3390876266957
 30
0.0
 11
383.313713953853
 21
304.1067376266958
 31
0.0
  0
LINE
  5
158ED
330
1F
100
AcDbEntity
  8
0
100
AcDbLine
 10
382.521213953853
 20
302.7340876266957
 30
0.0
 11
390.7790239538531
 21
297.9664376266958
 31
0.0
  0
LWPOLYLINE
  5
158EE
330
1F
100
AcDbEntity
  8
0
100
AcDbPolyline
 90
       14
 70
     0
 43
0.0
 10
391.4741139538532
 20
299.0508076266958
 10
391.3307022259014
 20
298.9431736610401
 10
391.1995201302407
 20
298.7960659014508
 10
391.0920680151098
 20
298.6215227668538
 10
391.0455351351193
 20
298.5162787723312
 10
391.0107677048977
 20
298.4096725862644
 10
390.9886509012423
 20
298.3049938395506
 10
390.9800699009512
 20
298.2055321630863
 10
390.9870165713518
 20
298.1033324120991
 10
391.0108689467453
 20
298.0142113735315
 10
391.0570194881789
 20
297.933614178358
 10
391.1214432355664
 20
297.8769662931582
 10
391.1861738217453
 20
297.8503612205987
 10
391.259453860217
 20
297.8423776248846
  0
LWPOLYLINE
  5
158EF
330
1F
100
AcDbEntity
  8
0
100
AcDbPolyline
 90
        7
 70
     0
 43
0.0
 10
391.9192039538529
 20
298.9850276266957
 10
391.8734046094692
 20
299.0468145586344
 10
391.8147091987798
 20
299.0902530822049
 10
391.7408983594691
 20
299.1144701836343
 10
391.6575139538531
 20
299.1159326266958
 10
391.567490254984
 20
299.094389519851
 10
391.4741140577644
 20
299.0508076866931
  0
LINE
  5
158F0
330
1F
100
AcDbEntity
  8
0
100
AcDbLine
 10
391.259603953853
 20
297.8744176266959
 30
0.0
 11
392.046813953853
 21
297.8707176266958
 31
0.0
  0
LWPOLYLINE
  5
158F1
330
1F
100
AcDbEntity
  8
0
100
AcDbPolyline
 90
       49
 70
     0
 43
0.0
 10
392.1288039538532
 20
298.3203176266957
 10
392.1201639538531
 20
298.3151076266958
 42
0.010771806
 10
392.111343953853
 20
298.3092976266958
 42
0.0095310711
 10
392.1023339538533
 20
298.3028776266958
 42
0.0089650321
 10
392.0931739538533
 20
298.2958276266958
 42
0.0091304516
 10
392.083893953853
 20
298.2881276266958
 42
0.009005996
 10
392.074533953853
 20
298.2797776266957
 42
0.0088634716
 10
392.0651139538532
 20
298.2707676266958
 42
0.0086775972
 10
392.0556939538533
 20
298.2611076266958
 42
0.0086377897
 10
392.0463239538532
 20
298.2507876266957
 42
0.0085161513
 10
392.0370339538532
 20
298.2398576266959
 42
0.0084878052
 10
392.027893953853
 20
298.2283176266957
 42
0.0084066306
 10
392.0189539538533
 20
298.2162076266957
 42
0.0084160599
 10
392.0102639538531
 20
298.2035676266958
 42
0.0083866314
 10
392.001883953853
 20
298.1904576266958
 42
0.008432044
 10
391.9938639538531
 20
298.1769076266958
 42
0.008457366
 10
391.9862539538531
 20
298.1629976266958
 42
0.0085437763
 10
391.9791239538532
 20
298.1487876266958
 42
0.0086293301
 10
391.9724839538531
 20
298.1343676266959
 42
0.0087604973
 10
391.9664039538534
 20
298.1197876266957
 42
0.0089118414
 10
391.9609039538532
 20
298.1051376266958
 42
0.0090922624
 10
391.9560239538532
 20
298.0905076266958
 42
0.0093155668
 10
391.9517639538532
 20
298.0759676266958
 42
0.0095497826
 10
391.9481739538533
 20
298.0615876266958
 42
0.0098511627
 10
391.9452239538531
 20
298.0474476266958
 42
0.010143037
 10
391.9429539538533
 20
298.0336176266957
 42
0.010527739
 10
391.9413139538533
 20
298.0201576266958
 42
0.010879655
 10
391.9403239538533
 20
298.0071376266957
 42
0.011349303
 10
391.9399539538531
 20
297.9945776266957
 42
0.011757486
 10
391.9401839538531
 20
297.9825576266957
 42
0.012309941
 10
391.9409739538533
 20
297.9710876266958
 42
0.012769875
 10
391.9423139538531
 20
297.9602076266957
 42
0.013382711
 10
391.9441439538531
 20
297.9499276266958
 42
0.013850671
 10
391.9464539538532
 20
297.9402676266957
 42
0.01452163
 10
391.949173953853
 20
297.9312276266958
 42
0.015032509
 10
391.9522939538533
 20
297.9228176266958
 42
0.015605975
 10
391.955743953853
 20
297.9150276266958
 42
0.015866097
 10
391.9595139538533
 20
297.9078676266958
 42
0.016628521
 10
391.9635639538533
 20
297.9012676266957
 42
0.017173801
 10
391.967933953853
 20
297.8951776266958
 42
0.017487564
 10
391.9726439538532
 20
297.8894676266957
 42
0.016865332
 10
391.9777939538532
 20
297.8840676266957
 42
0.019606908
 10
391.983573953853
 20
297.8790076266958
 42
0.025961684
 10
391.9900739538531
 20
297.8743876266957
 42
0.019541152
 10
391.996463953853
 20
297.8702776266958
 42
0.0046478728
 10
392.0025039538531
 20
297.8667676266958
 42
0.030216681
 10
392.0113339538529
 20
297.8636876266958
 42
0.052963116
 10
392.0263139538533
 20
297.8609176266957
 42
0.02346562
 10
392.0467539538532
 20
297.8584776266958
 42
0.011361315
  0
LWPOLYLINE
  5
158F2
330
1F
100
AcDbEntity
  8
0
100
AcDbPolyline
 90
       29
 70
     0
 43
0.0
 10
392.2988939538532
 20
298.2951876266957
 10
392.2953939538534
 20
298.3011276266958
 42
0.014736086
 10
392.2916139538533
 20
298.3067276266958
 42
0.015393783
 10
392.2875639538533
 20
298.3119876266957
 42
0.015921427
 10
392.2832439538534
 20
298.3169076266958
 42
0.016404266
 10
392.2786739538533
 20
298.3214376266957
 42
0.016843501
 10
392.2738739538531
 20
298.3256076266958
 42
0.017116897
 10
392.2688539538531
 20
298.3293876266959
 42
0.017316067
 10
392.2636239538533
 20
298.3327876266957
 42
0.017365478
 10
392.2581939538531
 20
298.3357876266958
 42
0.017328879
 10
392.2525939538531
 20
298.3383976266958
 42
0.017121103
 10
392.2468339538531
 20
298.3406176266957
 42
0.016839424
 10
392.2409339538532
 20
298.3424476266959
 42
0.016407252
 10
392.2349139538533
 20
298.3438976266958
 42
0.01594856
 10
392.228783953853
 20
298.3449676266959
 42
0.015384905
 10
392.2225639538533
 20
298.3456676266957
 42
0.014774212
 10
392.2162739538531
 20
298.3460176266957
 42
0.014048747
 10
392.2099239538534
 20
298.3460076266958
 42
0.013506653
 10
392.2035339538534
 20
298.3456576266958
 42
0.013015773
 10
392.1971139538531
 20
298.3449776266958
 42
0.012107989
 10
392.1907039538533
 20
298.3440076266958
 42
0.010866239
 10
392.1843439538528
 20
298.3427476266958
 42
0.011162624
 10
392.1779039538533
 20
298.3411576266957
 42
0.012187998
 10
392.1713539538531
 20
298.3392276266958
 42
0.0091395987
 10
392.165223953853
 20
298.3372476266958
 42
0.0038567607
 10
392.1596939538531
 20
298.3353176266959
 42
0.011315025
 10
392.1527639538532
 20
298.3323876266958
 42
0.01759397
 10
392.1423239538531
 20
298.3273076266958
 42
0.0084761098
 10
392.1288039538532
 20
298.3203176266957
 42
0.0045603009
  0
LINE
  5
158F3
330
1F
100
AcDbEntity
  8
0
100
AcDbLine
 10
392.2883239538533
 20
298.2890176266957
 30
0.0
 11
391.891533953853
 21
298.9688776266958
 31
0.0
  0
ARC
  5
158F4
330
1F
100
AcDbEntity
  8
0
100
AcDbCircle
 10
392.0418939538532
 20
298.1540076266958
 30
0.0
 40
0.29557097
100
AcDbArc
 50
270.9431900000069
 51
28.81155999999941
  0
LWPOLYLINE
  5
158F5
330
1F
100
AcDbEntity
  8
0
100
AcDbPolyline
 90
        5
 70
     0
 43
0.0
 10
391.9192039538529
 20
298.9850276266957
 10
391.8513269301134
 20
299.0904233978844
 10
391.7695852214711
 20
299.1856913587674
 10
391.6757328899003
 20
299.2691449473505
 10
391.5715239973744
 20
299.3390976016398
  0
LWPOLYLINE
  5
158F6
330
1F
100
AcDbEntity
  8
0
100
AcDbPolyline
 90
        5
 70
     0
 43
0.0
 10
390.7789639538533
 20
297.9664776266957
 10
390.8917209734649
 20
297.9111826314502
 10
391.0109476795169
 20
297.8716151329913
 10
391.13430501021
 20
297.8484538811153
 10
391.2594539037473
 20
297.8423776256189
  0
LINE
  5
158F7
330
1F
100
AcDbEntity
  8
CEN
 48
2.0
100
AcDbLine
 10
415.0499246956877
 20
347.7624987465148
 30
0.0
 11
446.7678416956879
 21
347.7624987465148
 31
0.0
  0
DIMENSION
  5
158F8
330
1F
100
AcDbEntity
  8
DIM
100
AcDbDimension
  2
*D11
 10
449.4789796956879
 20
346.9699987465148
 30
0.0
 11
449.4789796956879
 21
354.3049987465149
 31
0.0
 70
   160
  1
%%C1.6
 71
     5
 42
1.585000000000033
 73
     0
 74
     0
 75
     0
  3
01
100
AcDbAlignedDimension
 13
444.4970766956877
 23
348.5549987465148
 33
0.0
 14
444.4970766956877
 24
346.9699987465148
 34
0.0
 50
270.0
100
AcDbRotatedDimension
  0
DIMENSION
  5
158F9
330
1F
100
AcDbEntity
  8
DIM
100
AcDbDimension
  2
*D12
 10
413.100354344928
 20
347.2624987465148
 30
0.0
 11
413.100354344928
 21
352.8339273179434
 31
0.0
 70
   160
  1
%%C<>
 71
     5
 42
-1.0
 73
     0
 74
     0
 75
     0
  3
01
100
AcDbAlignedDimension
 13
416.5218376956876
 23
348.2624987465148
 33
0.0
 14
416.5218376956876
 24
347.2624987465148
 34
0.0
 50
270.0
100
AcDbRotatedDimension
  0
DIMENSION
  5
158FA
330
1F
100
AcDbEntity
  8
DIM
100
AcDbDimension
  2
*D13
 10
409.2345326387492
 20
346.1674987465148
 30
0.0
 11
409.2345326387492
 21
355.1074987465149
 31
0.0
 70
   160
  1
%%C3.2
 71
     5
 42
3.190000000000051
 73
     0
 74
     0
 75
     0
  3
01
100
AcDbAlignedDimension
 13
421.0218376956878
 23
349.3574987465148
 33
0.0
 14
421.0218376956878
 24
346.1674987465148
 34
0.0
 50
270.0
100
AcDbRotatedDimension
  0
DIMENSION
  5
158FB
330
1F
100
AcDbEntity
  8
DIM
100
AcDbDimension
  2
*D14
 10
416.0218376956875
 20
342.5034640195317
 30
0.0
 11
418.4751146956878
 21
342.5034640195317
 31
0.0
 70
   160
 71
     5
 42
5.0
 73
     0
 74
     0
 75
     0
  3
01
100
AcDbAlignedDimension
 13
421.0218376956878
 23
346.1674987465148
 33
0.0
 14
416.0218376956875
 24
347.7624987465148
 34
0.0
 50
180.0
100
AcDbRotatedDimension
  0
DIMENSION
  5
158FC
330
1F
100
AcDbEntity
  8
DIM
100
AcDbDimension
  2
*D15
 10
446.0187296956878
 20
338.5362441944435
 30
0.0
 11
431.0063345458908
 21
338.5362441944435
 31
0.0
 70
   161
 71
     5
 42
29.99689200000012
 73
     0
 74
     0
 75
     0
  3
01
100
AcDbAlignedDimension
 13
416.0218376956875
 23
347.7624987465148
 33
0.0
 14
446.0187296956878
 24
347.7624987465148
 34
0.0
  0
LWPOLYLINE
  5
158FD
330
1F
100
AcDbEntity
  8
0
100
AcDbPolyline
 90
       11
 70
     0
 43
0.0
 10
380.7440439538531
 20
302.8925676266958
 10
380.6269395725753
 20
302.8927169765568
 10
380.5151189036314
 20
302.908912425584
 10
380.4221074421726
 20
302.9367157183177
 10
380.332701072818
 20
302.9776268220512
 10
380.2478137995795
 20
303.0311509151843
 10
380.1683596264679
 20
303.0967931761168
 10
380.0952525574954
 20
303.1740587832482
 10
380.0294065966732
 20
303.2624529149784
 10
379.9717357480122
 20
303.3614807497069
 10
379.9231540155243
 20
303.4706474658335
  0
LINE
  5
158FE
330
1F
100
AcDbEntity
  8
0
100
AcDbLine
 10
380.7440439538531
 20
302.8925676266958
 30
0.0
 11
381.5324938295453
 21
302.9492976178055
 31
0.0
  0
LWPOLYLINE
  5
158FF
330
1F
100
AcDbEntity
  8
0
100
AcDbPolyline
 90
        4
 70
     0
 43
0.0
 10
379.9231539538532
 20
303.4706476266958
 10
380.639067600318
 20
303.3028451497191
 10
381.0623330096482
 20
303.2124629724042
 10
381.4918637404671
 20
303.1302876644691
  0
LWPOLYLINE
  5
15900
330
1F
100
AcDbEntity
  8
0
100
AcDbPolyline
 90
        9
 70
     0
 43
0.0
 10
379.917833953853
 20
304.4310276266958
 10
380.0001222533678
 20
304.6146823689572
 10
380.1059428499702
 20
304.8058055647875
 10
380.2301892907485
 20
304.9968281677554
 10
380.3677551227906
 20
305.1801811314299
 10
380.5479387863901
 20
305.385767661472
 10
380.747101524089
 20
305.5798942465648
 10
380.952410733446
 20
305.7486133784073
 10
381.1510338120208
 20
305.8779775486982
  0
LWPOLYLINE
  5
15901
330
1F
100
AcDbEntity
  8
0
100
AcDbPolyline
 90
        9
 70
     0
 43
0.0
 10
382.3038739538533
 20
304.7172476266957
 10
382.2098204881409
 20
304.6731964802366
 10
382.1162336627631
 20
304.6156909226469
 10
382.0247013677954
 20
304.5462165393503
 10
381.9368114933127
 20
304.4662589157701
 10
381.8541519293917
 20
304.3773036373299
 10
381.7783105661069
 20
304.2808362894533
 10
381.7108752935346
 20
304.1783424575637
 10
381.6534340017502
 20
304.0713077270847
  0
LWPOLYLINE
  5
15902
330
1F
100
AcDbEntity
  8
0
100
AcDbPolyline
 90
        4
 70
     0
 43
0.0
 10
381.653433953853
 20
304.0713076266957
 10
381.1996435399728
 20
304.160646521819
 10
380.7241003125477
 20
304.2590013538514
 10
379.9178340940184
 20
304.43102759663
  0
LWPOLYLINE
  5
15903
330
1F
100
AcDbEntity
  8
0
100
AcDbPolyline
 90
        7
 70
     0
 43
0.0
 10
381.1510339538531
 20
305.8779776266959
 10
381.2982241102818
 20
305.9551385651186
 10
381.4386952052836
 20
306.0059801340784
 10
381.567243177431
 20
306.031047964112
 10
381.6786639652968
 20
306.0308876857565
 10
381.7887389178774
 20
305.9964151546054
 10
381.8709439021777
 20
305.9256876945145
  0
LWPOLYLINE
  5
15904
330
1F
100
AcDbEntity
  8
0
100
AcDbPolyline
 90
        4
 70
     0
 43
0.0
 10
382.6975939538534
 20
304.8637076266958
 10
382.4837455419242
 20
305.1272315006585
 10
382.2768965036926
 20
305.3930288117423
 10
381.8709440531684
 20
305.9256874973788
  0
LWPOLYLINE
  5
15905
330
1F
100
AcDbEntity
  8
0
100
AcDbPolyline
 90
        5
 70
     0
 43
0.0
 10
381.9372139538531
 20
304.3858776266957
 10
381.8820783448213
 20
304.3235492084803
 10
381.8305614835131
 20
304.2570451676545
 10
381.7830383695909
 20
304.1867273788935
 10
381.7398840027189
 20
304.1129577168727
  0
LINE
  5
15906
330
1F
100
AcDbEntity
  8
0
100
AcDbLine
 10
381.6534239538531
 20
304.0713076266957
 30
0.0
 11
381.7398839538532
 21
304.1129576266957
 31
0.0
  0
LINE
  5
15907
330
1F
100
AcDbEntity
  8
0
100
AcDbLine
 10
381.3714339538533
 20
303.2737876266958
 30
0.0
 11
381.3071740545293
 21
303.2164877106999
 31
0.0
  0
LINE
  5
15908
330
1F
100
AcDbEntity
  8
0
100
AcDbLine
 10
379.9231539538532
 20
303.4709176266958
 30
0.0
 11
380.0095039538533
 21
303.5214776266958
 31
0.0
  0
LWPOLYLINE
  5
15909
330
1F
100
AcDbEntity
  8
0
100
AcDbPolyline
 90
        4
 70
     0
 43
0.0
 10
380.066073953853
 20
303.4888176266958
 10
380.7211488556
 20
303.3366576483397
 10
381.1019428625369
 20
303.2563082825614
 10
381.4873437524639
 20
303.1841076613458
  0
LINE
  5
1590A
330
1F
100
AcDbEntity
  8
0
100
AcDbLine
 10
380.0095039538533
 20
303.5214776266958
 30
0.0
 11
380.066073953853
 21
303.4888176266958
 31
0.0
  0
ENDSEC
  0
SECTION
  2
OBJECTS
  0
DICTIONARY
  5
C
330
0
100
AcDbDictionary
281
     1
  3
ACAD_COLOR
350
4FFE
  3
ACAD_GROUP
350
D
  3
ACAD_LAYOUT
350
1A
  3
ACAD_MATERIAL
350
4FE5
  3
ACAD_MLEADERSTYLE
350
5022
  3
ACAD_MLINESTYLE
350
17
  3
ACAD_PLOTSETTINGS
350
19
  3
ACAD_PLOTSTYLENAME
350
E
  3
ACAD_RENDER_PLOT_SETTINGS
350
6537
  3
ACAD_SCALELIST
350
5000
  3
ACAD_TABLESTYLE
350
4FE3
  3
ACAD_VISUALSTYLE
350
2A
  3
ACDB_RECOMPOSE_DATA
350
50EC
  3
AcDbVariableDictionary
350
5108
  3
ASE_INDEX_DICTIONARY
350
11ACE
  0
DICTIONARY
  5
50EE
330
8
100
AcDbDictionary
280
     1
281
     1
  0
DICTIONARY
  5
50B8
330
2
100
AcDbDictionary
280
     1
281
     1
  3
ACAD_LAYERFILTERS
360
15496
  3
ACAD_LAYERSTATES
360
50B9
  3
ACLYDICTIONARY
360
15495
  0
DICTIONARY
  5
50D0
330
10
100
AcDbDictionary
280
     1
281
     1
  3
ADSK_XREC_LAYER_RECONCILED
360
50D1
  0
DICTIONARY
  5
50D2
330
3B
100
AcDbDictionary
280
     1
281
     1
  3
ADSK_XREC_LAYER_RECONCILED
360
50D3
  0
DICTIONARY
  5
50AF
330
50AE
100
AcDbDictionary
280
     1
281
     1
  3
ADSK_XREC_LAYER_RECONCILED
360
50D4
  0
DICTIONARY
  5
1581E
330
1581D
100
AcDbDictionary
280
     1
281
     1
  0
DICTIONARY
  5
67C0
330
1F
100
AcDbDictionary
280
     1
281
     1
  3
ACAD_SORTENTS
360
67C1
  0
DICTIONARY
  5
15C30
330
156B5
100
AcDbDictionary
280
     1
281
     1
  0
DICTIONARY
  5
15C62
330
15B9B
100
AcDbDictionary
280
     1
281
     1
  3
ACAD_MTEXT_2008_RT
360
15C63
  0
DICTIONARY
  5
15C64
330
15BDF
100
AcDbDictionary
280
     1
281
     1
  3
ACAD_MTEXT_2008_RT
360
15C65
  0
DICTIONARY
  5
15C66
330
15BE0
100
AcDbDictionary
280
     1
281
     1
  3
ACAD_MTEXT_2008_RT
360
15C67
  0
DICTIONARY
  5
15C68
330
15C05
100
AcDbDictionary
280
     1
281
     1
  3
ACAD_MTEXT_2008_RT
360
15C69
  0
DICTIONARY
  5
15C6A
330
15C08
100
AcDbDictionary
280
     1
281
     1
  3
ACAD_MTEXT_2008_RT
360
15C6B
  0
DICTIONARY
  5
15C6C
330
15C09
100
AcDbDictionary
280
     1
281
     1
  3
ACAD_MTEXT_2008_RT
360
15C6D
  0
DICTIONARY
  5
15C6E
330
15C13
100
AcDbDictionary
280
     1
281
     1
  3
ACAD_MTEXT_2008_RT
360
15C6F
  0
DICTIONARY
  5
15C70
330
15C14
100
AcDbDictionary
280
     1
281
     1
  3
ACAD_MTEXT_2008_RT
360
15C71
  0
DICTIONARY
  5
15C72
330
15C15
100
AcDbDictionary
280
     1
281
     1
  3
ACAD_MTEXT_2008_RT
360
15C73
  0
DICTIONARY
  5
15C74
330
15C23
100
AcDbDictionary
280
     1
281
     1
  3
ACAD_MTEXT_2008_RT
360
15C75
  0
DICTIONARY
  5
15C76
330
15C24
100
AcDbDictionary
280
     1
281
     1
  3
ACAD_MTEXT_2008_RT
360
15C77
  0
DICTIONARY
  5
15C78
330
15C25
100
AcDbDictionary
280
     1
281
     1
  3
ACAD_MTEXT_2008_RT
360
15C79
  0
DICTIONARY
  5
15C5F
330
12C4B
100
AcDbDictionary
280
     1
281
     1
  3
ACAD_MTEXT_2008_RT
360
15C60
  0
DICTIONARY
  5
4FFE
102
{ACAD_REACTORS
330
C
102
}
330
C
100
AcDbDictionary
281
     1
  0
DICTIONARY
  5
D
102
{ACAD_REACTORS
330
C
102
}
330
C
100
AcDbDictionary
281
     1
  0
DICTIONARY
  5
1A
102
{ACAD_REACTORS
330
C
102
}
330
C
100
AcDbDictionary
281
     1
  3
Layout1
350
1E
  3
Layout2
350
26
  3
Model
350
22
  0
DICTIONARY
  5
4FE5
102
{ACAD_REACTORS
330
C
102
}
330
C
100
AcDbDictionary
281
     1
  3
ByBlock
350
4FEE
  3
ByLayer
350
4FE6
  3
Global
350
4FF6
  0
DICTIONARY
  5
5022
102
{ACAD_REACTORS
330
C
102
}
330
C
100
AcDbDictionary
281
     1
  3
Standard
350
5023
  0
DICTIONARY
  5
17
102
{ACAD_REACTORS
330
C
102
}
330
C
100
AcDbDictionary
281
     1
  3
Standard
350
18
  0
DICTIONARY
  5
19
102
{ACAD_REACTORS
330
C
102
}
330
C
100
AcDbDictionary
281
     1
  0
ACDBDICTIONARYWDFLT
  5
E
102
{ACAD_REACTORS
330
C
102
}
330
C
100
AcDbDictionary
281
     1
  3
Normal
350
F
100
AcDbDictionaryWithDefault
340
F
  0
DICTIONARY
  5
6537
102
{ACAD_REACTORS
330
C
102
}
330
C
100
AcDbDictionary
281
     1
  3
{1DC63513-1B1A-422F-9880-65CFD2B8D533}
350
6538
  0
DICTIONARY
  5
5000
102
{ACAD_REACTORS
330
C
102
}
330
C
100
AcDbDictionary
281
     1
  3
A0
350
5001
  3
A1
350
5002
  3
A2
350
5003
  3
A3
350
5004
  3
A4
350
5005
  3
A5
350
5006
  3
A6
350
5007
  3
A7
350
5008
  3
A8
350
5009
  3
A9
350
500A
  3
B0
350
500B
  3
B1
350
500C
  3
B2
350
500D
  3
B3
350
500E
  3
B4
350
500F
  3
B5
350
5010
  3
B6
350
5011
  3
B7
350
5012
  3
B8
350
5013
  3
B9
350
5014
  3
C0
350
5015
  3
C1
350
5016
  3
C2
350
5017
  3
C3
350
5018
  3
C4
350
5019
  3
C5
350
501A
  3
C6
350
501B
  3
C7
350
501C
  3
C8
350
501D
  3
C9
350
501E
  3
D0
350
501F
  3
D1
350
5020
  3
D2
350
5021
  0
DICTIONARY
  5
4FE3
102
{ACAD_REACTORS
330
C
102
}
330
C
100
AcDbDictionary
281
     1
  3
Standard
350
4FFF
  0
DICTIONARY
  5
2A
102
{ACAD_REACTORS
330
C
102
}
330
C
100
AcDbDictionary
281
     1
  3
2dWireframe
350
2F
  3
3D Hidden
350
31
  3
3dWireframe
350
30
  3
Basic
350
32
  3
Brighten
350
36
  3
ColorChange
350
3A
  3
Conceptual
350
34
  3
Dim
350
35
  3
Facepattern
350
39
  3
Flat
350
2B
  3
FlatWithEdges
350
2C
  3
Gouraud
350
2D
  3
GouraudWithEdges
350
2E
  3
Linepattern
350
38
  3
Realistic
350
33
  3
Thicken
350
37
  0
XRECORD
  5
50EC
102
{ACAD_REACTORS
330
C
102
}
330
C
100
AcDbXrecord
280
     1
 90
        1
330
4FFF
330
12C4B
330
15B9B
330
15BDF
330
15BE0
330
15C05
330
15C08
330
15C09
330
15C13
330
15C14
330
15C15
330
15C23
330
15C24
330
15C25
  0
DICTIONARY
  5
5108
102
{ACAD_REACTORS
330
C
102
}
330
C
100
AcDbDictionary
281
     1
  3
CANNOSCALE
350
510B
  3
CMLEADERSTYLE
350
510A
  3
CTABLESTYLE
350
5109
  3
DIMASSOC
350
510E
  3
INDEXCTL
350
510D
  3
LIGHTINGUNITS
350
15C35
  3
MSLTSCALE
350
15C34
  3
SORTENTS
350
510C
  0
DICTIONARY
  5
11ACE
102
{ACAD_REACTORS
330
C
102
}
330
C
100
AcDbDictionary
281
     1
  3
ASEBlockHierarchyIndexRecord
350
11ACF
1001
DCO15
1040
1901191674.187
  0
DICTIONARY
  5
15496
102
{ACAD_REACTORS
330
50B8
102
}
330
50B8
100
AcDbDictionary
281
     1
  0
DICTIONARY
  5
50B9
102
{ACAD_REACTORS
330
50B8
102
}
330
50B8
100
AcDbDictionary
281
     1
  0
DICTIONARY
  5
15495
102
{ACAD_REACTORS
330
50B8
102
}
330
50B8
100
AcDbDictionary
281
     1
1001
ACAD
1000
<All
  0
XRECORD
  5
50D1
102
{ACAD_REACTORS
330
50D0
102
}
330
50D0
100
AcDbXrecord
280
     1
290
     1
  0
XRECORD
  5
50D3
102
{ACAD_REACTORS
330
50D2
102
}
330
50D2
100
AcDbXrecord
280
     1
290
     1
  0
XRECORD
  5
50D4
102
{ACAD_REACTORS
330
50AF
102
}
330
50AF
100
AcDbXrecord
280
     1
290
     1
  0
SORTENTSTABLE
  5
67C1
102
{ACAD_REACTORS
330
67C0
102
}
330
67C0
100
AcDbSortentsTable
330
1F
331
3807
  5
3895
331
12C4B
  5
1307F
331
2F93
  5
2FDE
331
2EE7
  5
2F93
331
35C8
  5
35D8
331
2FDE
  5
35C8
331
28AE
  5
2A38
331
2C65
  5
2EE7
331
3943
  5
4842
331
3895
  5
3943
331
13093
  5
12B2B
331
35D8
  5
3807
331
4842
  5
4E94
  0
XRECORD
  5
15C63
102
{ACAD_REACTORS
330
15C62
102
}
330
15C62
100
AcDbXrecord
280
     1
 40
1527.0
  1
\pxqc;BQ LUO
  0
XRECORD
  5
15C65
102
{ACAD_REACTORS
330
15C64
102
}
330
15C64
100
AcDbXrecord
280
     1
 40
3624820.0
  1
\pxqc;档案员{\H0.7x;\P\Fromans|c134;Filing Clerk\fFangSong_GB2312|b0|i0|c134|p49; }
  0
XRECORD
  5
15C67
102
{ACAD_REACTORS
330
15C66
102
}
330
15C66
100
AcDbXrecord
280
     1
 40
2054623.0
  1
\pxqc;日期{\Fromans|c134;/Date}
  0
XRECORD
  5
15C69
102
{ACAD_REACTORS
330
15C68
102
}
330
15C68
100
AcDbXrecord
280
     1
 40
1836818.0
  1
\pxsm0.7;{\fFangSong_GB2312|b0|i0|c134|p49;标准化}\PStand.
  0
XRECORD
  5
15C6B
102
{ACAD_REACTORS
330
15C6A
102
}
330
15C6A
100
AcDbXrecord
280
     1
 40
1476476.0
  1
\pxsm0.7;签名\P{\Fromans|c134;Signature} 
  0
XRECORD
  5
15C6D
102
{ACAD_REACTORS
330
15C6C
102
}
330
15C6C
100
AcDbXrecord
280
     1
 40
1354713.0
  1
\pxsm0.7,qc;处数\P{\Fromans|c134;Number }
  0
XRECORD
  5
15C6F
102
{ACAD_REACTORS
330
15C6E
102
}
330
15C6E
100
AcDbXrecord
280
     1
 40
1692934.0
  1
\pxsm0.7;标记\P{\Fromans|c134;Mark}
  0
XRECORD
  5
15C71
102
{ACAD_REACTORS
330
15C70
102
}
330
15C70
100
AcDbXrecord
280
     1
 40
1391581.0
  1
\pxsm0.7;审核\P{\Fromans|c134;Checked}
  0
XRECORD
  5
15C73
102
{ACAD_REACTORS
330
15C72
102
}
330
15C72
100
AcDbXrecord
280
     1
 40
1546703.0
  1
\pxsm0.7;绘图\P{\Fromans|c134;Drawn\Ftxt|c134; }
  0
XRECORD
  5
15C75
102
{ACAD_REACTORS
330
15C74
102
}
330
15C74
100
AcDbXrecord
280
     1
 40
1293614.0
  1
\pxsm0.7;批准\P{\Fromans|c134;Approved}
  0
XRECORD
  5
15C77
102
{ACAD_REACTORS
330
15C76
102
}
330
15C76
100
AcDbXrecord
280
     1
 40
1583427.0
  1
\pxsm0.7;工艺\P{\Fromans|c134;Process}
  0
XRECORD
  5
15C79
102
{ACAD_REACTORS
330
15C78
102
}
330
15C78
100
AcDbXrecord
280
     1
 40
1435325.0
  1
\pxsm0.7;日期\P{\Fromans|c134;Date}
  0
XRECORD
  5
15C60
102
{ACAD_REACTORS
330
15C5F
102
}
330
15C5F
100
AcDbXrecord
280
     1
 40
252113679.0
  1
\A1;\pxql;{\f仿宋_GB2312|b0|i0|c134|p49;技术参数}:\P\pq*;- {\f仿宋_GB2312|b0|i0|c134|p49;材料}: {\f仿宋_GB2312|b0|i0|c134|p49;铜合金}\P- {\f仿宋_GB2312|b0|i0|c134|p49;表面处理}: {\f仿宋_GB2312|b0|i0|c134|p49;镀银}\P\pql;- {\f仿宋_GB2312|b0|i0|c134|p49;额定电流}: 7.5A\P- {\f仿宋_GB23
  1
12|b0|i0|c134|p49;接触电阻}: ≤3mΩ\P- {\f仿宋_GB2312|b0|i0|c134|p49;可插拔次数}: {\f仿宋_GB2312|b0|i0|c134|p49;≥}500\P\pq*;\P\pql;Technical specification:\P- Material: copper alloy\P- Surface: hard-silver plated\P- Rated current: 7.5A\P- Contact resistance: ≤3mΩ\P
  1
- Mating cycles: {\f仿宋_GB2312|b0|i0|c134|p49;≥}500
  0
LAYOUT
  5
1E
102
{ACAD_REACTORS
330
1A
102
}
330
1A
100
AcDbPlotSettings
  1

  2
none_device
  4

  6

 40
0.0
 41
0.0
 42
0.0
 43
0.0
 44
0.0
 45
0.0
 46
0.0
 47
0.0
 48
0.0
 49
0.0
140
0.0
141
0.0
142
1.0
143
1.0
 70
   688
 72
     0
 73
     0
 74
     5
  7

 75
    16
147
1.0
 76
     0
 77
     2
 78
   300
148
0.0
149
0.0
100
AcDbLayout
  1
Layout1
 70
     1
 71
     1
 10
0.0
 20
0.0
 11
12.0
 21
9.0
 12
0.0
 22
0.0
 32
0.0
 14
1.000000000000000E+20
 24
1.000000000000000E+20
 34
1.000000000000000E+20
 15
-1.000000000000000E+20
 25
-1.000000000000000E+20
 35
-1.000000000000000E+20
146
0.0
 13
0.0
 23
0.0
 33
0.0
 16
1.0
 26
0.0
 36
0.0
 17
0.0
 27
1.0
 37
0.0
 76
     0
330
1B
  0
LAYOUT
  5
26
102
{ACAD_REACTORS
330
1A
102
}
330
1A
100
AcDbPlotSettings
  1

  2
none_device
  4

  6

 40
0.0
 41
0.0
 42
0.0
 43
0.0
 44
0.0
 45
0.0
 46
0.0
 47
0.0
 48
0.0
 49
0.0
140
0.0
141
0.0
142
1.0
143
1.0
 70
   688
 72
     0
 73
     0
 74
     5
  7

 75
    16
147
1.0
 76
     0
 77
     2
 78
   300
148
0.0
149
0.0
100
AcDbLayout
  1
Layout2
 70
     1
 71
     2
 10
0.0
 20
0.0
 11
0.0
 21
0.0
 12
0.0
 22
0.0
 32
0.0
 14
0.0
 24
0.0
 34
0.0
 15
0.0
 25
0.0
 35
0.0
146
0.0
 13
0.0
 23
0.0
 33
0.0
 16
1.0
 26
0.0
 36
0.0
 17
0.0
 27
1.0
 37
0.0
 76
     0
330
23
  0
LAYOUT
  5
22
102
{ACAD_REACTORS
330
1A
102
}
330
1A
100
AcDbPlotSettings
  1

  2
Adobe PDF Converter.pc3
  4
A4
  6

 40
3.174999952316281
 41
3.174999952316281
 42
3.17498779296875
 43
3.175003051757812
 44
297.0318298339844
 45
209.9733276367186
 46
0.0000000000000076
 47
1.630241740247063
 48
246.9897427644609
 49
39.36804549891383
140
544.952097801264
141
244.7492402188181
142
1.0
143
1.025046328645055
 70
  3764
 72
     1
 73
     0
 74
     4
  7
monochrome.ctb
 75
     0
147
0.9755656618192436
 76
     1
 77
     2
 78
   300
148
-246.9897427644609
149
-39.36804549891383
100
AcDbLayout
  1
Model
 70
     1
 71
     0
 10
0.0
 20
0.0
 11
12.0
 21
9.0
 12
0.0
 22
0.0
 32
0.0
 14
1.000000000000000E+20
 24
1.000000000000000E+20
 34
1.000000000000000E+20
 15
-1.000000000000000E+20
 25
-1.000000000000000E+20
 35
-1.000000000000000E+20
146
0.0
 13
0.0
 23
0.0
 33
0.0
 16
1.0
 26
0.0
 36
0.0
 17
0.0
 27
1.0
 37
0.0
 76
     0
330
1F
331
29
1001
ACAD_PSEXT
1000
Adobe PDF Converter.pc3
1000
Adobe PDF Converter
1000
桌面\*.pdf
1000

1070
     0
  0
MATERIAL
  5
4FEE
102
{ACAD_XDICTIONARY
360
4FEF
102
}
102
{ACAD_REACTORS
330
4FE5
102
}
330
4FE5
100
AcDbMaterial
  1
ByBlock
 72
     0
 43
0.0208333333333333
 43
0.0
 43
0.0
 43
0.0
 43
0.0
 43
0.0208333333333333
 43
0.0
 43
0.0
 43
0.0
 43
0.0
 43
1.0
 43
0.0
 43
0.0
 43
0.0
 43
0.0
 43
1.0
 77
     0
 47
0.0208333333333333
 47
0.0
 47
0.0
 47
0.0
 47
0.0
 47
0.0208333333333333
 47
0.0
 47
0.0
 47
0.0
 47
0.0
 47
1.0
 47
0.0
 47
0.0
 47
0.0
 47
0.0
 47
1.0
171
     0
 49
0.0208333333333333
 49
0.0
 49
0.0
 49
0.0
 49
0.0
 49
0.0208333333333333
 49
0.0
 49
0.0
 49
0.0
 49
0.0
 49
1.0
 49
0.0
 49
0.0
 49
0.0
 49
0.0
 49
1.0
175
     0
142
0.0208333333333333
142
0.0
142
0.0
142
0.0
142
0.0
142
0.0208333333333333
142
0.0
142
0.0
142
0.0
142
0.0
142
1.0
142
0.0
142
0.0
142
0.0
142
0.0
142
1.0
179
     0
144
0.0208333333333333
144
0.0
144
0.0
144
0.0
144
0.0
144
0.0208333333333333
144
0.0
144
0.0
144
0.0
144
0.0
144
1.0
144
0.0
144
0.0
144
0.0
144
0.0
144
1.0
147
0.0208333333333333
147
0.0
147
0.0
147
0.0
147
0.0
147
0.0208333333333333
147
0.0
147
0.0
147
0.0
147
0.0
147
1.0
147
0.0
147
0.0
147
0.0
147
0.0
147
1.0
  0
MATERIAL
  5
4FE6
102
{ACAD_XDICTIONARY
360
4FE7
102
}
102
{ACAD_REACTORS
330
4FE5
102
}
330
4FE5
100
AcDbMaterial
  1
ByLayer
 72
     0
 43
0.0208333333333333
 43
0.0
 43
0.0
 43
0.0
 43
0.0
 43
0.0208333333333333
 43
0.0
 43
0.0
 43
0.0
 43
0.0
 43
1.0
 43
0.0
 43
0.0
 43
0.0
 43
0.0
 43
1.0
 77
     0
 47
0.0208333333333333
 47
0.0
 47
0.0
 47
0.0
 47
0.0
 47
0.0208333333333333
 47
0.0
 47
0.0
 47
0.0
 47
0.0
 47
1.0
 47
0.0
 47
0.0
 47
0.0
 47
0.0
 47
1.0
171
     0
 49
0.0208333333333333
 49
0.0
 49
0.0
 49
0.0
 49
0.0
 49
0.0208333333333333
 49
0.0
 49
0.0
 49
0.0
 49
0.0
 49
1.0
 49
0.0
 49
0.0
 49
0.0
 49
0.0
 49
1.0
175
     0
142
0.0208333333333333
142
0.0
142
0.0
142
0.0
142
0.0
142
0.0208333333333333
142
0.0
142
0.0
142
0.0
142
0.0
142
1.0
142
0.0
142
0.0
142
0.0
142
0.0
142
1.0
179
     0
144
0.0208333333333333
144
0.0
144
0.0
144
0.0
144
0.0
144
0.0208333333333333
144
0.0
144
0.0
144
0.0
144
0.0
144
1.0
144
0.0
144
0.0
144
0.0
144
0.0
144
1.0
147
0.0208333333333333
147
0.0
147
0.0
147
0.0
147
0.0
147
0.0208333333333333
147
0.0
147
0.0
147
0.0
147
0.0
147
1.0
147
0.0
147
0.0
147
0.0
147
0.0
147
1.0
  0
MATERIAL
  5
4FF6
102
{ACAD_XDICTIONARY
360
4FF7
102
}
102
{ACAD_REACTORS
330
4FE5
102
}
330
4FE5
100
AcDbMaterial
  1
Global
 72
     0
 43
0.0208333333333333
 43
0.0
 43
0.0
 43
0.0
 43
0.0
 43
0.0208333333333333
 43
0.0
 43
0.0
 43
0.0
 43
0.0
 43
1.0
 43
0.0
 43
0.0
 43
0.0
 43
0.0
 43
1.0
 77
     0
 47
0.0208333333333333
 47
0.0
 47
0.0
 47
0.0
 47
0.0
 47
0.0208333333333333
 47
0.0
 47
0.0
 47
0.0
 47
0.0
 47
1.0
 47
0.0
 47
0.0
 47
0.0
 47
0.0
 47
1.0
171
     0
 49
0.0208333333333333
 49
0.0
 49
0.0
 49
0.0
 49
0.0
 49
0.0208333333333333
 49
0.0
 49
0.0
 49
0.0
 49
0.0
 49
1.0
 49
0.0
 49
0.0
 49
0.0
 49
0.0
 49
1.0
175
     0
142
0.0208333333333333
142
0.0
142
0.0
142
0.0
142
0.0
142
0.0208333333333333
142
0.0
142
0.0
142
0.0
142
0.0
142
1.0
142
0.0
142
0.0
142
0.0
142
0.0
142
1.0
179
     0
144
0.0208333333333333
144
0.0
144
0.0
144
0.0
144
0.0
144
0.0208333333333333
144
0.0
144
0.0
144
0.0
144
0.0
144
1.0
144
0.0
144
0.0
144
0.0
144
0.0
144
1.0
147
0.0208333333333333
147
0.0
147
0.0
147
0.0
147
0.0
147
0.0208333333333333
147
0.0
147
0.0
147
0.0
147
0.0
147
1.0
147
0.0
147
0.0
147
0.0
147
0.0
147
1.0
  0
MLEADERSTYLE
  5
5023
102
{ACAD_REACTORS
330
5022
102
}
330
5022
100
AcDbMLeaderStyle
170
     2
171
     1
172
     0
 90
        2
 40
0.0
 41
0.0
173
     1
 91
-1056964608
340
14
 92
       -2
290
     1
 42
0.09
291
     1
 43
0.36
  3
Standard
 44
0.18
300

342
11
174
     1
178
     6
175
     1
176
     0
 93
-1056964608
 45
0.18
292
     0
297
     0
 46
0.18
 94
-1056964608
 47
1.0
 49
1.0
140
1.0
293
     1
141
0.0
294
     1
177
     0
142
1.0
295
     0
296
     0
143
0.125
1001
ACAD_MLEADERVER
1070
     2
  0
MLINESTYLE
  5
18
102
{ACAD_REACTORS
330
17
102
}
330
17
100
AcDbMlineStyle
  2
STANDARD
 70
     0
  3

 62
   256
 51
90.0
 52
90.0
 71
     2
 49
0.5
 62
   256
  6
BYLAYER
 49
-0.5
 62
   256
  6
BYLAYER
  0
ACDBPLACEHOLDER
  5
F
102
{ACAD_REACTORS
330
E
102
}
330
E
  0
MENTALRAYRENDERSETTINGS
  5
6538
102
{ACAD_REACTORS
330
6537
102
}
330
6537
100
AcDbRenderSettings
 90
        2
  1
中
290
     1
290
     1
290
     1
290
     1
  1

  1
渲染质量好于“低级”。包括纹理过滤并且强制双面处于激活状态。处理中等级反锯齿和 5 反射/折射的光线跟踪深度。
 90
        0
100
AcDbMentalRayRenderSettings
 90
        2
 90
        0
 90
        1
 70
     2
 40
3.0
 40
3.0
 40
0.0500000007450581
 40
0.0500000007450581
 40
0.0500000007450581
 40
0.0500000007450581
 70
     0
290
     0
290
     1
 90
        5
 90
        5
 90
        5
290
     0
 90
      500
290
     0
 40
1.0
 90
    10000
 90
        5
 90
        5
 90
        5
290
     0
 90
      200
290
     0
290
     0
290
     0
 40
0.1
 40
1.0
 40
1500.0
 70
     0
 70
     0
 40
10.0
 70
     0
 70
     0
290
     0
  1

 90
       32
 70
     0
 90
     1048
290
     0
 40
1.0
  0
SCALE
  5
5001
102
{ACAD_REACTORS
330
5000
102
}
330
5000
100
AcDbScale
 70
     0
300
1:1
140
1.0
141
1.0
290
     1
  0
SCALE
  5
5002
102
{ACAD_REACTORS
330
5000
102
}
330
5000
100
AcDbScale
 70
     0
300
1:2
140
1.0
141
2.0
290
     0
  0
SCALE
  5
5003
102
{ACAD_REACTORS
330
5000
102
}
330
5000
100
AcDbScale
 70
     0
300
1:4
140
1.0
141
4.0
290
     0
  0
SCALE
  5
5004
102
{ACAD_REACTORS
330
5000
102
}
330
5000
100
AcDbScale
 70
     0
300
1:5
140
1.0
141
5.0
290
     0
  0
SCALE
  5
5005
102
{ACAD_REACTORS
330
5000
102
}
330
5000
100
AcDbScale
 70
     0
300
1:8
140
1.0
141
8.0
290
     0
  0
SCALE
  5
5006
102
{ACAD_REACTORS
330
5000
102
}
330
5000
100
AcDbScale
 70
     0
300
1:10
140
1.0
141
10.0
290
     0
  0
SCALE
  5
5007
102
{ACAD_REACTORS
330
5000
102
}
330
5000
100
AcDbScale
 70
     0
300
1:16
140
1.0
141
16.0
290
     0
  0
SCALE
  5
5008
102
{ACAD_REACTORS
330
5000
102
}
330
5000
100
AcDbScale
 70
     0
300
1:20
140
1.0
141
20.0
290
     0
  0
SCALE
  5
5009
102
{ACAD_REACTORS
330
5000
102
}
330
5000
100
AcDbScale
 70
     0
300
1:30
140
1.0
141
30.0
290
     0
  0
SCALE
  5
500A
102
{ACAD_REACTORS
330
5000
102
}
330
5000
100
AcDbScale
 70
     0
300
1:40
140
1.0
141
40.0
290
     0
  0
SCALE
  5
500B
102
{ACAD_REACTORS
330
5000
102
}
330
5000
100
AcDbScale
 70
     0
300
1:50
140
1.0
141
50.0
290
     0
  0
SCALE
  5
500C
102
{ACAD_REACTORS
330
5000
102
}
330
5000
100
AcDbScale
 70
     0
300
1:100
140
1.0
141
100.0
290
     0
  0
SCALE
  5
500D
102
{ACAD_REACTORS
330
5000
102
}
330
5000
100
AcDbScale
 70
     0
300
2:1
140
2.0
141
1.0
290
     0
  0
SCALE
  5
500E
102
{ACAD_REACTORS
330
5000
102
}
330
5000
100
AcDbScale
 70
     0
300
4:1
140
4.0
141
1.0
290
     0
  0
SCALE
  5
500F
102
{ACAD_REACTORS
330
5000
102
}
330
5000
100
AcDbScale
 70
     0
300
8:1
140
8.0
141
1.0
290
     0
  0
SCALE
  5
5010
102
{ACAD_REACTORS
330
5000
102
}
330
5000
100
AcDbScale
 70
     0
300
10:1
140
10.0
141
1.0
290
     0
  0
SCALE
  5
5011
102
{ACAD_REACTORS
330
5000
102
}
330
5000
100
AcDbScale
 70
     0
300
100:1
140
100.0
141
1.0
290
     0
  0
SCALE
  5
5012
102
{ACAD_REACTORS
330
5000
102
}
330
5000
100
AcDbScale
 70
     0
300
1/128" = 1'-0"
140
0.0078125
141
12.0
290
     0
  0
SCALE
  5
5013
102
{ACAD_REACTORS
330
5000
102
}
330
5000
100
AcDbScale
 70
     0
300
1/64" = 1'-0"
140
0.015625
141
12.0
290
     0
  0
SCALE
  5
5014
102
{ACAD_REACTORS
330
5000
102
}
330
5000
100
AcDbScale
 70
     0
300
1/32" = 1'-0"
140
0.03125
141
12.0
290
     0
  0
SCALE
  5
5015
102
{ACAD_REACTORS
330
5000
102
}
330
5000
100
AcDbScale
 70
     0
300
1/16" = 1'-0"
140
0.0625
141
12.0
290
     0
  0
SCALE
  5
5016
102
{ACAD_REACTORS
330
5000
102
}
330
5000
100
AcDbScale
 70
     0
300
3/32" = 1'-0"
140
0.09375
141
12.0
290
     0
  0
SCALE
  5
5017
102
{ACAD_REACTORS
330
5000
102
}
330
5000
100
AcDbScale
 70
     0
300
1/8" = 1'-0"
140
0.125
141
12.0
290
     0
  0
SCALE
  5
5018
102
{ACAD_REACTORS
330
5000
102
}
330
5000
100
AcDbScale
 70
     0
300
3/16" = 1'-0"
140
0.1875
141
12.0
290
     0
  0
SCALE
  5
5019
102
{ACAD_REACTORS
330
5000
102
}
330
5000
100
AcDbScale
 70
     0
300
1/4" = 1'-0"
140
0.25
141
12.0
290
     0
  0
SCALE
  5
501A
102
{ACAD_REACTORS
330
5000
102
}
330
5000
100
AcDbScale
 70
     0
300
3/8" = 1'-0"
140
0.375
141
12.0
290
     0
  0
SCALE
  5
501B
102
{ACAD_REACTORS
330
5000
102
}
330
5000
100
AcDbScale
 70
     0
300
1/2" = 1'-0"
140
0.5
141
12.0
290
     0
  0
SCALE
  5
501C
102
{ACAD_REACTORS
330
5000
102
}
330
5000
100
AcDbScale
 70
     0
300
3/4" = 1'-0"
140
0.75
141
12.0
290
     0
  0
SCALE
  5
501D
102
{ACAD_REACTORS
330
5000
102
}
330
5000
100
AcDbScale
 70
     0
300
1" = 1'-0"
140
1.0
141
12.0
290
     0
  0
SCALE
  5
501E
102
{ACAD_REACTORS
330
5000
102
}
330
5000
100
AcDbScale
 70
     0
300
1-1/2" = 1'-0"
140
1.5
141
12.0
290
     0
  0
SCALE
  5
501F
102
{ACAD_REACTORS
330
5000
102
}
330
5000
100
AcDbScale
 70
     0
300
3" = 1'-0"
140
3.0
141
12.0
290
     0
  0
SCALE
  5
5020
102
{ACAD_REACTORS
330
5000
102
}
330
5000
100
AcDbScale
 70
     0
300
6" = 1'-0"
140
6.0
141
12.0
290
     0
  0
SCALE
  5
5021
102
{ACAD_REACTORS
330
5000
102
}
330
5000
100
AcDbScale
 70
     0
300
1'-0" = 1'-0"
140
12.0
141
12.0
290
     0
  0
TABLESTYLE
  5
4FFF
102
{ACAD_XDICTIONARY
360
50D6
102
}
102
{ACAD_REACTORS
330
4FE3
102
}
330
4FE3
100
AcDbTableStyle
  3
Standard
 70
     0
 71
     0
 40
0.06
 41
0.06
280
     0
281
     0
  7
Standard
140
0.18
170
     2
 62
     0
 63
     7
283
     0
 90
      512
 91
        0
  1

274
    -2
284
     1
 64
     0
275
    -2
285
     1
 65
     0
276
    -2
286
     1
 66
     0
277
    -2
287
     1
 67
     0
278
    -2
288
     1
 68
     0
279
    -2
289
     1
 69
     0
  7
Standard
140
0.25
170
     5
 62
     0
 63
     7
283
     0
 90
      512
 91
        0
  1

274
    -2
284
     1
 64
     0
275
    -2
285
     1
 65
     0
276
    -2
286
     1
 66
     0
277
    -2
287
     1
 67
     0
278
    -2
288
     1
 68
     0
279
    -2
289
     1
 69
     0
  7
Standard
140
0.18
170
     5
 62
     0
 63
     7
283
     0
 90
      512
 91
        0
  1

274
    -2
284
     1
 64
     0
275
    -2
285
     1
 65
     0
276
    -2
286
     1
 66
     0
277
    -2
287
     1
 67
     0
278
    -2
288
     1
 68
     0
279
    -2
289
     1
 69
     0
  0
VISUALSTYLE
  5
2F
102
{ACAD_REACTORS
330
2A
102
}
330
2A
100
AcDbVisualStyle
  2
2dWireframe
 70
     4
 71
     0
 72
     2
 73
     0
 90
        0
 40
-0.6
 41
-30.0
 62
     5
 63
     7
 74
     1
 91
        4
 64
     7
 65
   257
 75
     1
175
     1
 42
1.0
 92
        0
 66
   257
 43
1.0
 76
     1
 77
     6
 78
     2
 67
     7
 79
     5
170
     0
171
     0
290
     0
174
     0
 93
        1
 44
0.0
173
     0
291
     0
 45
0.0
1001
ACAD
1000
AcDbSavedByObjectVersion
1070
     0
1000
AcDbSavedByObjectVersion
1070
     0
1000
AcDbSavedByObjectVersion
1070
     0
1000
AcDbSavedByObjectVersion
1070
     0
1000
AcDbSavedByObjectVersion
1070
     0
1000
AcDbSavedByObjectVersion
1070
     0
1000
AcDbSavedByObjectVersion
1070
     0
1000
AcDbSavedByObjectVersion
1070
     0
1000
AcDbSavedByObjectVersion
1070
     0
1000
AcDbSavedByObjectVersion
1070
     0
1000
AcDbSavedByObjectVersion
1070
     0
1000
AcDbSavedByObjectVersion
1070
     0
1000
AcDbSavedByObjectVersion
1070
     0
1000
AcDbSavedByObjectVersion
1070
     0
1000
AcDbSavedByObjectVersion
1070
     0
1000
AcDbSavedByObjectVersion
1070
     0
1000
AcDbSavedByObjectVersion
1070
     0
1000
AcDbSavedByObjectVersion
1070
     0
1000
AcDbSavedByObjectVersion
1070
     0
1000
AcDbSavedByObjectVersion
1070
     0
1000
AcDbSavedByObjectVersion
1070
     0
1000
AcDbSavedByObjectVersion
1070
     0
1000
AcDbSavedByObjectVersion
1070
     0
1000
AcDbSavedByObjectVersion
1070
     0
1000
AcDbSavedByObjectVersion
1070
     0
1000
AcDbSavedByObjectVersion
1070
     0
1000
AcDbSavedByObjectVersion
1070
     0
1000
AcDbSavedByObjectVersion
1070
     0
1000
AcDbSavedByObjectVersion
1070
     0
1000
AcDbSavedByObjectVersion
1070
     0
1000
AcDbSavedByObjectVersion
1070
     0
1000
AcDbSavedByObjectVersion
1070
     0
1000
AcDbSavedByObjectVersion
1070
     0
1000
AcDbSavedByObjectVersion
1070
     0
1000
AcDbSavedByObjectVersion
1070
     0
1000
AcDbSavedByObjectVersion
1070
     0
1000
AcDbSavedByObjectVersion
1070
     0
1000
AcDbSavedByObjectVersion
1070
     0
1000
AcDbSavedByObjectVersion
1070
     0
1000
AcDbSavedByObjectVersion
1070
     0
1000
AcDbSavedByObjectVersion
1070
     0
1000
AcDbSavedByObjectVersion
1070
     0
1000
AcDbSavedByObjectVersion
1070
     0
1000
AcDbSavedByObjectVersion
1070
     0
1000
AcDbSavedByObjectVersion
1070
     0
1000
AcDbSavedByObjectVersion
1070
     0
1000
AcDbSavedByObjectVersion
1070
     0
1000
AcDbSavedByObjectVersion
1070
     0
1000
AcDbSavedByObjectVersion
1070
     0
  0
VISUALSTYLE
  5
31
102
{ACAD_REACTORS
330
2A
102
}
330
2A
100
AcDbVisualStyle
  2
3D Hidden
 70
     6
 71
     1
 72
     2
 73
     2
 90
        0
 40
-0.6
 41
-30.0
 62
     5
 63
     7
 74
     2
 91
        2
 64
     7
 65
   257
 75
     2
175
     1
 42
40.0
 92
        0
 66
   257
 43
1.0
 76
     1
 77
     6
 78
     2
 67
     7
 79
     3
170
     0
171
     0
290
     0
174
     0
 93
        1
 44
0.0
173
     0
291
     0
 45
0.0
1001
ACAD
1000
AcDbSavedByObjectVersion
1070
     0
1000
AcDbSavedByObjectVersion
1070
     0
1000
AcDbSavedByObjectVersion
1070
     0
1000
AcDbSavedByObjectVersion
1070
     0
1000
AcDbSavedByObjectVersion
1070
     0
1000
AcDbSavedByObjectVersion
1070
     0
1000
AcDbSavedByObjectVersion
1070
     0
1000
AcDbSavedByObjectVersion
1070
     0
1000
AcDbSavedByObjectVersion
1070
     0
1000
AcDbSavedByObjectVersion
1070
     0
1000
AcDbSavedByObjectVersion
1070
     0
1000
AcDbSavedByObjectVersion
1070
     0
1000
AcDbSavedByObjectVersion
1070
     0
1000
AcDbSavedByObjectVersion
1070
     0
1000
AcDbSavedByObjectVersion
1070
     0
1000
AcDbSavedByObjectVersion
1070
     0
1000
AcDbSavedByObjectVersion
1070
     0
1000
AcDbSavedByObjectVersion
1070
     0
1000
AcDbSavedByObjectVersion
1070
     0
1000
AcDbSavedByObjectVersion
1070
     0
1000
AcDbSavedByObjectVersion
1070
     0
1000
AcDbSavedByObjectVersion
1070
     0
1000
AcDbSavedByObjectVersion
1070
     0
1000
AcDbSavedByObjectVersion
1070
     0
1000
AcDbSavedByObjectVersion
1070
     0
1000
AcDbSavedByObjectVersion
1070
     0
1000
AcDbSavedByObjectVersion
1070
     0
1000
AcDbSavedByObjectVersion
1070
     0
1000
AcDbSavedByObjectVersion
1070
     0
1000
AcDbSavedByObjectVersion
1070
     0
1000
AcDbSavedByObjectVersion
1070
     0
1000
AcDbSavedByObjectVersion
1070
     0
1000
AcDbSavedByObjectVersion
1070
     0
1000
AcDbSavedByObjectVersion
1070
     0
1000
AcDbSavedByObjectVersion
1070
     0
1000
AcDbSavedByObjectVersion
1070
     0
1000
AcDbSavedByObjectVersion
1070
     0
1000
AcDbSavedByObjectVersion
1070
     0
1000
AcDbSavedByObjectVersion
1070
     0
1000
AcDbSavedByObjectVersion
1070
     0
1000
AcDbSavedByObjectVersion
1070
     0
1000
AcDbSavedByObjectVersion
1070
     0
1000
AcDbSavedByObjectVersion
1070
     0
1000
AcDbSavedByObjectVersion
1070
     0
1000
AcDbSavedByObjectVersion
1070
     0
1000
AcDbSavedByObjectVersion
1070
     0
1000
AcDbSavedByObjectVersion
1070
     0
1000
AcDbSavedByObjectVersion
1070
     0
1000
AcDbSavedByObjectVersion
1070
     0
  0
VISUALSTYLE
  5
30
102
{ACAD_REACTORS
330
2A
102
}
330
2A
100
AcDbVisualStyle
  2
3dWireframe
 70
     5
 71
     0
 72
     2
 73
     0
 90
        0
 40
-0.6
 41
-30.0
 62
     5
 63
     7
 74
     1
 91
        4
 64
     7
 65
   257
 75
     1
175
     1
 42
1.0
 92
        0
 66
   257
 43
1.0
 76
     1
 77
     6
 78
     2
 67
     7
 79
     5
170
     0
171
     0
290
     0
174
     0
 93
        1
 44
0.0
173
     0
291
     0
 45
0.0
1001
ACAD
1000
AcDbSavedByObjectVersion
1070
     0
1000
AcDbSavedByObjectVersion
1070
     0
1000
AcDbSavedByObjectVersion
1070
     0
1000
AcDbSavedByObjectVersion
1070
     0
1000
AcDbSavedByObjectVersion
1070
     0
1000
AcDbSavedByObjectVersion
1070
     0
1000
AcDbSavedByObjectVersion
1070
     0
1000
AcDbSavedByObjectVersion
1070
     0
1000
AcDbSavedByObjectVersion
1070
     0
1000
AcDbSavedByObjectVersion
1070
     0
1000
AcDbSavedByObjectVersion
1070
     0
1000
AcDbSavedByObjectVersion
1070
     0
1000
AcDbSavedByObjectVersion
1070
     0
1000
AcDbSavedByObjectVersion
1070
     0
1000
AcDbSavedByObjectVersion
1070
     0
1000
AcDbSavedByObjectVersion
1070
     0
1000
AcDbSavedByObjectVersion
1070
     0
1000
AcDbSavedByObjectVersion
1070
     0
1000
AcDbSavedByObjectVersion
1070
     0
1000
AcDbSavedByObjectVersion
1070
     0
1000
AcDbSavedByObjectVersion
1070
     0
1000
AcDbSavedByObjectVersion
1070
     0
1000
AcDbSavedByObjectVersion
1070
     0
1000
AcDbSavedByObjectVersion
1070
     0
1000
AcDbSavedByObjectVersion
1070
     0
1000
AcDbSavedByObjectVersion
1070
     0
1000
AcDbSavedByObjectVersion
1070
     0
1000
AcDbSavedByObjectVersion
1070
     0
1000
AcDbSavedByObjectVersion
1070
     0
1000
AcDbSavedByObjectVersion
1070
     0
1000
AcDbSavedByObjectVersion
1070
     0
1000
AcDbSavedByObjectVersion
1070
     0
1000
AcDbSavedByObjectVersion
1070
     0
1000
AcDbSavedByObjectVersion
1070
     0
1000
AcDbSavedByObjectVersion
1070
     0
1000
AcDbSavedByObjectVersion
1070
     0
1000
AcDbSavedByObjectVersion
1070
     0
1000
AcDbSavedByObjectVersion
1070
     0
1000
AcDbSavedByObjectVersion
1070
     0
1000
AcDbSavedByObjectVersion
1070
     0
1000
AcDbSavedByObjectVersion
1070
     0
1000
AcDbSavedByObjectVersion
1070
     0
1000
AcDbSavedByObjectVersion
1070
     0
1000
AcDbSavedByObjectVersion
1070
     0
1000
AcDbSavedByObjectVersion
1070
     0
1000
AcDbSavedByObjectVersion
1070
     0
1000
AcDbSavedByObjectVersion
1070
     0
1000
AcDbSavedByObjectVersion
1070
     0
1000
AcDbSavedByObjectVersion
1070
     0
  0
VISUALSTYLE
  5
32
102
{ACAD_REACTORS
330
2A
102
}
330
2A
100
AcDbVisualStyle
  2
Basic
 70
     7
 71
     1
 72
     0
 73
     1
 90
        0
 40
-0.6
 41
-30.0
 62
     5
 63
     7
 74
     0
 91
        4
 64
     7
 65
   257
 75
     1
175
     1
 42
1.0
 92
        8
 66
     7
 43
1.0
 76
     1
 77
     6
 78
     2
 67
     7
 79
     5
170
     0
171
     0
290
     0
174
     0
 93
        1
 44
0.0
173
     0
291
     1
 45
0.0
1001
ACAD
1000
AcDbSavedByObjectVersion
1070
     0
1000
AcDbSavedByObjectVersion
1070
     0
1000
AcDbSavedByObjectVersion
1070
     0
1000
AcDbSavedByObjectVersion
1070
     0
1000
AcDbSavedByObjectVersion
1070
     0
1000
AcDbSavedByObjectVersion
1070
     0
1000
AcDbSavedByObjectVersion
1070
     0
1000
AcDbSavedByObjectVersion
1070
     0
1000
AcDbSavedByObjectVersion
1070
     0
1000
AcDbSavedByObjectVersion
1070
     0
1000
AcDbSavedByObjectVersion
1070
     0
1000
AcDbSavedByObjectVersion
1070
     0
1000
AcDbSavedByObjectVersion
1070
     0
1000
AcDbSavedByObjectVersion
1070
     0
1000
AcDbSavedByObjectVersion
1070
     0
1000
AcDbSavedByObjectVersion
1070
     0
1000
AcDbSavedByObjectVersion
1070
     0
1000
AcDbSavedByObjectVersion
1070
     0
1000
AcDbSavedByObjectVersion
1070
     0
1000
AcDbSavedByObjectVersion
1070
     0
1000
AcDbSavedByObjectVersion
1070
     0
1000
AcDbSavedByObjectVersion
1070
     0
1000
AcDbSavedByObjectVersion
1070
     0
1000
AcDbSavedByObjectVersion
1070
     0
1000
AcDbSavedByObjectVersion
1070
     0
1000
AcDbSavedByObjectVersion
1070
     0
1000
AcDbSavedByObjectVersion
1070
     0
1000
AcDbSavedByObjectVersion
1070
     0
1000
AcDbSavedByObjectVersion
1070
     0
1000
AcDbSavedByObjectVersion
1070
     0
1000
AcDbSavedByObjectVersion
1070
     0
1000
AcDbSavedByObjectVersion
1070
     0
1000
AcDbSavedByObjectVersion
1070
     0
1000
AcDbSavedByObjectVersion
1070
     0
1000
AcDbSavedByObjectVersion
1070
     0
1000
AcDbSavedByObjectVersion
1070
     0
1000
AcDbSavedByObjectVersion
1070
     0
1000
AcDbSavedByObjectVersion
1070
     0
1000
AcDbSavedByObjectVersion
1070
     0
1000
AcDbSavedByObjectVersion
1070
     0
1000
AcDbSavedByObjectVersion
1070
     0
1000
AcDbSavedByObjectVersion
1070
     0
1000
AcDbSavedByObjectVersion
1070
     0
1000
AcDbSavedByObjectVersion
1070
     0
1000
AcDbSavedByObjectVersion
1070
     0
1000
AcDbSavedByObjectVersion
1070
     0
1000
AcDbSavedByObjectVersion
1070
     0
1000
AcDbSavedByObjectVersion
1070
     0
1000
AcDbSavedByObjectVersion
1070
     0
  0
VISUALSTYLE
  5
36
102
{ACAD_REACTORS
330
2A
102
}
330
2A
100
AcDbVisualStyle
  2
Brighten
 70
    12
 71
     2
 72
     2
 73
     0
 90
        0
 40
-0.6
 41
-30.0
 62
     5
 63
     7
 74
     1
 91
        4
 64
     7
 65
   257
 75
     1
175
     1
 42
1.0
 92
        8
 66
     7
 43
1.0
 76
     1
 77
     6
 78
     2
 67
     7
 79
     5
170
     0
171
     0
290
     0
174
     0
 93
        1
 44
50.0
173
     0
291
     1
 45
0.0
1001
ACAD
1000
AcDbSavedByObjectVersion
1070
     0
1000
AcDbSavedByObjectVersion
1070
     0
1000
AcDbSavedByObjectVersion
1070
     0
1000
AcDbSavedByObjectVersion
1070
     0
1000
AcDbSavedByObjectVersion
1070
     0
1000
AcDbSavedByObjectVersion
1070
     0
1000
AcDbSavedByObjectVersion
1070
     0
1000
AcDbSavedByObjectVersion
1070
     0
1000
AcDbSavedByObjectVersion
1070
     0
1000
AcDbSavedByObjectVersion
1070
     0
1000
AcDbSavedByObjectVersion
1070
     0
1000
AcDbSavedByObjectVersion
1070
     0
1000
AcDbSavedByObjectVersion
1070
     0
1000
AcDbSavedByObjectVersion
1070
     0
1000
AcDbSavedByObjectVersion
1070
     0
1000
AcDbSavedByObjectVersion
1070
     0
1000
AcDbSavedByObjectVersion
1070
     0
1000
AcDbSavedByObjectVersion
1070
     0
1000
AcDbSavedByObjectVersion
1070
     0
1000
AcDbSavedByObjectVersion
1070
     0
1000
AcDbSavedByObjectVersion
1070
     0
1000
AcDbSavedByObjectVersion
1070
     0
1000
AcDbSavedByObjectVersion
1070
     0
1000
AcDbSavedByObjectVersion
1070
     0
1000
AcDbSavedByObjectVersion
1070
     0
1000
AcDbSavedByObjectVersion
1070
     0
1000
AcDbSavedByObjectVersion
1070
     0
1000
AcDbSavedByObjectVersion
1070
     0
1000
AcDbSavedByObjectVersion
1070
     0
1000
AcDbSavedByObjectVersion
1070
     0
1000
AcDbSavedByObjectVersion
1070
     0
1000
AcDbSavedByObjectVersion
1070
     0
1000
AcDbSavedByObjectVersion
1070
     0
1000
AcDbSavedByObjectVersion
1070
     0
1000
AcDbSavedByObjectVersion
1070
     0
1000
AcDbSavedByObjectVersion
1070
     0
1000
AcDbSavedByObjectVersion
1070
     0
1000
AcDbSavedByObjectVersion
1070
     0
1000
AcDbSavedByObjectVersion
1070
     0
1000
AcDbSavedByObjectVersion
1070
     0
1000
AcDbSavedByObjectVersion
1070
     0
1000
AcDbSavedByObjectVersion
1070
     0
1000
AcDbSavedByObjectVersion
1070
     0
1000
AcDbSavedByObjectVersion
1070
     0
1000
AcDbSavedByObjectVersion
1070
     0
1000
AcDbSavedByObjectVersion
1070
     0
1000
AcDbSavedByObjectVersion
1070
     0
1000
AcDbSavedByObjectVersion
1070
     0
1000
AcDbSavedByObjectVersion
1070
     0
  0
VISUALSTYLE
  5
3A
102
{ACAD_REACTORS
330
2A
102
}
330
2A
100
AcDbVisualStyle
  2
ColorChange
 70
    16
 71
     2
 72
     2
 73
     3
 90
        0
 40
-0.6
 41
-30.0
 62
     5
 63
     8
 74
     1
 91
        4
 64
     7
 65
   257
 75
     1
175
     1
 42
1.0
 92
        8
 66
     8
 43
1.0
 76
     1
 77
     6
 78
     2
 67
     7
 79
     5
170
     0
171
     0
290
     0
174
     0
 93
        1
 44
0.0
173
     0
291
     1
 45
0.0
1001
ACAD
1000
AcDbSavedByObjectVersion
1070
     0
1000
AcDbSavedByObjectVersion
1070
     0
1000
AcDbSavedByObjectVersion
1070
     0
1000
AcDbSavedByObjectVersion
1070
     0
1000
AcDbSavedByObjectVersion
1070
     0
1000
AcDbSavedByObjectVersion
1070
     0
1000
AcDbSavedByObjectVersion
1070
     0
1000
AcDbSavedByObjectVersion
1070
     0
1000
AcDbSavedByObjectVersion
1070
     0
1000
AcDbSavedByObjectVersion
1070
     0
1000
AcDbSavedByObjectVersion
1070
     0
1000
AcDbSavedByObjectVersion
1070
     0
1000
AcDbSavedByObjectVersion
1070
     0
1000
AcDbSavedByObjectVersion
1070
     0
1000
AcDbSavedByObjectVersion
1070
     0
1000
AcDbSavedByObjectVersion
1070
     0
1000
AcDbSavedByObjectVersion
1070
     0
1000
AcDbSavedByObjectVersion
1070
     0
1000
AcDbSavedByObjectVersion
1070
     0
1000
AcDbSavedByObjectVersion
1070
     0
1000
AcDbSavedByObjectVersion
1070
     0
1000
AcDbSavedByObjectVersion
1070
     0
1000
AcDbSavedByObjectVersion
1070
     0
1000
AcDbSavedByObjectVersion
1070
     0
1000
AcDbSavedByObjectVersion
1070
     0
1000
AcDbSavedByObjectVersion
1070
     0
1000
AcDbSavedByObjectVersion
1070
     0
1000
AcDbSavedByObjectVersion
1070
     0
1000
AcDbSavedByObjectVersion
1070
     0
1000
AcDbSavedByObjectVersion
1070
     0
1000
AcDbSavedByObjectVersion
1070
     0
1000
AcDbSavedByObjectVersion
1070
     0
1000
AcDbSavedByObjectVersion
1070
     0
1000
AcDbSavedByObjectVersion
1070
     0
1000
AcDbSavedByObjectVersion
1070
     0
1000
AcDbSavedByObjectVersion
1070
     0
1000
AcDbSavedByObjectVersion
1070
     0
1000
AcDbSavedByObjectVersion
1070
     0
1000
AcDbSavedByObjectVersion
1070
     0
1000
AcDbSavedByObjectVersion
1070
     0
1000
AcDbSavedByObjectVersion
1070
     0
1000
AcDbSavedByObjectVersion
1070
     0
1000
AcDbSavedByObjectVersion
1070
     0
1000
AcDbSavedByObjectVersion
1070
     0
1000
AcDbSavedByObjectVersion
1070
     0
1000
AcDbSavedByObjectVersion
1070
     0
1000
AcDbSavedByObjectVersion
1070
     0
1000
AcDbSavedByObjectVersion
1070
     0
1000
AcDbSavedByObjectVersion
1070
     0
  0
VISUALSTYLE
  5
34
102
{ACAD_REACTORS
330
2A
102
}
330
2A
100
AcDbVisualStyle
  2
Conceptual
 70
     9
 71
     3
 72
     2
 73
     0
 90
        0
 40
-0.6
 41
-30.0
 62
     5
 63
     7
 74
     2
 91
        2
 64
     7
 65
   257
 75
     1
175
     1
 42
40.0
 92
        8
 66
     7
 43
1.0
 76
     1
 77
     6
 78
     2
 67
     7
 79
     3
170
     0
171
     0
290
     0
174
     0
 93
        1
 44
0.0
173
     0
291
     0
 45
0.0
1001
ACAD
1000
AcDbSavedByObjectVersion
1070
     0
1000
AcDbSavedByObjectVersion
1070
     0
1000
AcDbSavedByObjectVersion
1070
     0
1000
AcDbSavedByObjectVersion
1070
     0
1000
AcDbSavedByObjectVersion
1070
     0
1000
AcDbSavedByObjectVersion
1070
     0
1000
AcDbSavedByObjectVersion
1070
     0
1000
AcDbSavedByObjectVersion
1070
     0
1000
AcDbSavedByObjectVersion
1070
     0
1000
AcDbSavedByObjectVersion
1070
     0
1000
AcDbSavedByObjectVersion
1070
     0
1000
AcDbSavedByObjectVersion
1070
     0
1000
AcDbSavedByObjectVersion
1070
     0
1000
AcDbSavedByObjectVersion
1070
     0
1000
AcDbSavedByObjectVersion
1070
     0
1000
AcDbSavedByObjectVersion
1070
     0
1000
AcDbSavedByObjectVersion
1070
     0
1000
AcDbSavedByObjectVersion
1070
     0
1000
AcDbSavedByObjectVersion
1070
     0
1000
AcDbSavedByObjectVersion
1070
     0
1000
AcDbSavedByObjectVersion
1070
     0
1000
AcDbSavedByObjectVersion
1070
     0
1000
AcDbSavedByObjectVersion
1070
     0
1000
AcDbSavedByObjectVersion
1070
     0
1000
AcDbSavedByObjectVersion
1070
     0
1000
AcDbSavedByObjectVersion
1070
     0
1000
AcDbSavedByObjectVersion
1070
     0
1000
AcDbSavedByObjectVersion
1070
     0
1000
AcDbSavedByObjectVersion
1070
     0
1000
AcDbSavedByObjectVersion
1070
     0
1000
AcDbSavedByObjectVersion
1070
     0
1000
AcDbSavedByObjectVersion
1070
     0
1000
AcDbSavedByObjectVersion
1070
     0
1000
AcDbSavedByObjectVersion
1070
     0
1000
AcDbSavedByObjectVersion
1070
     0
1000
AcDbSavedByObjectVersion
1070
     0
1000
AcDbSavedByObjectVersion
1070
     0
1000
AcDbSavedByObjectVersion
1070
     0
1000
AcDbSavedByObjectVersion
1070
     0
1000
AcDbSavedByObjectVersion
1070
     0
1000
AcDbSavedByObjectVersion
1070
     0
1000
AcDbSavedByObjectVersion
1070
     0
1000
AcDbSavedByObjectVersion
1070
     0
1000
AcDbSavedByObjectVersion
1070
     0
1000
AcDbSavedByObjectVersion
1070
     0
1000
AcDbSavedByObjectVersion
1070
     0
1000
AcDbSavedByObjectVersion
1070
     0
1000
AcDbSavedByObjectVersion
1070
     0
1000
AcDbSavedByObjectVersion
1070
     0
  0
VISUALSTYLE
  5
35
102
{ACAD_REACTORS
330
2A
102
}
330
2A
100
AcDbVisualStyle
  2
Dim
 70
    11
 71
     2
 72
     2
 73
     0
 90
        0
 40
-0.6
 41
-30.0
 62
     5
 63
     7
 74
     1
 91
        4
 64
     7
 65
   257
 75
     1
175
     1
 42
1.0
 92
        8
 66
     7
 43
1.0
 76
     1
 77
     6
 78
     2
 67
     7
 79
     5
170
     0
171
     0
290
     0
174
     0
 93
        1
 44
-50.0
173
     0
291
     1
 45
0.0
1001
ACAD
1000
AcDbSavedByObjectVersion
1070
     0
1000
AcDbSavedByObjectVersion
1070
     0
1000
AcDbSavedByObjectVersion
1070
     0
1000
AcDbSavedByObjectVersion
1070
     0
1000
AcDbSavedByObjectVersion
1070
     0
1000
AcDbSavedByObjectVersion
1070
     0
1000
AcDbSavedByObjectVersion
1070
     0
1000
AcDbSavedByObjectVersion
1070
     0
1000
AcDbSavedByObjectVersion
1070
     0
1000
AcDbSavedByObjectVersion
1070
     0
1000
AcDbSavedByObjectVersion
1070
     0
1000
AcDbSavedByObjectVersion
1070
     0
1000
AcDbSavedByObjectVersion
1070
     0
1000
AcDbSavedByObjectVersion
1070
     0
1000
AcDbSavedByObjectVersion
1070
     0
1000
AcDbSavedByObjectVersion
1070
     0
1000
AcDbSavedByObjectVersion
1070
     0
1000
AcDbSavedByObjectVersion
1070
     0
1000
AcDbSavedByObjectVersion
1070
     0
1000
AcDbSavedByObjectVersion
1070
     0
1000
AcDbSavedByObjectVersion
1070
     0
1000
AcDbSavedByObjectVersion
1070
     0
1000
AcDbSavedByObjectVersion
1070
     0
1000
AcDbSavedByObjectVersion
1070
     0
1000
AcDbSavedByObjectVersion
1070
     0
1000
AcDbSavedByObjectVersion
1070
     0
1000
AcDbSavedByObjectVersion
1070
     0
1000
AcDbSavedByObjectVersion
1070
     0
1000
AcDbSavedByObjectVersion
1070
     0
1000
AcDbSavedByObjectVersion
1070
     0
1000
AcDbSavedByObjectVersion
1070
     0
1000
AcDbSavedByObjectVersion
1070
     0
1000
AcDbSavedByObjectVersion
1070
     0
1000
AcDbSavedByObjectVersion
1070
     0
1000
AcDbSavedByObjectVersion
1070
     0
1000
AcDbSavedByObjectVersion
1070
     0
1000
AcDbSavedByObjectVersion
1070
     0
1000
AcDbSavedByObjectVersion
1070
     0
1000
AcDbSavedByObjectVersion
1070
     0
1000
AcDbSavedByObjectVersion
1070
     0
1000
AcDbSavedByObjectVersion
1070
     0
1000
AcDbSavedByObjectVersion
1070
     0
1000
AcDbSavedByObjectVersion
1070
     0
1000
AcDbSavedByObjectVersion
1070
     0
1000
AcDbSavedByObjectVersion
1070
     0
1000
AcDbSavedByObjectVersion
1070
     0
1000
AcDbSavedByObjectVersion
1070
     0
1000
AcDbSavedByObjectVersion
1070
     0
1000
AcDbSavedByObjectVersion
1070
     0
  0
VISUALSTYLE
  5
39
102
{ACAD_REACTORS
330
2A
102
}
330
2A
100
AcDbVisualStyle
  2
Facepattern
 70
    15
 71
     2
 72
     2
 73
     0
 90
        0
 40
-0.6
 41
-30.0
 62
     5
 63
     7
 74
     1
 91
        4
 64
     7
 65
   257
 75
     1
175
     1
 42
1.0
 92
        8
 66
     7
 43
1.0
 76
     1
 77
     6
 78
     2
 67
     7
 79
     5
170
     0
171
     0
290
     0
174
     0
 93
        1
 44
0.0
173
     0
291
     1
 45
0.0
1001
ACAD
1000
AcDbSavedByObjectVersion
1070
     0
1000
AcDbSavedByObjectVersion
1070
     0
1000
AcDbSavedByObjectVersion
1070
     0
1000
AcDbSavedByObjectVersion
1070
     0
1000
AcDbSavedByObjectVersion
1070
     0
1000
AcDbSavedByObjectVersion
1070
     0
1000
AcDbSavedByObjectVersion
1070
     0
1000
AcDbSavedByObjectVersion
1070
     0
1000
AcDbSavedByObjectVersion
1070
     0
1000
AcDbSavedByObjectVersion
1070
     0
1000
AcDbSavedByObjectVersion
1070
     0
1000
AcDbSavedByObjectVersion
1070
     0
1000
AcDbSavedByObjectVersion
1070
     0
1000
AcDbSavedByObjectVersion
1070
     0
1000
AcDbSavedByObjectVersion
1070
     0
1000
AcDbSavedByObjectVersion
1070
     0
1000
AcDbSavedByObjectVersion
1070
     0
1000
AcDbSavedByObjectVersion
1070
     0
1000
AcDbSavedByObjectVersion
1070
     0
1000
AcDbSavedByObjectVersion
1070
     0
1000
AcDbSavedByObjectVersion
1070
     0
1000
AcDbSavedByObjectVersion
1070
     0
1000
AcDbSavedByObjectVersion
1070
     0
1000
AcDbSavedByObjectVersion
1070
     0
1000
AcDbSavedByObjectVersion
1070
     0
1000
AcDbSavedByObjectVersion
1070
     0
1000
AcDbSavedByObjectVersion
1070
     0
1000
AcDbSavedByObjectVersion
1070
     0
1000
AcDbSavedByObjectVersion
1070
     0
1000
AcDbSavedByObjectVersion
1070
     0
1000
AcDbSavedByObjectVersion
1070
     0
1000
AcDbSavedByObjectVersion
1070
     0
1000
AcDbSavedByObjectVersion
1070
     0
1000
AcDbSavedByObjectVersion
1070
     0
1000
AcDbSavedByObjectVersion
1070
     0
1000
AcDbSavedByObjectVersion
1070
     0
1000
AcDbSavedByObjectVersion
1070
     0
1000
AcDbSavedByObjectVersion
1070
     0
1000
AcDbSavedByObjectVersion
1070
     0
1000
AcDbSavedByObjectVersion
1070
     0
1000
AcDbSavedByObjectVersion
1070
     0
1000
AcDbSavedByObjectVersion
1070
     0
1000
AcDbSavedByObjectVersion
1070
     0
1000
AcDbSavedByObjectVersion
1070
     0
1000
AcDbSavedByObjectVersion
1070
     0
1000
AcDbSavedByObjectVersion
1070
     0
1000
AcDbSavedByObjectVersion
1070
     0
1000
AcDbSavedByObjectVersion
1070
     0
1000
AcDbSavedByObjectVersion
1070
     0
  0
VISUALSTYLE
  5
2B
102
{ACAD_REACTORS
330
2A
102
}
330
2A
100
AcDbVisualStyle
  2
Flat
 70
     0
 71
     2
 72
     1
 73
     1
 90
        2
 40
-0.6
 41
30.0
 62
     5
 63
     7
 74
     0
 91
        4
 64
     7
 65
   257
 75
     1
175
     1
 42
1.0
 92
        8
 66
     7
 43
1.0
 76
     1
 77
     6
 78
     2
 67
     7
 79
     5
170
     0
171
     0
290
     0
174
     0
 93
       13
 44
0.0
173
     0
291
     1
 45
0.0
1001
ACAD
1000
AcDbSavedByObjectVersion
1070
     0
1000
AcDbSavedByObjectVersion
1070
     0
1000
AcDbSavedByObjectVersion
1070
     0
1000
AcDbSavedByObjectVersion
1070
     0
1000
AcDbSavedByObjectVersion
1070
     0
1000
AcDbSavedByObjectVersion
1070
     0
1000
AcDbSavedByObjectVersion
1070
     0
1000
AcDbSavedByObjectVersion
1070
     0
1000
AcDbSavedByObjectVersion
1070
     0
1000
AcDbSavedByObjectVersion
1070
     0
1000
AcDbSavedByObjectVersion
1070
     0
1000
AcDbSavedByObjectVersion
1070
     0
1000
AcDbSavedByObjectVersion
1070
     0
1000
AcDbSavedByObjectVersion
1070
     0
1000
AcDbSavedByObjectVersion
1070
     0
1000
AcDbSavedByObjectVersion
1070
     0
1000
AcDbSavedByObjectVersion
1070
     0
1000
AcDbSavedByObjectVersion
1070
     0
1000
AcDbSavedByObjectVersion
1070
     0
1000
AcDbSavedByObjectVersion
1070
     0
1000
AcDbSavedByObjectVersion
1070
     0
1000
AcDbSavedByObjectVersion
1070
     0
1000
AcDbSavedByObjectVersion
1070
     0
1000
AcDbSavedByObjectVersion
1070
     0
1000
AcDbSavedByObjectVersion
1070
     0
1000
AcDbSavedByObjectVersion
1070
     0
1000
AcDbSavedByObjectVersion
1070
     0
1000
AcDbSavedByObjectVersion
1070
     0
1000
AcDbSavedByObjectVersion
1070
     0
1000
AcDbSavedByObjectVersion
1070
     0
1000
AcDbSavedByObjectVersion
1070
     0
1000
AcDbSavedByObjectVersion
1070
     0
1000
AcDbSavedByObjectVersion
1070
     0
1000
AcDbSavedByObjectVersion
1070
     0
1000
AcDbSavedByObjectVersion
1070
     0
1000
AcDbSavedByObjectVersion
1070
     0
1000
AcDbSavedByObjectVersion
1070
     0
1000
AcDbSavedByObjectVersion
1070
     0
1000
AcDbSavedByObjectVersion
1070
     0
1000
AcDbSavedByObjectVersion
1070
     0
1000
AcDbSavedByObjectVersion
1070
     0
1000
AcDbSavedByObjectVersion
1070
     0
1000
AcDbSavedByObjectVersion
1070
     0
1000
AcDbSavedByObjectVersion
1070
     0
1000
AcDbSavedByObjectVersion
1070
     0
1000
AcDbSavedByObjectVersion
1070
     0
1000
AcDbSavedByObjectVersion
1070
     0
1000
AcDbSavedByObjectVersion
1070
     0
1000
AcDbSavedByObjectVersion
1070
     0
  0
VISUALSTYLE
  5
2C
102
{ACAD_REACTORS
330
2A
102
}
330
2A
100
AcDbVisualStyle
  2
FlatWithEdges
 70
     1
 71
     2
 72
     1
 73
     1
 90
        2
 40
-0.6
 41
30.0
 62
     5
 63
     7
 74
     1
 91
        4
 64
     7
 65
   257
 75
     1
175
     1
 42
1.0
 92
        0
 66
   257
 43
1.0
 76
     1
 77
     6
 78
     2
 67
     7
 79
     5
170
     0
171
     0
290
     0
174
     0
 93
       13
 44
0.0
173
     0
291
     1
 45
0.0
1001
ACAD
1000
AcDbSavedByObjectVersion
1070
     0
1000
AcDbSavedByObjectVersion
1070
     0
1000
AcDbSavedByObjectVersion
1070
     0
1000
AcDbSavedByObjectVersion
1070
     0
1000
AcDbSavedByObjectVersion
1070
     0
1000
AcDbSavedByObjectVersion
1070
     0
1000
AcDbSavedByObjectVersion
1070
     0
1000
AcDbSavedByObjectVersion
1070
     0
1000
AcDbSavedByObjectVersion
1070
     0
1000
AcDbSavedByObjectVersion
1070
     0
1000
AcDbSavedByObjectVersion
1070
     0
1000
AcDbSavedByObjectVersion
1070
     0
1000
AcDbSavedByObjectVersion
1070
     0
1000
AcDbSavedByObjectVersion
1070
     0
1000
AcDbSavedByObjectVersion
1070
     0
1000
AcDbSavedByObjectVersion
1070
     0
1000
AcDbSavedByObjectVersion
1070
     0
1000
AcDbSavedByObjectVersion
1070
     0
1000
AcDbSavedByObjectVersion
1070
     0
1000
AcDbSavedByObjectVersion
1070
     0
1000
AcDbSavedByObjectVersion
1070
     0
1000
AcDbSavedByObjectVersion
1070
     0
1000
AcDbSavedByObjectVersion
1070
     0
1000
AcDbSavedByObjectVersion
1070
     0
1000
AcDbSavedByObjectVersion
1070
     0
1000
AcDbSavedByObjectVersion
1070
     0
1000
AcDbSavedByObjectVersion
1070
     0
1000
AcDbSavedByObjectVersion
1070
     0
1000
AcDbSavedByObjectVersion
1070
     0
1000
AcDbSavedByObjectVersion
1070
     0
1000
AcDbSavedByObjectVersion
1070
     0
1000
AcDbSavedByObjectVersion
1070
     0
1000
AcDbSavedByObjectVersion
1070
     0
1000
AcDbSavedByObjectVersion
1070
     0
1000
AcDbSavedByObjectVersion
1070
     0
1000
AcDbSavedByObjectVersion
1070
     0
1000
AcDbSavedByObjectVersion
1070
     0
1000
AcDbSavedByObjectVersion
1070
     0
1000
AcDbSavedByObjectVersion
1070
     0
1000
AcDbSavedByObjectVersion
1070
     0
1000
AcDbSavedByObjectVersion
1070
     0
1000
AcDbSavedByObjectVersion
1070
     0
1000
AcDbSavedByObjectVersion
1070
     0
1000
AcDbSavedByObjectVersion
1070
     0
1000
AcDbSavedByObjectVersion
1070
     0
1000
AcDbSavedByObjectVersion
1070
     0
1000
AcDbSavedByObjectVersion
1070
     0
1000
AcDbSavedByObjectVersion
1070
     0
1000
AcDbSavedByObjectVersion
1070
     0
  0
VISUALSTYLE
  5
2D
102
{ACAD_REACTORS
330
2A
102
}
330
2A
100
AcDbVisualStyle
  2
Gouraud
 70
     2
 71
     2
 72
     2
 73
     1
 90
        2
 40
-0.6
 41
30.0
 62
     5
 63
     7
 74
     0
 91
        4
 64
     7
 65
   257
 75
     1
175
     1
 42
1.0
 92
        0
 66
     7
 43
1.0
 76
     1
 77
     6
 78
     2
 67
     7
 79
     5
170
     0
171
     0
290
     0
174
     0
 93
       13
 44
0.0
173
     0
291
     1
 45
0.0
1001
ACAD
1000
AcDbSavedByObjectVersion
1070
     0
1000
AcDbSavedByObjectVersion
1070
     0
1000
AcDbSavedByObjectVersion
1070
     0
1000
AcDbSavedByObjectVersion
1070
     0
1000
AcDbSavedByObjectVersion
1070
     0
1000
AcDbSavedByObjectVersion
1070
     0
1000
AcDbSavedByObjectVersion
1070
     0
1000
AcDbSavedByObjectVersion
1070
     0
1000
AcDbSavedByObjectVersion
1070
     0
1000
AcDbSavedByObjectVersion
1070
     0
1000
AcDbSavedByObjectVersion
1070
     0
1000
AcDbSavedByObjectVersion
1070
     0
1000
AcDbSavedByObjectVersion
1070
     0
1000
AcDbSavedByObjectVersion
1070
     0
1000
AcDbSavedByObjectVersion
1070
     0
1000
AcDbSavedByObjectVersion
1070
     0
1000
AcDbSavedByObjectVersion
1070
     0
1000
AcDbSavedByObjectVersion
1070
     0
1000
AcDbSavedByObjectVersion
1070
     0
1000
AcDbSavedByObjectVersion
1070
     0
1000
AcDbSavedByObjectVersion
1070
     0
1000
AcDbSavedByObjectVersion
1070
     0
1000
AcDbSavedByObjectVersion
1070
     0
1000
AcDbSavedByObjectVersion
1070
     0
1000
AcDbSavedByObjectVersion
1070
     0
1000
AcDbSavedByObjectVersion
1070
     0
1000
AcDbSavedByObjectVersion
1070
     0
1000
AcDbSavedByObjectVersion
1070
     0
1000
AcDbSavedByObjectVersion
1070
     0
1000
AcDbSavedByObjectVersion
1070
     0
1000
AcDbSavedByObjectVersion
1070
     0
1000
AcDbSavedByObjectVersion
1070
     0
1000
AcDbSavedByObjectVersion
1070
     0
1000
AcDbSavedByObjectVersion
1070
     0
1000
AcDbSavedByObjectVersion
1070
     0
1000
AcDbSavedByObjectVersion
1070
     0
1000
AcDbSavedByObjectVersion
1070
     0
1000
AcDbSavedByObjectVersion
1070
     0
1000
AcDbSavedByObjectVersion
1070
     0
1000
AcDbSavedByObjectVersion
1070
     0
1000
AcDbSavedByObjectVersion
1070
     0
1000
AcDbSavedByObjectVersion
1070
     0
1000
AcDbSavedByObjectVersion
1070
     0
1000
AcDbSavedByObjectVersion
1070
     0
1000
AcDbSavedByObjectVersion
1070
     0
1000
AcDbSavedByObjectVersion
1070
     0
1000
AcDbSavedByObjectVersion
1070
     0
1000
AcDbSavedByObjectVersion
1070
     0
1000
AcDbSavedByObjectVersion
1070
     0
  0
VISUALSTYLE
  5
2E
102
{ACAD_REACTORS
330
2A
102
}
330
2A
100
AcDbVisualStyle
  2
GouraudWithEdges
 70
     3
 71
     2
 72
     2
 73
     1
 90
        2
 40
-0.6
 41
30.0
 62
     5
 63
     7
 74
     1
 91
        4
 64
     7
 65
   257
 75
     1
175
     1
 42
1.0
 92
        0
 66
   257
 43
1.0
 76
     1
 77
     6
 78
     2
 67
     7
 79
     5
170
     0
171
     0
290
     0
174
     0
 93
       13
 44
0.0
173
     0
291
     1
 45
0.0
1001
ACAD
1000
AcDbSavedByObjectVersion
1070
     0
1000
AcDbSavedByObjectVersion
1070
     0
1000
AcDbSavedByObjectVersion
1070
     0
1000
AcDbSavedByObjectVersion
1070
     0
1000
AcDbSavedByObjectVersion
1070
     0
1000
AcDbSavedByObjectVersion
1070
     0
1000
AcDbSavedByObjectVersion
1070
     0
1000
AcDbSavedByObjectVersion
1070
     0
1000
AcDbSavedByObjectVersion
1070
     0
1000
AcDbSavedByObjectVersion
1070
     0
1000
AcDbSavedByObjectVersion
1070
     0
1000
AcDbSavedByObjectVersion
1070
     0
1000
AcDbSavedByObjectVersion
1070
     0
1000
AcDbSavedByObjectVersion
1070
     0
1000
AcDbSavedByObjectVersion
1070
     0
1000
AcDbSavedByObjectVersion
1070
     0
1000
AcDbSavedByObjectVersion
1070
     0
1000
AcDbSavedByObjectVersion
1070
     0
1000
AcDbSavedByObjectVersion
1070
     0
1000
AcDbSavedByObjectVersion
1070
     0
1000
AcDbSavedByObjectVersion
1070
     0
1000
AcDbSavedByObjectVersion
1070
     0
1000
AcDbSavedByObjectVersion
1070
     0
1000
AcDbSavedByObjectVersion
1070
     0
1000
AcDbSavedByObjectVersion
1070
     0
1000
AcDbSavedByObjectVersion
1070
     0
1000
AcDbSavedByObjectVersion
1070
     0
1000
AcDbSavedByObjectVersion
1070
     0
1000
AcDbSavedByObjectVersion
1070
     0
1000
AcDbSavedByObjectVersion
1070
     0
1000
AcDbSavedByObjectVersion
1070
     0
1000
AcDbSavedByObjectVersion
1070
     0
1000
AcDbSavedByObjectVersion
1070
     0
1000
AcDbSavedByObjectVersion
1070
     0
1000
AcDbSavedByObjectVersion
1070
     0
1000
AcDbSavedByObjectVersion
1070
     0
1000
AcDbSavedByObjectVersion
1070
     0
1000
AcDbSavedByObjectVersion
1070
     0
1000
AcDbSavedByObjectVersion
1070
     0
1000
AcDbSavedByObjectVersion
1070
     0
1000
AcDbSavedByObjectVersion
1070
     0
1000
AcDbSavedByObjectVersion
1070
     0
1000
AcDbSavedByObjectVersion
1070
     0
1000
AcDbSavedByObjectVersion
1070
     0
1000
AcDbSavedByObjectVersion
1070
     0
1000
AcDbSavedByObjectVersion
1070
     0
1000
AcDbSavedByObjectVersion
1070
     0
1000
AcDbSavedByObjectVersion
1070
     0
1000
AcDbSavedByObjectVersion
1070
     0
  0
VISUALSTYLE
  5
38
102
{ACAD_REACTORS
330
2A
102
}
330
2A
100
AcDbVisualStyle
  2
Linepattern
 70
    14
 71
     2
 72
     2
 73
     0
 90
        0
 40
-0.6
 41
-30.0
 62
     5
 63
     7
 74
     1
 91
        4
 64
     7
 65
   257
 75
     7
175
     7
 42
1.0
 92
        8
 66
     7
 43
1.0
 76
     1
 77
     6
 78
     2
 67
     7
 79
     5
170
     0
171
     0
290
     0
174
     0
 93
        1
 44
0.0
173
     0
291
     1
 45
0.0
1001
ACAD
1000
AcDbSavedByObjectVersion
1070
     0
1000
AcDbSavedByObjectVersion
1070
     0
1000
AcDbSavedByObjectVersion
1070
     0
1000
AcDbSavedByObjectVersion
1070
     0
1000
AcDbSavedByObjectVersion
1070
     0
1000
AcDbSavedByObjectVersion
1070
     0
1000
AcDbSavedByObjectVersion
1070
     0
1000
AcDbSavedByObjectVersion
1070
     0
1000
AcDbSavedByObjectVersion
1070
     0
1000
AcDbSavedByObjectVersion
1070
     0
1000
AcDbSavedByObjectVersion
1070
     0
1000
AcDbSavedByObjectVersion
1070
     0
1000
AcDbSavedByObjectVersion
1070
     0
1000
AcDbSavedByObjectVersion
1070
     0
1000
AcDbSavedByObjectVersion
1070
     0
1000
AcDbSavedByObjectVersion
1070
     0
1000
AcDbSavedByObjectVersion
1070
     0
1000
AcDbSavedByObjectVersion
1070
     0
1000
AcDbSavedByObjectVersion
1070
     0
1000
AcDbSavedByObjectVersion
1070
     0
1000
AcDbSavedByObjectVersion
1070
     0
1000
AcDbSavedByObjectVersion
1070
     0
1000
AcDbSavedByObjectVersion
1070
     0
1000
AcDbSavedByObjectVersion
1070
     0
1000
AcDbSavedByObjectVersion
1070
     0
1000
AcDbSavedByObjectVersion
1070
     0
1000
AcDbSavedByObjectVersion
1070
     0
1000
AcDbSavedByObjectVersion
1070
     0
1000
AcDbSavedByObjectVersion
1070
     0
1000
AcDbSavedByObjectVersion
1070
     0
1000
AcDbSavedByObjectVersion
1070
     0
1000
AcDbSavedByObjectVersion
1070
     0
1000
AcDbSavedByObjectVersion
1070
     0
1000
AcDbSavedByObjectVersion
1070
     0
1000
AcDbSavedByObjectVersion
1070
     0
1000
AcDbSavedByObjectVersion
1070
     0
1000
AcDbSavedByObjectVersion
1070
     0
1000
AcDbSavedByObjectVersion
1070
     0
1000
AcDbSavedByObjectVersion
1070
     0
1000
AcDbSavedByObjectVersion
1070
     0
1000
AcDbSavedByObjectVersion
1070
     0
1000
AcDbSavedByObjectVersion
1070
     0
1000
AcDbSavedByObjectVersion
1070
     0
1000
AcDbSavedByObjectVersion
1070
     0
1000
AcDbSavedByObjectVersion
1070
     0
1000
AcDbSavedByObjectVersion
1070
     0
1000
AcDbSavedByObjectVersion
1070
     0
1000
AcDbSavedByObjectVersion
1070
     0
1000
AcDbSavedByObjectVersion
1070
     0
  0
VISUALSTYLE
  5
33
102
{ACAD_REACTORS
330
2A
102
}
330
2A
100
AcDbVisualStyle
  2
Realistic
 70
     8
 71
     2
 72
     2
 73
     0
 90
        0
 40
-0.6
 41
-30.0
 62
     5
 63
     7
 74
     1
 91
        0
 64
     7
 65
   257
 75
     1
175
     1
 42
1.0
 92
        8
 66
     8
 43
1.0
 76
     1
 77
     6
 78
     2
 67
     7
 79
     5
170
     0
171
     0
290
     0
174
     0
 93
       13
 44
0.0
173
     0
291
     0
 45
0.0
1001
ACAD
1000
AcDbSavedByObjectVersion
1070
     0
1000
AcDbSavedByObjectVersion
1070
     0
1000
AcDbSavedByObjectVersion
1070
     0
1000
AcDbSavedByObjectVersion
1070
     0
1000
AcDbSavedByObjectVersion
1070
     0
1000
AcDbSavedByObjectVersion
1070
     0
1000
AcDbSavedByObjectVersion
1070
     0
1000
AcDbSavedByObjectVersion
1070
     0
1000
AcDbSavedByObjectVersion
1070
     0
1000
AcDbSavedByObjectVersion
1070
     0
1000
AcDbSavedByObjectVersion
1070
     0
1000
AcDbSavedByObjectVersion
1070
     0
1000
AcDbSavedByObjectVersion
1070
     0
1000
AcDbSavedByObjectVersion
1070
     0
1000
AcDbSavedByObjectVersion
1070
     0
1000
AcDbSavedByObjectVersion
1070
     0
1000
AcDbSavedByObjectVersion
1070
     0
1000
AcDbSavedByObjectVersion
1070
     0
1000
AcDbSavedByObjectVersion
1070
     0
1000
AcDbSavedByObjectVersion
1070
     0
1000
AcDbSavedByObjectVersion
1070
     0
1000
AcDbSavedByObjectVersion
1070
     0
1000
AcDbSavedByObjectVersion
1070
     0
1000
AcDbSavedByObjectVersion
1070
     0
1000
AcDbSavedByObjectVersion
1070
     0
1000
AcDbSavedByObjectVersion
1070
     0
1000
AcDbSavedByObjectVersion
1070
     0
1000
AcDbSavedByObjectVersion
1070
     0
1000
AcDbSavedByObjectVersion
1070
     0
1000
AcDbSavedByObjectVersion
1070
     0
1000
AcDbSavedByObjectVersion
1070
     0
1000
AcDbSavedByObjectVersion
1070
     0
1000
AcDbSavedByObjectVersion
1070
     0
1000
AcDbSavedByObjectVersion
1070
     0
1000
AcDbSavedByObjectVersion
1070
     0
1000
AcDbSavedByObjectVersion
1070
     0
1000
AcDbSavedByObjectVersion
1070
     0
1000
AcDbSavedByObjectVersion
1070
     0
1000
AcDbSavedByObjectVersion
1070
     0
1000
AcDbSavedByObjectVersion
1070
     0
1000
AcDbSavedByObjectVersion
1070
     0
1000
AcDbSavedByObjectVersion
1070
     0
1000
AcDbSavedByObjectVersion
1070
     0
1000
AcDbSavedByObjectVersion
1070
     0
1000
AcDbSavedByObjectVersion
1070
     0
1000
AcDbSavedByObjectVersion
1070
     0
1000
AcDbSavedByObjectVersion
1070
     0
1000
AcDbSavedByObjectVersion
1070
     0
1000
AcDbSavedByObjectVersion
1070
     0
  0
VISUALSTYLE
  5
37
102
{ACAD_REACTORS
330
2A
102
}
330
2A
100
AcDbVisualStyle
  2
Thicken
 70
    13
 71
     2
 72
     2
 73
     0
 90
        0
 40
-0.6
 41
-30.0
 62
     5
 63
     7
 74
     1
 91
        4
 64
     7
 65
   257
 75
     1
175
     1
 42
1.0
 92
       12
 66
     7
 43
1.0
 76
     1
 77
     6
 78
     2
 67
     7
 79
     5
170
     0
171
     0
290
     0
174
     0
 93
        1
 44
0.0
173
     0
291
     1
 45
0.0
1001
ACAD
1000
AcDbSavedByObjectVersion
1070
     0
1000
AcDbSavedByObjectVersion
1070
     0
1000
AcDbSavedByObjectVersion
1070
     0
1000
AcDbSavedByObjectVersion
1070
     0
1000
AcDbSavedByObjectVersion
1070
     0
1000
AcDbSavedByObjectVersion
1070
     0
1000
AcDbSavedByObjectVersion
1070
     0
1000
AcDbSavedByObjectVersion
1070
     0
1000
AcDbSavedByObjectVersion
1070
     0
1000
AcDbSavedByObjectVersion
1070
     0
1000
AcDbSavedByObjectVersion
1070
     0
1000
AcDbSavedByObjectVersion
1070
     0
1000
AcDbSavedByObjectVersion
1070
     0
1000
AcDbSavedByObjectVersion
1070
     0
1000
AcDbSavedByObjectVersion
1070
     0
1000
AcDbSavedByObjectVersion
1070
     0
1000
AcDbSavedByObjectVersion
1070
     0
1000
AcDbSavedByObjectVersion
1070
     0
1000
AcDbSavedByObjectVersion
1070
     0
1000
AcDbSavedByObjectVersion
1070
     0
1000
AcDbSavedByObjectVersion
1070
     0
1000
AcDbSavedByObjectVersion
1070
     0
1000
AcDbSavedByObjectVersion
1070
     0
1000
AcDbSavedByObjectVersion
1070
     0
1000
AcDbSavedByObjectVersion
1070
     0
1000
AcDbSavedByObjectVersion
1070
     0
1000
AcDbSavedByObjectVersion
1070
     0
1000
AcDbSavedByObjectVersion
1070
     0
1000
AcDbSavedByObjectVersion
1070
     0
1000
AcDbSavedByObjectVersion
1070
     0
1000
AcDbSavedByObjectVersion
1070
     0
1000
AcDbSavedByObjectVersion
1070
     0
1000
AcDbSavedByObjectVersion
1070
     0
1000
AcDbSavedByObjectVersion
1070
     0
1000
AcDbSavedByObjectVersion
1070
     0
1000
AcDbSavedByObjectVersion
1070
     0
1000
AcDbSavedByObjectVersion
1070
     0
1000
AcDbSavedByObjectVersion
1070
     0
1000
AcDbSavedByObjectVersion
1070
     0
1000
AcDbSavedByObjectVersion
1070
     0
1000
AcDbSavedByObjectVersion
1070
     0
1000
AcDbSavedByObjectVersion
1070
     0
1000
AcDbSavedByObjectVersion
1070
     0
1000
AcDbSavedByObjectVersion
1070
     0
1000
AcDbSavedByObjectVersion
1070
     0
1000
AcDbSavedByObjectVersion
1070
     0
1000
AcDbSavedByObjectVersion
1070
     0
1000
AcDbSavedByObjectVersion
1070
     0
1000
AcDbSavedByObjectVersion
1070
     0
  0
DICTIONARYVAR
  5
510B
102
{ACAD_REACTORS
330
5108
102
}
330
5108
100
DictionaryVariables
280
     0
  1
1:1
  0
DICTIONARYVAR
  5
510A
102
{ACAD_REACTORS
330
5108
102
}
330
5108
100
DictionaryVariables
280
     0
  1
STANDARD
  0
DICTIONARYVAR
  5
5109
102
{ACAD_REACTORS
330
5108
102
}
330
5108
100
DictionaryVariables
280
     0
  1
STANDARD
  0
DICTIONARYVAR
  5
510E
102
{ACAD_REACTORS
330
5108
102
}
330
5108
100
DictionaryVariables
280
     0
  1
1
  0
DICTIONARYVAR
  5
510D
102
{ACAD_REACTORS
330
5108
102
}
330
5108
100
DictionaryVariables
280
     0
  1
0
  0
DICTIONARYVAR
  5
15C35
102
{ACAD_REACTORS
330
5108
102
}
330
5108
100
DictionaryVariables
280
     0
  1
0
  0
DICTIONARYVAR
  5
15C34
102
{ACAD_REACTORS
330
5108
102
}
330
5108
100
DictionaryVariables
280
     0
  1
0
  0
DICTIONARYVAR
  5
510C
102
{ACAD_REACTORS
330
5108
102
}
330
5108
100
DictionaryVariables
280
     0
  1
127
  0
XRECORD
  5
11ACF
102
{ACAD_REACTORS
330
11ACE
102
}
330
11ACE
100
AcDbXrecord
280
     1
330
12A95
  0
DICTIONARY
  5
4FEF
330
4FEE
100
AcDbDictionary
280
     1
281
     1
  3
ACAD_XREC_ROUNDTRIP
360
7C2C
  3
BUMPTILE
360
4FF1
  3
DIFFUSETILE
360
4FF0
  3
OPACITYTILE
360
4FF4
  3
REFLECTIONTILE
360
4FF3
  3
REFRACTIONTILE
360
4FF5
  3
SPECULARTILE
360
4FF2
  0
DICTIONARY
  5
4FE7
330
4FE6
100
AcDbDictionary
280
     1
281
     1
  3
ACAD_XREC_ROUNDTRIP
360
7C2B
  3
BUMPTILE
360
4FE9
  3
DIFFUSETILE
360
4FE8
  3
OPACITYTILE
360
4FEC
  3
REFLECTIONTILE
360
4FEB
  3
REFRACTIONTILE
360
4FED
  3
SPECULARTILE
360
4FEA
  0
DICTIONARY
  5
4FF7
330
4FF6
100
AcDbDictionary
280
     1
281
     1
  3
ACAD_XREC_ROUNDTRIP
360
7C2D
  3
BUMPTILE
360
4FF9
  3
DIFFUSETILE
360
4FF8
  3
OPACITYTILE
360
4FFC
  3
REFLECTIONTILE
360
4FFB
  3
REFRACTIONTILE
360
4FFD
  3
SPECULARTILE
360
4FFA
  0
DICTIONARY
  5
50D6
330
4FFF
100
AcDbDictionary
280
     1
281
     1
  3
ACAD_ROUNDTRIP_2008_TABLESTYLE_CELLSTYLEMAP
360
15C5E
  0
XRECORD
  5
7C2C
102
{ACAD_REACTORS
330
4FEF
102
}
330
4FEF
100
AcDbXrecord
280
     1
102
MATERIAL
148
0.0
149
0.0
149
0.0
 93
        0
 94
      127
282
     0
 72
     0
 77
     0
171
     0
175
     0
179
     0
273
     0
  0
XRECORD
  5
4FF1
102
{ACAD_REACTORS
330
4FEF
102
}
330
4FEF
100
AcDbXrecord
280
     1
270
     1
271
     1
  0
XRECORD
  5
4FF0
102
{ACAD_REACTORS
330
4FEF
102
}
330
4FEF
100
AcDbXrecord
280
     1
270
     1
271
     1
  0
XRECORD
  5
4FF4
102
{ACAD_REACTORS
330
4FEF
102
}
330
4FEF
100
AcDbXrecord
280
     1
270
     1
271
     1
  0
XRECORD
  5
4FF3
102
{ACAD_REACTORS
330
4FEF
102
}
330
4FEF
100
AcDbXrecord
280
     1
270
     1
271
     1
  0
XRECORD
  5
4FF5
102
{ACAD_REACTORS
330
4FEF
102
}
330
4FEF
100
AcDbXrecord
280
     1
270
     1
271
     1
  0
XRECORD
  5
4FF2
102
{ACAD_REACTORS
330
4FEF
102
}
330
4FEF
100
AcDbXrecord
280
     1
270
     1
271
     1
  0
XRECORD
  5
7C2B
102
{ACAD_REACTORS
330
4FE7
102
}
330
4FE7
100
AcDbXrecord
280
     1
102
MATERIAL
148
0.0
149
0.0
149
0.0
 93
        0
 94
      127
282
     0
 72
     0
 77
     0
171
     0
175
     0
179
     0
273
     0
  0
XRECORD
  5
4FE9
102
{ACAD_REACTORS
330
4FE7
102
}
330
4FE7
100
AcDbXrecord
280
     1
270
     1
271
     1
  0
XRECORD
  5
4FE8
102
{ACAD_REACTORS
330
4FE7
102
}
330
4FE7
100
AcDbXrecord
280
     1
270
     1
271
     1
  0
XRECORD
  5
4FEC
102
{ACAD_REACTORS
330
4FE7
102
}
330
4FE7
100
AcDbXrecord
280
     1
270
     1
271
     1
  0
XRECORD
  5
4FEB
102
{ACAD_REACTORS
330
4FE7
102
}
330
4FE7
100
AcDbXrecord
280
     1
270
     1
271
     1
  0
XRECORD
  5
4FED
102
{ACAD_REACTORS
330
4FE7
102
}
330
4FE7
100
AcDbXrecord
280
     1
270
     1
271
     1
  0
XRECORD
  5
4FEA
102
{ACAD_REACTORS
330
4FE7
102
}
330
4FE7
100
AcDbXrecord
280
     1
270
     1
271
     1
  0
XRECORD
  5
7C2D
102
{ACAD_REACTORS
330
4FF7
102
}
330
4FF7
100
AcDbXrecord
280
     1
102
MATERIAL
148
0.0
149
0.0
149
0.0
 93
        0
 94
      127
282
     0
 72
     0
 77
     0
171
     0
175
     0
179
     0
273
     0
  0
XRECORD
  5
4FF9
102
{ACAD_REACTORS
330
4FF7
102
}
330
4FF7
100
AcDbXrecord
280
     1
270
     1
271
     1
  0
XRECORD
  5
4FF8
102
{ACAD_REACTORS
330
4FF7
102
}
330
4FF7
100
AcDbXrecord
280
     1
270
     1
271
     1
  0
XRECORD
  5
4FFC
102
{ACAD_REACTORS
330
4FF7
102
}
330
4FF7
100
AcDbXrecord
280
     1
270
     1
271
     1
  0
XRECORD
  5
4FFB
102
{ACAD_REACTORS
330
4FF7
102
}
330
4FF7
100
AcDbXrecord
280
     1
270
     1
271
     1
  0
XRECORD
  5
4FFD
102
{ACAD_REACTORS
330
4FF7
102
}
330
4FF7
100
AcDbXrecord
280
     1
270
     1
271
     1
  0
XRECORD
  5
4FFA
102
{ACAD_REACTORS
330
4FF7
102
}
330
4FF7
100
AcDbXrecord
280
     1
270
     1
271
     1
  0
CELLSTYLEMAP
  5
15C5E
102
{ACAD_REACTORS
330
50D6
102
}
330
50D6
100
AcDbCellStyleMap
 90
        3
300
CELLSTYLE
  1
TABLEFORMAT_BEGIN
 90
        5
170
     1
 91
        0
 92
    32768
 62
   257
 93
        1
300
CONTENTFORMAT
  1
CONTENTFORMAT_BEGIN
 90
        0
 91
        0
 92
      512
 93
        0
300

 40
0.0
140
1.0
 94
        5
 62
     0
340
11
144
0.25
309
CONTENTFORMAT_END
171
     1
301
MARGIN
  1
CELLMARGIN_BEGIN
 40
0.06
 40
0.06
 40
0.06
 40
0.06
 40
0.18
 40
0.18
309
CELLMARGIN_END
 94
        6
 95
        1
302
GRIDFORMAT
  1
GRIDFORMAT_BEGIN
 90
        0
 91
        1
 62
     0
 92
       -2
340
0
 93
        0
 40
0.045
309
GRIDFORMAT_END
 95
        2
302
GRIDFORMAT
  1
GRIDFORMAT_BEGIN
 90
        0
 91
        1
 62
     0
 92
       -2
340
0
 93
        0
 40
0.045
309
GRIDFORMAT_END
 95
        4
302
GRIDFORMAT
  1
GRIDFORMAT_BEGIN
 90
        0
 91
        1
 62
     0
 92
       -2
340
0
 93
        0
 40
0.045
309
GRIDFORMAT_END
 95
        8
302
GRIDFORMAT
  1
GRIDFORMAT_BEGIN
 90
        0
 91
        1
 62
     0
 92
       -2
340
0
 93
        0
 40
0.045
309
GRIDFORMAT_END
 95
       16
302
GRIDFORMAT
  1
GRIDFORMAT_BEGIN
 90
        0
 91
        1
 62
     0
 92
       -2
340
0
 93
        0
 40
0.045
309
GRIDFORMAT_END
 95
       32
302
GRIDFORMAT
  1
GRIDFORMAT_BEGIN
 90
        0
 91
        1
 62
     0
 92
       -2
340
0
 93
        0
 40
0.045
309
GRIDFORMAT_END
309
TABLEFORMAT_END
  1
CELLSTYLE_BEGIN
 90
        1
 91
        1
300
_TITLE
309
CELLSTYLE_END
300
CELLSTYLE
  1
TABLEFORMAT_BEGIN
 90
        5
170
     1
 91
        0
 92
        0
 62
   257
 93
        1
300
CONTENTFORMAT
  1
CONTENTFORMAT_BEGIN
 90
        0
 91
        0
 92
      512
 93
        0
300

 40
0.0
140
1.0
 94
        5
 62
     0
340
11
144
0.18
309
CONTENTFORMAT_END
171
     1
301
MARGIN
  1
CELLMARGIN_BEGIN
 40
0.06
 40
0.06
 40
0.06
 40
0.06
 40
0.18
 40
0.18
309
CELLMARGIN_END
 94
        6
 95
        1
302
GRIDFORMAT
  1
GRIDFORMAT_BEGIN
 90
        0
 91
        1
 62
     0
 92
       -2
340
0
 93
        0
 40
0.045
309
GRIDFORMAT_END
 95
        2
302
GRIDFORMAT
  1
GRIDFORMAT_BEGIN
 90
        0
 91
        1
 62
     0
 92
       -2
340
0
 93
        0
 40
0.045
309
GRIDFORMAT_END
 95
        4
302
GRIDFORMAT
  1
GRIDFORMAT_BEGIN
 90
        0
 91
        1
 62
     0
 92
       -2
340
0
 93
        0
 40
0.045
309
GRIDFORMAT_END
 95
        8
302
GRIDFORMAT
  1
GRIDFORMAT_BEGIN
 90
        0
 91
        1
 62
     0
 92
       -2
340
0
 93
        0
 40
0.045
309
GRIDFORMAT_END
 95
       16
302
GRIDFORMAT
  1
GRIDFORMAT_BEGIN
 90
        0
 91
        1
 62
     0
 92
       -2
340
0
 93
        0
 40
0.045
309
GRIDFORMAT_END
 95
       32
302
GRIDFORMAT
  1
GRIDFORMAT_BEGIN
 90
        0
 91
        1
 62
     0
 92
       -2
340
0
 93
        0
 40
0.045
309
GRIDFORMAT_END
309
TABLEFORMAT_END
  1
CELLSTYLE_BEGIN
 90
        2
 91
        1
300
_HEADER
309
CELLSTYLE_END
300
CELLSTYLE
  1
TABLEFORMAT_BEGIN
 90
        5
170
     1
 91
        0
 92
        0
 62
   257
 93
        1
300
CONTENTFORMAT
  1
CONTENTFORMAT_BEGIN
 90
        0
 91
        0
 92
      512
 93
        0
300

 40
0.0
140
1.0
 94
        2
 62
     0
340
11
144
0.18
309
CONTENTFORMAT_END
171
     1
301
MARGIN
  1
CELLMARGIN_BEGIN
 40
0.06
 40
0.06
 40
0.06
 40
0.06
 40
0.18
 40
0.18
309
CELLMARGIN_END
 94
        6
 95
        1
302
GRIDFORMAT
  1
GRIDFORMAT_BEGIN
 90
        0
 91
        1
 62
     0
 92
       -2
340
0
 93
        0
 40
0.045
309
GRIDFORMAT_END
 95
        2
302
GRIDFORMAT
  1
GRIDFORMAT_BEGIN
 90
        0
 91
        1
 62
     0
 92
       -2
340
0
 93
        0
 40
0.045
309
GRIDFORMAT_END
 95
        4
302
GRIDFORMAT
  1
GRIDFORMAT_BEGIN
 90
        0
 91
        1
 62
     0
 92
       -2
340
0
 93
        0
 40
0.045
309
GRIDFORMAT_END
 95
        8
302
GRIDFORMAT
  1
GRIDFORMAT_BEGIN
 90
        0
 91
        1
 62
     0
 92
       -2
340
0
 93
        0
 40
0.045
309
GRIDFORMAT_END
 95
       16
302
GRIDFORMAT
  1
GRIDFORMAT_BEGIN
 90
        0
 91
        1
 62
     0
 92
       -2
340
0
 93
        0
 40
0.045
309
GRIDFORMAT_END
 95
       32
302
GRIDFORMAT
  1
GRIDFORMAT_BEGIN
 90
        0
 91
        1
 62
     0
 92
       -2
340
0
 93
        0
 40
0.045
309
GRIDFORMAT_END
309
TABLEFORMAT_END
  1
CELLSTYLE_BEGIN
 90
        3
 91
        2
300
_DATA
309
CELLSTYLE_END
  0
ENDSEC
  0
EOF
