  0
SECTION
  2
HEADER
  9
$ACADVER
  1
AC1021
  9
$ACADMAINTVER
 70
    25
  9
$DWGCODEPAGE
  3
ANSI_936
  9
$LASTSAVEDBY
  1
zb.ye
  9
$INSBASE
 10
0.0
 20
0.0
 30
0.0
  9
$EXTMIN
 10
763.4390010463221
 20
184.7629524425928
 30
-0.0000000000112498
  9
$EXTMAX
 10
837.7082193793054
 20
237.2777292158648
 30
0.0000000000002956
  9
$LIMMIN
 10
0.0
 20
0.0
  9
$LIMMAX
 10
12.0
 20
9.0
  9
$ORTHOMODE
 70
     0
  9
$REGENMODE
 70
     1
  9
$FILLMODE
 70
     1
  9
$QTEXTMODE
 70
     0
  9
$MIRRTEXT
 70
     1
  9
$LTSCALE
 40
1.0
  9
$ATTMODE
 70
     1
  9
$TEXTSIZE
 40
0.2
  9
$TRACEWID
 40
0.05
  9
$TEXTSTYLE
  7
Standard
  9
$CLAYER
  8
0
  9
$CELTYPE
  6
ByLayer
  9
$CECOLOR
 62
   256
  9
$CELTSCALE
 40
1.0
  9
$DISPSILH
 70
     0
  9
$DIMSCALE
 40
1.0
  9
$DIMASZ
 40
1.5
  9
$DIMEXO
 40
0.2
  9
$DIMDLI
 40
0.2
  9
$DIMRND
 40
0.0
  9
$DIMDLE
 40
0.0
  9
$DIMEXE
 40
0.5
  9
$DIMTP
 40
0.0
  9
$DIMTM
 40
0.0
  9
$DIMTXT
 40
2.0
  9
$DIMCEN
 40
0.0
  9
$DIMTSZ
 40
0.0
  9
$DIMTOL
 70
     0
  9
$DIMLIM
 70
     0
  9
$DIMTIH
 70
     0
  9
$DIMTOH
 70
     0
  9
$DIMSE1
 70
     0
  9
$DIMSE2
 70
     0
  9
$DIMTAD
 70
     1
  9
$DIMZIN
 70
     8
  9
$DIMBLK
  1

  9
$DIMASO
 70
     1
  9
$DIMSHO
 70
     1
  9
$DIMPOST
  1

  9
$DIMAPOST
  1

  9
$DIMALT
 70
     0
  9
$DIMALTD
 70
     2
  9
$DIMALTF
 40
25.4
  9
$DIMLFAC
 40
1.0
  9
$DIMTOFL
 70
     0
  9
$DIMTVP
 40
0.0
  9
$DIMTIX
 70
     0
  9
$DIMSOXD
 70
     0
  9
$DIMSAH
 70
     0
  9
$DIMBLK1
  1

  9
$DIMBLK2
  1

  9
$DIMSTYLE
  2
01
  9
$DIMCLRD
 70
     1
  9
$DIMCLRE
 70
     6
  9
$DIMCLRT
 70
     4
  9
$DIMTFAC
 40
1.0
  9
$DIMGAP
 40
0.5
  9
$DIMJUST
 70
     0
  9
$DIMSD1
 70
     0
  9
$DIMSD2
 70
     0
  9
$DIMTOLJ
 70
     1
  9
$DIMTZIN
 70
     0
  9
$DIMALTZ
 70
     0
  9
$DIMALTTZ
 70
     0
  9
$DIMUPT
 70
     0
  9
$DIMDEC
 70
     1
  9
$DIMTDEC
 70
     1
  9
$DIMALTU
 70
     2
  9
$DIMALTTD
 70
     2
  9
$DIMTXSTY
  7
Romans字体
  9
$DIMAUNIT
 70
     0
  9
$DIMADEC
 70
     2
  9
$DIMALTRND
 40
0.0
  9
$DIMAZIN
 70
     2
  9
$DIMDSEP
 70
    46
  9
$DIMATFIT
 70
     3
  9
$DIMFRAC
 70
     0
  9
$DIMLDRBLK
  1

  9
$DIMLUNIT
 70
     2
  9
$DIMLWD
 70
    -2
  9
$DIMLWE
 70
    -2
  9
$DIMTMOVE
 70
     0
  9
$DIMFXL
 40
1.0
  9
$DIMFXLON
 70
     0
  9
$DIMJOGANG
 40
0.7853981633974483
  9
$DIMTFILL
 70
     0
  9
$DIMTFILLCLR
 70
     0
  9
$DIMARCSYM
 70
     0
  9
$DIMLTYPE
  6

  9
$DIMLTEX1
  6

  9
$DIMLTEX2
  6

  9
$LUNITS
 70
     2
  9
$LUPREC
 70
     4
  9
$SKETCHINC
 40
0.1
  9
$FILLETRAD
 40
0.5
  9
$AUNITS
 70
     0
  9
$AUPREC
 70
     0
  9
$MENU
  1
.
  9
$ELEVATION
 40
0.0
  9
$PELEVATION
 40
0.0
  9
$THICKNESS
 40
0.0
  9
$LIMCHECK
 70
     0
  9
$CHAMFERA
 40
0.5
  9
$CHAMFERB
 40
0.5
  9
$CHAMFERC
 40
1.0
  9
$CHAMFERD
 40
0.0
  9
$SKPOLY
 70
     0
  9
$TDCREATE
 40
2456524.383632987
  9
$TDUCREATE
 40
2456524.050299653
  9
$TDUPDATE
 40
2460286.796745695
  9
$TDUUPDATE
 40
2460286.463412361
  9
$TDINDWG
 40
1.2226770255
  9
$TDUSRTIMER
 40
1.2226581481
  9
$USRTIMER
 70
     1
  9
$ANGBASE
 50
0.0
  9
$ANGDIR
 70
     0
  9
$PDMODE
 70
     0
  9
$PDSIZE
 40
0.0
  9
$PLINEWID
 40
0.0
  9
$SPLFRAME
 70
     0
  9
$SPLINETYPE
 70
     6
  9
$SPLINESEGS
 70
     8
  9
$HANDSEED
  5
5B1
  9
$SURFTAB1
 70
     6
  9
$SURFTAB2
 70
     6
  9
$SURFTYPE
 70
     6
  9
$SURFU
 70
     6
  9
$SURFV
 70
     6
  9
$UCSBASE
  2

  9
$UCSNAME
  2

  9
$UCSORG
 10
0.0
 20
0.0
 30
0.0
  9
$UCSXDIR
 10
1.0
 20
0.0
 30
0.0
  9
$UCSYDIR
 10
0.0
 20
1.0
 30
0.0
  9
$UCSORTHOREF
  2

  9
$UCSORTHOVIEW
 70
     0
  9
$UCSORGTOP
 10
0.0
 20
0.0
 30
0.0
  9
$UCSORGBOTTOM
 10
0.0
 20
0.0
 30
0.0
  9
$UCSORGLEFT
 10
0.0
 20
0.0
 30
0.0
  9
$UCSORGRIGHT
 10
0.0
 20
0.0
 30
0.0
  9
$UCSORGFRONT
 10
0.0
 20
0.0
 30
0.0
  9
$UCSORGBACK
 10
0.0
 20
0.0
 30
0.0
  9
$PUCSBASE
  2

  9
$PUCSNAME
  2

  9
$PUCSORG
 10
0.0
 20
0.0
 30
0.0
  9
$PUCSXDIR
 10
1.0
 20
0.0
 30
0.0
  9
$PUCSYDIR
 10
0.0
 20
1.0
 30
0.0
  9
$PUCSORTHOREF
  2

  9
$PUCSORTHOVIEW
 70
     0
  9
$PUCSORGTOP
 10
0.0
 20
0.0
 30
0.0
  9
$PUCSORGBOTTOM
 10
0.0
 20
0.0
 30
0.0
  9
$PUCSORGLEFT
 10
0.0
 20
0.0
 30
0.0
  9
$PUCSORGRIGHT
 10
0.0
 20
0.0
 30
0.0
  9
$PUCSORGFRONT
 10
0.0
 20
0.0
 30
0.0
  9
$PUCSORGBACK
 10
0.0
 20
0.0
 30
0.0
  9
$USERI1
 70
     0
  9
$USERI2
 70
     0
  9
$USERI3
 70
     0
  9
$USERI4
 70
     0
  9
$USERI5
 70
     0
  9
$USERR1
 40
0.0
  9
$USERR2
 40
0.0
  9
$USERR3
 40
0.0
  9
$USERR4
 40
0.0
  9
$USERR5
 40
0.0
  9
$WORLDVIEW
 70
     1
  9
$SHADEDGE
 70
     3
  9
$SHADEDIF
 70
    70
  9
$TILEMODE
 70
     1
  9
$MAXACTVP
 70
    64
  9
$PINSBASE
 10
0.0
 20
0.0
 30
0.0
  9
$PLIMCHECK
 70
     0
  9
$PEXTMIN
 10
1.000000000000000E+20
 20
1.000000000000000E+20
 30
1.000000000000000E+20
  9
$PEXTMAX
 10
-1.000000000000000E+20
 20
-1.000000000000000E+20
 30
-1.000000000000000E+20
  9
$PLIMMIN
 10
0.0
 20
0.0
  9
$PLIMMAX
 10
12.0
 20
9.0
  9
$UNITMODE
 70
     0
  9
$VISRETAIN
 70
     1
  9
$PLINEGEN
 70
     0
  9
$PSLTSCALE
 70
     1
  9
$TREEDEPTH
 70
  3020
  9
$CMLSTYLE
  2
Standard
  9
$CMLJUST
 70
     0
  9
$CMLSCALE
 40
1.0
  9
$PROXYGRAPHICS
 70
     1
  9
$MEASUREMENT
 70
     0
  9
$CELWEIGHT
370
    -1
  9
$ENDCAPS
280
     0
  9
$JOINSTYLE
280
     0
  9
$LWDISPLAY
290
     0
  9
$INSUNITS
 70
     4
  9
$HYPERLINKBASE
  1

  9
$STYLESHEET
  1
MONOCHROME.CTB
  9
$XEDIT
290
     1
  9
$CEPSNTYPE
380
     0
  9
$PSTYLEMODE
290
     1
  9
$FINGERPRINTGUID
  2
{F4A27396-4AF9-4888-91DA-F314617512B6}
  9
$VERSIONGUID
  2
{43B8583E-07A8-4BD7-BEE2-41256D9393C7}
  9
$EXTNAMES
290
     1
  9
$PSVPSCALE
 40
0.0
  9
$OLESTARTUP
290
     0
  9
$SORTENTS
280
   127
  9
$INDEXCTL
280
     0
  9
$HIDETEXT
280
     1
  9
$XCLIPFRAME
290
     0
  9
$HALOGAP
280
     0
  9
$OBSCOLOR
 70
   257
  9
$OBSLTYPE
280
     0
  9
$INTERSECTIONDISPLAY
280
     0
  9
$INTERSECTIONCOLOR
 70
   257
  9
$DIMASSOC
280
     1
  9
$PROJECTNAME
  1

  9
$CAMERADISPLAY
290
     0
  9
$LENSLENGTH
 40
50.0
  9
$CAMERAHEIGHT
 40
0.0
  9
$STEPSPERSEC
 40
2.0
  9
$STEPSIZE
 40
6.0
  9
$3DDWFPREC
 40
2.0
  9
$PSOLWIDTH
 40
0.25
  9
$PSOLHEIGHT
 40
4.0
  9
$LOFTANG1
 40
1.570795999999999
  9
$LOFTANG2
 40
1.570795999999999
  9
$LOFTMAG1
 40
0.0
  9
$LOFTMAG2
 40
0.0
  9
$LOFTPARAM
 70
     7
  9
$LOFTNORMALS
280
     1
  9
$LATITUDE
 40
37.795
  9
$LONGITUDE
 40
-122.394
  9
$NORTHDIRECTION
 40
0.0
  9
$TIMEZONE
 70
 -8000
  9
$LIGHTGLYPHDISPLAY
280
     1
  9
$TILEMODELIGHTSYNCH
280
     1
  9
$CMATERIAL
347
1E8
  9
$SOLIDHIST
280
     1
  9
$SHOWHIST
280
     1
  9
$DWFFRAME
280
     2
  9
$DGNFRAME
280
     0
  9
$REALWORLDSCALE
290
     1
  9
$INTERFERECOLOR
 62
     1
  9
$INTERFEREOBJVS
345
1FE
  9
$INTERFEREVPVS
346
1FF
  9
$CSHADOW
280
     0
  9
$SHADOWPLANELOCATION
 40
0.0
  0
ENDSEC
  0
SECTION
  2
CLASSES
  0
CLASS
  1
ACDBDICTIONARYWDFLT
  2
AcDbDictionaryWithDefault
  3
ObjectDBX Classes
 90
        0
 91
        1
280
     0
281
     0
  0
CLASS
  1
VISUALSTYLE
  2
AcDbVisualStyle
  3
ObjectDBX Classes
 90
     4095
 91
       16
280
     0
281
     0
  0
CLASS
  1
MATERIAL
  2
AcDbMaterial
  3
ObjectDBX Classes
 90
     1153
 91
        3
280
     0
281
     0
  0
CLASS
  1
TABLESTYLE
  2
AcDbTableStyle
  3
ObjectDBX Classes
 90
     4095
 91
        1
280
     0
281
     0
  0
CLASS
  1
SCALE
  2
AcDbScale
  3
ObjectDBX Classes
 90
     1153
 91
       33
280
     0
281
     0
  0
CLASS
  1
MLEADERSTYLE
  2
AcDbMLeaderStyle
  3
ACDB_MLEADERSTYLE_CLASS
 90
     4095
 91
        1
280
     0
281
     0
  0
CLASS
  1
CELLSTYLEMAP
  2
AcDbCellStyleMap
  3
ObjectDBX Classes
 90
     1152
 91
        2
280
     0
281
     0
  0
CLASS
  1
DICTIONARYVAR
  2
AcDbDictionaryVar
  3
ObjectDBX Classes
 90
        0
 91
        9
280
     0
281
     0
  0
CLASS
  1
SORTENTSTABLE
  2
AcDbSortentsTable
  3
ObjectDBX Classes
 90
        0
 91
        1
280
     0
281
     0
  0
CLASS
  1
ACAD_EVALUATION_GRAPH
  2
AcDbEvalGraph
  3
ObjectDBX Classes
 90
     1153
 91
        0
280
     0
281
     0
  0
CLASS
  1
ACAECUSTOBJ
  2
AcAeEditorObj
  3
AcAeEditorObj
 90
     1024
 91
        0
280
     1
281
     0
  0
CLASS
  1
ACDB_DYNAMICBLOCKPURGEPREVENTER_VERSION
  2
AcDbDynamicBlockPurgePreventer
  3
ObjectDBX Classes
 90
     1153
 91
        0
280
     0
281
     0
  0
CLASS
  1
MENTALRAYRENDERSETTINGS
  2
AcDbMentalRayRenderSettings
  3
SCENEOE
 90
     1024
 91
        0
280
     0
281
     0
  0
CLASS
  1
ACDB_BLOCKREPRESENTATION_DATA
  2
AcDbBlockRepresentationData
  3
ObjectDBX Classes
 90
     1153
 91
        0
280
     0
281
     0
  0
CLASS
  1
DIMASSOC
  2
AcDbDimAssoc
  3
"AcDbDimAssoc|Product Desc:     AcDim ARX App For Dimension|Company:          Autodesk, Inc.|WEB Address:      www.autodesk.com"
 90
        0
 91
        0
280
     0
281
     0
  0
ENDSEC
  0
SECTION
  2
TABLES
  0
TABLE
  2
VPORT
  5
1DC
102
{ACAD_XDICTIONARY
360
1E0
102
}
330
0
100
AcDbSymbolTable
 70
     1
  0
VPORT
  5
1DD
330
1DC
100
AcDbSymbolTableRecord
100
AcDbViewportTableRecord
  2
*Active
 70
     0
 10
0.0
 20
0.0
 11
1.0
 21
1.0
 12
695.6081133409051
 22
62.51811006063099
 13
0.0
 23
0.0
 14
0.5
 24
0.5
 15
0.5
 25
0.5
 16
0.0
 26
0.0
 36
1.0
 17
104.9654968719086
 27
148.5022307685978
 37
0.0
 40
53.04702113246062
 41
2.426395939086294
 42
50.0
 43
0.0
 44
0.0
 50
0.0
 51
0.0
 71
     0
 72
   100
 73
     1
 74
     3
 75
     0
 76
     0
 77
     0
 78
     0
281
     0
 65
     1
110
0.0
120
0.0
130
0.0
111
1.0
121
0.0
131
0.0
112
0.0
122
1.0
132
0.0
 79
     0
146
0.0
348
1DE
 60
     3
 61
     5
292
     1
282
     1
141
0.0
142
0.0
 63
   250
421
  3355443
  0
ENDTAB
  0
TABLE
  2
LTYPE
  5
1D7
330
0
100
AcDbSymbolTable
 70
     2
  0
LTYPE
  5
1D8
330
1D7
100
AcDbSymbolTableRecord
100
AcDbLinetypeTableRecord
  2
ByBlock
 70
     0
  3

 72
    65
 73
     0
 40
0.0
  0
LTYPE
  5
1D9
330
1D7
100
AcDbSymbolTableRecord
100
AcDbLinetypeTableRecord
  2
ByLayer
 70
     0
  3

 72
    65
 73
     0
 40
0.0
  0
LTYPE
  5
15
330
1D7
100
AcDbSymbolTableRecord
100
AcDbLinetypeTableRecord
  2
Continuous
 70
     0
  3
Solid line
 72
    65
 73
     0
 40
0.0
  0
LTYPE
  5
107
330
1D7
100
AcDbSymbolTableRecord
100
AcDbLinetypeTableRecord
  2
CENTER
 70
     0
  3
Center ____ _ ____ _ ____ _ ____ _ ____ _ ____
 72
    65
 73
     4
 40
2.0
 49
1.25
 74
     0
 49
-0.25
 74
     0
 49
0.25
 74
     0
 49
-0.25
 74
     0
  0
ENDTAB
  0
TABLE
  2
LAYER
  5
1D0
102
{ACAD_XDICTIONARY
360
1D1
102
}
330
0
100
AcDbSymbolTable
 70
     7
  0
LAYER
  5
6
102
{ACAD_XDICTIONARY
360
7
102
}
330
1D0
100
AcDbSymbolTableRecord
100
AcDbLayerTableRecord
  2
0
 70
     0
 62
     7
  6
Continuous
370
    30
390
9
347
C
  0
LAYER
  5
17
102
{ACAD_XDICTIONARY
360
18
102
}
330
1D0
100
AcDbSymbolTableRecord
100
AcDbLayerTableRecord
  2
图层 1
 70
     0
 62
     7
  6
Continuous
370
    -3
390
9
347
C
  0
LAYER
  5
25
102
{ACAD_XDICTIONARY
360
26
102
}
330
1D0
100
AcDbSymbolTableRecord
100
AcDbLayerTableRecord
  2
图框
 70
     0
 62
     7
  6
Continuous
370
    20
390
9
347
C
  0
LAYER
  5
167
330
1D0
100
AcDbSymbolTableRecord
100
AcDbLayerTableRecord
  2
Defpoints
 70
     0
 62
     7
  6
Continuous
290
     0
370
    -3
390
9
347
C
  0
LAYER
  5
112
330
1D0
100
AcDbSymbolTableRecord
100
AcDbLayerTableRecord
  2
DIM
 70
     0
 62
     3
  6
Continuous
370
    15
390
9
347
C
1001
AcAecLayerStandard
1000

1000

  0
LAYER
  5
E0
330
1D0
100
AcDbSymbolTableRecord
100
AcDbLayerTableRecord
  2
打标文字
 70
     0
 62
     3
  6
Continuous
370
    20
390
9
347
C
  0
LAYER
  5
106
330
1D0
100
AcDbSymbolTableRecord
100
AcDbLayerTableRecord
  2
CEN
 70
     0
 62
     1
  6
CENTER
370
    15
390
9
347
C
1001
AcAecLayerStandard
1000

1000

  0
ENDTAB
  0
TABLE
  2
STYLE
  5
1D5
330
0
100
AcDbSymbolTable
 70
     4
  0
STYLE
  5
46
330
1D5
100
AcDbSymbolTableRecord
100
AcDbTextStyleTableRecord
  2
Standard
 70
     0
 40
0.0
 41
0.75
 50
0.0
 71
     0
 42
0.2
  3
SIMFANG.TTF
  4

1001
ACAD
1000
FangSong_GB2312
1071
    34353
  0
STYLE
  5
28
330
1D5
100
AcDbSymbolTableRecord
100
AcDbTextStyleTableRecord
  2
Romans字体
 70
     0
 40
0.0
 41
0.75
 50
0.0
 71
     0
 42
0.2
  3
romans.shx
  4

  0
STYLE
  5
48
330
1D5
100
AcDbSymbolTableRecord
100
AcDbTextStyleTableRecord
  2
工程字
 70
     0
 40
0.0
 41
1.0
 50
0.0
 71
     0
 42
3.5
  3
gbenor.shx
  4
gbcbig.shx
  0
STYLE
  5
4A
330
1D5
100
AcDbSymbolTableRecord
100
AcDbTextStyleTableRecord
  2
Chinese
 70
     0
 40
0.0
 41
1.0
 50
0.0
 71
     0
 42
2.5
  3
PMingLiU.ttf
  4

1001
ACAD
1000
PMingLiU
1071
    34834
  0
ENDTAB
  0
TABLE
  2
VIEW
  5
1DA
330
0
100
AcDbSymbolTable
 70
     0
  0
ENDTAB
  0
TABLE
  2
UCS
  5
1DB
330
0
100
AcDbSymbolTable
 70
     0
  0
ENDTAB
  0
TABLE
  2
APPID
  5
1E1
330
0
100
AcDbSymbolTable
 70
    10
  0
APPID
  5
29
330
1E1
100
AcDbSymbolTableRecord
100
AcDbRegAppTableRecord
  2
ACAD
 70
     0
  0
APPID
  5
35
330
1E1
100
AcDbSymbolTableRecord
100
AcDbRegAppTableRecord
  2
AcDbBlockRepETag
 70
     0
  0
APPID
  5
1C7
330
1E1
100
AcDbSymbolTableRecord
100
AcDbRegAppTableRecord
  2
ACAD_PSEXT
 70
     0
  0
APPID
  5
F8
330
1E1
100
AcDbSymbolTableRecord
100
AcDbRegAppTableRecord
  2
AcAecLayerStandard
 70
     0
  0
APPID
  5
16C
330
1E1
100
AcDbSymbolTableRecord
100
AcDbRegAppTableRecord
  2
ACAD_DSTYLE_DIMJAG
 70
     0
  0
APPID
  5
16D
330
1E1
100
AcDbSymbolTableRecord
100
AcDbRegAppTableRecord
  2
ACAD_DSTYLE_DIMTALN
 70
     0
  0
APPID
  5
25B
330
1E1
100
AcDbSymbolTableRecord
100
AcDbRegAppTableRecord
  2
ACAD_MLEADERVER
 70
     0
  0
APPID
  5
301
330
1E1
100
AcDbSymbolTableRecord
100
AcDbRegAppTableRecord
  2
AcDbDynamicBlockGUID
 70
     0
  0
APPID
  5
569
330
1E1
100
AcDbSymbolTableRecord
100
AcDbRegAppTableRecord
  2
ACAUTHENVIRON
 70
     0
  0
APPID
  5
56C
330
1E1
100
AcDbSymbolTableRecord
100
AcDbRegAppTableRecord
  2
AcDbDynamicBlockTrueName
 70
     0
  0
ENDTAB
  0
TABLE
  2
DIMSTYLE
  5
1E2
330
0
100
AcDbSymbolTable
 70
     2
100
AcDbDimStyleTable
 71
     2
340
16B
340
1E3
  0
DIMSTYLE
105
1E3
330
1E2
100
AcDbSymbolTableRecord
100
AcDbDimStyleTableRecord
  2
Standard
 70
     0
340
46
  0
DIMSTYLE
105
16B
102
{ACAD_REACTORS
330
15D
330
16E
330
17C
330
189
330
197
330
1A5
102
}
330
1E2
100
AcDbSymbolTableRecord
100
AcDbDimStyleTableRecord
  2
01
 70
     0
 41
1.5
 42
0.2
 43
0.2
 44
0.5
 73
     0
 74
     0
 77
     1
 78
     8
 79
     2
140
2.0
141
0.0
147
0.5
176
     1
177
     6
178
     4
179
     2
271
     1
272
     1
340
28
1001
ACAD_DSTYLE_DIMJAG
1070
   388
1040
1.5
1001
ACAD_DSTYLE_DIMTALN
1070
   392
1070
     0
  0
ENDTAB
  0
TABLE
  2
BLOCK_RECORD
  5
1
330
0
100
AcDbSymbolTable
 70
     8
  0
BLOCK_RECORD
  5
2
102
{ACAD_XDICTIONARY
360
3
102
}
330
1
100
AcDbSymbolTableRecord
100
AcDbBlockTableRecord
  2
*Model_Space
340
1C5
 70
     0
280
     1
281
     0
  0
BLOCK_RECORD
  5
1C8
330
1
100
AcDbSymbolTableRecord
100
AcDbBlockTableRecord
  2
*Paper_Space
340
1CB
 70
     0
280
     1
281
     0
  0
BLOCK_RECORD
  5
1CC
330
1
100
AcDbSymbolTableRecord
100
AcDbBlockTableRecord
  2
*Paper_Space0
340
1CF
 70
     0
280
     1
281
     0
  0
BLOCK_RECORD
  5
268
102
{ACAD_XDICTIONARY
360
568
102
}
330
1
100
AcDbSymbolTableRecord
100
AcDbBlockTableRecord
  2
A4图框-NEW
340
0
310
2800000020000000200000000100080000000000000400000000000000000000000000000000000000000000000080000080000000808000800000008000800080800000C0C0C000C0DCC000F0CAA6000020400000206000002080000020A0000020C0000020E00000400000004020000040400000406000004080000040A0
310
000040C0000040E00000600000006020000060400000606000006080000060A0000060C0000060E00000800000008020000080400000806000008080000080A0000080C0000080E00000A0000000A0200000A0400000A0600000A0800000A0A00000A0C00000A0E00000C0000000C0200000C0400000C0600000C0800000C0
310
A00000C0C00000C0E00000E0000000E0200000E0400000E0600000E0800000E0A00000E0C00000E0E00040000000400020004000400040006000400080004000A0004000C0004000E00040200000402020004020400040206000402080004020A0004020C0004020E000404000004040200040404000404060004040800040
310
40A0004040C0004040E00040600000406020004060400040606000406080004060A0004060C0004060E00040800000408020004080400040806000408080004080A0004080C0004080E00040A0000040A0200040A0400040A0600040A0800040A0A00040A0C00040A0E00040C0000040C0200040C0400040C0600040C08000
310
40C0A00040C0C00040C0E00040E0000040E0200040E0400040E0600040E0800040E0A00040E0C00040E0E00080000000800020008000400080006000800080008000A0008000C0008000E00080200000802020008020400080206000802080008020A0008020C0008020E00080400000804020008040400080406000804080
310
008040A0008040C0008040E00080600000806020008060400080606000806080008060A0008060C0008060E00080800000808020008080400080806000808080008080A0008080C0008080E00080A0000080A0200080A0400080A0600080A0800080A0A00080A0C00080A0E00080C0000080C0200080C0400080C0600080C0
310
800080C0A00080C0C00080C0E00080E0000080E0200080E0400080E0600080E0800080E0A00080E0C00080E0E000C0000000C0002000C0004000C0006000C0008000C000A000C000C000C000E000C0200000C0202000C0204000C0206000C0208000C020A000C020C000C020E000C0400000C0402000C0404000C0406000C0
310
408000C040A000C040C000C040E000C0600000C0602000C0604000C0606000C0608000C060A000C060C000C060E000C0800000C0802000C0804000C0806000C0808000C080A000C080C000C080E000C0A00000C0A02000C0A04000C0A06000C0A08000C0A0A000C0A0C000C0A0E000C0C00000C0C02000C0C04000C0C06000
310
C0C08000C0C0A000F0FBFF00A4A0A000808080000000FF0000FF000000FFFF00FF000000FF00FF00FFFF0000FFFFFF0000000000000000000000000000000000000000000000000000000000000000000000000000000000000000000000000000000000000000000000000000000000000000000000000000000000000000
310
000000000000000000000000000000000000000000000000000000000000000000000000000000000000000000000000000000000000000000000000000000000000000000000000000000000000000000000000000000000000000000000000000000000000000000000000000000000000F9F9F9F9F9F9F9F9F9F9F9F9F9
310
F9F9F9F9F9F9F9F9F9F9F9F9F9F9FF00000000F9FF000000000000000000FFFFFFFFFFFFFFFFFFFFFFFFF9FAFAFAFF00000000F9FF000000000000000000FFFFFFFFFFFFFFFFFFFFFFFFFFFFFFFFFF00000000F9FD000000000000000000FFFFFFFFFFFFFFFFFFFFFFFFFFFFFFFFFF00000000F9FF000000000000000000FF
310
FFFFFFFFFFFFFFFFFFFFFFFFFFFFFFFF00000000F9FD000000000000000000FFFFFFFFFFFFFFFFFFFFFFFFFFFFFFFFFF00000000F9FF00000000000000000000000000000000000000000000000000FF00000000F9FD00000000000000000000000000000000000000000000000000FF00000000F9FF000000000000000000
310
00000000000000000000000000000000FF00000000F9FD00000000000000000000000000000000000000000000000000FF00000000F9FF00000000000000000000000000000000000000000000000000FF00000000F9FD00000000000000000000000000000000000000000000000000FF00000000F9FD0000000000000000
310
0000000000000000000000000000000000FF00000000F9FF00000000000000000000000000000000000000000000000000FF00000000F9FD00000000000000000000000000000000000000000000000000FF00000000F9FF00000000000000000000000000000000000000000000000000FF00000000F9FD00000000000000
310
000000000000000000000000000000000000FF00000000F9FF00000000000000000000000000000000000000000000000000FF00000000F9FFFFFFFFFFFFFFFFFFFFFFFFFFFFFFFFFFFFFFFFFFFFFFFFFFFFFF00000000F9FFFFFFF9F9F9F9F9F9F9F9F9F9F9F9F9F9F9F9F9F9F9F9F9F9F9F9000000000000000000000000
310
00000000000000000000000000000000000000000000000000000000000000000000000000000000000000000000000000000000000000000000000000000000000000000000000000000000000000000000000000000000000000000000000000000000000000000000000000000000000000000000000000000000000000
310
0000000000000000000000000000000000000000000000000000000000000000000000000000000000000000000000000000000000000000
102
{BLKREFS
331
30B
102
}
 70
     4
280
     1
281
     0
1001
AcDbDynamicBlockGUID
1000
{9E7B185B-22BD-4721-A572-0644E71029CE}
1001
AcDbBlockRepETag
1070
     1
1071
      149
  0
BLOCK_RECORD
  5
30C
330
1
100
AcDbSymbolTableRecord
100
AcDbBlockTableRecord
  2
*D2
340
0
 70
     0
280
     1
281
     0
  0
BLOCK_RECORD
  5
318
330
1
100
AcDbSymbolTableRecord
100
AcDbBlockTableRecord
  2
*D3
340
0
 70
     0
280
     1
281
     0
  0
BLOCK_RECORD
  5
325
330
1
100
AcDbSymbolTableRecord
100
AcDbBlockTableRecord
  2
*D4
340
0
 70
     0
280
     1
281
     0
  0
BLOCK_RECORD
  5
331
330
1
100
AcDbSymbolTableRecord
100
AcDbBlockTableRecord
  2
*D5
340
0
 70
     0
280
     1
281
     0
  0
BLOCK_RECORD
  5
33E
330
1
100
AcDbSymbolTableRecord
100
AcDbBlockTableRecord
  2
*D6
340
0
 70
     0
280
     1
281
     0
  0
BLOCK_RECORD
  5
34B
330
1
100
AcDbSymbolTableRecord
100
AcDbBlockTableRecord
  2
*D7
340
0
 70
     0
280
     1
281
     0
  0
ENDTAB
  0
ENDSEC
  0
SECTION
  2
BLOCKS
  0
BLOCK
  5
5
330
2
100
AcDbEntity
  8
0
100
AcDbBlockBegin
  2
*Model_Space
 70
     0
 10
0.0
 20
0.0
 30
0.0
  3
*Model_Space
  1

  0
ENDBLK
  5
1C4
330
2
100
AcDbEntity
  8
0
100
AcDbBlockEnd
  0
BLOCK
  5
1C9
330
1C8
100
AcDbEntity
 67
     1
  8
0
100
AcDbBlockBegin
  2
*Paper_Space
 70
     0
 10
0.0
 20
0.0
 30
0.0
  3
*Paper_Space
  1

  0
ENDBLK
  5
1CA
330
1C8
100
AcDbEntity
 67
     1
  8
0
100
AcDbBlockEnd
  0
BLOCK
  5
1CD
330
1CC
100
AcDbEntity
 67
     1
  8
0
100
AcDbBlockBegin
  2
*Paper_Space0
 70
     0
 10
0.0
 20
0.0
 30
0.0
  3
*Paper_Space0
  1

  0
ENDBLK
  5
1CE
330
1CC
100
AcDbEntity
 67
     1
  8
0
100
AcDbBlockEnd
  0
BLOCK
  5
26A
330
268
100
AcDbEntity
  8
0
100
AcDbBlockBegin
  2
A4图框-NEW
 70
     0
 10
0.0
 20
0.0
 30
0.0
  3
A4图框-NEW
  1

  0
MTEXT
  5
4D3
102
{ACAD_XDICTIONARY
360
599
102
}
330
268
100
AcDbEntity
  8
图框
 62
     3
100
AcDbMText
 10
967.6594956750133
 20
499.7664151964293
 30
0.0
 40
2.985513575034151
 41
15.50176341157864
 46
6.292658374511018
 71
     5
 72
     5
  1
BQ LUO
  7
Romans字体
 73
     1
 44
1.0
1001
AcDbBlockRepETag
1070
     1
1071
        0
1005
4D3
1001
ACAD
1000
ACAD_MTEXT_DEFINED_HEIGHT_BEGIN
1070
    46
1040
6.292658374511018
1000
ACAD_MTEXT_DEFINED_HEIGHT_END
  0
MTEXT
  5
4D4
330
268
100
AcDbEntity
  8
图框
 62
     3
100
AcDbMText
 10
983.041569333247
 20
499.7664151964293
 30
0.0
 40
2.487927979195124
 41
15.26238390489062
 46
6.292658374511042
 71
     5
 72
     5
  1
{\W0.7;18.10.2010}
  7
Romans字体
 73
     1
 44
1.0
1001
AcDbBlockRepETag
1070
     1
1071
        1
1005
4D4
1001
ACAD
1000
ACAD_MTEXT_DEFINED_HEIGHT_BEGIN
1070
    46
1040
6.292658374511042
1000
ACAD_MTEXT_DEFINED_HEIGHT_END
  0
MTEXT
  5
4D5
330
268
100
AcDbEntity
  8
图框
 62
     3
100
AcDbMText
 10
1012.477254728976
 20
487.1810984474071
 30
0.0
 40
2.985513575034151
 41
17.64876416884615
 46
6.292658374511455
 71
     5
 72
     5
  1
YY LIN
  7
Romans字体
 73
     1
 44
1.0
1001
AcDbBlockRepETag
1070
     1
1071
        2
1005
4D5
1001
ACAD
1000
ACAD_MTEXT_DEFINED_HEIGHT_BEGIN
1070
    46
1040
6.292658374511455
1000
ACAD_MTEXT_DEFINED_HEIGHT_END
  0
MTEXT
  5
4D6
330
268
100
AcDbEntity
  8
图框
 62
     3
100
AcDbMText
 10
1028.977802139886
 20
487.1810984474071
 30
0.0
 40
2.487927979195124
 41
15.35233065297276
 46
6.292658374511495
 71
     5
 72
     5
  1
{\W0.7;18.10.2010}
  7
Romans字体
 73
     1
 44
1.0
1001
AcDbBlockRepETag
1070
     1
1071
        3
1005
4D6
1001
ACAD
1000
ACAD_MTEXT_DEFINED_HEIGHT_BEGIN
1070
    46
1040
6.292658374511495
1000
ACAD_MTEXT_DEFINED_HEIGHT_END
  0
MTEXT
  5
4D7
330
268
100
AcDbEntity
  8
图框
 62
     3
100
AcDbMText
 10
1063.722665487208
 20
525.4145966538831
 30
0.0
 40
2.985513575034151
 41
32.4973914334545
 46
11.82914190181707
 71
     5
 72
     5
  1
-
  7
Romans字体
 73
     1
 44
1.0
1001
AcDbBlockRepETag
1070
     1
1071
        4
1005
4D7
1001
ACAD
1000
ACAD_MTEXT_DEFINED_HEIGHT_BEGIN
1070
    46
1040
11.82914190181707
1000
ACAD_MTEXT_DEFINED_HEIGHT_END
  0
MTEXT
  5
4D8
330
268
100
AcDbEntity
  8
图框
 62
     3
100
AcDbMText
 10
1063.727338552349
 20
513.5854547520641
 30
0.0
 40
2.985513575034151
 41
32.48804530317308
 46
11.82914190182139
 71
     5
 72
     5
  1
-
  7
Romans字体
 73
     1
 44
1.0
1001
AcDbBlockRepETag
1070
     1
1071
        5
1005
4D8
1001
ACAD
1000
ACAD_MTEXT_DEFINED_HEIGHT_BEGIN
1070
    46
1040
11.82914190182139
1000
ACAD_MTEXT_DEFINED_HEIGHT_END
  0
MTEXT
  5
4D9
330
268
100
AcDbEntity
  8
图框
 62
     3
100
AcDbMText
 10
1110.122306614152
 20
526.8006839312707
 30
0.0
 40
2.985513575034151
 41
33.61239199242139
 46
9.05696734704178
 71
     5
 72
     5
  1
-
  7
Romans字体
 73
     1
 44
1.0
1001
AcDbBlockRepETag
1070
     1
1071
        6
1005
4D9
1001
ACAD
1000
ACAD_MTEXT_DEFINED_HEIGHT_BEGIN
1070
    46
1040
9.05696734704178
1000
ACAD_MTEXT_DEFINED_HEIGHT_END
  0
MTEXT
  5
4DA
330
268
100
AcDbEntity
  8
图框
 62
     3
100
AcDbMText
 10
1110.122306614152
 20
500.2775205517162
 30
0.0
 40
2.985513575034151
 41
33.61239199242139
 46
8.871557304763419
 71
     5
 72
     5
  1
-
  7
Romans字体
 73
     1
 44
1.0
1001
AcDbBlockRepETag
1070
     1
1071
        7
1005
4DA
1001
ACAD
1000
ACAD_MTEXT_DEFINED_HEIGHT_BEGIN
1070
    46
1040
8.871557304763419
1000
ACAD_MTEXT_DEFINED_HEIGHT_END
  0
MTEXT
  5
4DB
330
268
100
AcDbEntity
  8
图框
 62
     3
100
AcDbMText
 10
967.6594956750133
 20
493.4737568219182
 30
0.0
 40
2.985513575034151
 41
15.50176341157864
 46
6.292658374510335
 71
     5
 72
     5
  1
P RAO
  7
Romans字体
 73
     1
 44
1.0
1001
AcDbBlockRepETag
1070
     1
1071
        8
1005
4DB
1001
ACAD
1000
ACAD_MTEXT_DEFINED_HEIGHT_BEGIN
1070
    46
1040
6.292658374510335
1000
ACAD_MTEXT_DEFINED_HEIGHT_END
  0
MTEXT
  5
4DC
330
268
100
AcDbEntity
  8
图框
 62
     3
100
AcDbMText
 10
983.041569333247
 20
493.2441970450405
 30
0.0
 40
2.487927979195124
 41
15.26238390489051
 46
6.751777928266487
 71
     5
 72
     5
  1
{\W0.7;18.10.2010}
  7
Romans字体
 73
     1
 44
1.0
1001
AcDbBlockRepETag
1070
     1
1071
        9
1005
4DC
1001
ACAD
1000
ACAD_MTEXT_DEFINED_HEIGHT_BEGIN
1070
    46
1040
6.751777928266487
1000
ACAD_MTEXT_DEFINED_HEIGHT_END
  0
MTEXT
  5
4DD
330
268
100
AcDbEntity
  8
图框
 62
     3
100
AcDbMText
 10
1012.477254728976
 20
499.7664151964291
 30
0.0
 40
2.985513575034151
 41
17.64876416884615
 46
6.292658374511397
 71
     5
 72
     5
  1
-
  7
Romans字体
 73
     1
 44
1.0
1001
AcDbBlockRepETag
1070
     1
1071
       10
1005
4DD
1001
ACAD
1000
ACAD_MTEXT_DEFINED_HEIGHT_BEGIN
1070
    46
1040
6.292658374511397
1000
ACAD_MTEXT_DEFINED_HEIGHT_END
  0
MTEXT
  5
4DE
330
268
100
AcDbEntity
  8
图框
 62
     3
100
AcDbMText
 10
1028.977802139886
 20
499.7664151964289
 30
0.0
 40
2.487927979195124
 41
15.35233065297265
 46
6.292658374511382
 71
     5
 72
     5
  1
-
  7
Romans字体
 73
     1
 44
1.0
1001
AcDbBlockRepETag
1070
     1
1071
       11
1005
4DE
1001
ACAD
1000
ACAD_MTEXT_DEFINED_HEIGHT_BEGIN
1070
    46
1040
6.292658374511382
1000
ACAD_MTEXT_DEFINED_HEIGHT_END
  0
MTEXT
  5
4DF
330
268
100
AcDbEntity
  8
图框
 62
     3
100
AcDbMText
 10
967.6594956750133
 20
487.1810984474071
 30
0.0
 40
2.985513575034151
 41
15.50176341157863
 46
6.292658374511478
 71
     5
 72
     5
  1
-
  7
Romans字体
 73
     1
 44
1.0
1001
AcDbBlockRepETag
1070
     1
1071
       12
1005
4DF
1001
ACAD
1000
ACAD_MTEXT_DEFINED_HEIGHT_BEGIN
1070
    46
1040
6.292658374511478
1000
ACAD_MTEXT_DEFINED_HEIGHT_END
  0
MTEXT
  5
4E0
330
268
100
AcDbEntity
  8
图框
 62
     3
100
AcDbMText
 10
983.041569333247
 20
487.1810984474071
 30
0.0
 40
2.487927979195124
 41
15.26238390489062
 46
6.292658374511495
 71
     5
 72
     5
  1
-
  7
Romans字体
 73
     1
 44
1.0
1001
AcDbBlockRepETag
1070
     1
1071
       13
1005
4E0
1001
ACAD
1000
ACAD_MTEXT_DEFINED_HEIGHT_BEGIN
1070
    46
1040
6.292658374511495
1000
ACAD_MTEXT_DEFINED_HEIGHT_END
  0
MTEXT
  5
4E1
330
268
100
AcDbEntity
  8
图框
 62
     3
100
AcDbMText
 10
1074.556686986741
 20
495.8417418993361
 30
0.0
 40
2.985513575034151
 41
10.82934843438978
 46
7.886094601210427
 71
     5
 72
     5
  1
-
  7
Romans字体
 73
     1
 44
1.0
1001
AcDbBlockRepETag
1070
     1
1071
       14
1005
4E1
1001
ACAD
1000
ACAD_MTEXT_DEFINED_HEIGHT_BEGIN
1070
    46
1040
7.886094601210427
1000
ACAD_MTEXT_DEFINED_HEIGHT_END
  0
LINE
  5
4E2
330
268
100
AcDbEntity
  8
图框
370
    -3
100
AcDbLine
 10
1036.653967466372
 20
499.7847891999413
 30
0.0
 11
1079.971361203936
 21
499.7847891999413
 31
0.0
1001
AcDbBlockRepETag
1070
     1
1071
       15
1005
4E2
  0
MTEXT
  5
4E3
330
268
100
AcDbEntity
  8
图框
 62
     1
370
    20
100
AcDbMText
 10
1108.26336443907
 20
491.5162596080882
 30
0.0
 40
2.699054613030988
 41
82.30831305643079
 46
0.0
 71
     5
 72
     5
  1
{\fSimHei|b0|i0|c134|p2;厦门唯恩电气有限公司}
 73
     1
 44
1.0
1001
AcDbBlockRepETag
1070
     1
1071
       16
1005
4E3
  0
MTEXT
  5
4E4
330
268
100
AcDbEntity
  8
图框
 62
     3
370
    20
100
AcDbMText
 10
1108.435451459908
 20
487.298967726064
 30
0.0
 40
1.652482416141417
 41
68.08558693693567
 46
0.0
 71
     5
 72
     5
  1
{\fArial Narrow|b0|i0|c0|p34;XIAMEN WAIN ELECTRICAL CO.LTD}
  7
工程字
 73
     1
 44
1.0
1001
AcDbBlockRepETag
1070
     1
1071
       17
1005
4E4
  0
MTEXT
  5
4E5
330
268
100
AcDbEntity
  8
图框
 62
     1
370
    20
100
AcDbMText
 10
1085.711816899387
 20
491.0944802995856
 30
0.0
 40
2.005930044038334
 41
5.047240019334847
 46
0.0
 71
     1
 72
     5
  1
{\fArial|b0|i0|c0|p34;A}
  7
Chinese
 73
     1
 44
1.0
1001
AcDbBlockRepETag
1070
     1
1071
       18
1005
4E5
  0
MTEXT
  5
4E6
330
268
100
AcDbEntity
  8
图框
 62
     1
370
    20
100
AcDbMText
 10
1088.213485935716
 20
491.0944802995856
 30
0.0
 40
2.005930044038334
 41
5.047240019334847
 46
0.0
 71
     1
 72
     5
  1
{\fArial|b0|i0|c0|p34;I}
  7
Chinese
 73
     1
 44
1.0
1001
AcDbBlockRepETag
1070
     1
1071
       19
1005
4E6
  0
MTEXT
  5
4E7
330
268
100
AcDbEntity
  8
图框
 62
     1
370
    20
100
AcDbMText
 10
1089.142375222864
 20
491.0822866326808
 30
0.0
 40
2.005930044038334
 41
5.047240019334847
 46
0.0
 71
     1
 72
     5
  1
{\fArial|b0|i0|c0|p34;N}
  7
Chinese
 73
     1
 44
1.0
1001
AcDbBlockRepETag
1070
     1
1071
       20
1005
4E7
  0
MTEXT
  5
4E8
330
268
100
AcDbEntity
  8
图框
100
AcDbMText
 10
1069.142012769545
 20
487.9667319294409
 30
0.0
 40
2.252848170144607
 41
21.65869686878327
 46
7.863925338579296
 71
     5
 72
     5
  1
{\W0.5;\C1;All Dimensions in mm\POriginal Size DIN A 4}
  7
Romans字体
 73
     1
 44
1.0
1001
AcDbBlockRepETag
1070
     1
1071
       21
1005
4E8
1001
ACAD
1000
ACAD_MTEXT_DEFINED_HEIGHT_BEGIN
1070
    46
1040
7.863925338579296
1000
ACAD_MTEXT_DEFINED_HEIGHT_END
  0
MTEXT
  5
4E9
330
268
100
AcDbEntity
  8
图框
  6
ByBlock
 62
     6
370
    18
100
AcDbMText
 10
1127.40434942308
 20
508.7896535755975
 30
0.0
 40
2.651776162684904
 41
2.557913877927211
 46
0.0
 71
     1
 72
     5
  1
A
  7
Romans字体
 11
0.0000000000000001
 21
1.0
 31
0.0
 73
     1
 44
1.0
1001
AcDbBlockRepETag
1070
     1
1071
       22
1005
4E9
  0
MTEXT
  5
4EA
330
268
100
AcDbEntity
  8
图框
 62
     6
100
AcDbMText
 10
1127.40434942308
 20
556.3746573232886
 30
0.0
 40
2.651776162684904
 41
2.557913877927211
 46
0.0
 71
     1
 72
     5
  1
B
  7
Romans字体
 11
0.0000000000000001
 21
1.0
 31
0.0
 73
     1
 44
1.0
1001
AcDbBlockRepETag
1070
     1
1071
       23
1005
4EA
  0
MTEXT
  5
4EB
330
268
100
AcDbEntity
  8
图框
 62
     6
100
AcDbMText
 10
1127.40434942308
 20
607.5539372630998
 30
0.0
 40
2.651776162684904
 41
2.557913877927211
 46
0.0
 71
     1
 72
     5
  1
C
  7
Romans字体
 11
0.0000000000000001
 21
1.0
 31
0.0
 73
     1
 44
1.0
1001
AcDbBlockRepETag
1070
     1
1071
       24
1005
4EB
  0
MTEXT
  5
4EC
330
268
100
AcDbEntity
  8
图框
 62
     6
100
AcDbMText
 10
1127.40434942308
 20
658.7332172029115
 30
0.0
 40
2.651776162684904
 41
2.557913877927211
 46
0.0
 71
     1
 72
     5
  1
D
  7
Romans字体
 11
0.0000000000000001
 21
1.0
 31
0.0
 73
     1
 44
1.0
1001
AcDbBlockRepETag
1070
     1
1071
       25
1005
4EC
  0
LINE
  5
4ED
330
268
100
AcDbEntity
  8
图框
 62
     6
100
AcDbLine
 10
1130.411601781241
 20
634.0726090796082
 30
0.0
 11
1126.928502610363
 21
634.0726090796082
 31
0.0
1001
AcDbBlockRepETag
1070
     1
1071
       26
1005
4ED
  0
LINE
  5
4EE
330
268
100
AcDbEntity
  8
图框
 62
     6
100
AcDbLine
 10
1130.411601781241
 20
582.89332913979
 30
0.0
 11
1126.928502610363
 21
582.89332913979
 31
0.0
1001
AcDbBlockRepETag
1070
     1
1071
       27
1005
4EE
  0
MTEXT
  5
4EF
330
268
100
AcDbEntity
  8
图框
 62
     6
100
AcDbMText
 10
1105.329704038389
 20
483.6164543011163
 30
0.0
 40
2.651776162684904
 41
2.557913877927211
 46
0.0
 71
     1
 72
     5
  1
6
  7
Romans字体
 73
     1
 44
1.0
1001
AcDbBlockRepETag
1070
     1
1071
       28
1005
4EF
  0
LINE
  5
4F0
330
268
100
AcDbEntity
  8
图框
 62
     6
100
AcDbLine
 10
1081.088565155284
 20
484.0347692601515
 30
0.0
 11
1081.088565155284
 21
480.5347692601475
 31
0.0
1001
AcDbBlockRepETag
1070
     1
1071
       29
1005
4F0
  0
MTEXT
  5
4F1
330
268
100
AcDbEntity
  8
图框
 62
     6
100
AcDbMText
 10
1055.900596365941
 20
483.520053108993
 30
0.0
 40
2.651776162684904
 41
2.557913877927211
 46
0.0
 71
     1
 72
     5
  1
5
  7
Romans字体
 73
     1
 44
1.0
1001
AcDbBlockRepETag
1070
     1
1071
       30
1005
4F1
  0
LINE
  5
4F2
330
268
100
AcDbEntity
  8
图框
 62
     6
100
AcDbLine
 10
1031.553386436349
 20
484.0347692601515
 30
0.0
 11
1031.553386436349
 21
480.5347692601475
 31
0.0
1001
AcDbBlockRepETag
1070
     1
1071
       31
1005
4F2
  0
MTEXT
  5
4F3
330
268
100
AcDbEntity
  8
图框
 62
     6
100
AcDbMText
 10
1006.383180575197
 20
483.5687958215896
 30
0.0
 40
2.651776162684904
 41
2.557913877927211
 46
0.0
 71
     1
 72
     5
  1
4
  7
Romans字体
 73
     1
 44
1.0
1001
AcDbBlockRepETag
1070
     1
1071
       32
1005
4F3
  0
LINE
  5
4F4
330
268
100
AcDbEntity
  8
图框
 62
     6
100
AcDbLine
 10
982.0182077173887
 20
484.0347692601515
 30
0.0
 11
982.0182077173887
 21
480.5347692601475
 31
0.0
1001
AcDbBlockRepETag
1070
     1
1071
       33
1005
4F4
  0
MTEXT
  5
4F5
330
268
100
AcDbEntity
  8
图框
 62
     6
100
AcDbMText
 10
956.8302389280352
 20
483.5989680297948
 30
0.0
 40
2.651776162684904
 41
2.557913877927211
 46
0.0
 71
     1
 72
     5
  1
3
  7
Romans字体
 73
     1
 44
1.0
1001
AcDbBlockRepETag
1070
     1
1071
       34
1005
4F5
  0
LINE
  5
4F6
330
268
100
AcDbEntity
  8
图框
 62
     6
100
AcDbLine
 10
932.4830289984245
 20
484.0347692601515
 30
0.0
 11
932.4830289984245
 21
480.5347692601475
 31
0.0
1001
AcDbBlockRepETag
1070
     1
1071
       35
1005
4F6
  0
MTEXT
  5
4F7
330
268
100
AcDbEntity
  8
图框
 62
     6
100
AcDbMText
 10
906.0252349826365
 20
483.6475250013156
 30
0.0
 40
2.651776162684904
 41
2.557913877927211
 46
0.0
 71
     1
 72
     5
  1
2
  7
Romans字体
 73
     1
 44
1.0
1001
AcDbBlockRepETag
1070
     1
1071
       36
1005
4F7
  0
LINE
  5
4F8
330
268
100
AcDbEntity
  8
图框
 62
     6
100
AcDbLine
 10
882.9478502794648
 20
484.0347692601515
 30
0.0
 11
882.9478502794648
 21
480.5347692601475
 31
0.0
1001
AcDbBlockRepETag
1070
     1
1071
       37
1005
4F8
  0
MTEXT
  5
4F9
330
268
100
AcDbEntity
  8
图框
 62
     6
100
AcDbMText
 10
857.7598814901191
 20
483.651829494754
 30
0.0
 40
2.651776162684904
 41
2.557913877927211
 46
0.0
 71
     1
 72
     5
  1
1
  7
Romans字体
 73
     1
 44
1.0
1001
AcDbBlockRepETag
1070
     1
1071
       38
1005
4F9
  0
LINE
  5
4FA
330
268
100
AcDbEntity
  8
图框
370
    50
100
AcDbLine
 10
836.8548209370597
 20
484.0347692601515
 30
0.0
 11
1126.928502610363
 21
484.0347692601515
 31
0.0
1001
AcDbBlockRepETag
1070
     1
1071
       39
1005
4FA
  0
LINE
  5
4FB
330
268
100
AcDbEntity
  8
图框
370
    50
100
AcDbLine
 10
836.9128518455362
 20
484.0178684310246
 30
0.0
 11
836.9128518455394
 21
675.0207195125422
 31
0.0
1001
AcDbBlockRepETag
1070
     1
1071
       40
1005
4FB
  0
MTEXT
  5
4FC
330
268
100
AcDbEntity
  8
图框
 62
     6
100
AcDbMText
 10
833.8475685789031
 20
658.7332172029115
 30
0.0
 40
2.651776162684904
 41
2.557913877927211
 46
0.0
 71
     1
 72
     5
  1
D
  7
Romans字体
 11
0.0000000000000001
 21
1.0
 31
0.0
 73
     1
 44
1.0
1001
AcDbBlockRepETag
1070
     1
1071
       41
1005
4FC
  0
LINE
  5
4FD
330
268
100
AcDbEntity
  8
图框
 62
     6
100
AcDbLine
 10
836.9128518455386
 20
634.0726090796082
 30
0.0
 11
833.4128518455365
 21
634.0726090796082
 31
0.0
1001
AcDbBlockRepETag
1070
     1
1071
       42
1005
4FD
  0
MTEXT
  5
4FE
330
268
100
AcDbEntity
  8
图框
 62
     6
100
AcDbMText
 10
833.9039177480142
 20
607.5539372630998
 30
0.0
 40
2.651776162684904
 41
2.557913877927211
 46
0.0
 71
     1
 72
     5
  1
C
  7
Romans字体
 11
0.0000000000000001
 21
1.0
 31
0.0
 73
     1
 44
1.0
1001
AcDbBlockRepETag
1070
     1
1071
       43
1005
4FE
  0
LINE
  5
4FF
330
268
100
AcDbEntity
  8
图框
 62
     6
100
AcDbLine
 10
836.9128518455378
 20
582.89332913979
 30
0.0
 11
833.4128518455365
 21
582.89332913979
 31
0.0
1001
AcDbBlockRepETag
1070
     1
1071
       44
1005
4FF
  0
MTEXT
  5
500
330
268
100
AcDbEntity
  8
图框
 62
     6
100
AcDbMText
 10
833.9039177480142
 20
556.3746573232886
 30
0.0
 40
2.651776162684904
 41
2.557913877927211
 46
0.0
 71
     1
 72
     5
  1
B
  7
Romans字体
 11
0.0000000000000001
 21
1.0
 31
0.0
 73
     1
 44
1.0
1001
AcDbBlockRepETag
1070
     1
1071
       45
1005
500
  0
LINE
  5
501
330
268
100
AcDbEntity
  8
图框
 62
     6
100
AcDbLine
 10
836.9128518455367
 20
531.714049199969
 30
0.0
 11
833.4128518455365
 21
531.714049199969
 31
0.0
1001
AcDbBlockRepETag
1070
     1
1071
       46
1005
501
  0
MTEXT
  5
502
330
268
100
AcDbEntity
  8
图框
 62
     6
100
AcDbMText
 10
833.9039177480142
 20
508.7896535755975
 30
0.0
 40
2.651776162684904
 41
2.557913877927211
 46
0.0
 71
     1
 72
     5
  1
A
  7
Romans字体
 11
0.0000000000000001
 21
1.0
 31
0.0
 73
     1
 44
1.0
1001
AcDbBlockRepETag
1070
     1
1071
       47
1005
502
  0
LINE
  5
503
330
268
100
AcDbEntity
  8
图框
370
    -3
100
AcDbLine
 10
836.9128518455394
 20
675.0207195125422
 30
0.0
 11
836.9128518455394
 21
684.5021384922564
 31
0.0
1001
AcDbBlockRepETag
1070
     1
1071
       48
1005
503
  0
LINE
  5
504
330
268
100
AcDbEntity
  8
图框
370
    -3
100
AcDbLine
 10
842.6237321475781
 20
675.5347692601515
 30
0.0
 11
842.6237321475781
 21
685.0161882398658
 31
0.0
1001
AcDbBlockRepETag
1070
     1
1071
       49
1005
504
  0
LINE
  5
505
330
268
100
AcDbEntity
  8
图框
370
    -3
100
AcDbLine
 10
848.3346124496179
 20
675.5347692601515
 30
0.0
 11
848.3346124496179
 21
685.0161882398658
 31
0.0
1001
AcDbBlockRepETag
1070
     1
1071
       50
1005
505
  0
LINE
  5
506
330
268
100
AcDbEntity
  8
图框
370
    -3
100
AcDbLine
 10
854.0454927516588
 20
675.5347692601515
 30
0.0
 11
854.0454927516588
 21
685.0161882398658
 31
0.0
1001
AcDbBlockRepETag
1070
     1
1071
       51
1005
506
  0
LINE
  5
507
330
268
100
AcDbEntity
  8
图框
370
    -3
100
AcDbLine
 10
861.5351874539182
 20
675.5347692601515
 30
0.0
 11
861.5351874539182
 21
686.7901958362482
 31
0.0
1001
AcDbBlockRepETag
1070
     1
1071
       52
1005
507
  0
MTEXT
  5
508
330
268
100
AcDbEntity
  8
图框
 62
     6
100
AcDbMText
 10
1105.329704038389
 20
678.859919059449
 30
0.0
 40
2.651776162684904
 41
2.557913877927211
 46
0.0
 71
     1
 72
     5
  1
6
  7
Romans字体
 73
     1
 44
1.0
1001
AcDbBlockRepETag
1070
     1
1071
       53
1005
508
  0
LINE
  5
509
330
268
100
AcDbEntity
  8
图框
 62
     6
100
AcDbLine
 10
1081.088565155284
 20
679.0347692601516
 30
0.0
 11
1081.088565155284
 21
675.5347692601515
 31
0.0
1001
AcDbBlockRepETag
1070
     1
1071
       54
1005
509
  0
MTEXT
  5
50A
330
268
100
AcDbEntity
  8
图框
 62
     6
100
AcDbMText
 10
1055.900596365941
 20
678.859919059449
 30
0.0
 40
2.651776162684904
 41
2.557913877927211
 46
0.0
 71
     1
 72
     5
  1
5
  7
Romans字体
 73
     1
 44
1.0
1001
AcDbBlockRepETag
1070
     1
1071
       55
1005
50A
  0
LINE
  5
50B
330
268
100
AcDbEntity
  8
图框
 62
     6
100
AcDbLine
 10
1031.553386436349
 20
679.0347692601516
 30
0.0
 11
1031.553386436349
 21
675.5347692601515
 31
0.0
1001
AcDbBlockRepETag
1070
     1
1071
       56
1005
50B
  0
MTEXT
  5
50C
330
268
100
AcDbEntity
  8
图框
 62
     6
100
AcDbMText
 10
1006.36541764698
 20
678.7312083656147
 30
0.0
 40
2.651776162684904
 41
2.557913877927211
 46
0.0
 71
     1
 72
     5
  1
4
  7
Romans字体
 73
     1
 44
1.0
1001
AcDbBlockRepETag
1070
     1
1071
       57
1005
50C
  0
LINE
  5
50D
330
268
100
AcDbEntity
  8
图框
 62
     6
100
AcDbLine
 10
982.0182077173887
 20
679.0347692601516
 30
0.0
 11
982.0182077173887
 21
675.5347692601515
 31
0.0
1001
AcDbBlockRepETag
1070
     1
1071
       58
1005
50D
  0
MTEXT
  5
50E
330
268
100
AcDbEntity
  8
图框
 62
     6
100
AcDbMText
 10
956.8302389280352
 20
678.859919059449
 30
0.0
 40
2.651776162684904
 41
2.557913877927211
 46
0.0
 71
     1
 72
     5
  1
3
  7
Romans字体
 73
     1
 44
1.0
1001
AcDbBlockRepETag
1070
     1
1071
       59
1005
50E
  0
LINE
  5
50F
330
268
100
AcDbEntity
  8
图框
 62
     6
100
AcDbLine
 10
932.4830289984245
 20
679.0347692601516
 30
0.0
 11
932.4830289984245
 21
675.5347692601515
 31
0.0
1001
AcDbBlockRepETag
1070
     1
1071
       60
1005
50F
  0
MTEXT
  5
510
330
268
100
AcDbEntity
  8
图框
 62
     6
100
AcDbMText
 10
907.295060209082
 20
678.859919059449
 30
0.0
 40
2.651776162684904
 41
2.557913877927211
 46
0.0
 71
     1
 72
     5
  1
2
  7
Romans字体
 73
     1
 44
1.0
1001
AcDbBlockRepETag
1070
     1
1071
       61
1005
510
  0
LINE
  5
511
330
268
100
AcDbEntity
  8
图框
 62
     6
100
AcDbLine
 10
882.9478502794648
 20
678.7962435131815
 30
0.0
 11
882.9478502794648
 21
675.5347692601515
 31
0.0
1001
AcDbBlockRepETag
1070
     1
1071
       62
1005
511
  0
MTEXT
  5
512
330
268
100
AcDbEntity
  8
图框
 62
     6
100
AcDbMText
 10
862.6286629643733
 20
678.859919059449
 30
0.0
 40
2.651776162684904
 41
2.557913877927211
 46
0.0
 71
     1
 72
     5
  1
1
  7
Romans字体
 73
     1
 44
1.0
1001
AcDbBlockRepETag
1070
     1
1071
       63
1005
512
  0
LINE
  5
513
330
268
100
AcDbEntity
  8
图框
370
    -3
100
AcDbLine
 10
836.9128518455394
 20
675.0207195125422
 30
0.0
 11
836.9128518455394
 21
686.7901958362482
 31
0.0
1001
AcDbBlockRepETag
1070
     1
1071
       64
1005
513
  0
LINE
  5
514
330
268
100
AcDbEntity
  8
图框
370
    50
100
AcDbLine
 10
836.9128518455394
 20
675.5347692601515
 30
0.0
 11
1126.928502610363
 21
675.5347692601515
 31
0.0
1001
AcDbBlockRepETag
1070
     1
1071
       65
1005
514
  0
LINE
  5
515
330
268
100
AcDbEntity
  8
图框
370
    -3
100
AcDbLine
 10
842.6237321475781
 20
675.5347692601515
 30
0.0
 11
842.6237321475781
 21
686.7901958362482
 31
0.0
1001
AcDbBlockRepETag
1070
     1
1071
       66
1005
515
  0
LINE
  5
516
330
268
100
AcDbEntity
  8
图框
370
    -3
100
AcDbLine
 10
848.3346124496179
 20
675.5347692601515
 30
0.0
 11
848.3346124496179
 21
686.7901958362482
 31
0.0
1001
AcDbBlockRepETag
1070
     1
1071
       67
1005
516
  0
MTEXT
  5
517
102
{ACAD_XDICTIONARY
360
59B
102
}
330
268
100
AcDbEntity
  8
图框
100
AcDbMText
 10
857.7903401027889
 20
686.7901958362482
 30
0.0
 40
1.958998408821398
 41
11.25542657609672
 46
7.489694702258906
 71
     4
 72
     5
  1
\pi2.6646;{\fSimSun|b0|i0|c134|p2;档案员\fFangSong_GB2312|b0|i0|c134|p49;\H0.7x;\P\pi1.4159;\Fromans|c134;Filing Clerk\fFangSong_GB2312|b0|i0|c134|p49; }
 11
-0.0000000000000002
 21
-1.0
 31
0.0
 73
     1
 44
1.0
1001
AcDbBlockRepETag
1070
     1
1071
       68
1005
517
1001
ACAD
1000
ACAD_MTEXT_DEFINED_HEIGHT_BEGIN
1070
    46
1040
7.489694702258906
1000
ACAD_MTEXT_DEFINED_HEIGHT_END
  0
MTEXT
  5
518
102
{ACAD_XDICTIONARY
360
59D
102
}
330
268
100
AcDbEntity
  8
图框
100
AcDbMText
 10
845.479172298598
 20
686.7901958362482
 30
0.0
 40
1.958998408821398
 41
11.25542657609672
 46
5.710880302039671
 71
     4
 72
     5
  1
\pi0.63465;{\fSimSun|b0|i0|c134|p2;日期\Fromans|c134;/Date}
 11
-0.0000000000000002
 21
-1.0
 31
0.0
 73
     1
 44
1.0
1001
AcDbBlockRepETag
1070
     1
1071
       69
1005
518
1001
ACAD
1000
ACAD_MTEXT_DEFINED_HEIGHT_BEGIN
1070
    46
1040
5.710880302039671
1000
ACAD_MTEXT_DEFINED_HEIGHT_END
  0
LINE
  5
519
330
268
100
AcDbEntity
  8
图框
370
    -3
100
AcDbLine
 10
854.0454927516588
 20
675.5347692601515
 30
0.0
 11
854.0454927516588
 21
686.7901958362482
 31
0.0
1001
AcDbBlockRepETag
1070
     1
1071
       70
1005
519
  0
LINE
  5
51A
330
268
100
AcDbEntity
  8
图框
370
    -3
100
AcDbLine
 10
1036.653967466372
 20
531.3291676047914
 30
0.0
 11
1036.653967466372
 21
484.0126019753161
 31
0.0
1001
AcDbBlockRepETag
1070
     1
1071
       71
1005
51A
  0
LINE
  5
51B
330
268
100
AcDbEntity
  8
图框
370
    -3
100
AcDbLine
 10
1047.483315900763
 20
507.6708838011533
 30
0.0
 11
1047.483315900763
 21
491.8986945987308
 31
0.0
1001
AcDbBlockRepETag
1070
     1
1071
       72
1005
51B
  0
LINE
  5
51C
330
268
100
AcDbEntity
  8
图框
370
    -3
100
AcDbLine
 10
1058.312664335153
 20
507.6708838011533
 30
0.0
 11
1058.312664335153
 21
484.0347692601515
 31
0.0
1001
AcDbBlockRepETag
1070
     1
1071
       73
1005
51C
  0
LINE
  5
51D
330
268
100
AcDbEntity
  8
图框
370
    25
100
AcDbLine
 10
1048.474135214456
 20
488.1095628329926
 30
0.0
 11
1054.946420288459
 21
488.1095628329926
 31
0.0
1001
AcDbBlockRepETag
1070
     1
1071
       74
1005
51D
  0
LINE
  5
51E
330
268
100
AcDbEntity
  8
图框
370
    25
100
AcDbLine
 10
1054.232527365989
 20
487.0761716842634
 30
0.0
 11
1049.156490914508
 21
486.4576273751
 31
0.0
1001
AcDbBlockRepETag
1070
     1
1071
       75
1005
51E
  0
LINE
  5
51F
330
268
100
AcDbEntity
  8
图框
370
    25
100
AcDbLine
 10
1054.232527365989
 20
489.1429539817209
 30
0.0
 11
1049.156490914508
 21
489.7614982908846
 31
0.0
1001
AcDbBlockRepETag
1070
     1
1071
       76
1005
51F
  0
LINE
  5
520
330
268
100
AcDbEntity
  8
图框
370
    25
100
AcDbLine
 10
1049.156490914508
 20
489.7614982908846
 30
0.0
 11
1049.156490914508
 21
486.4576273751
 31
0.0
1001
AcDbBlockRepETag
1070
     1
1071
       77
1005
520
  0
LINE
  5
521
330
268
100
AcDbEntity
  8
图框
370
    25
100
AcDbLine
 10
1054.232527365989
 20
489.1429539817209
 30
0.0
 11
1054.232527365989
 21
487.0761716842634
 31
0.0
1001
AcDbBlockRepETag
1070
     1
1071
       78
1005
521
  0
CIRCLE
  5
522
330
268
100
AcDbEntity
  8
图框
370
    25
100
AcDbCircle
 10
1042.502700458579
 20
488.1095628329926
 30
0.0
 40
1.651935457891863
1001
AcDbBlockRepETag
1070
     1
1071
       79
1005
522
  0
CIRCLE
  5
523
330
268
100
AcDbEntity
  8
图框
370
    25
100
AcDbCircle
 10
1042.502700458579
 20
488.1095628329926
 30
0.0
 40
1.033391148728775
1001
AcDbBlockRepETag
1070
     1
1071
       80
1005
523
  0
LINE
  5
524
330
268
100
AcDbEntity
  8
图框
370
    25
100
AcDbLine
 10
1040.136872078216
 20
488.1095628329926
 30
0.0
 11
1044.868528838943
 21
488.1095628329926
 31
0.0
1001
AcDbBlockRepETag
1070
     1
1071
       81
1005
524
  0
LINE
  5
525
330
268
100
AcDbEntity
  8
图框
370
    25
100
AcDbLine
 10
1042.502700458579
 20
490.475391213355
 30
0.0
 11
1042.502700458579
 21
485.743734452629
 31
0.0
1001
AcDbBlockRepETag
1070
     1
1071
       82
1005
525
  0
LINE
  5
526
330
268
100
AcDbEntity
  8
图框
370
    -3
100
AcDbLine
 10
1069.142012769546
 20
507.6708838011533
 30
0.0
 11
1069.142012769546
 21
491.8986945987308
 31
0.0
1001
AcDbBlockRepETag
1070
     1
1071
       83
1005
526
  0
MTEXT
  5
527
330
268
100
AcDbEntity
  8
图框
100
AcDbMText
 10
1086.643735910939
 20
526.8006839312707
 30
0.0
 40
2.154898249703542
 41
13.34474941400573
 46
9.056967347041775
 71
     5
 72
     5
  1
图号{\Ftxt|c134;\P\Fromans|c134;\W0.65;Drawing No.}
 73
     1
 44
1.0
1001
AcDbBlockRepETag
1070
     1
1071
       84
1005
527
1001
ACAD
1000
ACAD_MTEXT_DEFINED_HEIGHT_BEGIN
1070
    46
1040
9.056967347041775
1000
ACAD_MTEXT_DEFINED_HEIGHT_END
  0
LINE
  5
528
330
268
100
AcDbEntity
  8
图框
370
    -3
100
AcDbLine
 10
1093.316110617942
 20
531.3291676047914
 30
0.0
 11
1093.316110617942
 21
495.8417418993347
 31
0.0
1001
AcDbBlockRepETag
1070
     1
1071
       85
1005
528
  0
LINE
  5
529
330
268
100
AcDbEntity
  8
图框
370
    -3
100
AcDbLine
 10
1047.473969770481
 20
531.3291676047914
 30
0.0
 11
1047.473969770481
 21
507.6708838011533
 31
0.0
1001
AcDbBlockRepETag
1070
     1
1071
       86
1005
529
  0
MTEXT
  5
52A
330
268
100
AcDbEntity
  8
图框
100
AcDbMText
 10
1063.72733855235
 20
503.7278365005473
 30
0.0
 40
2.252848170144607
 41
10.82934843439208
 46
7.886094601212128
 71
     5
 72
     5
  1
重量\P{\Fromans|c134;Weight}
 73
     1
 44
1.0
1001
AcDbBlockRepETag
1070
     1
1071
       87
1005
52A
1001
ACAD
1000
ACAD_MTEXT_DEFINED_HEIGHT_BEGIN
1070
    46
1040
7.886094601212128
1000
ACAD_MTEXT_DEFINED_HEIGHT_END
  0
LINE
  5
52B
330
268
100
AcDbEntity
  8
图框
370
    -3
100
AcDbLine
 10
1036.653967466372
 20
519.5000257029746
 30
0.0
 11
1079.971361203936
 21
519.5000257029746
 31
0.0
1001
AcDbBlockRepETag
1070
     1
1071
       88
1005
52B
  0
MTEXT
  5
52C
330
268
100
AcDbEntity
  8
图框
100
AcDbMText
 10
1074.556686986741
 20
503.7278365005473
 30
0.0
 40
2.252848170144607
 41
10.82934843438984
 46
7.886094601212141
 71
     5
 72
     5
  1
数量\P{\Fromans|c134;Qty.}
 73
     1
 44
1.0
1001
AcDbBlockRepETag
1070
     1
1071
       89
1005
52C
1001
ACAD
1000
ACAD_MTEXT_DEFINED_HEIGHT_BEGIN
1070
    46
1040
7.886094601212141
1000
ACAD_MTEXT_DEFINED_HEIGHT_END
  0
LINE
  5
52D
330
268
100
AcDbEntity
  8
图框
370
    -3
100
AcDbLine
 10
1079.971361203936
 20
495.8417418993347
 30
0.0
 11
1126.928502610363
 21
495.8417418993342
 31
0.0
1001
AcDbBlockRepETag
1070
     1
1071
       90
1005
52D
  0
LINE
  5
52E
330
268
100
AcDbEntity
  8
图框
370
    -3
100
AcDbLine
 10
1079.971361203936
 20
504.7132992040975
 30
0.0
 11
1126.928502610363
 21
504.7132992040975
 31
0.0
1001
AcDbBlockRepETag
1070
     1
1071
       91
1005
52E
  0
MTEXT
  5
52F
330
268
100
AcDbEntity
  8
图框
100
AcDbMText
 10
1052.893317052817
 20
503.7278365005473
 30
0.0
 40
2.252848170144607
 41
10.83869456467139
 46
7.886094601212101
 71
     5
 72
     5
  1
版本\P{\Fromans|c134;REV.}
 73
     1
 44
1.0
1001
AcDbBlockRepETag
1070
     1
1071
       92
1005
52F
1001
ACAD
1000
ACAD_MTEXT_DEFINED_HEIGHT_BEGIN
1070
    46
1040
7.886094601212101
1000
ACAD_MTEXT_DEFINED_HEIGHT_END
  0
MTEXT
  5
530
330
268
100
AcDbEntity
  8
图框
100
AcDbMText
 10
1042.068641683568
 20
503.7278365005473
 30
0.0
 40
2.252848170144607
 41
10.8293484343908
 46
7.886094601212136
 71
     5
 72
     5
  1
比例\P{\Fromans|c134;Scale}
 73
     1
 44
1.0
1001
AcDbBlockRepETag
1070
     1
1071
       93
1005
530
1001
ACAD
1000
ACAD_MTEXT_DEFINED_HEIGHT_BEGIN
1070
    46
1040
7.886094601212136
1000
ACAD_MTEXT_DEFINED_HEIGHT_END
  0
LINE
  5
531
330
268
100
AcDbEntity
  8
图框
370
    -3
100
AcDbLine
 10
1036.653967466372
 20
507.6708838011533
 30
0.0
 11
1079.971361203936
 21
507.6708838011533
 31
0.0
1001
AcDbBlockRepETag
1070
     1
1071
       94
1005
531
  0
LINE
  5
532
330
268
100
AcDbEntity
  8
图框
370
    -3
100
AcDbLine
 10
1036.653967466372
 20
491.8986945987308
 30
0.0
 11
1079.971361203936
 21
491.8986945987308
 31
0.0
1001
AcDbBlockRepETag
1070
     1
1071
       95
1005
532
  0
LINE
  5
533
330
268
100
AcDbEntity
  8
图框
370
    -3
100
AcDbLine
 10
1079.971361203936
 20
531.3291676047914
 30
0.0
 11
1079.971361203936
 21
484.0125999975168
 31
0.0
1001
AcDbBlockRepETag
1070
     1
1071
       96
1005
533
  0
MTEXT
  5
534
330
268
100
AcDbEntity
  8
图框
100
AcDbMText
 10
1042.063968618426
 20
525.4145966538832
 30
0.0
 40
2.252848170144607
 41
10.82000230410933
 46
11.82914190181708
 71
     5
 72
     5
  1
表面处理\P{\Fromans|c134;Finish}
 73
     1
 44
1.0
1001
AcDbBlockRepETag
1070
     1
1071
       97
1005
534
1001
ACAD
1000
ACAD_MTEXT_DEFINED_HEIGHT_BEGIN
1070
    46
1040
11.82914190181708
1000
ACAD_MTEXT_DEFINED_HEIGHT_END
  0
MTEXT
  5
535
330
268
100
AcDbEntity
  8
图框
100
AcDbMText
 10
1042.063968618426
 20
513.5854547520639
 30
0.0
 40
2.252848170144607
 41
10.82000230410933
 46
11.8291419018212
 71
     5
 72
     5
  1
材料\P{\Fromans|c134;Material}
 73
     1
 44
1.0
1001
AcDbBlockRepETag
1070
     1
1071
       98
1005
535
1001
ACAD
1000
ACAD_MTEXT_DEFINED_HEIGHT_BEGIN
1070
    46
1040
11.8291419018212
1000
ACAD_MTEXT_DEFINED_HEIGHT_END
  0
LINE
  5
536
330
268
100
AcDbEntity
  8
图框
370
    -3
100
AcDbLine
 10
1079.971361203936
 20
522.27220025775
 30
0.0
 11
1126.928502610363
 21
522.27220025775
 31
0.0
1001
AcDbBlockRepETag
1070
     1
1071
       99
1005
536
  0
LINE
  5
537
330
268
100
AcDbEntity
  8
图框
370
    -3
100
AcDbLine
 10
1079.971361203936
 20
513.5854547520641
 30
0.0
 11
1126.928502610363
 21
513.5854547520639
 31
0.0
1001
AcDbBlockRepETag
1070
     1
1071
      100
1005
537
  0
MTEXT
  5
538
330
268
100
AcDbEntity
  8
图框
100
AcDbMText
 10
1086.643735910939
 20
517.9288275049072
 30
0.0
 40
1.958998408821398
 41
13.34474941400573
 46
8.686745505685811
 71
     5
 72
     5
  1
产品代号\P{\Fromans|c134;Part Code}
 73
     1
 44
1.0
1001
AcDbBlockRepETag
1070
     1
1071
      101
1005
538
1001
ACAD
1000
ACAD_MTEXT_DEFINED_HEIGHT_BEGIN
1070
    46
1040
8.686745505685811
1000
ACAD_MTEXT_DEFINED_HEIGHT_END
  0
LINE
  5
539
330
268
100
AcDbEntity
  8
图框
370
    -3
100
AcDbLine
 10
946.9285026103634
 20
525.7982263931411
 30
0.0
 11
1036.653967466372
 21
525.7982263931411
 31
0.0
1001
AcDbBlockRepETag
1070
     1
1071
      102
1005
539
  0
LINE
  5
53A
330
268
100
AcDbEntity
  8
图框
370
    -3
100
AcDbLine
 10
946.9285026103634
 20
520.2672851814959
 30
0.0
 11
1036.653967466372
 21
520.2672851814959
 31
0.0
1001
AcDbBlockRepETag
1070
     1
1071
      103
1005
53A
  0
LINE
  5
53B
330
268
100
AcDbEntity
  8
图框
370
    35
100
AcDbLine
 10
946.9285026103634
 20
531.3291676047914
 30
0.0
 11
1126.928502610363
 21
531.3291676047914
 31
0.0
1001
AcDbBlockRepETag
1070
     1
1071
      104
1005
53B
  0
LINE
  5
53C
330
268
100
AcDbEntity
  8
图框
370
    -3
100
AcDbLine
 10
990.6727612856927
 20
509.2054027581959
 30
0.0
 11
990.6727612856927
 21
484.0347692601515
 31
0.0
1001
AcDbBlockRepETag
1070
     1
1071
      105
1005
53C
  0
MTEXT
  5
53D
102
{ACAD_XDICTIONARY
360
59F
102
}
330
268
100
AcDbEntity
  8
图框
100
AcDbMText
 10
997.1628169651232
 20
499.816589978722
 30
0.0
 40
2.252848170144607
 41
12.98011135886052
 46
6.19230880992475
 71
     5
 72
     5
  1
{\fSimSun|b0|i0|c134|p2;标准化}\PStand.
  7
Romans字体
 73
     1
 44
1.0
1001
AcDbBlockRepETag
1070
     1
1071
      106
1005
53D
1001
ACAD
1000
ACAD_MTEXT_DEFINED_HEIGHT_BEGIN
1070
    46
1040
6.19230880992475
1000
ACAD_MTEXT_DEFINED_HEIGHT_END
  0
LINE
  5
53E
330
268
100
AcDbEntity
  8
图框
370
    -3
100
AcDbLine
 10
975.4103773808022
 20
509.2054027581959
 30
0.0
 11
975.4103773808022
 21
484.0347692601515
 31
0.0
1001
AcDbBlockRepETag
1070
     1
1071
      107
1005
53E
  0
MTEXT
  5
53F
330
268
100
AcDbEntity
  8
图框
100
AcDbMText
 10
984.5089229802068
 20
511.9708733640202
 30
0.0
 40
2.448748011026752
 41
38.287899328693
 46
5.530941211648832
 71
     5
 72
     5
  1
  变更描述{\Fromans|c134;/Description}
 73
     1
 44
1.0
1001
AcDbBlockRepETag
1070
     1
1071
      108
1005
53F
1001
ACAD
1000
ACAD_MTEXT_DEFINED_HEIGHT_BEGIN
1070
    46
1040
5.530941211648832
1000
ACAD_MTEXT_DEFINED_HEIGHT_END
  0
MTEXT
  5
540
102
{ACAD_XDICTIONARY
360
5A1
102
}
330
268
100
AcDbEntity
  8
图框
100
AcDbMText
 10
1012.466086049227
 20
511.9708733640202
 30
0.0
 40
1.958998408821398
 41
17.6264268093469
 46
5.530941211648825
 71
     5
 72
     5
  1
{\fSimSun|b0|i0|c134|p2;签名\P\Fromans|c134;Signature} 
 73
     1
 44
1.0
1001
AcDbBlockRepETag
1070
     1
1071
      109
1005
540
1001
ACAD
1000
ACAD_MTEXT_DEFINED_HEIGHT_BEGIN
1070
    46
1040
5.530941211648825
1000
ACAD_MTEXT_DEFINED_HEIGHT_END
  0
MTEXT
  5
541
102
{ACAD_XDICTIONARY
360
5A3
102
}
330
268
100
AcDbEntity
  8
图框
100
AcDbMText
 10
960.7558556394856
 20
511.9708733640202
 30
0.0
 40
1.958998408821398
 41
9.218235352749283
 46
5.530941211648841
 71
     5
 72
     5
  1
{\fSimSun|b0|i0|c134|p2;处数\P\Fromans|c134;Number }
 73
     1
 44
1.0
1001
AcDbBlockRepETag
1070
     1
1071
      110
1005
541
1001
ACAD
1000
ACAD_MTEXT_DEFINED_HEIGHT_BEGIN
1070
    46
1040
5.530941211648841
1000
ACAD_MTEXT_DEFINED_HEIGHT_END
  0
LINE
  5
542
330
268
100
AcDbEntity
  8
图框
370
    -3
100
AcDbLine
 10
946.9285026103634
 20
514.7363439698449
 30
0.0
 11
1036.653967466372
 21
514.7363439698449
 31
0.0
1001
AcDbBlockRepETag
1070
     1
1071
      111
1005
542
  0
LINE
  5
543
330
268
100
AcDbEntity
  8
图框
370
    -3
100
AcDbLine
 10
946.9285026103634
 20
509.2054027581959
 30
0.0
 11
1036.653967466372
 21
509.2054027581959
 31
0.0
1001
AcDbBlockRepETag
1070
     1
1071
      112
1005
543
  0
LINE
  5
544
330
268
100
AcDbEntity
  8
图框
370
    -3
100
AcDbLine
 10
946.9285026103634
 20
502.9127443836848
 30
0.0
 11
1036.653967466372
 21
502.9127443836848
 31
0.0
1001
AcDbBlockRepETag
1070
     1
1071
      113
1005
544
  0
LINE
  5
545
330
268
100
AcDbEntity
  8
图框
370
    -3
100
AcDbLine
 10
946.9285026103634
 20
496.620086009173
 30
0.0
 11
1036.653967466372
 21
496.620086009173
 31
0.0
1001
AcDbBlockRepETag
1070
     1
1071
      114
1005
545
  0
LINE
  5
546
330
268
100
AcDbEntity
  8
图框
370
    35
380
     1
100
AcDbLine
 10
946.9285026103634
 20
531.3291676047914
 30
0.0
 11
946.9285026103634
 21
484.0347692601515
 31
0.0
1001
AcDbBlockRepETag
1070
     1
1071
      115
1005
546
  0
LINE
  5
547
330
268
100
AcDbEntity
  8
图框
370
    -3
100
AcDbLine
 10
1021.301636813399
 20
531.3291676047914
 30
0.0
 11
1021.301636813399
 21
484.0347692601515
 31
0.0
1001
AcDbBlockRepETag
1070
     1
1071
      116
1005
547
  0
LINE
  5
548
330
268
100
AcDbEntity
  8
图框
370
    -3
100
AcDbLine
 10
1003.652872644553
 20
531.3291676047914
 30
0.0
 11
1003.652872644553
 21
484.0347692601515
 31
0.0
1001
AcDbBlockRepETag
1070
     1
1071
      117
1005
548
  0
LINE
  5
549
330
268
100
AcDbEntity
  8
图框
370
    -3
100
AcDbLine
 10
965.3649733158603
 20
531.3291676047914
 30
0.0
 11
965.3649733158603
 21
509.2054027581959
 31
0.0
1001
AcDbBlockRepETag
1070
     1
1071
      118
1005
549
  0
LINE
  5
54A
330
268
100
AcDbEntity
  8
图框
370
    -3
100
AcDbLine
 10
956.1467379631109
 20
531.3291676047914
 30
0.0
 11
956.1467379631109
 21
509.2054027581959
 31
0.0
1001
AcDbBlockRepETag
1070
     1
1071
      119
1005
54A
  0
MTEXT
  5
54B
102
{ACAD_XDICTIONARY
360
5A5
102
}
330
268
100
AcDbEntity
  8
图框
100
AcDbMText
 10
951.537620286737
 20
511.9708733640202
 30
0.0
 40
1.958998408821398
 41
9.218235352747692
 46
5.530941211648832
 71
     5
 72
     5
  1
{\fSimSun|b0|i0|c134|p2;标记\P\Fromans|c134;Mark}
 73
     1
 44
1.0
1001
AcDbBlockRepETag
1070
     1
1071
      120
1005
54B
1001
ACAD
1000
ACAD_MTEXT_DEFINED_HEIGHT_BEGIN
1070
    46
1040
5.530941211648832
1000
ACAD_MTEXT_DEFINED_HEIGHT_END
  0
MTEXT
  5
54C
102
{ACAD_XDICTIONARY
360
5A7
102
}
330
268
100
AcDbEntity
  8
图框
100
AcDbMText
 10
953.4185582897936
 20
493.4737568219182
 30
0.0
 40
2.252848170144607
 41
12.98011135886041
 46
6.292658374510382
 71
     5
 72
     5
  1
{\fSimSun|b0|i0|c134|p2;审核\P\Fromans|c134;Checked}
 73
     1
 44
1.0
1001
AcDbBlockRepETag
1070
     1
1071
      121
1005
54C
1001
ACAD
1000
ACAD_MTEXT_DEFINED_HEIGHT_BEGIN
1070
    46
1040
6.292658374510382
1000
ACAD_MTEXT_DEFINED_HEIGHT_END
  0
MTEXT
  5
54D
102
{ACAD_XDICTIONARY
360
5A9
102
}
330
268
100
AcDbEntity
  8
图框
100
AcDbMText
 10
953.4185582897936
 20
499.8775635376777
 30
0.0
 40
2.252848170144607
 41
12.98011135886041
 46
6.070361692014189
 71
     5
 72
     5
  1
{\fSimSun|b0|i0|c134|p2;绘图\P\Fromans|c134;Drawn\Ftxt|c134; }
 73
     1
 44
1.0
1001
AcDbBlockRepETag
1070
     1
1071
      122
1005
54D
1001
ACAD
1000
ACAD_MTEXT_DEFINED_HEIGHT_BEGIN
1070
    46
1040
6.070361692014189
1000
ACAD_MTEXT_DEFINED_HEIGHT_END
  0
ARC
  5
54E
330
268
100
AcDbEntity
  8
图框
 62
     4
370
    35
100
AcDbCircle
 10
1086.900627017421
 20
490.0179944151195
 30
0.0
 40
4.063310408393665
100
AcDbArc
 50
18.95237904564806
 51
161.0476209543519
1001
AcDbBlockRepETag
1070
     1
1071
      123
1005
54E
  0
ARC
  5
54F
330
268
100
AcDbEntity
  8
图框
 62
     4
370
    35
100
AcDbCircle
 10
1086.900627017421
 20
490.0179944151195
 30
0.0
 40
4.063310408393665
100
AcDbArc
 50
198.952379045648
 51
341.0476209543519
1001
AcDbBlockRepETag
1070
     1
1071
      124
1005
54F
  0
LINE
  5
550
330
268
100
AcDbEntity
  8
图框
 62
     4
370
    35
100
AcDbLine
 10
1083.057593369548
 20
488.6983035966752
 30
0.0
 11
1090.74366066529
 21
488.6983035966752
 31
0.0
1001
AcDbBlockRepETag
1070
     1
1071
      125
1005
550
  0
LINE
  5
551
330
268
100
AcDbEntity
  8
图框
 62
     4
370
    35
100
AcDbLine
 10
1083.057593369548
 20
491.3376852335652
 30
0.0
 11
1090.74366066529
 21
491.3376852335652
 31
0.0
1001
AcDbBlockRepETag
1070
     1
1071
      126
1005
551
  0
MTEXT
  5
552
330
268
100
AcDbEntity
  8
图框
 62
     1
370
    20
100
AcDbMText
 10
1083.034582879669
 20
491.0506288081688
 30
0.0
 40
2.005930044038334
 41
5.047240019334847
 46
0.0
 71
     1
 72
     5
  1
{\fArial|b0|i0|c0|p34;W}
  7
Chinese
 73
     1
 44
1.0
1001
AcDbBlockRepETag
1070
     1
1071
      127
1005
552
  0
LINE
  5
553
330
268
100
AcDbEntity
  8
图框
370
    -3
100
AcDbLine
 10
946.9285026103634
 20
490.327427634663
 30
0.0
 11
1036.653967466372
 21
490.327427634663
 31
0.0
1001
AcDbBlockRepETag
1070
     1
1071
      128
1005
553
  0
LINE
  5
554
330
268
100
AcDbEntity
  8
图框
370
    -3
100
AcDbLine
 10
959.9086139692238
 20
509.2054027581959
 30
0.0
 11
959.9086139692238
 21
484.0347692601515
 31
0.0
1001
AcDbBlockRepETag
1070
     1
1071
      129
1005
554
  0
MTEXT
  5
555
330
268
100
AcDbEntity
  8
图框
100
AcDbMText
 10
967.6594956750129
 20
506.0590735709403
 30
0.0
 40
2.252848170144607
 41
15.50176341157869
 46
6.292658374511246
 71
     5
 72
     5
  1
姓名{\Fromans|c134;/Name\Ftxt|c134; }
 73
     1
 44
1.0
1001
AcDbBlockRepETag
1070
     1
1071
      130
1005
555
1001
ACAD
1000
ACAD_MTEXT_DEFINED_HEIGHT_BEGIN
1070
    46
1040
6.292658374511246
1000
ACAD_MTEXT_DEFINED_HEIGHT_END
  0
MTEXT
  5
556
330
268
100
AcDbEntity
  8
图框
100
AcDbMText
 10
983.0415693332477
 20
506.0590735709403
 30
0.0
 40
2.252848170144607
 41
15.26238390489042
 46
6.2926583745112
 71
     5
 72
     5
  1
日期{\Fromans|c134;/Date}
 73
     1
 44
1.0
1001
AcDbBlockRepETag
1070
     1
1071
      131
1005
556
1001
ACAD
1000
ACAD_MTEXT_DEFINED_HEIGHT_BEGIN
1070
    46
1040
6.2926583745112
1000
ACAD_MTEXT_DEFINED_HEIGHT_END
  0
LINE
  5
557
330
268
100
AcDbEntity
  8
图框
370
    -3
100
AcDbLine
 10
946.9285026103634
 20
509.2054027581959
 30
0.0
 11
959.9086139692238
 21
502.9127443836848
 31
0.0
1001
AcDbBlockRepETag
1070
     1
1071
      132
1005
557
  0
MTEXT
  5
558
330
268
100
AcDbEntity
  8
图框
100
AcDbMText
 10
1012.931405110086
 20
506.0185715840725
 30
0.0
 40
2.252848170144607
 41
16.93492221063566
 46
0.0
 71
     5
 72
     5
  1
姓名{\Fromans|c134;/Name}
 73
     1
 44
1.0
1001
AcDbBlockRepETag
1070
     1
1071
      133
1005
558
  0
MTEXT
  5
559
330
268
100
AcDbEntity
  8
图框
100
AcDbMText
 10
1028.977802139886
 20
506.0590735709403
 30
0.0
 40
2.252848170144607
 41
15.35233065297283
 46
6.292658374511256
 71
     5
 72
     5
  1
日期{\Fromans|c134;/Date}
 73
     1
 44
1.0
1001
AcDbBlockRepETag
1070
     1
1071
      134
1005
559
1001
ACAD
1000
ACAD_MTEXT_DEFINED_HEIGHT_BEGIN
1070
    46
1040
6.292658374511256
1000
ACAD_MTEXT_DEFINED_HEIGHT_END
  0
LINE
  5
55A
330
268
100
AcDbEntity
  8
图框
370
    -3
100
AcDbLine
 10
1003.652872644553
 20
502.9127443836848
 30
0.0
 11
990.6727612856927
 21
509.2054027581959
 31
0.0
1001
AcDbBlockRepETag
1070
     1
1071
      135
1005
55A
  0
MTEXT
  5
55B
102
{ACAD_XDICTIONARY
360
5AB
102
}
330
268
100
AcDbEntity
  8
图框
100
AcDbMText
 10
997.1628169651232
 20
487.1810984474071
 30
0.0
 40
2.252848170144607
 41
12.98011135886052
 46
6.292658374511517
 71
     5
 72
     5
  1
{\fSimSun|b0|i0|c134|p2;批准\P\Fromans|c134;Approved}
 73
     1
 44
1.0
1001
AcDbBlockRepETag
1070
     1
1071
      136
1005
55B
1001
ACAD
1000
ACAD_MTEXT_DEFINED_HEIGHT_BEGIN
1070
    46
1040
6.292658374511517
1000
ACAD_MTEXT_DEFINED_HEIGHT_END
  0
MTEXT
  5
55C
102
{ACAD_XDICTIONARY
360
5AD
102
}
330
268
100
AcDbEntity
  8
图框
100
AcDbMText
 10
953.4185582897936
 20
487.1810984474071
 30
0.0
 40
2.252848170144607
 41
12.98011135886041
 46
6.292658374511495
 71
     5
 72
     5
  1
{\fSimSun|b0|i0|c134|p2;工艺\P\Fromans|c134;Process}
 73
     1
 44
1.0
1001
AcDbBlockRepETag
1070
     1
1071
      137
1005
55C
1001
ACAD
1000
ACAD_MTEXT_DEFINED_HEIGHT_BEGIN
1070
    46
1040
6.292658374511495
1000
ACAD_MTEXT_DEFINED_HEIGHT_END
  0
MTEXT
  5
55D
102
{ACAD_XDICTIONARY
360
5AF
102
}
330
268
100
AcDbEntity
  8
图框
100
AcDbMText
 10
1028.977802139886
 20
511.8287965307664
 30
0.0
 40
1.958998408821398
 41
15.3523306529728
 46
5.246787545140668
 71
     5
 72
     5
  1
{\fSimSun|b0|i0|c134|p2;日期\P\Fromans|c134;Date}
 73
     1
 44
1.0
1001
AcDbBlockRepETag
1070
     1
1071
      138
1005
55D
1001
ACAD
1000
ACAD_MTEXT_DEFINED_HEIGHT_BEGIN
1070
    46
1040
5.246787545140668
1000
ACAD_MTEXT_DEFINED_HEIGHT_END
  0
MTEXT
  5
55E
330
268
100
AcDbEntity
  8
图框
100
AcDbMText
 10
1086.643735910939
 20
509.1493769780809
 30
0.0
 40
2.154898249703542
 41
13.34474941400573
 46
8.87215554796615
 71
     5
 72
     5
  1
产品料号\P{\Fromans|c134;Part No.}
 73
     1
 44
1.0
1001
AcDbBlockRepETag
1070
     1
1071
      139
1005
55E
1001
ACAD
1000
ACAD_MTEXT_DEFINED_HEIGHT_BEGIN
1070
    46
1040
8.87215554796615
1000
ACAD_MTEXT_DEFINED_HEIGHT_END
  0
MTEXT
  5
55F
330
268
100
AcDbEntity
  8
图框
100
AcDbMText
 10
1086.643735910939
 20
500.2775205517163
 30
0.0
 40
1.958998408821398
 41
13.34474941400573
 46
8.871557304763321
 71
     5
 72
     5
  1
产品名称\P{\Fromans|c134;Part Name}
 73
     1
 44
1.0
1001
AcDbBlockRepETag
1070
     1
1071
      140
1005
55F
1001
ACAD
1000
ACAD_MTEXT_DEFINED_HEIGHT_BEGIN
1070
    46
1040
8.871557304763321
1000
ACAD_MTEXT_DEFINED_HEIGHT_END
  0
LINE
  5
560
330
268
100
AcDbEntity
  8
图框
 62
     1
370
    18
100
AcDbLine
 10
833.4128518455365
 20
690.5347692601515
 30
0.0
 11
833.4128518455365
 21
480.5347692601515
 31
0.0
1001
AcDbBlockRepETag
1070
     1
1071
      141
1005
560
  0
LINE
  5
561
330
268
100
AcDbEntity
  8
图框
 62
     1
370
    18
100
AcDbLine
 10
833.4128518455365
 20
480.5347692601515
 30
0.0
 11
1130.411601781236
 21
480.5347692601515
 31
0.0
1001
AcDbBlockRepETag
1070
     1
1071
      142
1005
561
  0
LINE
  5
562
330
268
100
AcDbEntity
  8
图框
 62
     1
370
    18
100
AcDbLine
 10
833.4128518455365
 20
690.5347692601515
 30
0.0
 11
1130.411601781236
 21
690.5347692601515
 31
0.0
1001
AcDbBlockRepETag
1070
     1
1071
      143
1005
562
  0
LINE
  5
563
330
268
100
AcDbEntity
  8
图框
 62
     1
370
    18
100
AcDbLine
 10
1130.411601781236
 20
480.5347692601515
 30
0.0
 11
1130.411601781236
 21
690.5347692601515
 31
0.0
1001
AcDbBlockRepETag
1070
     1
1071
      144
1005
563
  0
LINE
  5
564
330
268
100
AcDbEntity
  8
图框
370
    18
100
AcDbLine
 10
836.9128518455394
 20
686.7901958362482
 30
0.0
 11
861.5351874539182
 21
686.7901958362482
 31
0.0
1001
AcDbBlockRepETag
1070
     1
1071
      145
1005
564
  0
LINE
  5
565
330
268
100
AcDbEntity
  8
图框
370
    50
100
AcDbLine
 10
1126.928502610363
 20
484.3410054693078
 30
0.0
 11
1126.928502610363
 21
675.5347692601515
 31
0.0
1001
AcDbBlockRepETag
1070
     1
1071
      146
1005
565
  0
MTEXT
  5
566
330
268
100
AcDbEntity
  8
图框
 62
     3
100
AcDbMText
 10
1052.897990117958
 20
495.8417418993364
 30
0.0
 40
2.985513575034151
 41
10.82934843439114
 46
7.886094601211307
 71
     5
 72
     5
  1
V1.1
  7
Romans字体
 73
     1
 44
1.0
1001
AcDbBlockRepETag
1070
     1
1071
      147
1005
566
1001
ACAD
1000
ACAD_MTEXT_DEFINED_HEIGHT_BEGIN
1070
    46
1040
7.886094601211307
1000
ACAD_MTEXT_DEFINED_HEIGHT_END
  0
LINE
  5
567
330
268
100
AcDbEntity
  8
图框
 62
     6
100
AcDbLine
 10
1126.911601781236
 20
531.714049199969
 30
0.0
 11
1130.411601781236
 21
531.714049199969
 31
0.0
1001
AcDbBlockRepETag
1070
     1
1071
      148
1005
567
  0
ENDBLK
  5
300
330
268
100
AcDbEntity
  8
0
100
AcDbBlockEnd
  0
BLOCK
  5
30D
330
30C
100
AcDbEntity
  8
0
100
AcDbBlockBegin
  2
*D2
 70
     1
 10
0.0
 20
0.0
 30
0.0
  3
*D2
  1

  0
LINE
  5
457
330
30C
100
AcDbEntity
  8
DIM
 62
     6
370
    -2
100
AcDbLine
 10
786.5955830305172
 20
211.7773672266863
 30
0.0
 11
786.5955830305172
 21
208.0880176123889
 31
0.0
  0
LINE
  5
458
330
30C
100
AcDbEntity
  8
DIM
 62
     6
370
    -2
100
AcDbLine
 10
801.3955830305185
 20
210.8737405209188
 30
0.0
 11
801.3955830305185
 21
208.0880176123889
 31
0.0
  0
LINE
  5
459
330
30C
100
AcDbEntity
  8
DIM
 62
     1
370
    -2
100
AcDbLine
 10
787.3955830305172
 20
208.2880176123889
 30
0.0
 11
800.5955830305186
 21
208.2880176123889
 31
0.0
  0
SOLID
  5
45A
330
30C
100
AcDbEntity
  8
DIM
 62
     1
100
AcDbTrace
 10
787.3955830305172
 20
208.4213509457222
 30
0.0
 11
787.3955830305172
 21
208.1546842790556
 31
0.0
 12
786.5955830305172
 22
208.2880176123889
 32
0.0
 13
786.5955830305172
 23
208.2880176123889
 33
0.0
  0
SOLID
  5
45B
330
30C
100
AcDbEntity
  8
DIM
 62
     1
100
AcDbTrace
 10
800.5955830305186
 20
208.4213509457222
 30
0.0
 11
800.5955830305186
 21
208.1546842790556
 31
0.0
 12
801.3955830305185
 22
208.2880176123889
 32
0.0
 13
801.3955830305185
 23
208.2880176123889
 33
0.0
  0
MTEXT
  5
45C
330
30C
100
AcDbEntity
  8
DIM
 62
     4
100
AcDbMText
 10
793.9783684708083
 20
208.9880176123889
 30
0.0
 40
1.0
 41
0.0
 46
0.0
 71
     5
 72
     1
  1
\A1;14.8
  7
Romans字体
 73
     1
 44
1.0
  0
POINT
  5
45D
330
30C
100
AcDbEntity
  8
Defpoints
 62
     0
100
AcDbPoint
 10
786.5955830305172
 20
211.9773672266863
 30
0.0
  0
POINT
  5
45E
330
30C
100
AcDbEntity
  8
Defpoints
 62
     0
100
AcDbPoint
 10
801.3955830305185
 20
211.0737405209188
 30
0.0
  0
POINT
  5
45F
330
30C
100
AcDbEntity
  8
Defpoints
 62
     0
100
AcDbPoint
 10
801.3955830305185
 20
208.2880176123889
 30
0.0
  0
ENDBLK
  5
30E
330
30C
100
AcDbEntity
  8
0
100
AcDbBlockEnd
  0
BLOCK
  5
319
330
318
100
AcDbEntity
  8
0
100
AcDbBlockBegin
  2
*D3
 70
     1
 10
0.0
 20
0.0
 30
0.0
  3
*D3
  1

  0
LINE
  5
44D
330
318
100
AcDbEntity
  8
DIM
 62
     6
370
    -2
100
AcDbLine
 10
786.8955830305172
 20
211.4773672266862
 30
0.0
 11
784.6279979383047
 21
211.4773672266862
 31
0.0
  0
LINE
  5
44E
330
318
100
AcDbEntity
  8
DIM
 62
     6
370
    -2
100
AcDbLine
 10
786.8955830305172
 20
212.4773672266863
 30
0.0
 11
784.6279979383047
 21
212.4773672266863
 31
0.0
  0
LINE
  5
44F
330
318
100
AcDbEntity
  8
DIM
 62
     1
370
    -2
100
AcDbLine
 10
784.8279979383047
 20
210.6773672266862
 30
0.0
 11
784.8279979383047
 21
209.8773672266862
 31
0.0
  0
LINE
  5
450
330
318
100
AcDbEntity
  8
DIM
 62
     1
370
    -2
100
AcDbLine
 10
784.8279979383047
 20
213.2773672266863
 30
0.0
 11
784.8279979383047
 21
215.441652940972
 31
0.0
  0
SOLID
  5
451
330
318
100
AcDbEntity
  8
DIM
 62
     1
100
AcDbTrace
 10
784.6946646049713
 20
210.6773672266862
 30
0.0
 11
784.961331271638
 21
210.6773672266862
 31
0.0
 12
784.8279979383047
 22
211.4773672266862
 32
0.0
 13
784.8279979383047
 23
211.4773672266862
 33
0.0
  0
SOLID
  5
452
330
318
100
AcDbEntity
  8
DIM
 62
     1
100
AcDbTrace
 10
784.6946646049713
 20
213.2773672266863
 30
0.0
 11
784.961331271638
 21
213.2773672266863
 31
0.0
 12
784.8279979383047
 22
212.4773672266863
 32
0.0
 13
784.8279979383047
 23
212.4773672266863
 33
0.0
  0
MTEXT
  5
453
330
318
100
AcDbEntity
  8
DIM
 62
     4
100
AcDbMText
 10
784.1279979383044
 20
214.7595100838293
 30
0.0
 40
1.0
 41
0.0
 46
0.0
 71
     5
 72
     1
  1
\A1;%%C1
  7
Romans字体
 11
0.0000000000000001
 21
1.0
 31
0.0
 73
     1
 44
1.0
  0
POINT
  5
454
330
318
100
AcDbEntity
  8
Defpoints
 62
     0
100
AcDbPoint
 10
787.0955830305172
 20
211.4773672266862
 30
0.0
  0
POINT
  5
455
330
318
100
AcDbEntity
  8
Defpoints
 62
     0
100
AcDbPoint
 10
787.0955830305172
 20
212.4773672266863
 30
0.0
  0
POINT
  5
456
330
318
100
AcDbEntity
  8
Defpoints
 62
     0
100
AcDbPoint
 10
784.8279979383047
 20
212.4773672266863
 30
0.0
  0
ENDBLK
  5
31A
330
318
100
AcDbEntity
  8
0
100
AcDbBlockEnd
  0
BLOCK
  5
326
330
325
100
AcDbEntity
  8
0
100
AcDbBlockBegin
  2
*D4
 70
     1
 10
0.0
 20
0.0
 30
0.0
  3
*D4
  1

  0
LINE
  5
460
330
325
100
AcDbEntity
  8
DIM
 62
     6
370
    -2
100
AcDbLine
 10
786.5955830305172
 20
212.1773672266863
 30
0.0
 11
786.5955830305172
 21
214.9523660986748
 31
0.0
  0
LINE
  5
461
330
325
100
AcDbEntity
  8
DIM
 62
     6
370
    -2
100
AcDbLine
 10
794.6955830305179
 20
213.082367226686
 30
0.0
 11
794.6955830305179
 21
214.9523660986748
 31
0.0
  0
LINE
  5
462
330
325
100
AcDbEntity
  8
DIM
 62
     1
370
    -2
100
AcDbLine
 10
787.3955830305172
 20
214.7523660986748
 30
0.0
 11
793.8955830305181
 21
214.7523660986748
 31
0.0
  0
SOLID
  5
463
330
325
100
AcDbEntity
  8
DIM
 62
     1
100
AcDbTrace
 10
787.3955830305172
 20
214.8856994320081
 30
0.0
 11
787.3955830305172
 21
214.6190327653415
 31
0.0
 12
786.5955830305172
 22
214.7523660986748
 32
0.0
 13
786.5955830305172
 23
214.7523660986748
 33
0.0
  0
SOLID
  5
464
330
325
100
AcDbEntity
  8
DIM
 62
     1
100
AcDbTrace
 10
793.8955830305181
 20
214.8856994320081
 30
0.0
 11
793.8955830305181
 21
214.6190327653415
 31
0.0
 12
794.6955830305179
 22
214.7523660986748
 32
0.0
 13
794.6955830305179
 23
214.7523660986748
 33
0.0
  0
MTEXT
  5
465
330
325
100
AcDbEntity
  8
DIM
 62
     4
100
AcDbMText
 10
790.4709246172258
 20
215.4523660986748
 30
0.0
 40
1.0
 41
0.0
 46
0.0
 71
     5
 72
     1
  1
\A1;8.1
  7
Romans字体
 73
     1
 44
1.0
  0
POINT
  5
466
330
325
100
AcDbEntity
  8
Defpoints
 62
     0
100
AcDbPoint
 10
786.5955830305172
 20
211.9773672266863
 30
0.0
  0
POINT
  5
467
330
325
100
AcDbEntity
  8
Defpoints
 62
     0
100
AcDbPoint
 10
794.6955830305179
 20
212.882367226686
 30
0.0
  0
POINT
  5
468
330
325
100
AcDbEntity
  8
Defpoints
 62
     0
100
AcDbPoint
 10
794.6955830305179
 20
214.7523660986748
 30
0.0
  0
ENDBLK
  5
327
330
325
100
AcDbEntity
  8
0
100
AcDbBlockEnd
  0
BLOCK
  5
332
330
331
100
AcDbEntity
  8
0
100
AcDbBlockBegin
  2
*D5
 70
     1
 10
0.0
 20
0.0
 30
0.0
  3
*D5
  1

  0
LINE
  5
47C
330
331
100
AcDbEntity
  8
DIM
 62
     6
370
    -2
100
AcDbLine
 10
801.5816359987978
 20
211.1473672266863
 30
0.0
 11
805.9327506630976
 21
211.1473672266863
 31
0.0
  0
LINE
  5
47D
330
331
100
AcDbEntity
  8
DIM
 62
     6
370
    -2
100
AcDbLine
 10
801.5955830305186
 20
212.8073672266862
 30
0.0
 11
805.9327506630976
 21
212.8073672266862
 31
0.0
  0
LINE
  5
47E
330
331
100
AcDbEntity
  8
DIM
 62
     1
370
    -2
100
AcDbLine
 10
805.7327506630977
 20
210.3473672266863
 30
0.0
 11
805.7327506630977
 21
209.5473672266863
 31
0.0
  0
LINE
  5
47F
330
331
100
AcDbEntity
  8
DIM
 62
     1
370
    -2
100
AcDbLine
 10
805.7327506630977
 20
213.6073672266862
 30
0.0
 11
805.7327506630977
 21
217.7716529409719
 31
0.0
  0
SOLID
  5
480
330
331
100
AcDbEntity
  8
DIM
 62
     1
100
AcDbTrace
 10
805.5994173297643
 20
210.3473672266863
 30
0.0
 11
805.8660839964307
 21
210.3473672266863
 31
0.0
 12
805.7327506630977
 22
211.1473672266863
 32
0.0
 13
805.7327506630977
 23
211.1473672266863
 33
0.0
  0
SOLID
  5
481
330
331
100
AcDbEntity
  8
DIM
 62
     1
100
AcDbTrace
 10
805.5994173297643
 20
213.6073672266862
 30
0.0
 11
805.8660839964307
 21
213.6073672266862
 31
0.0
 12
805.7327506630977
 22
212.8073672266862
 32
0.0
 13
805.7327506630977
 23
212.8073672266862
 33
0.0
  0
MTEXT
  5
482
330
331
100
AcDbEntity
  8
DIM
 62
     4
100
AcDbMText
 10
805.0327506630974
 20
216.0895100838291
 30
0.0
 40
1.0
 41
0.0
 46
0.0
 71
     5
 72
     1
  1
\A1;%%C1.66
  7
Romans字体
 11
0.0000000000000001
 21
1.0
 31
0.0
 73
     1
 44
1.0
  0
POINT
  5
483
330
331
100
AcDbEntity
  8
Defpoints
 62
     0
100
AcDbPoint
 10
801.3816359987979
 20
211.1473672266863
 30
0.0
  0
POINT
  5
484
330
331
100
AcDbEntity
  8
Defpoints
 62
     0
100
AcDbPoint
 10
801.3955830305185
 20
212.8073672266862
 30
0.0
  0
POINT
  5
485
330
331
100
AcDbEntity
  8
Defpoints
 62
     0
100
AcDbPoint
 10
805.7327506630977
 20
212.8073672266862
 30
0.0
  0
ENDBLK
  5
333
330
331
100
AcDbEntity
  8
0
100
AcDbBlockEnd
  0
BLOCK
  5
33F
330
33E
100
AcDbEntity
  8
0
100
AcDbBlockBegin
  2
*D6
 70
     1
 10
0.0
 20
0.0
 30
0.0
  3
*D6
  1

  0
LINE
  5
472
330
33E
100
AcDbEntity
  8
DIM
 62
     6
370
    -2
100
AcDbLine
 10
801.4455830305172
 20
211.5273672266859
 30
0.0
 11
803.964166846808
 21
211.5273672266859
 31
0.0
  0
LINE
  5
473
330
33E
100
AcDbEntity
  8
DIM
 62
     6
370
    -2
100
AcDbLine
 10
801.4455830305172
 20
212.4273672266866
 30
0.0
 11
803.964166846808
 21
212.4273672266866
 31
0.0
  0
LINE
  5
474
330
33E
100
AcDbEntity
  8
DIM
 62
     1
370
    -2
100
AcDbLine
 10
803.7641668468078
 20
210.7273672266859
 30
0.0
 11
803.7641668468078
 21
209.9273672266859
 31
0.0
  0
LINE
  5
475
330
33E
100
AcDbEntity
  8
DIM
 62
     1
370
    -2
100
AcDbLine
 10
803.7641668468078
 20
213.2273672266866
 30
0.0
 11
803.7641668468078
 21
215.5345100838295
 31
0.0
  0
SOLID
  5
476
330
33E
100
AcDbEntity
  8
DIM
 62
     1
100
AcDbTrace
 10
803.6308335134746
 20
210.7273672266859
 30
0.0
 11
803.8975001801414
 21
210.7273672266859
 31
0.0
 12
803.7641668468078
 22
211.5273672266859
 32
0.0
 13
803.7641668468078
 23
211.5273672266859
 33
0.0
  0
SOLID
  5
477
330
33E
100
AcDbEntity
  8
DIM
 62
     1
100
AcDbTrace
 10
803.6308335134746
 20
213.2273672266866
 30
0.0
 11
803.8975001801414
 21
213.2273672266866
 31
0.0
 12
803.7641668468078
 22
212.4273672266866
 32
0.0
 13
803.7641668468078
 23
212.4273672266866
 33
0.0
  0
MTEXT
  5
478
330
33E
100
AcDbEntity
  8
DIM
 62
     4
100
AcDbMText
 10
803.064166846808
 20
214.7809386552582
 30
0.0
 40
1.0
 41
0.0
 46
0.0
 71
     5
 72
     1
  1
\A1;%%Cd
  7
Romans字体
 11
0.0000000000000001
 21
1.0
 31
0.0
 73
     1
 44
1.0
  0
POINT
  5
479
330
33E
100
AcDbEntity
  8
Defpoints
 62
     0
100
AcDbPoint
 10
801.2455830305171
 20
211.5273672266859
 30
0.0
  0
POINT
  5
47A
330
33E
100
AcDbEntity
  8
Defpoints
 62
     0
100
AcDbPoint
 10
801.2455830305171
 20
212.4273672266866
 30
0.0
  0
POINT
  5
47B
330
33E
100
AcDbEntity
  8
Defpoints
 62
     0
100
AcDbPoint
 10
803.7641668468078
 20
212.4273672266866
 30
0.0
  0
ENDBLK
  5
340
330
33E
100
AcDbEntity
  8
0
100
AcDbBlockEnd
  0
BLOCK
  5
34C
330
34B
100
AcDbEntity
  8
0
100
AcDbBlockBegin
  2
*D7
 70
     1
 10
0.0
 20
0.0
 30
0.0
  3
*D7
  1

  0
LINE
  5
469
330
34B
100
AcDbEntity
  8
DIM
 62
     6
370
    -2
100
AcDbLine
 10
797.3955830305182
 20
212.6273672266866
 30
0.0
 11
797.3955830305182
 21
214.9847840362575
 31
0.0
  0
LINE
  5
46A
330
34B
100
AcDbEntity
  8
DIM
 62
     6
370
    -2
100
AcDbLine
 10
801.3955830305185
 20
213.0073672266862
 30
0.0
 11
801.3955830305185
 21
214.9847840362575
 31
0.0
  0
LINE
  5
46B
330
34B
100
AcDbEntity
  8
DIM
 62
     1
370
    -2
100
AcDbLine
 10
798.1955830305182
 20
214.7847840362575
 30
0.0
 11
800.5955830305186
 21
214.7847840362575
 31
0.0
  0
SOLID
  5
46C
330
34B
100
AcDbEntity
  8
DIM
 62
     1
100
AcDbTrace
 10
798.1955830305182
 20
214.9181173695908
 30
0.0
 11
798.1955830305182
 21
214.6514507029241
 31
0.0
 12
797.3955830305182
 22
214.7847840362575
 32
0.0
 13
797.3955830305182
 23
214.7847840362575
 33
0.0
  0
SOLID
  5
46D
330
34B
100
AcDbEntity
  8
DIM
 62
     1
100
AcDbTrace
 10
800.5955830305186
 20
214.9181173695908
 30
0.0
 11
800.5955830305186
 21
214.6514507029241
 31
0.0
 12
801.3955830305185
 22
214.7847840362575
 32
0.0
 13
801.3955830305185
 23
214.7847840362575
 33
0.0
  0
MTEXT
  5
46E
330
34B
100
AcDbEntity
  8
DIM
 62
     4
100
AcDbMText
 10
799.3955830305185
 20
215.4847840362575
 30
0.0
 40
1.0
 41
0.0
 46
0.0
 71
     5
 72
     1
  1
\A1;4
  7
Romans字体
 73
     1
 44
1.0
  0
POINT
  5
46F
330
34B
100
AcDbEntity
  8
Defpoints
 62
     0
100
AcDbPoint
 10
797.3955830305182
 20
212.4273672266866
 30
0.0
  0
POINT
  5
470
330
34B
100
AcDbEntity
  8
Defpoints
 62
     0
100
AcDbPoint
 10
801.3955830305185
 20
212.8073672266862
 30
0.0
  0
POINT
  5
471
330
34B
100
AcDbEntity
  8
Defpoints
 62
     0
100
AcDbPoint
 10
801.3955830305185
 20
214.7847840362575
 30
0.0
  0
ENDBLK
  5
34D
330
34B
100
AcDbEntity
  8
0
100
AcDbBlockEnd
  0
ENDSEC
  0
SECTION
  2
ENTITIES
  0
HATCH
  5
16
330
2
100
AcDbEntity
  8
图层 1
 62
     7
100
AcDbHatch
 10
0.0
 20
0.0
 30
0.0
210
0.0
220
0.0
230
1.0
  2
SOLID
 70
     1
 71
     0
 91
        1
 92
        1
 93
        2
 72
     4
 94
        3
 73
     0
 74
     0
 95
       17
 96
       13
 40
0.0
 40
0.0
 40
0.0
 40
0.0
 40
0.3527780104152769
 40
0.3527780104152769
 40
0.3527780104152769
 40
0.7055560208305538
 40
0.7055560208305538
 40
0.7055560208305538
 40
1.058334031245828
 40
1.058334031245828
 40
1.058334031245828
 40
1.411112041661104
 40
1.411112041661104
 40
1.411112041661104
 40
1.411112041661104
 10
11.07013262565829
 20
29.50312817963231
 10
11.07013262565829
 20
29.50312817963231
 10
10.9431807732774
 20
29.50312817963231
 10
10.9431807732774
 20
29.50312817963231
 10
10.9431807732774
 20
29.50312817963231
 10
10.85843136843155
 20
29.22786486877117
 10
10.85843136843155
 20
29.22786486877117
 10
10.85843136843155
 20
29.22786486877117
 10
10.90080607085448
 20
29.2068497724476
 10
10.90080607085448
 20
29.2068497724476
 10
10.94455881238059
 20
29.31571486159919
 10
11.00346998404173
 20
29.40907701083995
 10
11.07013262565829
 20
29.50312817963231
 72
     1
 10
11.07013262565829
 20
29.50312817963231
 11
11.07013262565829
 21
29.50312817963231
 97
        0
 75
     0
 76
     1
 98
        0
450
        0
451
        0
460
0.0
461
0.0
452
        0
462
0.0
453
        0
470

  0
HATCH
  5
1A
330
2
100
AcDbEntity
  8
图层 1
 62
     7
100
AcDbHatch
 10
0.0
 20
0.0
 30
0.0
210
0.0
220
0.0
230
1.0
  2
SOLID
 70
     1
 71
     0
 91
        1
 92
        1
 93
        2
 72
     4
 94
        3
 73
     0
 74
     0
 95
       47
 96
       43
 40
0.0
 40
0.0
 40
0.0
 40
0.0
 40
0.3527780104152769
 40
0.3527780104152769
 40
0.3527780104152769
 40
0.7055560208305538
 40
0.7055560208305538
 40
0.7055560208305538
 40
1.058334031245828
 40
1.058334031245828
 40
1.058334031245828
 40
1.411112041661104
 40
1.411112041661104
 40
1.411112041661104
 40
1.763890052076384
 40
1.763890052076384
 40
1.763890052076384
 40
2.116668062491659
 40
2.116668062491659
 40
2.116668062491659
 40
2.469446072906936
 40
2.469446072906936
 40
2.469446072906936
 40
2.822224083322215
 40
2.822224083322215
 40
2.822224083322215
 40
3.175002093737492
 40
3.175002093737492
 40
3.175002093737492
 40
3.527780104152768
 40
3.527780104152768
 40
3.527780104152768
 40
3.880558114568044
 40
3.880558114568044
 40
3.880558114568044
 40
4.233336124983321
 40
4.233336124983321
 40
4.233336124983321
 40
4.586114135398599
 40
4.586114135398599
 40
4.586114135398599
 40
4.938892145813873
 40
4.938892145813873
 40
4.938892145813873
 40
4.938892145813873
 10
162.8986914070121
 20
257.4895347631509
 10
162.8986914070121
 20
257.4895347631509
 10
162.9200510131114
 20
257.4471600607279
 10
162.9200510131114
 20
257.4471600607279
 10
162.9200510131114
 20
257.4471600607279
 10
162.9200510131114
 20
257.404785358305
 10
162.9200510131114
 20
257.404785358305
 10
162.9200510131114
 20
257.404785358305
 10
162.8986914070121
 20
257.36258291077
 10
162.8986914070121
 20
257.36258291077
 10
162.8986914070121
 20
257.36258291077
 10
162.8986914070121
 20
257.320208208347
 10
162.8986914070121
 20
257.320208208347
 10
162.8986914070121
 20
257.320208208347
 10
162.8563167045891
 20
257.2990208571356
 10
162.8563167045891
 20
257.2990208571356
 10
162.8563167045891
 20
257.2990208571356
 10
162.8139420021662
 20
257.2563016449369
 10
162.8139420021662
 20
257.2563016449369
 10
162.8139420021662
 20
257.2563016449369
 10
162.7295371070961
 20
257.2563016449369
 10
162.7295371070961
 20
257.2563016449369
 10
162.7295371070961
 20
257.2563016449369
 10
162.6658027985738
 20
257.2778335059241
 10
162.6658027985738
 20
257.2778335059241
 10
162.6658027985738
 20
257.2778335059241
 10
162.6237726059267
 20
257.2990208571356
 10
162.6237726059267
 20
257.2990208571356
 10
162.6237726059267
 20
257.2990208571356
 10
162.5813979035038
 20
257.3413955595585
 10
162.5813979035038
 20
257.3413955595585
 10
162.5813979035038
 20
257.3413955595585
 10
162.5813979035038
 20
257.4895347631509
 10
162.5813979035038
 20
257.4895347631509
 10
162.5813979035038
 20
257.4895347631509
 10
162.6447877022503
 20
257.5525800521216
 10
162.6447877022503
 20
257.5525800521216
 10
162.6447877022503
 20
257.5525800521216
 10
162.7081775009967
 20
257.5525800521216
 10
162.7081775009967
 20
257.5525800521216
 10
162.8749202324821
 20
257.5424170137356
 10
162.7918933765152
 20
257.5939212252171
 10
162.8986914070121
 20
257.4895347631509
 72
     1
 10
162.8986914070121
 20
257.4895347631509
 11
162.8986914070121
 21
257.4895347631509
 97
        0
 75
     0
 76
     1
 98
        0
450
        0
451
        0
460
0.0
461
0.0
452
        0
462
0.0
453
        0
470

  0
HATCH
  5
1B
330
2
100
AcDbEntity
  8
图层 1
 62
     7
100
AcDbHatch
 10
0.0
 20
0.0
 30
0.0
210
0.0
220
0.0
230
1.0
  2
SOLID
 70
     1
 71
     0
 91
        1
 92
        1
 93
        2
 72
     4
 94
        3
 73
     0
 74
     0
 95
       56
 96
       52
 40
0.0
 40
0.0
 40
0.0
 40
0.0
 40
0.3527780104152769
 40
0.3527780104152769
 40
0.3527780104152769
 40
0.7055560208305538
 40
0.7055560208305538
 40
0.7055560208305538
 40
1.058334031245828
 40
1.058334031245828
 40
1.058334031245828
 40
1.411112041661104
 40
1.411112041661104
 40
1.411112041661104
 40
1.763890052076384
 40
1.763890052076384
 40
1.763890052076384
 40
2.116668062491659
 40
2.116668062491659
 40
2.116668062491659
 40
2.469446072906936
 40
2.469446072906936
 40
2.469446072906936
 40
2.822224083322215
 40
2.822224083322215
 40
2.822224083322215
 40
3.175002093737492
 40
3.175002093737492
 40
3.175002093737492
 40
3.527780104152768
 40
3.527780104152768
 40
3.527780104152768
 40
3.880558114568044
 40
3.880558114568044
 40
3.880558114568044
 40
4.233336124983321
 40
4.233336124983321
 40
4.233336124983321
 40
4.586114135398599
 40
4.586114135398599
 40
4.586114135398599
 40
4.938892145813873
 40
4.938892145813873
 40
4.938892145813873
 40
5.291670156229153
 40
5.291670156229153
 40
5.291670156229153
 40
5.64444816664443
 40
5.64444816664443
 40
5.64444816664443
 40
5.997226177059705
 40
5.997226177059705
 40
5.997226177059705
 40
5.997226177059705
 10
185.4837187788815
 20
241.4451977396596
 10
185.4837187788815
 20
241.4451977396596
 10
185.4837187788815
 20
241.4028230372367
 10
185.4837187788815
 20
241.4028230372367
 10
185.4837187788815
 20
241.4028230372367
 10
185.5047338752051
 20
241.3604483348137
 10
185.5047338752051
 20
241.3604483348137
 10
185.4520238795082
 20
241.2782827532863
 10
185.4671823096433
 20
241.1897437409066
 10
185.335579575289
 20
241.2119646214456
 10
185.335579575289
 20
241.2119646214456
 10
185.2932048728662
 20
241.2119646214456
 10
185.2932048728662
 20
241.2119646214456
 10
185.2932048728662
 20
241.2119646214456
 10
185.2294705643439
 20
241.2334964824328
 10
185.2294705643439
 20
241.2334964824328
 10
185.2294705643439
 20
241.2334964824328
 10
185.1660807655974
 20
241.2543393238685
 10
185.1660807655974
 20
241.2543393238685
 10
185.1660807655974
 20
241.2543393238685
 10
185.1450656692739
 20
241.2758711848558
 10
185.1450656692739
 20
241.2758711848558
 10
185.1450656692739
 20
241.2758711848558
 10
185.1450656692739
 20
241.2967140262914
 10
185.1450656692739
 20
241.2967140262914
 10
185.1450656692739
 20
241.2967140262914
 10
185.1237060631745
 20
241.3604483348137
 10
185.1237060631745
 20
241.3604483348137
 10
185.1237060631745
 20
241.3604483348137
 10
185.1237060631745
 20
241.4028230372367
 10
185.1237060631745
 20
241.4028230372367
 10
185.1237060631745
 20
241.4028230372367
 10
185.1660807655974
 20
241.4875724420825
 10
185.1660807655974
 20
241.4875724420825
 10
185.1660807655974
 20
241.4875724420825
 10
185.2084554680203
 20
241.5085875384061
 10
185.2084554680203
 20
241.5085875384061
 10
185.2084554680203
 20
241.5085875384061
 10
185.2718452667668
 20
241.5297748896175
 10
185.2718452667668
 20
241.5297748896175
 10
185.2718452667668
 20
241.5297748896175
 10
185.3565946716127
 20
241.5297748896175
 10
185.3565946716127
 20
241.5297748896175
 10
185.3565946716127
 20
241.5297748896175
 10
185.4199844703592
 20
241.5085875384061
 10
185.4199844703592
 20
241.5085875384061
 10
185.4199844703592
 20
241.5085875384061
 10
185.4623591727821
 20
241.4875724420825
 10
185.4623591727821
 20
241.4875724420825
 10
185.4623591727821
 20
241.4875724420825
 10
185.4837187788815
 20
241.4451977396596
 10
185.4837187788815
 20
241.4451977396596
 72
     1
 10
185.4837187788815
 20
241.4451977396596
 11
185.4837187788815
 21
241.4451977396596
 97
        0
 75
     0
 76
     1
 98
        0
450
        0
451
        0
460
0.0
461
0.0
452
        0
462
0.0
453
        0
470

  0
HATCH
  5
1C
330
2
100
AcDbEntity
  8
图层 1
 62
     7
100
AcDbHatch
 10
0.0
 20
0.0
 30
0.0
210
0.0
220
0.0
230
1.0
  2
SOLID
 70
     1
 71
     0
 91
        1
 92
        1
 93
        2
 72
     4
 94
        3
 73
     0
 74
     0
 95
       38
 96
       34
 40
0.0
 40
0.0
 40
0.0
 40
0.0
 40
0.3527780104152769
 40
0.3527780104152769
 40
0.3527780104152769
 40
0.7055560208305538
 40
0.7055560208305538
 40
0.7055560208305538
 40
1.058334031245828
 40
1.058334031245828
 40
1.058334031245828
 40
1.411112041661104
 40
1.411112041661104
 40
1.411112041661104
 40
1.763890052076384
 40
1.763890052076384
 40
1.763890052076384
 40
2.116668062491659
 40
2.116668062491659
 40
2.116668062491659
 40
2.469446072906936
 40
2.469446072906936
 40
2.469446072906936
 40
2.822224083322215
 40
2.822224083322215
 40
2.822224083322215
 40
3.175002093737492
 40
3.175002093737492
 40
3.175002093737492
 40
3.527780104152768
 40
3.527780104152768
 40
3.527780104152768
 40
3.880558114568044
 40
3.880558114568044
 40
3.880558114568044
 40
3.880558114568044
 10
185.907121293335
 20
220.1937677098971
 10
185.9005756075949
 20
220.0449394867532
 10
185.9329595265197
 20
220.1136691870245
 10
185.864746590912
 20
219.9817219428946
 10
185.864746590912
 20
219.9817219428946
 10
185.822371888489
 20
219.9605345916831
 10
185.822371888489
 20
219.9605345916831
 10
185.822371888489
 20
219.9605345916831
 10
185.6528730787974
 20
219.9605345916831
 10
185.6528730787974
 20
219.9605345916831
 10
185.6528730787974
 20
219.9605345916831
 10
185.5894832800509
 20
220.002909294106
 10
185.5894832800509
 20
220.002909294106
 10
185.5894832800509
 20
220.002909294106
 10
185.5681236739515
 20
220.0240966453175
 10
185.5681236739515
 20
220.0240966453175
 10
185.5681236739515
 20
220.0240966453175
 10
185.5681236739515
 20
220.045283996529
 10
185.5681236739515
 20
220.045283996529
 10
185.5681236739515
 20
220.045283996529
 10
185.547108577628
 20
220.0876586989519
 10
185.547108577628
 20
220.0876586989519
 10
185.547108577628
 20
220.0876586989519
 10
185.547108577628
 20
220.1513930074742
 10
185.547108577628
 20
220.1513930074742
 10
185.547108577628
 20
220.1513930074742
 10
185.5894832800509
 20
220.23614241232
 10
185.5894832800509
 20
220.23614241232
 10
185.5894832800509
 20
220.23614241232
 10
185.6318579824738
 20
220.2573297635315
 10
185.6318579824738
 20
220.2573297635315
 10
185.7055830744942
 20
220.2566407439799
 10
185.8416644359337
 20
220.3310548555519
 10
185.907121293335
 20
220.1937677098971
 72
     1
 10
185.907121293335
 20
220.1937677098971
 11
185.907121293335
 21
220.1937677098971
 97
        0
 75
     0
 76
     1
 98
        0
450
        0
451
        0
460
0.0
461
0.0
452
        0
462
0.0
453
        0
470

  0
HATCH
  5
1D
330
2
100
AcDbEntity
  8
图层 1
 62
     7
100
AcDbHatch
 10
0.0
 20
0.0
 30
0.0
210
0.0
220
0.0
230
1.0
  2
SOLID
 70
     1
 71
     0
 91
        1
 92
        1
 93
        2
 72
     4
 94
        3
 73
     0
 74
     0
 95
       50
 96
       46
 40
0.0
 40
0.0
 40
0.0
 40
0.0
 40
0.3527780104152769
 40
0.3527780104152769
 40
0.3527780104152769
 40
0.7055560208305538
 40
0.7055560208305538
 40
0.7055560208305538
 40
1.058334031245828
 40
1.058334031245828
 40
1.058334031245828
 40
1.411112041661104
 40
1.411112041661104
 40
1.411112041661104
 40
1.763890052076384
 40
1.763890052076384
 40
1.763890052076384
 40
2.116668062491659
 40
2.116668062491659
 40
2.116668062491659
 40
2.469446072906936
 40
2.469446072906936
 40
2.469446072906936
 40
2.822224083322215
 40
2.822224083322215
 40
2.822224083322215
 40
3.175002093737492
 40
3.175002093737492
 40
3.175002093737492
 40
3.527780104152768
 40
3.527780104152768
 40
3.527780104152768
 40
3.880558114568044
 40
3.880558114568044
 40
3.880558114568044
 40
4.233336124983321
 40
4.233336124983321
 40
4.233336124983321
 40
4.586114135398599
 40
4.586114135398599
 40
4.586114135398599
 40
4.938892145813873
 40
4.938892145813873
 40
4.938892145813873
 40
5.291670156229153
 40
5.291670156229153
 40
5.291670156229153
 40
5.291670156229153
 10
180.9117295442905
 20
208.9327766684477
 10
180.9117295442905
 20
208.9327766684477
 10
180.9117295442905
 20
208.7637946234197
 10
180.9117295442905
 20
208.7637946234197
 10
181.2273004989198
 20
208.6749111012643
 10
181.3833634273555
 20
208.6776671794706
 10
181.6948002646751
 20
208.5097186637701
 10
181.9542161258496
 20
208.4294478860095
 10
182.1388733656765
 20
208.2134402565853
 10
182.3297317814676
 20
208.02292635057
 10
182.3297317814676
 20
208.02292635057
 10
182.435496282637
 20
208.065301052993
 10
182.435496282637
 20
208.065301052993
 10
182.288390608372
 20
208.2733849575739
 10
182.3752070718726
 20
208.2134402565853
 10
182.1605774815516
 20
208.3824223016133
 10
182.1605774815516
 20
208.3824223016133
 10
182.1182027791287
 20
208.4247970040363
 10
182.1182027791287
 20
208.4247970040363
 10
182.1182027791287
 20
208.4247970040363
 10
182.0968431730294
 20
208.467516216235
 10
182.0968431730294
 20
208.467516216235
 10
182.0968431730294
 20
208.467516216235
 10
182.0544684706064
 20
208.4883590576707
 10
182.0544684706064
 20
208.4883590576707
 10
182.0544684706064
 20
208.4883590576707
 10
181.9910786718599
 20
208.5305615052057
 10
181.9910786718599
 20
208.5305615052057
 10
181.9910786718599
 20
208.5305615052057
 10
181.948703969437
 20
208.552093366193
 10
181.948703969437
 20
208.552093366193
 10
181.948703969437
 20
208.552093366193
 10
181.9063292670141
 20
208.5729362076286
 10
181.9063292670141
 20
208.5729362076286
 10
181.9063292670141
 20
208.5729362076286
 10
181.8639545645911
 20
208.6156554198274
 10
181.8639545645911
 20
208.6156554198274
 10
181.8639545645911
 20
208.6156554198274
 10
181.821924371944
 20
208.6368427710388
 10
181.821924371944
 20
208.6368427710388
 10
181.6637943848536
 20
208.6742220817127
 10
181.5452830219797
 20
208.8092699138248
 10
181.3771622513911
 20
208.8061693258427
 10
181.2803550043924
 20
208.8573290275484
 10
181.0126709085988
 20
208.8971199066528
 10
180.9117295442905
 20
208.9327766684477
 72
     1
 10
180.9117295442905
 20
208.9327766684477
 11
180.9117295442905
 21
208.9327766684477
 97
        0
 75
     0
 76
     1
 98
        0
450
        0
451
        0
460
0.0
461
0.0
452
        0
462
0.0
453
        0
470

  0
HATCH
  5
1E
330
2
100
AcDbEntity
  8
图层 1
 62
     7
100
AcDbHatch
 10
0.0
 20
0.0
 30
0.0
210
0.0
220
0.0
230
1.0
  2
SOLID
 70
     1
 71
     0
 91
        1
 92
        1
 93
        2
 72
     4
 94
        3
 73
     0
 74
     0
 95
       38
 96
       34
 40
0.0
 40
0.0
 40
0.0
 40
0.0
 40
0.3527780104152769
 40
0.3527780104152769
 40
0.3527780104152769
 40
0.7055560208305538
 40
0.7055560208305538
 40
0.7055560208305538
 40
1.058334031245828
 40
1.058334031245828
 40
1.058334031245828
 40
1.411112041661104
 40
1.411112041661104
 40
1.411112041661104
 40
1.763890052076384
 40
1.763890052076384
 40
1.763890052076384
 40
2.116668062491659
 40
2.116668062491659
 40
2.116668062491659
 40
2.469446072906936
 40
2.469446072906936
 40
2.469446072906936
 40
2.822224083322215
 40
2.822224083322215
 40
2.822224083322215
 40
3.175002093737492
 40
3.175002093737492
 40
3.175002093737492
 40
3.527780104152768
 40
3.527780104152768
 40
3.527780104152768
 40
3.880558114568044
 40
3.880558114568044
 40
3.880558114568044
 40
3.880558114568044
 10
189.145513185819
 20
166.8326485368285
 10
189.207869455238
 20
166.740492171803
 10
189.1317327947871
 20
166.6833035490209
 10
189.103138483396
 20
166.6209472796017
 10
189.103138483396
 20
166.6209472796017
 10
189.0607637809731
 20
166.5997599283903
 10
189.0607637809731
 20
166.5997599283903
 10
189.0607637809731
 20
166.5997599283903
 10
188.9973739822266
 20
166.5785725771788
 10
188.9973739822266
 20
166.5785725771788
 10
188.9973739822266
 20
166.5785725771788
 10
188.9549992798037
 20
166.5997599283903
 10
188.9549992798037
 20
166.5997599283903
 10
188.9549992798037
 20
166.5997599283903
 10
188.8916094810572
 20
166.5997599283903
 10
188.8916094810572
 20
166.5997599283903
 10
188.8916094810572
 20
166.5997599283903
 10
188.8492347786343
 20
166.6209472796017
 10
188.8492347786343
 20
166.6209472796017
 10
188.8492347786343
 20
166.6209472796017
 10
188.8278751725349
 20
166.6633219820247
 10
188.8278751725349
 20
166.6633219820247
 10
188.8278751725349
 20
166.6633219820247
 10
188.8068600762114
 20
166.6845093332361
 10
188.8068600762114
 20
166.6845093332361
 10
188.8068600762114
 20
166.6845093332361
 10
188.8068600762114
 20
166.8326485368285
 10
188.8068600762114
 20
166.8326485368285
 10
188.8068600762114
 20
166.8326485368285
 10
188.8702498749578
 20
166.896038335575
 10
188.8702498749578
 20
166.896038335575
 10
189.0228677056355
 20
166.8819134347673
 10
189.0686875058164
 20
166.9411691162043
 10
189.145513185819
 20
166.8326485368285
 72
     1
 10
189.145513185819
 20
166.8326485368285
 11
189.145513185819
 21
166.8326485368285
 97
        0
 75
     0
 76
     1
 98
        0
450
        0
451
        0
460
0.0
461
0.0
452
        0
462
0.0
453
        0
470

  0
HATCH
  5
1F
330
2
100
AcDbEntity
  8
图层 1
 62
     7
100
AcDbHatch
 10
0.0
 20
0.0
 30
0.0
210
0.0
220
0.0
230
1.0
  2
SOLID
 70
     1
 71
     0
 91
        1
 92
        1
 93
        2
 72
     4
 94
        3
 73
     0
 74
     0
 95
       68
 96
       64
 40
0.0
 40
0.0
 40
0.0
 40
0.0
 40
0.3527780104152769
 40
0.3527780104152769
 40
0.3527780104152769
 40
0.7055560208305538
 40
0.7055560208305538
 40
0.7055560208305538
 40
1.058334031245828
 40
1.058334031245828
 40
1.058334031245828
 40
1.411112041661104
 40
1.411112041661104
 40
1.411112041661104
 40
1.763890052076384
 40
1.763890052076384
 40
1.763890052076384
 40
2.116668062491659
 40
2.116668062491659
 40
2.116668062491659
 40
2.469446072906936
 40
2.469446072906936
 40
2.469446072906936
 40
2.822224083322215
 40
2.822224083322215
 40
2.822224083322215
 40
3.175002093737492
 40
3.175002093737492
 40
3.175002093737492
 40
3.527780104152768
 40
3.527780104152768
 40
3.527780104152768
 40
3.880558114568044
 40
3.880558114568044
 40
3.880558114568044
 40
4.233336124983321
 40
4.233336124983321
 40
4.233336124983321
 40
4.586114135398599
 40
4.586114135398599
 40
4.586114135398599
 40
4.938892145813873
 40
4.938892145813873
 40
4.938892145813873
 40
5.291670156229153
 40
5.291670156229153
 40
5.291670156229153
 40
5.64444816664443
 40
5.64444816664443
 40
5.64444816664443
 40
5.997226177059705
 40
5.997226177059705
 40
5.997226177059705
 40
6.350004187474984
 40
6.350004187474984
 40
6.350004187474984
 40
6.702782197890257
 40
6.702782197890257
 40
6.702782197890257
 40
7.055560208305537
 40
7.055560208305537
 40
7.055560208305537
 40
7.408338218720808
 40
7.408338218720808
 40
7.408338218720808
 40
7.408338218720808
 10
174.7732543591544
 20
135.4846705078077
 10
174.7732543591544
 20
135.4846705078077
 10
174.7732543591544
 20
135.3789060066383
 10
174.7732543591544
 20
135.3789060066383
 10
174.7732543591544
 20
135.3789060066383
 10
174.8156290615773
 20
135.3789060066383
 10
174.8156290615773
 20
135.3789060066383
 10
174.8156290615773
 20
135.3789060066383
 10
174.8580037640002
 20
135.3578909103147
 10
174.8580037640002
 20
135.3578909103147
 10
174.8580037640002
 20
135.3578909103147
 10
174.9213935627468
 20
135.3578909103147
 10
174.9213935627468
 20
135.3578909103147
 10
174.9213935627468
 20
135.3578909103147
 10
174.9637682651697
 20
135.3365313042154
 10
174.9637682651697
 20
135.3365313042154
 10
174.9637682651697
 20
135.3365313042154
 10
174.9847833614933
 20
135.3365313042154
 10
174.9847833614933
 20
135.3365313042154
 10
174.9847833614933
 20
135.3365313042154
 10
175.0271580639162
 20
135.3155162078918
 10
175.0271580639162
 20
135.3155162078918
 10
175.0271580639162
 20
135.3155162078918
 10
175.0485176700155
 20
135.2941566017924
 10
175.0485176700155
 20
135.2941566017924
 10
175.0485176700155
 20
135.2941566017924
 10
175.0695327663391
 20
135.2941566017924
 10
175.0695327663391
 20
135.2941566017924
 10
175.0695327663391
 20
135.2941566017924
 10
175.0908923724385
 20
135.2731415054689
 10
175.0908923724385
 20
135.2731415054689
 10
175.0908923724385
 20
135.2731415054689
 10
175.1332670748614
 20
135.2731415054689
 10
175.1332670748614
 20
135.2731415054689
 10
175.1332670748614
 20
135.2731415054689
 10
175.154282171185
 20
135.2517818993695
 10
175.154282171185
 20
135.2517818993695
 10
175.154282171185
 20
135.2517818993695
 10
175.154282171185
 20
135.3578909103147
 10
175.154282171185
 20
135.3578909103147
 10
175.154282171185
 20
135.3578909103147
 10
175.1332670748614
 20
135.3789060066383
 10
175.1332670748614
 20
135.3789060066383
 10
175.1332670748614
 20
135.3789060066383
 10
175.0908923724385
 20
135.3789060066383
 10
175.0908923724385
 20
135.3789060066383
 10
175.0908923724385
 20
135.3789060066383
 10
175.0908923724385
 20
135.3999211029619
 10
175.0908923724385
 20
135.3999211029619
 10
175.0908923724385
 20
135.3999211029619
 10
175.0695327663391
 20
135.3999211029619
 10
175.0695327663391
 20
135.3999211029619
 10
175.0695327663391
 20
135.3999211029619
 10
175.0271580639162
 20
135.4212807090612
 10
175.0271580639162
 20
135.4212807090612
 10
175.0271580639162
 20
135.4212807090612
 10
175.0061429675926
 20
135.4212807090612
 10
175.0061429675926
 20
135.4212807090612
 10
175.0061429675926
 20
135.4212807090612
 10
174.9637682651697
 20
135.4422958053848
 10
174.9637682651697
 20
135.4422958053848
 10
174.8996894468716
 20
135.4498750204523
 10
174.8394002361073
 20
135.4860485469109
 10
174.7732543591544
 20
135.4846705078077
 72
     1
 10
174.7732543591544
 20
135.4846705078077
 11
174.7732543591544
 21
135.4846705078077
 97
        0
 75
     0
 76
     1
 98
        0
450
        0
451
        0
460
0.0
461
0.0
452
        0
462
0.0
453
        0
470

  0
HATCH
  5
20
330
2
100
AcDbEntity
  8
图层 1
 62
     7
100
AcDbHatch
 10
0.0
 20
0.0
 30
0.0
210
0.0
220
0.0
230
1.0
  2
SOLID
 70
     1
 71
     0
 91
        1
 92
        1
 93
        2
 72
     4
 94
        3
 73
     0
 74
     0
 95
       29
 96
       25
 40
0.0
 40
0.0
 40
0.0
 40
0.0
 40
0.3527780104152769
 40
0.3527780104152769
 40
0.3527780104152769
 40
0.7055560208305538
 40
0.7055560208305538
 40
0.7055560208305538
 40
1.058334031245828
 40
1.058334031245828
 40
1.058334031245828
 40
1.411112041661104
 40
1.411112041661104
 40
1.411112041661104
 40
1.763890052076384
 40
1.763890052076384
 40
1.763890052076384
 40
2.116668062491659
 40
2.116668062491659
 40
2.116668062491659
 40
2.469446072906936
 40
2.469446072906936
 40
2.469446072906936
 40
2.822224083322215
 40
2.822224083322215
 40
2.822224083322215
 40
2.822224083322215
 10
175.4929352807925
 20
164.0174869039101
 10
175.4929352807925
 20
164.0174869039101
 10
175.5139503771161
 20
163.9751122014871
 10
175.5139503771161
 20
163.9751122014871
 10
175.5139503771161
 20
163.9751122014871
 10
175.5139503771161
 20
163.9327374990642
 10
175.5139503771161
 20
163.9327374990642
 10
175.5139503771161
 20
163.9327374990642
 10
175.4929352807925
 20
163.8903627966413
 10
175.4929352807925
 20
163.8903627966413
 10
175.4929352807925
 20
163.8903627966413
 10
175.471920184469
 20
163.8691754454298
 10
175.471920184469
 20
163.8691754454298
 10
175.471920184469
 20
163.8691754454298
 10
175.4505605783696
 20
163.8269729978948
 10
175.4505605783696
 20
163.8269729978948
 10
175.3571984291289
 20
163.7715069239916
 10
175.272449024283
 20
163.8195660377152
 10
175.1966568736079
 20
163.8691754454298
 10
175.208370205985
 20
163.9930267098286
 10
175.1563492298397
 20
164.0216210212197
 10
175.2600466723544
 20
164.0596893514451
 10
175.3330827448232
 20
164.1094710140476
 10
175.4357466580104
 20
164.0753645462439
 10
175.4929352807925
 20
164.0174869039101
 72
     1
 10
175.4929352807925
 20
164.0174869039101
 11
175.4929352807925
 21
164.0174869039101
 97
        0
 75
     0
 76
     1
 98
        0
450
        0
451
        0
460
0.0
461
0.0
452
        0
462
0.0
453
        0
470

  0
HATCH
  5
21
330
2
100
AcDbEntity
  8
图层 1
 62
     7
100
AcDbHatch
 10
0.0
 20
0.0
 30
0.0
210
0.0
220
0.0
230
1.0
  2
SOLID
 70
     1
 71
     0
 91
        1
 92
        1
 93
        2
 72
     4
 94
        3
 73
     0
 74
     0
 95
       11
 96
        7
 40
0.0
 40
0.0
 40
0.0
 40
0.0
 40
0.3527780104152769
 40
0.3527780104152769
 40
0.3527780104152769
 40
0.7055560208305538
 40
0.7055560208305538
 40
0.7055560208305538
 40
0.7055560208305538
 10
174.9213935627468
 20
174.5369206529582
 10
174.9213935627468
 20
174.5369206529582
 10
174.9213935627468
 20
174.3043765542958
 10
174.9213935627468
 20
174.3043765542958
 10
174.9213935627468
 20
174.3043765542958
 10
174.9213935627468
 20
174.5369206529582
 10
174.9213935627468
 20
174.5369206529582
 72
     1
 10
174.9213935627468
 20
174.5369206529582
 11
174.9213935627468
 21
174.5369206529582
 97
        0
 75
     0
 76
     1
 98
        0
450
        0
451
        0
460
0.0
461
0.0
452
        0
462
0.0
453
        0
470

  0
HATCH
  5
22
330
2
100
AcDbEntity
  8
图层 1
 62
     7
100
AcDbHatch
 10
0.0
 20
0.0
 30
0.0
210
0.0
220
0.0
230
1.0
  2
SOLID
 70
     1
 71
     0
 91
        1
 92
        1
 93
        2
 72
     4
 94
        3
 73
     0
 74
     0
 95
      131
 96
      127
 40
0.0
 40
0.0
 40
0.0
 40
0.0
 40
0.3527780104152769
 40
0.3527780104152769
 40
0.3527780104152769
 40
0.7055560208305538
 40
0.7055560208305538
 40
0.7055560208305538
 40
1.058334031245828
 40
1.058334031245828
 40
1.058334031245828
 40
1.411112041661104
 40
1.411112041661104
 40
1.411112041661104
 40
1.763890052076384
 40
1.763890052076384
 40
1.763890052076384
 40
2.116668062491659
 40
2.116668062491659
 40
2.116668062491659
 40
2.469446072906936
 40
2.469446072906936
 40
2.469446072906936
 40
2.822224083322215
 40
2.822224083322215
 40
2.822224083322215
 40
3.175002093737492
 40
3.175002093737492
 40
3.175002093737492
 40
3.527780104152768
 40
3.527780104152768
 40
3.527780104152768
 40
3.880558114568044
 40
3.880558114568044
 40
3.880558114568044
 40
4.233336124983321
 40
4.233336124983321
 40
4.233336124983321
 40
4.586114135398599
 40
4.586114135398599
 40
4.586114135398599
 40
4.938892145813873
 40
4.938892145813873
 40
4.938892145813873
 40
5.291670156229153
 40
5.291670156229153
 40
5.291670156229153
 40
5.64444816664443
 40
5.64444816664443
 40
5.64444816664443
 40
5.997226177059705
 40
5.997226177059705
 40
5.997226177059705
 40
6.350004187474984
 40
6.350004187474984
 40
6.350004187474984
 40
6.702782197890257
 40
6.702782197890257
 40
6.702782197890257
 40
7.055560208305537
 40
7.055560208305537
 40
7.055560208305537
 40
7.408338218720808
 40
7.408338218720808
 40
7.408338218720808
 40
7.76111622913609
 40
7.76111622913609
 40
7.76111622913609
 40
8.113894239551369
 40
8.113894239551369
 40
8.113894239551369
 40
8.466672249966642
 40
8.466672249966642
 40
8.466672249966642
 40
8.819450260381922
 40
8.819450260381922
 40
8.819450260381922
 40
9.172228270797198
 40
9.172228270797198
 40
9.172228270797198
 40
9.525006281212476
 40
9.525006281212476
 40
9.525006281212476
 40
9.877784291627751
 40
9.877784291627751
 40
9.877784291627751
 40
10.23056230204303
 40
10.23056230204303
 40
10.23056230204303
 40
10.58334031245831
 40
10.58334031245831
 40
10.58334031245831
 40
10.93611832287358
 40
10.93611832287358
 40
10.93611832287358
 40
11.28889633328886
 40
11.28889633328886
 40
11.28889633328886
 40
11.64167434370414
 40
11.64167434370414
 40
11.64167434370414
 40
11.99445235411941
 40
11.99445235411941
 40
11.99445235411941
 40
12.34723036453469
 40
12.34723036453469
 40
12.34723036453469
 40
12.70000837494997
 40
12.70000837494997
 40
12.70000837494997
 40
13.05278638536524
 40
13.05278638536524
 40
13.05278638536524
 40
13.40556439578052
 40
13.40556439578052
 40
13.40556439578052
 40
13.7583424061958
 40
13.7583424061958
 40
13.7583424061958
 40
14.11112041661107
 40
14.11112041661107
 40
14.11112041661107
 40
14.46389842702635
 40
14.46389842702635
 40
14.46389842702635
 40
14.81667643744163
 40
14.81667643744163
 40
14.81667643744163
 40
14.81667643744163
 10
173.3972823146245
 20
126.8274843518258
 10
173.3972823146245
 20
126.8274843518258
 10
173.3972823146245
 20
126.7217198506564
 10
173.3972823146245
 20
126.7217198506564
 10
173.3972823146245
 20
126.7217198506564
 10
173.4186419207238
 20
126.7217198506564
 10
173.4186419207238
 20
126.7217198506564
 10
173.4186419207238
 20
126.7217198506564
 10
173.4820317194703
 20
126.7007047543328
 10
173.4820317194703
 20
126.7007047543328
 10
173.4820317194703
 20
126.7007047543328
 10
173.5244064218933
 20
126.6793451482334
 10
173.5244064218933
 20
126.6793451482334
 10
173.5244064218933
 20
126.6793451482334
 10
173.5877962206398
 20
126.6793451482334
 10
173.5877962206398
 20
126.6793451482334
 10
173.5877962206398
 20
126.6793451482334
 10
173.6301709230627
 20
126.6583300519099
 10
173.6301709230627
 20
126.6583300519099
 10
173.7955356154449
 20
126.5911506456296
 10
173.759706598762
 20
126.6380039751379
 10
173.9478089363468
 20
126.5525655507404
 10
173.9478089363468
 20
126.5525655507404
 10
173.9688240326703
 20
126.4464565397952
 10
173.9688240326703
 20
126.4464565397952
 10
173.9688240326703
 20
126.4464565397952
 10
174.0325583411926
 20
126.5101908483175
 10
174.0325583411926
 20
126.5101908483175
 10
174.0325583411926
 20
126.5101908483175
 10
174.0749330436156
 20
126.5101908483175
 10
174.0749330436156
 20
126.5101908483175
 10
174.0749330436156
 20
126.5101908483175
 10
174.1593379386856
 20
126.4678161458946
 10
174.1593379386856
 20
126.4678161458946
 10
174.1593379386856
 20
126.4678161458946
 10
174.180697544785
 20
126.4464565397952
 10
174.180697544785
 20
126.4464565397952
 10
174.2464989119621
 20
126.3982251711837
 10
174.3298702777047
 20
126.3716979184474
 10
174.3922265471239
 20
126.3196769423022
 10
174.608234176548
 20
126.2059887162895
 10
174.7749769080334
 20
126.0278771622029
 10
174.9637682651697
 20
125.8749148217494
 10
174.9637682651697
 20
125.8749148217494
 10
175.0061429675926
 20
125.9172895241723
 10
175.0061429675926
 20
125.9172895241723
 10
174.961356696739
 20
125.9631093243532
 10
174.782211613325
 20
126.1246844092016
 10
174.7308796567315
 20
126.1501781326105
 10
174.7308796567315
 20
126.1501781326105
 10
174.6885049543085
 20
126.1925528350335
 10
174.6885049543085
 20
126.1925528350335
 10
174.6885049543085
 20
126.1925528350335
 10
174.667489857985
 20
126.2349275374564
 10
174.667489857985
 20
126.2349275374564
 10
174.667489857985
 20
126.2349275374564
 10
174.625115155562
 20
126.2559426337799
 10
174.625115155562
 20
126.2559426337799
 10
174.625115155562
 20
126.2559426337799
 10
174.5827404531391
 20
126.2983173362029
 10
174.5827404531391
 20
126.2983173362029
 10
174.5827404531391
 20
126.2983173362029
 10
174.5403657507162
 20
126.3196769423022
 10
174.5403657507162
 20
126.3196769423022
 10
174.5403657507162
 20
126.3196769423022
 10
174.4979910482932
 20
126.3620516447252
 10
174.4979910482932
 20
126.3620516447252
 10
174.4735308542117
 20
126.3875453681341
 10
174.3247026310678
 20
126.4695386947736
 10
174.2864620459544
 20
126.4888312422181
 10
174.2864620459544
 20
126.4888312422181
 10
174.2654469496308
 20
126.5101908483175
 10
174.2654469496308
 20
126.5101908483175
 10
174.2654469496308
 20
126.5101908483175
 10
174.2230722472079
 20
126.5312059446411
 10
174.2230722472079
 20
126.5312059446411
 10
174.2230722472079
 20
126.5312059446411
 10
174.2017126411085
 20
126.5525655507404
 10
174.2017126411085
 20
126.5525655507404
 10
174.2017126411085
 20
126.5525655507404
 10
174.1383228423621
 20
126.573580647064
 10
174.1383228423621
 20
126.573580647064
 10
174.1383228423621
 20
126.573580647064
 10
174.1169632362627
 20
126.5945957433876
 10
174.1169632362627
 20
126.5945957433876
 10
174.1169632362627
 20
126.5945957433876
 10
174.0959481399391
 20
126.7007047543328
 10
174.0959481399391
 20
126.7007047543328
 10
174.0959481399391
 20
126.7007047543328
 10
174.0325583411926
 20
126.6369704458105
 10
174.0325583411926
 20
126.6369704458105
 10
174.0325583411926
 20
126.6369704458105
 10
173.9901836387697
 20
126.6369704458105
 10
173.9901836387697
 20
126.6369704458105
 10
173.9901836387697
 20
126.6369704458105
 10
173.9054342339239
 20
126.6793451482334
 10
173.9054342339239
 20
126.6793451482334
 10
173.9054342339239
 20
126.6793451482334
 10
173.8420444351773
 20
126.7007047543328
 10
173.8420444351773
 20
126.7007047543328
 10
173.8420444351773
 20
126.7007047543328
 10
173.7996697327544
 20
126.7217198506564
 10
173.7996697327544
 20
126.7217198506564
 10
173.7996697327544
 20
126.7217198506564
 10
173.7572950303315
 20
126.7217198506564
 10
173.7572950303315
 20
126.7217198506564
 10
173.7572950303315
 20
126.7217198506564
 10
173.6725456254856
 20
126.7640945530793
 10
173.6725456254856
 20
126.7640945530793
 10
173.6725456254856
 20
126.7640945530793
 10
173.6515305291621
 20
126.7640945530793
 10
173.6515305291621
 20
126.7640945530793
 10
173.6515305291621
 20
126.7640945530793
 10
173.5667811243162
 20
126.7851096494029
 10
173.5667811243162
 20
126.7851096494029
 10
173.5667811243162
 20
126.7851096494029
 10
173.5033913255697
 20
126.8064692555022
 10
173.5033913255697
 20
126.8064692555022
 10
173.5033913255697
 20
126.8064692555022
 10
173.4396570170474
 20
126.8064692555022
 10
173.4396570170474
 20
126.8064692555022
 10
173.4396570170474
 20
126.8064692555022
 10
173.4186419207238
 20
126.8274843518258
 10
173.4186419207238
 20
126.8274843518258
 10
173.4186419207238
 20
126.8274843518258
 10
173.3972823146245
 20
126.8274843518258
 10
173.3972823146245
 20
126.8274843518258
 72
     1
 10
173.3972823146245
 20
126.8274843518258
 11
173.3972823146245
 21
126.8274843518258
 97
        0
 75
     0
 76
     1
 98
        0
450
        0
451
        0
460
0.0
461
0.0
452
        0
462
0.0
453
        0
470

  0
HATCH
  5
23
330
2
100
AcDbEntity
  8
图层 1
 62
     7
100
AcDbHatch
 10
0.0
 20
0.0
 30
0.0
210
0.0
220
0.0
230
1.0
  2
SOLID
 70
     1
 71
     0
 91
        1
 92
        1
 93
        2
 72
     4
 94
        3
 73
     0
 74
     0
 95
       47
 96
       43
 40
0.0
 40
0.0
 40
0.0
 40
0.0
 40
0.3527780104152769
 40
0.3527780104152769
 40
0.3527780104152769
 40
0.7055560208305538
 40
0.7055560208305538
 40
0.7055560208305538
 40
1.058334031245828
 40
1.058334031245828
 40
1.058334031245828
 40
1.411112041661104
 40
1.411112041661104
 40
1.411112041661104
 40
1.763890052076384
 40
1.763890052076384
 40
1.763890052076384
 40
2.116668062491659
 40
2.116668062491659
 40
2.116668062491659
 40
2.469446072906936
 40
2.469446072906936
 40
2.469446072906936
 40
2.822224083322215
 40
2.822224083322215
 40
2.822224083322215
 40
3.175002093737492
 40
3.175002093737492
 40
3.175002093737492
 40
3.527780104152768
 40
3.527780104152768
 40
3.527780104152768
 40
3.880558114568044
 40
3.880558114568044
 40
3.880558114568044
 40
4.233336124983321
 40
4.233336124983321
 40
4.233336124983321
 40
4.586114135398599
 40
4.586114135398599
 40
4.586114135398599
 40
4.938892145813873
 40
4.938892145813873
 40
4.938892145813873
 40
4.938892145813873
 10
180.1920486226523
 20
255.6479577566324
 10
180.1920486226523
 20
255.6479577566324
 10
180.2130637189759
 20
255.6055830542095
 10
180.2130637189759
 20
255.6055830542095
 10
180.2130637189759
 20
255.6055830542095
 10
180.2130637189759
 20
255.5210059042515
 10
180.2130637189759
 20
255.5210059042515
 10
180.2130637189759
 20
255.5210059042515
 10
180.1920486226523
 20
255.4786312018286
 10
180.1920486226523
 20
255.4786312018286
 10
180.1920486226523
 20
255.4786312018286
 10
180.1496739202294
 20
255.4359119896299
 10
180.1496739202294
 20
255.4359119896299
 10
180.1496739202294
 20
255.4359119896299
 10
180.1283143141301
 20
255.4147246384184
 10
180.1283143141301
 20
255.4147246384184
 10
180.1283143141301
 20
255.4147246384184
 10
180.0225498129606
 20
255.4147246384184
 10
180.0225498129606
 20
255.4147246384184
 10
180.0225498129606
 20
255.4147246384184
 10
179.9591600142141
 20
255.4359119896299
 10
179.9591600142141
 20
255.4359119896299
 10
179.9591600142141
 20
255.4359119896299
 10
179.9167853117912
 20
255.4570993408414
 10
179.9167853117912
 20
255.4570993408414
 10
179.9167853117912
 20
255.4570993408414
 10
179.8957702154676
 20
255.4786312018286
 10
179.8957702154676
 20
255.4786312018286
 10
179.8957702154676
 20
255.4786312018286
 10
179.8744106093683
 20
255.4994740432643
 10
179.8744106093683
 20
255.4994740432643
 10
179.8744106093683
 20
255.4994740432643
 10
179.8744106093683
 20
255.6479577566324
 10
179.8744106093683
 20
255.6479577566324
 10
179.9608825630931
 20
255.7323626517025
 10
180.045631967939
 20
255.7085914771726
 10
180.1496739202294
 20
255.7115198102668
 10
180.1496739202294
 20
255.7115198102668
 10
180.170689016553
 20
255.6688005980681
 10
180.170689016553
 20
255.6688005980681
 10
180.170689016553
 20
255.6688005980681
 10
180.1920486226523
 20
255.6479577566324
 10
180.1920486226523
 20
255.6479577566324
 72
     1
 10
180.1920486226523
 20
255.6479577566324
 11
180.1920486226523
 21
255.6479577566324
 97
        0
 75
     0
 76
     1
 98
        0
450
        0
451
        0
460
0.0
461
0.0
452
        0
462
0.0
453
        0
470

  0
MTEXT
  5
DF
102
{ACAD_XDICTIONARY
360
596
102
}
330
2
100
AcDbEntity
  8
打标文字
 62
     3
100
AcDbMText
 10
815.2556214125294
 20
218.2082315330057
 30
0.0
 40
0.75
 41
21.56370451087032
 46
26.95590277395973
 71
     1
 72
     5
  3
\A1;{\f仿宋_GB2312|b0|i0|c134|p49;技术参数}:\P- {\f仿宋_GB2312|b0|i0|c134|p49;材料}: {\f仿宋_GB2312|b0|i0|c134|p49;铜合金}\P- {\f仿宋_GB2312|b0|i0|c134|p49;表面处理}: {\f仿宋_GB2312|b0|i0|c134|p49;镀金}\P- {\f仿宋_GB2312|b0|i0|c134|p49;额定电流}: 5A\P- {\f仿宋_GB2312|b0|i0|c134|p49;
  3
接触电阻}: ≤3mΩ\P- {\f仿宋_GB2312|b0|i0|c134|p49;线径范围}: 0.09-0.25mm{\H0.7x;\S2^ ;}(28-24 AWG)\P- {\f仿宋_GB2312|b0|i0|c134|p49;可插拔次数}: {\f仿宋_GB2312|b0|i0|c134|p49;≥}500\P\PTechnical specification:\P- Material: copper alloy\P- Surface: hard-gold plated\P- Rate
  1
d current: 5A\P- Contact resistance: ≤3mΩ\P- Wire gauge: 0.09-0.25mm{\H0.7x;\S2^ ;}(28-24 AWG)\P- Mating cycles: {\f仿宋_GB2312|b0|i0|c134|p49;≥}500
  7
Romans字体
 73
     1
 44
1.0
1001
ACAD
1000
ACAD_MTEXT_DEFINED_HEIGHT_BEGIN
1070
    46
1040
26.95590277395973
1000
ACAD_MTEXT_DEFINED_HEIGHT_END
  0
HATCH
  5
F6
330
2
100
AcDbEntity
  8
DIM
100
AcDbHatch
 10
0.0
 20
0.0
 30
0.0
210
0.0
220
0.0
230
1.0
  2
ANSI31
 70
     0
 71
     0
 91
        3
 92
        5
 93
       11
 72
     1
 10
801.3955830305185
 20
212.8073672266862
 11
797.2857630305187
 21
212.8073672266866
 72
     1
 10
797.2857630305187
 20
212.8073672266866
 11
796.7455830305188
 21
212.7023672266862
 72
     1
 10
796.7455830305188
 20
212.7023672266862
 11
796.5955830305172
 21
212.7023672266866
 72
     1
 10
796.5955830305172
 20
212.7023672266866
 11
796.5955830305172
 21
213.032367226687
 72
     1
 10
796.5955830305172
 20
213.032367226687
 11
795.8637627182253
 21
213.0323672266866
 72
     4
 94
        3
 73
     0
 74
     0
 95
       10
 96
        6
 40
0.2043271184860989
 40
0.2043271184860989
 40
0.2043271184860989
 40
0.2043271184860989
 40
0.7664448258777755
 40
1.177207645214517
 40
1.459767263518128
 40
1.459767263518128
 40
1.459767263518128
 40
1.459767263518128
 10
795.8637627182241
 20
213.0323672266861
 10
795.9839548663603
 20
212.8411898988358
 10
796.1126504032232
 20
212.5273962903053
 10
795.6141559691302
 20
212.2655979313355
 10
795.6620852256572
 20
212.064092517772
 10
795.705233267642
 20
211.9773672266863
 72
     1
 10
795.7052332676411
 20
211.9773672266863
 11
797.1357754091338
 21
211.9773672266867
 72
     1
 10
797.1357754091338
 20
211.9773672266867
 11
797.3955830302693
 21
212.4273672266861
 72
     1
 10
797.3955830302693
 20
212.4273672266861
 11
801.2455830305178
 21
212.427367226687
 72
     1
 10
801.2455830305178
 20
212.427367226687
 11
801.3955830305185
 21
212.577367226687
 72
     1
 10
801.3955830305185
 20
212.577367226687
 11
801.3955830305185
 21
212.8073672266862
 97
        0
 92
        5
 93
       10
 72
     1
 10
797.6955830305175
 20
211.5273672266859
 11
797.3955830302693
 21
211.5273672266859
 72
     1
 10
797.3955830302693
 20
211.5273672266859
 11
797.1357754091338
 21
211.9773672266863
 72
     1
 10
797.1357754091338
 20
211.9773672266863
 11
795.705233267642
 21
211.9773672266863
 72
     4
 94
        3
 73
     0
 74
     0
 95
        9
 96
        5
 40
1.459767263518128
 40
1.459767263518128
 40
1.459767263518128
 40
1.459767263518128
 40
1.99211893163685
 40
2.649961579725134
 40
2.649961579725134
 40
2.649961579725134
 40
2.649961579725134
 10
795.705233267642
 20
211.9773672266863
 10
795.7865256061039
 20
211.8139739093574
 10
796.1556775949401
 20
211.4121424483094
 10
795.9386339936378
 20
211.0908369510369
 10
795.7522667983056
 20
210.922367226686
 72
     1
 10
795.7522667983056
 20
210.922367226686
 11
796.5955830305172
 21
210.9223672266854
 72
     1
 10
796.5955830305172
 20
210.9223672266854
 11
796.5955830305172
 21
211.2523672266864
 72
     1
 10
796.5955830305172
 20
211.2523672266864
 11
796.7455830305197
 21
211.2523672266864
 72
     1
 10
796.7455830305197
 20
211.2523672266864
 11
797.2857630305163
 21
211.1473672266863
 72
     1
 10
797.2857630305163
 20
211.1473672266863
 11
797.6955830305175
 21
211.1473672266863
 72
     1
 10
797.6955830305175
 20
211.1473672266863
 11
797.6955830305175
 21
211.5273672266859
 97
        0
 92
        7
 72
     0
 73
     1
 93
        5
 10
801.3955830305192
 20
211.3773672266858
 10
801.2455830305162
 20
211.5273672266863
 10
798.2955830305171
 20
211.5273672266863
 10
798.2955830305171
 20
211.1473672266867
 10
801.3955830305185
 20
211.1473672266867
 97
        0
 75
     0
 76
     1
 52
0.0
 41
2.0
 77
     0
 78
     1
 53
45.0
 43
-4335.2125664227
 44
3798.375638806847
 45
-0.1767766952966369
 46
0.1767766952966369
 79
     0
 47
0.0087395509262508
 98
        3
 10
799.0763512223353
 20
212.5797775364992
 10
797.1783992255779
 20
211.4611150580697
 10
799.0326197932144
 20
211.2950635499544
1001
ACAD
1010
0.0
1020
0.0
1030
0.0
  0
LINE
  5
F9
330
2
100
AcDbEntity
  8
0
 62
     0
100
AcDbLine
 10
801.3955830305185
 20
211.1473672266863
 30
0.0
 11
801.3955830305185
 21
212.8073672266862
 31
0.0
  0
LINE
  5
FA
330
2
100
AcDbEntity
  8
0
 62
     0
100
AcDbLine
 10
794.6955830305179
 20
212.882367226686
 30
0.0
 11
794.6955830305179
 21
211.0723672266856
 31
0.0
  0
LINE
  5
FB
330
2
100
AcDbEntity
  8
DIM
 62
     0
100
AcDbLine
 10
796.5955830305172
 20
210.922367226686
 30
0.0
 11
796.5955830305172
 21
211.2523672266859
 31
0.0
  0
LINE
  5
FC
330
2
100
AcDbEntity
  8
0
 62
     0
100
AcDbLine
 10
796.5955830305172
 20
212.7023672266871
 30
0.0
 11
796.5955830305172
 21
213.0323672266866
 31
0.0
  0
LINE
  5
FD
330
2
100
AcDbEntity
  8
0
 62
     0
100
AcDbLine
 10
796.5955830305172
 20
211.2523672266859
 30
0.0
 11
796.7455830305168
 21
211.2523672266859
 31
0.0
  0
LINE
  5
FE
330
2
100
AcDbEntity
  8
0
 62
     0
100
AcDbLine
 10
796.7455830305168
 20
212.7023672266866
 30
0.0
 11
796.5955830305172
 21
212.7023672266866
 31
0.0
  0
LINE
  5
FF
330
2
100
AcDbEntity
  8
0
 62
     0
100
AcDbLine
 10
796.7455830305168
 20
211.2523672266859
 30
0.0
 11
797.2857630305168
 21
211.1473672266863
 31
0.0
  0
LINE
  5
100
330
2
100
AcDbEntity
  8
0
 62
     0
100
AcDbLine
 10
797.2857630305168
 20
212.8073672266862
 30
0.0
 11
796.7455830305168
 21
212.7023672266866
 31
0.0
  0
LINE
  5
101
330
2
100
AcDbEntity
  8
0
 62
     0
100
AcDbLine
 10
797.2857630305168
 20
211.1473672266863
 30
0.0
 11
797.6955830305175
 21
211.1473672266863
 31
0.0
  0
LINE
  5
102
330
2
100
AcDbEntity
  8
0
 62
     0
100
AcDbLine
 10
798.2955830305171
 20
211.1473672266863
 30
0.0
 11
801.3955830305185
 21
211.1473672266863
 31
0.0
  0
LINE
  5
103
330
2
100
AcDbEntity
  8
0
 62
     0
100
AcDbLine
 10
801.3955830305185
 20
212.8073672266862
 30
0.0
 11
797.2857630305168
 21
212.8073672266862
 31
0.0
  0
ARC
  5
104
330
2
100
AcDbEntity
  8
0
 62
     0
100
AcDbCircle
 10
787.0955830305172
 20
211.9773672266863
 30
0.0
 40
0.5
100
AcDbArc
 50
90.0
 51
180.0
  0
LINE
  5
105
330
2
100
AcDbEntity
  8
CEN
100
AcDbLine
 10
801.8466930305173
 20
211.9773672266863
 30
0.0
 11
786.2861676126474
 21
211.9773672266863
 31
0.0
  0
LINE
  5
108
330
2
100
AcDbEntity
  8
0
 62
     0
100
AcDbLine
 10
787.0955830305172
 20
211.4773672266862
 30
0.0
 11
794.6955830305179
 21
211.4773672266862
 31
0.0
  0
LINE
  5
109
330
2
100
AcDbEntity
  8
0
 62
     0
100
AcDbLine
 10
794.6955830305179
 20
212.4773672266863
 30
0.0
 11
787.0955830305172
 21
212.4773672266863
 31
0.0
  0
LINE
  5
10A
330
2
100
AcDbEntity
  8
DIM
 62
     0
100
AcDbLine
 10
794.8455830305172
 20
210.922367226686
 30
0.0
 11
796.5955830305172
 21
210.922367226686
 31
0.0
  0
LINE
  5
10B
330
2
100
AcDbEntity
  8
0
 62
     0
100
AcDbLine
 10
796.5955830305172
 20
213.0323672266866
 30
0.0
 11
794.8455830305172
 21
213.0323672266866
 31
0.0
  0
LINE
  5
10C
330
2
100
AcDbEntity
  8
DIM
 62
     0
100
AcDbLine
 10
794.8455830305172
 20
213.0323672266866
 30
0.0
 11
794.8455830305172
 21
210.922367226686
 31
0.0
  0
LINE
  5
10D
330
2
100
AcDbEntity
  8
0
 62
     0
100
AcDbLine
 10
794.6955830305179
 20
212.882367226686
 30
0.0
 11
794.8455830305172
 21
213.0323672266866
 31
0.0
  0
LINE
  5
10E
330
2
100
AcDbEntity
  8
DIM
 62
     0
100
AcDbLine
 10
794.8455830305172
 20
210.922367226686
 30
0.0
 11
794.6955830305179
 21
211.0723672266856
 31
0.0
  0
ARC
  5
10F
330
2
100
AcDbEntity
  8
0
 62
     0
100
AcDbCircle
 10
787.0955830305172
 20
211.9773672266863
 30
0.0
 40
0.5
100
AcDbArc
 50
180.0
 51
270.0
  0
LINE
  5
110
330
2
100
AcDbEntity
  8
CEN
100
AcDbLine
 10
787.0955830305172
 20
211.3177096089082
 30
0.0
 11
787.0955830305172
 21
212.6499042049305
 31
0.0
  0
SPLINE
  5
111
330
2
100
AcDbEntity
  8
DIM
100
AcDbSpline
210
0.0
220
0.0
230
1.0
 70
     8
 71
     3
 72
    11
 73
     7
 74
     5
 42
0.0000000001
 43
0.0000000001
 44
0.0000000001
 40
0.0
 40
0.0
 40
0.0
 40
0.0
 40
0.5257827132566792
 40
0.9365455325932819
 40
1.751456819015843
 40
2.352136063938898
 40
2.352136063938898
 40
2.352136063938898
 40
2.352136063938898
 10
795.8637627182232
 20
213.0323672266866
 30
0.0
 10
795.9535452929499
 20
212.844881111402
 30
0.0
 10
796.1134696631217
 20
212.5109232248723
 30
0.0
 10
795.3898206012366
 20
212.1575313810502
 30
0.0
 10
796.2259748635242
 20
211.5211080669475
 30
0.0
 10
795.8946473620983
 20
211.1007417676655
 30
0.0
 10
795.7540547620692
 20
210.922367226686
 30
0.0
 11
795.8637627182232
 21
213.0323672266866
 31
0.0
 11
795.9607473674066
 21
212.5156067024761
 31
0.0
 11
795.6767038459401
 21
212.2188822989258
 31
0.0
 11
795.999480551498
 21
211.4706205779431
 31
0.0
 11
795.7540547620692
 21
210.922367226686
 31
0.0
  0
LINE
  5
113
330
2
100
AcDbEntity
  8
0
 62
     0
100
AcDbLine
 10
801.2455830305171
 20
212.4273672266866
 30
0.0
 11
797.3955830305182
 21
212.4273672266866
 31
0.0
  0
LINE
  5
114
330
2
100
AcDbEntity
  8
0
 62
     0
100
AcDbLine
 10
801.3955830305185
 20
212.5773672266862
 30
0.0
 11
801.2455830305171
 21
212.4273672266866
 31
0.0
  0
LINE
  5
115
330
2
100
AcDbEntity
  8
0
 62
     0
100
AcDbLine
 10
797.3955830305182
 20
211.5273672266859
 30
0.0
 11
797.6955830305175
 21
211.5273672266859
 31
0.0
  0
LINE
  5
116
330
2
100
AcDbEntity
  8
0
 62
     0
100
AcDbLine
 10
798.2955830305171
 20
211.5273672266859
 30
0.0
 11
801.2455830305171
 21
211.5273672266859
 31
0.0
  0
LINE
  5
117
330
2
100
AcDbEntity
  8
0
 62
     0
100
AcDbLine
 10
801.2455830305171
 20
211.5273672266859
 30
0.0
 11
801.3955830305185
 21
211.3773672266862
 31
0.0
  0
LINE
  5
118
330
2
100
AcDbEntity
  8
0
 62
     0
100
AcDbLine
 10
801.2455830305171
 20
212.4273672266866
 30
0.0
 11
801.2455830305171
 21
211.5273672266859
 31
0.0
  0
LINE
  5
119
330
2
100
AcDbEntity
  8
0
 62
     0
100
AcDbLine
 10
797.3955830305182
 20
212.4273672266866
 30
0.0
 11
797.3955830305182
 21
211.5273672266859
 31
0.0
  0
LINE
  5
11A
330
2
100
AcDbEntity
  8
0
 62
     0
100
AcDbLine
 10
797.6955830305175
 20
211.5273672266859
 30
0.0
 11
797.6955830305175
 21
211.1473672266859
 31
0.0
  0
LINE
  5
11B
330
2
100
AcDbEntity
  8
0
 62
     0
100
AcDbLine
 10
798.2955830305171
 20
211.5273672266859
 30
0.0
 11
798.2955830305171
 21
211.147367225769
 31
0.0
  0
LINE
  5
11C
330
2
100
AcDbEntity
  8
CEN
 48
2.0
100
AcDbLine
 10
797.9955830305168
 20
211.0069272297488
 30
0.0
 11
797.9955830305168
 21
211.6763115299502
 31
0.0
  0
SPLINE
  5
11D
330
2
100
AcDbEntity
  8
0
100
AcDbSpline
210
0.0
220
0.0
230
1.0
 70
     8
 71
     3
 72
    14
 73
    10
 74
     0
 42
0.0000000001
 43
0.0000000001
 40
0.0
 40
0.0
 40
0.0
 40
0.0
 40
0.3509206317746202
 40
0.6930831308006296
 40
1.004201159996229
 40
1.265947766527742
 40
1.46372622764885
 40
1.586600448748188
 40
1.608033357262995
 40
1.608033357262995
 40
1.608033357262995
 40
1.608033357262995
 10
797.9955830305168
 20
211.1965150928165
 30
0.0
 10
798.0177833185316
 20
211.1965150928165
 30
0.0
 10
798.0616473157605
 20
211.1948702308329
 30
0.0
 10
798.1248398281576
 20
211.1878722467946
 30
0.0
 10
798.1818711928152
 20
211.1777472631049
 30
0.0
 10
798.2293651822709
 20
211.1666591403593
 30
0.0
 10
798.2648865675845
 20
211.1568490476013
 30
0.0
 10
798.2855893366412
 20
211.1505399986038
 30
0.0
 10
798.2942912860634
 20
211.1477794065306
 30
0.0
 10
798.2955830305171
 20
211.147367225769
 30
0.0
  0
SPLINE
  5
11E
330
2
100
AcDbEntity
  8
0
100
AcDbSpline
210
0.0
220
0.0
230
1.0
 70
     8
 71
     3
 72
    13
 73
     9
 74
     0
 42
0.0000000001
 43
0.0000000001
 40
0.0202657874677855
 40
0.0202657874677855
 40
0.0202657874677855
 40
0.0202657874677855
 40
0.0569791226315694
 40
0.2234482909022824
 40
0.4868231516947263
 40
0.8271200037761762
 40
1.218961596530584
 40
1.628215596721354
 40
1.628215596721354
 40
1.628215596721354
 40
1.628215596721354
 10
797.6955830305175
 20
211.1473672266859
 30
0.0
 10
797.6977957144844
 20
211.1480732687853
 30
0.0
 10
797.7100526380652
 20
211.1519454800393
 30
0.0
 10
797.7383404679158
 20
211.1603831331432
 30
0.0
 10
797.7855159996241
 20
211.1726251786724
 30
0.0
 10
797.8472913323019
 20
211.1851042419823
 30
0.0
 10
797.9189852291798
 20
211.1942947503232
 30
0.0
 10
797.9696923992677
 20
211.1965150928165
 30
0.0
 10
797.9955830305168
 20
211.1965150928165
 30
0.0
  0
SPLINE
  5
11F
330
2
100
AcDbEntity
  8
0
100
AcDbSpline
210
0.0
220
0.0
230
1.0
 70
     8
 71
     3
 72
    14
 73
    10
 74
     0
 42
0.0000000001
 43
0.0000000001
 40
0.0
 40
0.0
 40
0.0
 40
0.0
 40
0.3509206317746202
 40
0.6930831308006296
 40
1.004201159996229
 40
1.265947766527742
 40
1.46372622764885
 40
1.586600448748188
 40
1.608033357262995
 40
1.608033357262995
 40
1.608033357262995
 40
1.608033357262995
 10
797.9955830305168
 20
211.5765150937342
 30
0.0
 10
798.0177833185316
 20
211.5765150937342
 30
0.0
 10
798.0616473157605
 20
211.5748702317507
 30
0.0
 10
798.1248398281576
 20
211.5678722477125
 30
0.0
 10
798.1818711928152
 20
211.5577472640218
 30
0.0
 10
798.2293651822709
 20
211.5466591412771
 30
0.0
 10
798.2648865675845
 20
211.5368490485182
 30
0.0
 10
798.2855893366412
 20
211.5305399995216
 30
0.0
 10
798.2942912860634
 20
211.5277794074484
 30
0.0
 10
798.2955830305171
 20
211.5273672266859
 30
0.0
  0
SPLINE
  5
120
330
2
100
AcDbEntity
  8
0
100
AcDbSpline
210
0.0
220
0.0
230
1.0
 70
     8
 71
     3
 72
    14
 73
    10
 74
     0
 42
0.0000000001
 43
0.0000000001
 40
0.0
 40
0.0
 40
0.0
 40
0.0
 40
0.3509206317746202
 40
0.6930831308006296
 40
1.004201159996229
 40
1.265947766527742
 40
1.46372622764885
 40
1.586600448748188
 40
1.608033357262995
 40
1.608033357262995
 40
1.608033357262995
 40
1.608033357262995
 10
797.9955830305168
 20
211.5765150937342
 30
0.0
 10
797.9733827425032
 20
211.5765150937342
 30
0.0
 10
797.9295187452752
 20
211.5748702317507
 30
0.0
 10
797.8663262328772
 20
211.5678722477125
 30
0.0
 10
797.8092948682196
 20
211.5577472640218
 30
0.0
 10
797.7618008787648
 20
211.5466591412771
 30
0.0
 10
797.7262794934503
 20
211.5368490485182
 30
0.0
 10
797.7055767243935
 20
211.5305399995216
 30
0.0
 10
797.6968747749722
 20
211.5277794074484
 30
0.0
 10
797.6955830305175
 20
211.5273672266859
 30
0.0
  0
LINE
  5
121
330
2
100
AcDbEntity
  8
0
100
AcDbLine
 10
797.3955830305182
 20
211.5273672262558
 30
0.0
 11
797.135775409135
 21
211.9773672266858
 31
0.0
  0
LINE
  5
122
330
2
100
AcDbEntity
  8
0
100
AcDbLine
 10
797.3955830305182
 20
212.4273672271158
 30
0.0
 11
797.135775409135
 21
211.9773672266858
 31
0.0
  0
LINE
  5
123
330
2
100
AcDbEntity
  8
0
100
AcDbLine
 10
774.5868903588316
 20
194.4769300117485
 30
0.0
 11
774.0486433391321
 21
193.3438649384985
 31
0.0
  0
LINE
  5
124
330
2
100
AcDbEntity
  8
0
100
AcDbLine
 10
774.0090248033117
 20
192.7990152775095
 30
0.0
 11
772.7077334796779
 21
190.0596638357282
 31
0.0
  0
LINE
  5
125
330
2
100
AcDbEntity
  8
0
100
AcDbLine
 10
774.3128482938613
 20
193.21835799952
 30
0.0
 11
774.2762896350162
 21
193.141398279749
 31
0.0
  0
LINE
  5
126
330
2
100
AcDbEntity
  8
0
100
AcDbLine
 10
774.0401925933438
 20
192.8485027055587
 30
0.0
 11
774.0090248033117
 21
192.7990152775095
 31
0.0
  0
LINE
  5
127
330
2
100
AcDbEntity
  8
0
100
AcDbLine
 10
777.503610408605
 20
199.4633028114614
 30
0.0
 11
775.2479266848167
 21
194.7148576737417
 31
0.0
  0
LINE
  5
128
330
2
100
AcDbEntity
  8
0
100
AcDbLine
 10
774.2925807865765
 20
193.1616086393228
 30
0.0
 11
774.0401925933438
 21
192.8485027055587
 31
0.0
  0
LINE
  5
129
330
2
100
AcDbEntity
  8
0
100
AcDbLine
 10
775.4604239706736
 20
192.6068407554691
 30
0.0
 11
775.3771716863661
 21
192.2133891277783
 31
0.0
  0
LINE
  5
12A
330
2
100
AcDbEntity
  8
0
100
AcDbLine
 10
775.1404368782487
 20
194.7159764538401
 30
0.0
 11
774.9916167822719
 21
194.7029637696437
 31
0.0
  0
LINE
  5
12B
330
2
100
AcDbEntity
  8
0
100
AcDbLine
 10
776.1296415630767
 20
194.2460683387139
 30
0.0
 11
776.2135755102816
 21
194.1224890383316
 31
0.0
  0
LINE
  5
12C
330
2
100
AcDbEntity
  8
0
100
AcDbLine
 10
778.3165487311042
 20
199.0771276131432
 30
0.0
 11
776.0622117258662
 21
194.3315174553447
 31
0.0
  0
LINE
  5
12D
330
2
100
AcDbEntity
  8
0
100
AcDbLine
 10
775.491608862042
 20
192.658403961567
 30
0.0
 11
775.4550502025527
 21
192.5814442426591
 31
0.0
  0
LINE
  5
12E
330
2
100
AcDbEntity
  8
0
100
AcDbLine
 10
775.3585024189757
 20
192.1579644481608
 30
0.0
 11
774.057211095451
 21
189.4186130071332
 31
0.0
  0
LINE
  5
12F
330
2
100
AcDbEntity
  8
0
100
AcDbLine
 10
776.2940608363552
 20
193.6659620950831
 30
0.0
 11
775.7558138167667
 21
192.5328970225878
 31
0.0
  0
SPLINE
  5
130
330
2
100
AcDbEntity
  8
0
100
AcDbSpline
210
0.0
220
0.0
230
1.0
 70
     8
 71
     3
 72
    17
 73
    13
 74
    11
 42
0.0000000001
 43
0.0000000001
 44
0.0000000001
 12
-0.429083553765312
 22
-0.9032648027506279
 32
0.0
 13
-0.3111944095716749
 23
0.9503462734452829
 33
0.0
 40
0.0
 40
0.0
 40
0.0
 40
0.0
 40
0.0579138850604327
 40
0.1210731233998217
 40
0.1889494786380312
 40
0.2599054189366925
 40
0.3308551583285643
 40
0.3984359705370822
 40
0.4593651508592291
 40
0.5122935043830152
 40
0.557958679836836
 40
0.5883334720451053
 40
0.5883334720451053
 40
0.5883334720451053
 40
0.5883334720451053
 10
774.5568463536901
 20
192.4285620800517
 30
0.0
 10
774.5485630551521
 20
192.4111248887298
 30
0.0
 10
774.5247603520147
 20
192.3775032417049
 30
0.0
 10
774.4739429904707
 20
192.3390217058583
 30
0.0
 10
774.4116677362994
 20
192.3121398055195
 30
0.0
 10
774.3431822648903
 20
192.2965623757205
 30
0.0
 10
774.273316273515
 20
192.2913507205596
 30
0.0
 10
774.2067448933746
 20
192.295605014852
 30
0.0
 10
774.1473875843187
 20
192.3086706023109
 30
0.0
 10
774.0983277104768
 20
192.3303433809573
 30
0.0
 10
774.0651126354036
 20
192.3593307660232
 30
0.0
 10
774.0535131672319
 20
192.3824237810504
 30
0.0
 10
774.0503623453895
 20
192.3920459712443
 30
0.0
 11
774.5568463536901
 21
192.4285620800517
 31
0.0
 11
774.5237873324454
 21
192.3810108529683
 31
0.0
 11
774.4740134328463
 21
192.3421309313338
 31
0.0
 11
774.4120147487598
 21
192.3145019108667
 31
0.0
 11
774.3429300890542
 21
192.2983137900051
 31
0.0
 11
774.2721836967025
 21
192.2929459702432
 31
0.0
 11
774.2047597647653
 21
192.2975480981081
 31
0.0
 11
774.1454094183461
 21
192.3113285696038
 31
0.0
 11
774.0975145876139
 21
192.3338562369459
 31
0.0
 11
774.0640541881862
 21
192.3649321105357
 31
0.0
 11
774.0503623453895
 21
192.3920459712443
 31
0.0
  0
SPLINE
  5
131
330
2
100
AcDbEntity
  8
0
100
AcDbSpline
210
0.0
220
0.0
230
1.0
 70
     8
 71
     3
 72
     9
 73
     5
 74
     3
 42
0.0000000001
 43
0.0000000001
 44
0.0000000001
 12
-0.3073810411327341
 22
0.9515865150117232
 32
0.0
 13
-0.5614875645800371
 23
0.8274851749862223
 33
0.0
 40
0.0
 40
0.0
 40
0.0
 40
0.0
 40
0.1564496180382042
 40
0.1969834184401196
 40
0.1969834184401196
 40
0.1969834184401196
 40
0.1969834184401196
 10
776.3018989991821
 20
193.9467445015338
 30
0.0
 10
776.285869117023
 20
193.9963696171351
 30
0.0
 10
776.2567576152323
 20
194.0561729245829
 30
0.0
 10
776.2211757417373
 20
194.1113180448131
 30
0.0
 10
776.2135893334471
 20
194.1224984177859
 30
0.0
 11
776.3018989991821
 21
193.9467445015338
 31
0.0
 11
776.2355453237128
 21
194.0884260907965
 31
0.0
 11
776.2135893334471
 21
194.1224984177859
 31
0.0
  0
SPLINE
  5
132
330
2
100
AcDbEntity
  8
0
100
AcDbSpline
210
0.0
220
0.0
230
1.0
 70
     8
 71
     3
 72
    10
 73
     6
 74
     4
 42
0.0000000001
 43
0.0000000001
 44
0.0000000001
 12
0.3071420796273822
 22
-0.951663671116097
 32
0.0
 13
-0.4290835544543843
 23
-0.9032648024232935
 33
0.0
 40
0.0
 40
0.0
 40
0.0
 40
0.0
 40
0.0241898863390464
 40
0.0823395404017374
 40
0.1386033309758078
 40
0.1386033309758078
 40
0.1386033309758078
 40
0.1386033309758078
 10
774.5641906348448
 20
192.5579037948468
 30
0.0
 10
774.5666672121768
 20
192.550230249501
 30
0.0
 10
774.5729540984356
 20
192.5233495927778
 30
0.0
 10
774.5713259804979
 20
192.4765748652944
 30
0.0
 10
774.5619410781793
 20
192.4390166040446
 30
0.0
 10
774.5538937890971
 20
192.4220762368192
 30
0.0
 11
774.5641906348448
 21
192.5579037948468
 31
0.0
 11
774.5697350758518
 21
192.5343578870279
 31
0.0
 11
774.5692267796512
 21
192.4762104545602
 31
0.0
 11
774.5538937890971
 21
192.4220762368192
 31
0.0
  0
LINE
  5
133
330
2
100
AcDbEntity
  8
0
100
AcDbLine
 10
774.5587936869569
 20
192.4334668907328
 30
0.0
 11
774.5481407752412
 21
192.441022721693
 31
0.0
  0
SPLINE
  5
134
330
2
100
AcDbEntity
  8
0
100
AcDbSpline
210
0.0
220
0.0
230
1.0
 70
     8
 71
     3
 72
    16
 73
    12
 74
    10
 42
0.0000000001
 43
0.0000000001
 44
0.0000000001
 12
-0.8332250824083018
 22
0.5529339581231005
 32
0.0
 13
-0.5522081626158096
 23
-0.8337062703017602
 33
0.0
 40
0.0
 40
0.0
 40
0.0
 40
0.0
 40
0.0601706108082212
 40
0.1175144134279876
 40
0.1741117211603784
 40
0.2276808249112453
 40
0.2773285982683332
 40
0.3246536193331338
 40
0.3716728758014907
 40
0.4189125399135749
 40
0.4343264234731583
 40
0.4343264234731583
 40
0.4343264234731583
 40
0.4343264234731583
 10
774.5481407752412
 20
192.441022721693
 30
0.0
 10
774.5314288878581
 20
192.4521128463586
 30
0.0
 10
774.4953684314618
 20
192.4691925008848
 30
0.0
 10
774.4369582635108
 20
192.4768300639504
 30
0.0
 10
774.3811590157565
 20
192.4677761155982
 30
0.0
 10
774.3317346895154
 20
192.446906030065
 30
0.0
 10
774.2895706428076
 20
192.4193366418684
 30
0.0
 10
774.2532601671411
 20
192.387771521669
 30
0.0
 10
774.2211861492385
 20
192.3530473234015
 30
0.0
 10
774.1989339776104
 20
192.3239785966205
 30
0.0
 10
774.1871653790337
 20
192.3067239242561
 30
0.0
 10
774.1843281549273
 20
192.3024403737983
 30
0.0
 11
774.5481407752412
 21
192.441022721693
 31
0.0
 11
774.493619386654
 21
192.4664770060388
 31
0.0
 11
774.4367761063505
 21
192.4740369784748
 31
0.0
 11
774.3808437183767
 21
192.4653869369655
 31
0.0
 11
774.3313332233839
 21
192.4449330922846
 31
0.0
 11
774.2896295579022
 21
192.4179941672001
 31
0.0
 11
774.2537915666444
 21
192.3870863041004
 31
0.0
 11
774.22179057434
 21
192.3526371100551
 31
0.0
 11
774.1930130552291
 21
192.3151745919971
 31
0.0
 11
774.1843281549273
 21
192.3024403737983
 31
0.0
  0
SPLINE
  5
135
330
2
100
AcDbEntity
  8
0
100
AcDbSpline
210
0.0
220
0.0
230
1.0
 70
     8
 71
     3
 72
    10
 73
     6
 74
     4
 42
0.0000000001
 43
0.0000000001
 44
0.0000000001
 12
0.3073810391696783
 22
-0.9515865156458286
 32
0.0
 13
-0.4311002515321979
 23
-0.9023040358597958
 33
0.0
 40
0.0
 40
0.0
 40
0.0
 40
0.0
 40
0.1373943039975473
 40
0.2616011484423512
 40
0.2865711916388694
 40
0.2865711916388694
 40
0.2865711916388694
 40
0.2865711916388694
 10
776.3018989991821
 20
193.9467445015338
 30
0.0
 10
776.3159764671618
 20
193.9031636458636
 30
0.0
 10
776.332735307041
 20
193.8160693889269
 30
0.0
 10
776.3172469550291
 20
193.7192205233938
 30
0.0
 10
776.2976091411121
 20
193.6734913456311
 30
0.0
 10
776.2940209438112
 20
193.6659811553805
 30
0.0
 11
776.3018989991821
 21
193.9467445015338
 31
0.0
 11
776.3250573084603
 21
193.8113159687855
 31
0.0
 11
776.3038589968779
 21
193.6889314444657
 31
0.0
 11
776.2940209438112
 21
193.6659811553805
 31
0.0
  0
SPLINE
  5
136
330
2
100
AcDbEntity
  8
0
100
AcDbSpline
210
0.0
220
0.0
230
1.0
 70
     8
 71
     3
 72
    15
 73
    11
 74
     9
 42
0.0000000001
 43
0.0000000001
 44
0.0000000001
 12
0.9961830127623311
 22
0.0872892037067888
 32
0.0
 13
0.5610686412604293
 23
-0.8277692793249673
 33
0.0
 40
0.0
 40
0.0
 40
0.0
 40
0.0
 40
0.0982757467228442
 40
0.2116676333452801
 40
0.3309861738994126
 40
0.4529615455789191
 40
0.575182877546668
 40
0.694454011179472
 40
0.8060338589846727
 40
0.8708720761462345
 40
0.8708720761462345
 40
0.8708720761462345
 40
0.8708720761462345
 10
773.1045570302431
 20
190.130072694316
 30
0.0
 10
773.1371905733936
 20
190.1329321648743
 30
0.0
 10
773.2080922373731
 20
190.1327776719508
 30
0.0
 10
773.3175308820505
 20
190.1163441175029
 30
0.0
 10
773.4314465462071
 20
190.0835407476419
 30
0.0
 10
773.5432448093685
 20
190.0360812230135
 30
0.0
 10
773.6486311207
 20
189.9757102057799
 30
0.0
 10
773.7429648427867
 20
189.9047992778224
 30
0.0
 10
773.8131716318198
 20
189.8350709400535
 30
0.0
 10
773.8491114353888
 20
189.7883615704508
 30
0.0
 10
773.8612376655237
 20
189.77047120902
 30
0.0
 11
773.1045570302431
 21
190.130072694316
 31
0.0
 11
773.2028315859357
 21
190.1305565303816
 31
0.0
 11
773.3150479932572
 21
190.1142716330946
 31
0.0
 11
773.4297892882449
 21
190.0815401597925
 31
0.0
 11
773.5420968060632
 21
190.0339480098322
 31
0.0
 11
773.6480782099432
 21
189.9730711175036
 31
0.0
 11
773.7431868252532
 21
189.9010992159595
 31
0.0
 11
773.821890397872
 21
189.822005536735
 31
0.0
 11
773.8612376655237
 21
189.77047120902
 31
0.0
  0
SPLINE
  5
137
330
2
100
AcDbEntity
  8
0
100
AcDbSpline
210
0.0
220
0.0
230
1.0
 70
     8
 71
     3
 72
    10
 73
     6
 74
     4
 42
0.0000000001
 43
0.0000000001
 44
0.0000000001
 12
0.3073810316869094
 22
-0.9515865180629091
 32
0.0
 13
-0.4296156249178721
 23
-0.9030118575226055
 33
0.0
 40
0.0
 40
0.0
 40
0.0
 40
0.0
 40
0.0536131876154398
 40
0.1036847497762668
 40
0.1228737552776391
 40
0.1228737552776391
 40
0.1228737552776391
 40
0.1228737552776391
 10
773.8149769244471
 20
189.818996672542
 30
0.0
 10
773.8204701500875
 20
189.8019908103669
 30
0.0
 10
773.8274348957583
 20
189.7676642860026
 30
0.0
 10
773.8228186040272
 20
189.7260698582161
 30
0.0
 10
773.8143609818238
 20
189.7044989064045
 30
0.0
 10
773.8116130162937
 20
189.6987229399039
 30
0.0
 11
773.8149769244471
 21
189.818996672542
 31
0.0
 11
773.8247691197178
 21
189.7662853189446
 31
0.0
 11
773.8185979700431
 21
189.7165954985694
 31
0.0
 11
773.8116130162937
 21
189.6987229399039
 31
0.0
  0
SPLINE
  5
138
330
2
100
AcDbEntity
  8
0
100
AcDbSpline
210
0.0
220
0.0
230
1.0
 70
     8
 71
     3
 72
    19
 73
    15
 74
    13
 42
0.0000000001
 43
0.0000000001
 44
0.0000000001
 12
-0.307381039790212
 22
0.9515865154453841
 32
0.0
 13
-0.4290835536297052
 23
-0.9032648028150461
 33
0.0
 40
0.0
 40
0.0
 40
0.0
 40
0.0
 40
0.0977972188123008
 40
0.1965852184157097
 40
0.2871511237431034
 40
0.3691008678687559
 40
0.4471564650899645
 40
0.5249229293849531
 40
0.6076442572522341
 40
0.6948663214559026
 40
0.7852603618093382
 40
0.8796238303770426
 40
0.9715875101157923
 40
1.071749190065161
 40
1.071749190065161
 40
1.071749190065161
 40
1.071749190065161
 10
778.3382935016065
 20
199.4085366801515
 30
0.0
 10
778.3282731646708
 20
199.4395575183747
 30
0.0
 10
778.3012354154225
 20
199.4999174867121
 30
0.0
 10
778.2436001641606
 20
199.5772742145137
 30
0.0
 10
778.1751321852016
 20
199.6373018435144
 30
0.0
 10
778.1025774146396
 20
199.6795987782744
 30
0.0
 10
778.0277457338966
 20
199.7068993913114
 30
0.0
 10
777.9490781297401
 20
199.7209290921041
 30
0.0
 10
777.8660398950038
 20
199.7207591292738
 30
0.0
 10
777.780303178849
 20
199.7041650383323
 30
0.0
 10
777.6958467300037
 20
199.6695665414865
 30
0.0
 10
777.6188567771444
 20
199.6175052329863
 30
0.0
 10
777.5520148230589
 20
199.548438033009
 30
0.0
 10
777.5179363184617
 20
199.4934603181577
 30
0.0
 10
777.503610408605
 20
199.4633028114614
 30
0.0
 11
778.3382935016065
 21
199.4085366801515
 31
0.0
 11
778.2982979886974
 21
199.4977815957185
 31
0.0
 11
778.2392877630377
 21
199.5770082461162
 31
0.0
 11
778.1711895307946
 21
199.6367143092349
 31
0.0
 11
778.1003936857939
 21
199.6779903179191
 31
0.0
 11
778.0270657858403
 21
199.7047428009055
 31
0.0
 11
777.9505071447153
 21
199.7183955456128
 31
0.0
 11
777.8677859961605
 21
199.7182233076984
 31
0.0
 11
777.7821532293565
 21
199.7016486965886
 31
0.0
 11
777.6985079623641
 21
199.667376961278
 31
0.0
 11
777.6203352182077
 21
199.6145235198462
 31
0.0
 11
777.5563899109707
 21
199.5484302821175
 31
0.0
 11
777.503610408605
 21
199.4633028114614
 31
0.0
  0
LINE
  5
139
330
2
100
AcDbEntity
  8
0
100
AcDbLine
 10
773.8080080561015
 20
189.8378782399352
 30
0.0
 11
773.8149769244471
 21
189.818996672542
 31
0.0
  0
SPLINE
  5
13A
330
2
100
AcDbEntity
  8
0
100
AcDbSpline
210
0.0
220
0.0
230
1.0
 70
     8
 71
     3
 72
     9
 73
     5
 74
     3
 42
0.0000000001
 43
0.0000000001
 44
0.0000000001
 12
0.4296444086495096
 22
0.9029981628531775
 32
0.0
 13
0.8206498180383261
 23
0.5714314273416034
 33
0.0
 40
0.0
 40
0.0
 40
0.0
 40
0.0
 40
0.0301825662542503
 40
0.0756303517031886
 40
0.0756303517031886
 40
0.0756303517031886
 40
0.0756303517031886
 10
773.0799777145413
 20
190.0461520373234
 30
0.0
 10
773.0843003048179
 20
190.0552369712826
 30
0.0
 10
773.0976870759558
 20
190.0768653428175
 30
0.0
 10
773.1166996591356
 20
190.0941301559263
 30
0.0
 10
773.1291318980886
 20
190.1027869202292
 30
0.0
 11
773.0799777145413
 21
190.0461520373234
 31
0.0
 11
773.0958810864322
 21
190.0718049137351
 31
0.0
 11
773.1291318980886
 21
190.1027869202292
 31
0.0
  0
SPLINE
  5
13B
330
2
100
AcDbEntity
  8
0
100
AcDbSpline
210
0.0
220
0.0
230
1.0
 70
     8
 71
     3
 72
    10
 73
     6
 74
     4
 42
0.0000000001
 43
0.0000000001
 44
0.0000000001
 12
0.8206498228445655
 22
0.5714314204392191
 32
0.0
 13
0.9550920167066527
 23
0.2963093647241326
 33
0.0
 40
0.0
 40
0.0
 40
0.0
 40
0.0
 40
0.0064683536932438
 40
0.0637052833259022
 40
0.0648894837410229
 40
0.0648894837410229
 40
0.0648894837410229
 40
0.0648894837410229
 10
773.1291318980886
 20
190.1027869202292
 30
0.0
 10
773.1309013158594
 20
190.1040189937421
 30
0.0
 10
773.1485474804663
 20
190.1158315748592
 30
0.0
 10
773.1686970733115
 20
190.124682740612
 30
0.0
 10
773.1872812955194
 20
190.1304935720635
 30
0.0
 10
773.187658302307
 20
190.1306105352877
 30
0.0
 11
773.1291318980886
 21
190.1027869202292
 31
0.0
 11
773.1345067614547
 21
190.1063855926645
 31
0.0
 11
773.1865280706345
 21
190.1302571134581
 31
0.0
 11
773.187658302307
 21
190.1306105352877
 31
0.0
  0
SPLINE
  5
13C
330
2
100
AcDbEntity
  8
0
100
AcDbSpline
210
0.0
220
0.0
230
1.0
 70
     8
 71
     3
 72
    10
 73
     6
 74
     4
 42
0.0000000001
 43
0.0000000001
 44
0.0000000001
 12
-0.4308145048760477
 22
-0.9024405035172158
 32
0.0
 13
0.3073810384969669
 23
-0.9515865158631275
 33
0.0
 40
0.0
 40
0.0
 40
0.0
 40
0.0
 40
0.0196606927198545
 40
0.1178432455089469
 40
0.2264501715661655
 40
0.2264501715661655
 40
0.2264501715661655
 40
0.2264501715661655
 10
772.7077315727299
 20
190.0595787489853
 30
0.0
 10
772.7049082021967
 20
190.0536645471728
 30
0.0
 10
772.689401258231
 20
190.0175382613898
 30
0.0
 10
772.6771622099506
 20
189.9410075237247
 30
0.0
 10
772.6904096948524
 20
189.8721616582894
 30
0.0
 10
772.7015375980924
 20
189.837712029501
 30
0.0
 11
772.7077315727299
 21
190.0595787489853
 31
0.0
 11
772.6999882668177
 21
190.0415071123197
 31
0.0
 11
772.6832315061651
 21
189.9447650602192
 31
0.0
 11
772.7015375980924
 21
189.837712029501
 31
0.0
  0
SPLINE
  5
13D
330
2
100
AcDbEntity
  8
0
100
AcDbSpline
210
0.0
220
0.0
230
1.0
 70
     8
 71
     3
 72
    11
 73
     7
 74
     5
 42
0.0000000001
 43
0.0000000001
 44
0.0000000001
 12
-0.4308145051555455
 22
-0.9024405033837867
 32
0.0
 13
-0.9893503473730714
 23
-0.145553736306504
 33
0.0
 40
0.0
 40
0.0
 40
0.0
 40
0.0
 40
0.0971931182164504
 40
0.2281435709617531
 40
0.3763925316462671
 40
0.4350422669802973
 40
0.4350422669802973
 40
0.4350422669802973
 40
0.4350422669802973
 10
775.7558162291927
 20
192.5330046632365
 30
0.0
 10
775.7418588274831
 20
192.5037676610602
 30
0.0
 10
775.6981019364003
 20
192.4398620944243
 30
0.0
 10
775.5944916696403
 20
192.3648358069396
 30
0.0
 10
775.4867208801123
 20
192.3279177067188
 30
0.0
 10
775.4188911123666
 20
192.3153402918663
 30
0.0
 10
775.399549400358
 20
192.3124947291626
 30
0.0
 11
775.7558162291927
 21
192.5330046632365
 31
0.0
 11
775.7011200172113
 21
192.4526627275894
 31
0.0
 11
775.5965683038566
 21
192.3738150243331
 31
0.0
 11
775.4571994978155
 21
192.3232770163915
 31
0.0
 11
775.399549400358
 21
192.3124947291626
 31
0.0
  0
SPLINE
  5
13E
330
2
100
AcDbEntity
  8
0
100
AcDbSpline
210
0.0
220
0.0
230
1.0
 70
     8
 71
     3
 72
     8
 73
     4
 74
     2
 42
0.0000000001
 43
0.0000000001
 44
0.0000000001
 12
-0.5136318511909762
 22
0.8580106767646489
 32
0.0
 13
-0.3073810414047178
 23
0.951586514923867
 33
0.0
 40
0.0
 40
0.0
 40
0.0
 40
0.0
 40
0.1494185584557164
 40
0.1494185584557164
 40
0.1494185584557164
 40
0.1494185584557164
 10
774.1034996656452
 20
192.9274532346862
 30
0.0
 10
774.0779176220512
 20
192.9701874741734
 30
0.0
 10
774.0561146530328
 20
193.0156876378097
 30
0.0
 10
774.0408051756651
 20
193.0630825329116
 30
0.0
 11
774.1034996656452
 21
192.9274532346862
 31
0.0
 11
774.0408051756651
 21
193.0630825329116
 31
0.0
  0
SPLINE
  5
13F
330
2
100
AcDbEntity
  8
0
100
AcDbSpline
210
0.0
220
0.0
230
1.0
 70
     8
 71
     3
 72
    10
 73
     6
 74
     4
 42
0.0000000001
 43
0.0000000001
 44
0.0000000001
 12
-0.4308145049413584
 22
-0.9024405034860372
 32
0.0
 13
0.3073810407004566
 23
-0.9515865151513573
 33
0.0
 40
0.0
 40
0.0
 40
0.0
 40
0.0
 40
0.0248719595200429
 40
0.1490788039662989
 40
0.28647310772943
 40
0.28647310772943
 40
0.28647310772943
 40
0.28647310772943
 10
774.0486409267105
 20
193.3437572978506
 30
0.0
 10
774.0450691930679
 20
193.3362754766266
 30
0.0
 10
774.0254519749038
 20
193.2905735489892
 30
0.0
 10
774.0099688421653
 20
193.1937575558384
 30
0.0
 10
774.0267277076394
 20
193.1066633884848
 30
0.0
 10
774.0408051756651
 20
193.0630825329116
 30
0.0
 11
774.0486409267105
 21
193.3437572978506
 31
0.0
 11
774.0388451787226
 21
193.3208955898714
 31
0.0
 11
774.017646867138
 21
193.1985110655505
 31
0.0
 11
774.0408051756651
 21
193.0630825329116
 31
0.0
  0
SPLINE
  5
140
330
2
100
AcDbEntity
  8
0
100
AcDbSpline
210
0.0
220
0.0
230
1.0
 70
     8
 71
     3
 72
    15
 73
    11
 74
     9
 42
0.0000000001
 43
0.0000000001
 44
0.0000000001
 12
-0.5613691070817453
 22
0.8275655415822026
 32
0.0
 13
-0.9962307528410661
 23
-0.0867426486436906
 33
0.0
 40
0.0
 40
0.0
 40
0.0
 40
0.0
 40
0.1102018817272738
 40
0.2669263196102176
 40
0.433442422562729
 40
0.6044969485073737
 40
0.7743652041766876
 40
0.9374432085820002
 40
1.088853447293224
 40
1.138279425697124
 40
1.138279425697124
 40
1.138279425697124
 40
1.138279425697124
 10
776.1297095057276
 20
194.2459922803998
 30
0.0
 10
776.1090881950796
 20
194.2763920403781
 30
0.0
 10
776.0533528281814
 20
194.346163669969
 30
0.0
 10
775.9473256955465
 20
194.4451300905627
 30
0.0
 10
775.8118764142604
 20
194.5398025599102
 30
0.0
 10
775.6614975508925
 20
194.6182298265461
 30
0.0
 10
775.503457901831
 20
194.6766046311084
 30
0.0
 10
775.345457833396
 20
194.7121064031465
 30
0.0
 10
775.2238472159684
 20
194.720899264226
 30
0.0
 10
775.1569443277786
 20
194.7174272492402
 30
0.0
 10
775.1405311012202
 20
194.715998135814
 30
0.0
 11
776.1297095057276
 21
194.2459922803998
 31
0.0
 11
776.0614375807882
 21
194.3324989217709
 31
0.0
 11
775.9474861731997
 21
194.4400982997353
 31
0.0
 11
775.8112864276338
 21
194.535896221687
 31
0.0
 11
775.6596679662598
 21
194.6150889802999
 31
0.0
 11
775.5002335737055
 21
194.6737055202436
 31
0.0
 11
775.3409779543159
 21
194.7088065631578
 31
0.0
 11
775.1898868518408
 21
194.7186319964534
 31
0.0
 11
775.1405311012202
 21
194.715998135814
 31
0.0
  0
SPLINE
  5
141
330
2
100
AcDbEntity
  8
0
100
AcDbSpline
210
0.0
220
0.0
230
1.0
 70
     8
 71
     3
 72
     9
 73
     5
 74
     3
 42
0.0000000001
 43
0.0000000001
 44
0.0000000001
 12
-0.2060140497550429
 22
-0.9785490336735952
 32
0.0
 13
-0.431100253869288
 23
-0.9023040347431876
 33
0.0
 40
0.0
 40
0.0
 40
0.0
 40
0.0
 40
0.0388335432252414
 40
0.058571768037492
 40
0.058571768037492
 40
0.058571768037492
 40
0.058571768037492
 10
775.377140424674
 20
192.2133957090378
 30
0.0
 10
775.3744736728386
 20
192.2007288669721
 30
0.0
 10
775.3690169795892
 20
192.1818736615597
 30
0.0
 10
775.361307269538
 20
192.1639161409732
 30
0.0
 10
775.3584708849621
 20
192.1579795143443
 30
0.0
 11
775.377140424674
 21
192.2133957090378
 31
0.0
 11
775.3662476318338
 21
192.1761211715683
 31
0.0
 11
775.3584708849621
 21
192.1579795143443
 31
0.0
  0
SPLINE
  5
142
330
2
100
AcDbEntity
  8
0
100
AcDbSpline
210
0.0
220
0.0
230
1.0
 70
     8
 71
     3
 72
    11
 73
     7
 74
     5
 42
0.0000000001
 43
0.0000000001
 44
0.0000000001
 12
-0.9962189567187254
 22
-0.0868780195115807
 32
0.0
 13
-0.4311002512570836
 23
-0.9023040359912391
 33
0.0
 40
0.0
 40
0.0
 40
0.0
 40
0.0
 40
0.1073751679293797
 40
0.2556241286137393
 40
0.3865745813568435
 40
0.483670670131351
 40
0.483670670131351
 40
0.483670670131351
 40
0.483670670131351
 10
774.9916153418055
 20
194.7029802847885
 30
0.0
 10
774.9559589492148
 20
194.6998707708104
 30
0.0
 10
774.8714636239928
 20
194.6872230704292
 30
0.0
 10
774.7482294300477
 20
194.6449942273623
 30
0.0
 10
774.6446253975728
 20
194.5699833267999
 30
0.0
 10
774.6008829675736
 20
194.5061143497982
 30
0.0
 10
774.5869302514846
 20
194.4769109522048
 30
0.0
 11
774.9916153418055
 21
194.7029802847885
 31
0.0
 11
774.8855046777832
 21
194.6865500179436
 31
0.0
 11
774.7461358717417
 21
194.6360120100031
 31
0.0
 11
774.6415841583891
 21
194.5571643067477
 31
0.0
 11
774.5869302514846
 21
194.4769109522048
 31
0.0
  0
SPLINE
  5
143
330
2
100
AcDbEntity
  8
0
100
AcDbSpline
210
0.0
220
0.0
230
1.0
 70
     8
 71
     3
 72
    19
 73
    15
 74
    13
 42
0.0000000001
 43
0.0000000001
 44
0.0000000001
 12
-0.4308145042823706
 22
-0.9024405038006303
 32
0.0
 13
-0.3073810398524297
 23
0.9515865154252866
 33
0.0
 40
0.0
 40
0.0
 40
0.0
 40
0.0
 40
0.0768288459970805
 40
0.1803420602084432
 40
0.2975293342238366
 40
0.4306085718644272
 40
0.5784562173382108
 40
0.737697091762728
 40
0.9035684475166466
 40
1.070598160980809
 40
1.233196238251616
 40
1.386233042302071
 40
1.525671332884536
 40
1.649341030984764
 40
1.649341030984764
 40
1.649341030984764
 40
1.649341030984764
 10
774.0572130024012
 20
189.418698093877
 30
0.0
 10
774.0461800086669
 20
189.3955869397143
 30
0.0
 10
774.0115948189378
 20
189.3450717202746
 30
0.0
 10
773.9296714766727
 20
189.2857615170651
 30
0.0
 10
773.8169189795789
 20
189.2471195608821
 30
0.0
 10
773.6840853477349
 20
189.2330767783791
 30
0.0
 10
773.5371163161659
 20
189.2437193868769
 30
0.0
 10
773.3827968064775
 20
189.2783836929008
 30
0.0
 10
773.2284864555055
 20
189.3353853300762
 30
0.0
 10
773.0816425734563
 20
189.411968093235
 30
0.0
 10
772.9493827324367
 20
189.5044093998266
 30
0.0
 10
772.8380585614798
 20
189.6083269834331
 30
0.0
 10
772.7530039327548
 20
189.7187429622147
 30
0.0
 10
772.7142088382257
 20
189.7984845571413
 30
0.0
 10
772.7015375980924
 20
189.837712029501
 30
0.0
 11
774.0572130024012
 21
189.418698093877
 31
0.0
 11
774.0139769483313
 21
189.3551897069843
 31
0.0
 11
773.9313313089265
 21
189.2928624753456
 31
0.0
 11
773.8211635859227
 21
189.2529133827489
 31
0.0
 11
773.6889980495059
 21
189.2373456444846
 31
0.0
 11
773.5414620311346
 21
189.2469398904315
 31
0.0
 11
773.3859536034177
 21
189.2812150271418
 31
0.0
 11
773.2302706079599
 21
189.3384523539917
 31
0.0
 11
773.0822196401381
 21
189.4157817540083
 31
0.0
 11
772.94922459404
 21
189.5093256070696
 31
0.0
 11
772.8379543957657
 21
189.6143932346718
 31
0.0
 11
772.7539885986017
 21
189.725716106478
 31
0.0
 11
772.7015375980924
 21
189.837712029501
 31
0.0
  0
SPLINE
  5
144
330
2
100
AcDbEntity
  8
0
100
AcDbSpline
210
0.0
220
0.0
230
1.0
 70
     8
 71
     3
 72
    10
 73
     6
 74
     4
 42
0.0000000001
 43
0.0000000001
 44
0.0000000001
 12
0.429083553540493
 22
0.903264802857425
 32
0.0
 13
-0.3073810387305141
 23
0.9515865157876872
 33
0.0
 40
0.0
 40
0.0
 40
0.0
 40
0.0
 40
0.1119961651988287
 40
0.2252757920586395
 40
0.3392635874653235
 40
0.3392635874653235
 40
0.3392635874653235
 40
0.3392635874653235
 10
778.3165487311042
 20
199.0771276131432
 30
0.0
 10
778.3325673019531
 20
199.1108483445029
 30
0.0
 10
778.3563992944621
 20
199.1830411503342
 30
0.0
 10
778.3641319057671
 20
199.2969647159762
 30
0.0
 10
778.3499727305914
 20
199.3723802637937
 30
0.0
 10
778.3382935016065
 20
199.4085366801515
 30
0.0
 11
778.3165487311042
 21
199.0771276131432
 31
0.0
 11
778.3516422698241
 21
199.1834835464961
 31
0.0
 11
778.3593110655816
 21
199.2965032944746
 31
0.0
 11
778.3382935016065
 21
199.4085366801515
 31
0.0
  0
SPLINE
  5
145
330
2
100
AcDbEntity
  8
0
100
AcDbSpline
210
0.0
220
0.0
230
1.0
 70
     8
 71
     3
 72
    17
 73
    13
 74
    11
 42
0.0000000001
 43
0.0000000001
 44
0.0000000001
 12
0.4290835531558736
 22
0.9032648030401333
 32
0.0
 13
0.3071420783226583
 23
-0.9516636715371866
 33
0.0
 40
0.0
 40
0.0
 40
0.0
 40
0.0
 40
0.0608730191026518
 40
0.1296599384058303
 40
0.2016305499493671
 40
0.2732906720894054
 40
0.342421017898495
 40
0.4085217886465035
 40
0.4718373135068341
 40
0.5339020229609675
 40
0.5953567040261607
 40
0.6385626998602385
 40
0.6385626998602385
 40
0.6385626998602385
 40
0.6385626998602385
 10
774.0646044100664
 20
192.4998201098981
 30
0.0
 10
774.0733109471757
 20
192.5181482617682
 30
0.0
 10
774.0963104697557
 20
192.5551158989673
 30
0.0
 10
774.1413368207544
 20
192.6054072417073
 30
0.0
 10
774.1971434126885
 20
192.6496061749608
 30
0.0
 10
774.2604635980365
 20
192.6826241386736
 30
0.0
 10
774.3277557304178
 20
192.7005006723568
 30
0.0
 10
774.3947764842581
 20
192.7006099067572
 30
0.0
 10
774.456911336858
 20
192.6823541048428
 30
0.0
 10
774.5095952868184
 20
192.6474140578579
 30
0.0
 10
774.545286663836
 20
192.6036856447243
 30
0.0
 10
774.5597671750593
 20
192.5716096537227
 30
0.0
 10
774.5641906348448
 20
192.5579037948468
 30
0.0
 11
774.0646044100664
 21
192.4998201098981
 31
0.0
 11
774.0962192344806
 21
192.5518395998219
 31
0.0
 11
774.1419506521152
 21
192.6032232325112
 31
0.0
 11
774.1984832489203
 21
192.6477634887344
 31
0.0
 11
774.2622246984565
 21
192.6805079648509
 31
0.0
 11
774.3291758953854
 21
192.6977283580366
 31
0.0
 11
774.3952757164265
 21
192.6973740251245
 31
0.0
 11
774.4559578684429
 21
192.679303825485
 31
0.0
 11
774.5076495367249
 21
192.6449527033804
 31
0.0
 11
774.5464609985893
 21
192.5973045318229
 31
0.0
 11
774.5641906348448
 21
192.5579037948468
 31
0.0
  0
SPLINE
  5
146
330
2
100
AcDbEntity
  8
0
100
AcDbSpline
210
0.0
220
0.0
230
1.0
 70
     8
 71
     3
 72
    17
 73
    13
 74
    11
 42
0.0000000001
 43
0.0000000001
 44
0.0000000001
 12
-0.3073810395811054
 22
0.9515865155129295
 32
0.0
 13
-0.4972693516496486
 23
-0.8675962147853908
 33
0.0
 40
0.0
 40
0.0
 40
0.0
 40
0.0
 40
0.0877876559193525
 40
0.1883044363869005
 40
0.2989761615360446
 40
0.4154486895860833
 40
0.5325103172092916
 40
0.6448673058312516
 40
0.74790642648678
 40
0.8385712467254649
 40
0.9165167539433015
 40
0.9817164149569219
 40
0.9817164149569219
 40
0.9817164149569219
 40
0.9817164149569219
 10
778.3202811899204
 20
199.2108335207084
 30
0.0
 10
778.311286436274
 20
199.2386793705755
 30
0.0
 10
778.2820628415357
 20
199.2952577416646
 30
0.0
 10
778.2172305391283
 20
199.3716835023898
 30
0.0
 10
778.1325042511491
 20
199.4414296417484
 30
0.0
 10
778.0333322400565
 20
199.4999643781674
 30
0.0
 10
777.9261311597974
 20
199.5435491290668
 30
0.0
 10
777.8178674242412
 20
199.5693341267328
 30
0.0
 10
777.7154295157616
 20
199.5756484925603
 30
0.0
 10
777.6250556116981
 20
199.5618373018781
 30
0.0
 10
777.5530705469064
 20
199.5283512174789
 30
0.0
 10
777.5196308793277
 20
199.4921316278907
 30
0.0
 10
777.5088236149409
 20
199.4732759681905
 30
0.0
 11
778.3202811899204
 21
199.2108335207084
 31
0.0
 11
778.2815150083706
 21
199.2895980793618
 31
0.0
 11
778.2174361160968
 21
199.3670417280395
 31
0.0
 11
778.1324113832312
 21
199.4378868093693
 31
0.0
 11
778.0322351039267
 21
199.4973053490272
 31
0.0
 11
777.9237341275837
 21
199.5412480707729
 31
0.0
 11
777.8143026156014
 21
199.566720351343
 31
0.0
 11
777.711398144318
 21
199.5719862962104
 31
0.0
 11
777.6220334846144
 21
199.5566870405099
 31
0.0
 11
777.5522986889598
 21
199.5218652029586
 31
0.0
 11
777.5088236149409
 21
199.4732759681905
 31
0.0
  0
LINE
  5
147
330
2
100
AcDbEntity
  8
0
100
AcDbLine
 10
777.5088236149409
 20
199.4732759681905
 30
0.0
 11
777.5036214462358
 21
199.4632976025995
 31
0.0
  0
SPLINE
  5
148
330
2
100
AcDbEntity
  8
0
100
AcDbSpline
210
0.0
220
0.0
230
1.0
 70
     8
 71
     3
 72
    19
 73
    15
 74
    13
 42
0.0000000001
 43
0.0000000001
 44
0.0000000001
 12
-0.3073810396220766
 22
0.9515865154996951
 32
0.0
 13
-0.6257963801386606
 23
-0.7799864682193846
 33
0.0
 40
0.0
 40
0.0
 40
0.0
 40
0.0
 40
0.1236696980985049
 40
0.2631079886839147
 40
0.4161447927322111
 40
0.5787428700050165
 40
0.7457725834693278
 40
0.911643939380011
 40
1.070884813750122
 40
1.218732459165954
 40
1.351811697001106
 40
1.468998971016218
 40
1.572512185758981
 40
1.59094454076299
 40
1.59094454076299
 40
1.59094454076299
 40
1.59094454076299
 10
775.3646983005596
 20
192.3799162543867
 30
0.0
 10
775.3520270604359
 20
192.4191437267488
 30
0.0
 10
775.3132319654914
 20
192.4988853211895
 30
0.0
 10
775.2281773388631
 20
192.6093013024655
 30
0.0
 10
775.1168531590963
 20
192.7132188755849
 30
0.0
 10
774.9845933538369
 20
192.8056602247504
 30
0.0
 10
774.8377493335413
 20
192.8822428234047
 30
0.0
 10
774.6834394905404
 20
192.9392450653758
 30
0.0
 10
774.529118205418
 20
192.9739072599547
 30
0.0
 10
774.3821550900224
 20
192.9845569009461
 30
0.0
 10
774.2493025693105
 20
192.9704916699568
 30
0.0
 10
774.136608796246
 20
192.9319194995894
 30
0.0
 10
774.0706250963219
 20
192.8840843385768
 30
0.0
 10
774.0440688368501
 20
192.8532699403495
 30
0.0
 10
774.0402238698371
 20
192.8484776111893
 30
0.0
 11
775.3646983005596
 21
192.3799162543867
 31
0.0
 11
775.3122473000549
 21
192.4919121774099
 31
0.0
 11
775.2282815028859
 21
192.603235049216
 31
0.0
 11
775.1170113046128
 21
192.7083026768164
 31
0.0
 11
774.9840162585138
 21
192.8018465298797
 31
0.0
 11
774.8359652906916
 21
192.8791759298962
 31
0.0
 11
774.6802822953447
 21
192.9364132575019
 31
0.0
 11
774.5247738675169
 21
192.9706883934565
 31
0.0
 11
774.3772378492527
 21
192.9802826401572
 31
0.0
 11
774.2450723127289
 21
192.9647149011389
 31
0.0
 11
774.1349045897252
 21
192.9247658085424
 31
0.0
 11
774.0522589495703
 21
192.8624385770159
 31
0.0
 11
774.0402238698371
 21
192.8484776111893
 31
0.0
  0
SPLINE
  5
149
330
2
100
AcDbEntity
  8
0
100
AcDbSpline
210
0.0
220
0.0
230
1.0
 70
     8
 71
     3
 72
    10
 73
     6
 74
     4
 42
0.0000000001
 43
0.0000000001
 44
0.0000000001
 12
0.4469706078516856
 22
-0.8945486435721059
 32
0.0
 13
0.7293547184098001
 23
-0.6841357282976541
 33
0.0
 40
0.0
 40
0.0
 40
0.0
 40
0.0
 40
0.0393334674747666
 40
0.1297985694984024
 40
0.1454173566886525
 40
0.1454173566886525
 40
0.1454173566886525
 40
0.1454173566886525
 10
774.2949308671239
 20
192.4217662765163
 30
0.0
 10
774.3007911684125
 20
192.4100377098574
 30
0.0
 10
774.3226884259764
 20
192.3726036448731
 30
0.0
 10
774.3543154572301
 20
192.3352918067605
 30
0.0
 10
774.3797544663469
 20
192.3107436375607
 30
0.0
 10
774.3835516783913
 20
192.3071818474442
 30
0.0
 11
774.2949308671239
 21
192.4217662765163
 31
0.0
 11
774.3146439681757
 21
192.3877293067554
 31
0.0
 11
774.3723149706912
 21
192.3180300230216
 31
0.0
 11
774.3835516783913
 21
192.3071818474442
 31
0.0
  0
SPLINE
  5
14A
330
2
100
AcDbEntity
  8
0
100
AcDbSpline
210
0.0
220
0.0
230
1.0
 70
     8
 71
     3
 72
    10
 73
     6
 74
     4
 42
0.0000000001
 43
0.0000000001
 44
0.0000000001
 12
-0.3073810481095727
 22
0.951586512758068
 32
0.0
 13
0.4296444078713112
 23
0.9029981632234424
 33
0.0
 40
0.0
 40
0.0
 40
0.0
 40
0.0
 40
0.0535924830551297
 40
0.1036846445024409
 40
0.1228723991455969
 40
0.1228723991455969
 40
0.1228723991455969
 40
0.1228723991455969
 10
773.0766140086313
 20
189.9258837173656
 30
0.0
 10
773.0711229040938
 20
189.9428830120524
 30
0.0
 10
773.0641356731334
 20
189.9772056239173
 30
0.0
 10
773.068767905136
 20
190.0188009626767
 30
0.0
 10
773.0772297440473
 20
190.0403765349237
 30
0.0
 10
773.0799777145413
 20
190.0461520373234
 30
0.0
 11
773.0766140086313
 21
189.9258837173656
 31
0.0
 11
773.0668108392848
 21
189.9785719713771
 31
0.0
 11
773.0729913008334
 21
190.0282813923505
 31
0.0
 11
773.0799777145413
 21
190.0461520373234
 31
0.0
  0
SPLINE
  5
14B
330
2
100
AcDbEntity
  8
0
100
AcDbSpline
210
0.0
220
0.0
230
1.0
 70
     8
 71
     3
 72
     9
 73
     5
 74
     3
 42
0.0000000001
 43
0.0000000001
 44
0.0000000001
 12
0.5610686398534897
 22
-0.8277692802786024
 32
0.0
 13
0.3073810021239907
 23
-0.9515865276123086
 33
0.0
 40
0.0
 40
0.0
 40
0.0
 40
0.0
 40
0.0352327019100006
 40
0.1216735495803455
 40
0.1216735495803455
 40
0.1216735495803455
 40
0.1216735495803455
 10
773.8612376655237
 20
189.77047120902
 30
0.0
 10
773.8678269869034
 20
189.7607496929192
 30
0.0
 10
773.8894723801352
 20
189.7264562314983
 30
0.0
 10
773.9068776355956
 20
189.6893608710413
 30
0.0
 10
773.9157343937226
 20
189.6619422223485
 30
0.0
 11
773.8612376655237
 21
189.77047120902
 31
0.0
 11
773.8800070577436
 21
189.7406542138734
 31
0.0
 11
773.9157343937226
 21
189.6619422223485
 31
0.0
  0
SPLINE
  5
14C
330
2
100
AcDbEntity
  8
0
100
AcDbSpline
210
0.0
220
0.0
230
1.0
 70
     8
 71
     3
 72
    18
 73
    14
 74
    12
 42
0.0000000001
 43
0.0000000001
 44
0.0000000001
 12
-0.3073810396729552
 22
0.9515865154832605
 32
0.0
 13
-0.6269472299378399
 23
-0.7790617246876331
 33
0.0
 40
0.0
 40
0.0
 40
0.0
 40
0.0
 40
0.1168740647685533
 40
0.2496181989791315
 40
0.3955941315613658
 40
0.5501210911940005
 40
0.7074143317230503
 40
0.8613594955431953
 40
1.006242729016912
 40
1.137534917238249
 40
1.252853868383928
 40
1.353233322661134
 40
1.389444840649884
 40
1.389444840649884
 40
1.389444840649884
 40
1.389444840649884
 10
775.4495285429123
 20
192.752301198152
 30
0.0
 10
775.4375535857325
 20
192.7893731261665
 30
0.0
 10
775.399855429796
 20
192.8647283944362
 30
0.0
 10
775.3166704000562
 20
192.9679236256763
 30
0.0
 10
775.2077964075035
 20
193.0637501916737
 30
0.0
 10
775.0792422604422
 20
193.1468937513457
 30
0.0
 10
774.9381378988275
 20
193.2128027097005
 30
0.0
 10
774.7923639398384
 20
193.2577766408103
 30
0.0
 10
774.6500114364853
 20
193.2793260553038
 30
0.0
 10
774.5187147138403
 20
193.2761431323601
 30
0.0
 10
774.4053732439851
 20
193.2480933472156
 30
0.0
 10
774.3315430616692
 20
193.2042714065231
 30
0.0
 10
774.3002113828152
 20
193.1709615893733
 30
0.0
 10
774.2926438125169
 20
193.161557920154
 30
0.0
 11
775.4495285429123
 21
192.752301198152
 31
0.0
 11
775.3990096166051
 21
192.8576927779878
 31
0.0
 11
775.3168594970597
 21
192.9619634019718
 31
0.0
 11
775.207852450803
 21
193.0590532405732
 31
0.0
 11
775.078323571379
 21
193.1433197858236
 31
0.0
 11
774.9358006067702
 21
193.2098657704904
 31
0.0
 11
774.7885664724182
 21
193.2548237858515
 31
0.0
 11
774.645177881641
 21
193.2755810346267
 31
0.0
 11
774.5139680590373
 21
193.2709311808366
 31
0.0
 11
774.4025624414222
 21
193.2411444580035
 31
0.0
 11
774.3174355183392
 21
193.1879519603425
 31
0.0
 11
774.2926438125169
 21
193.161557920154
 31
0.0
  0
SPLINE
  5
14D
330
2
100
AcDbEntity
  8
0
100
AcDbSpline
210
0.0
220
0.0
230
1.0
 70
     8
 71
     3
 72
    18
 73
    14
 74
    12
 42
0.0000000001
 43
0.0000000001
 44
0.0000000001
 12
-0.3073810395719503
 22
0.9515865155158868
 32
0.0
 13
-0.4300696176279374
 23
-0.902795726614476
 33
0.0
 40
0.0
 40
0.0
 40
0.0
 40
0.0
 40
0.1168740647672934
 40
0.2496181995043998
 40
0.3955941320867945
 40
0.5501210913991081
 40
0.7074143321482144
 40
0.8613594959660254
 40
1.006242729441046
 40
1.137534917665757
 40
1.252853869107096
 40
1.353233322896376
 40
1.440172198183346
 40
1.440172198183346
 40
1.440172198183346
 40
1.440172198183346
 10
775.4970209269693
 20
192.8522775277435
 30
0.0
 10
775.4850459697935
 20
192.8893494557588
 30
0.0
 10
775.4473478117074
 20
192.9647047218126
 30
0.0
 10
775.3641627924964
 20
193.0678999654502
 30
0.0
 10
775.2552887581328
 20
193.1637264822801
 30
0.0
 10
775.1267347786837
 20
193.2468702397743
 30
0.0
 10
774.9856297766525
 20
193.3127784411173
 30
0.0
 10
774.8398581225542
 20
193.3577550985999
 30
0.0
 10
774.6974977899634
 20
193.3792952520564
 30
0.0
 10
774.5662262781585
 20
193.3761421506986
 30
0.0
 10
774.4528068317297
 20
193.3480001282951
 30
0.0
 10
774.3643464765881
 20
193.2956341597206
 30
0.0
 10
774.3252992873517
 20
193.2444863391532
 30
0.0
 10
774.3128360310678
 20
193.218323657458
 30
0.0
 11
775.4970209269693
 21
192.8522775277435
 31
0.0
 11
775.4465020006605
 21
192.9576691075772
 31
0.0
 11
775.3643518812237
 21
193.061939732317
 31
0.0
 11
775.255344834967
 21
193.1590295709185
 31
0.0
 11
775.1258159554351
 21
193.243296115416
 31
0.0
 11
774.9832929909346
 21
193.3098421008345
 31
0.0
 11
774.8360588565851
 21
193.3548001161958
 31
0.0
 11
774.6926702658063
 21
193.3755573649699
 31
0.0
 11
774.5614604431993
 21
193.3709075111808
 31
0.0
 11
774.4500548254797
 21
193.3411207875938
 31
0.0
 11
774.3649279025022
 21
193.2879282906847
 31
0.0
 11
774.3128360310678
 21
193.218323657458
 31
0.0
  0
SPLINE
  5
14E
330
2
100
AcDbEntity
  8
0
100
AcDbSpline
210
0.0
220
0.0
230
1.0
 70
     8
 71
     3
 72
    10
 73
     6
 74
     4
 42
0.0000000001
 43
0.0000000001
 44
0.0000000001
 12
0.3073810416077286
 22
-0.9515865148582907
 32
0.0
 13
-0.430069618791255
 23
-0.9027957260603004
 33
0.0
 40
0.0
 40
0.0
 40
0.0
 40
0.0
 40
0.1016470402497149
 40
0.1933040083611521
 40
0.1976052422880864
 40
0.1976052422880864
 40
0.1976052422880864
 40
0.1976052422880864
 10
775.4970209269693
 20
192.8522775277435
 30
0.0
 10
775.5074357180054
 20
192.8200355434845
 30
0.0
 10
775.5193411739782
 20
192.755373625394
 30
0.0
 10
775.5056925139836
 20
192.688748340484
 30
0.0
 10
775.4922377348455
 20
192.6597326821635
 30
0.0
 10
775.4916211248337
 20
192.6584383036282
 30
0.0
 11
775.4970209269693
 21
192.8522775277435
 31
0.0
 11
775.5129726841349
 21
192.7518899675836
 31
0.0
 11
775.4934302132648
 21
192.6623405865937
 31
0.0
 11
775.4916211248337
 21
192.6584383036282
 31
0.0
  0
SPLINE
  5
14F
330
2
100
AcDbEntity
  8
0
100
AcDbSpline
210
0.0
220
0.0
230
1.0
 70
     8
 71
     3
 72
    19
 73
    15
 74
    13
 42
0.0000000001
 43
0.0000000001
 44
0.0000000001
 12
-0.3073810398208919
 22
0.951586515435474
 32
0.0
 13
-0.4308145046343412
 23
-0.9024405036326037
 33
0.0
 40
0.0
 40
0.0
 40
0.0
 40
0.0
 40
0.1564496180361204
 40
0.3328474560737602
 40
0.5264482315214574
 40
0.7321445946752183
 40
0.9434472440595202
 40
1.153284501095126
 40
1.354733800513576
 40
1.54176997827421
 40
1.710123231152775
 40
1.858372191841465
 40
1.989322644582501
 40
2.086515762799534
 40
2.086515762799534
 40
2.086515762799534
 40
2.086515762799534
 10
775.763651980236
 20
192.8136794281755
 30
0.0
 10
775.7476220981455
 20
192.8633045437982
 30
0.0
 10
775.6985439661042
 20
192.9641824650409
 30
0.0
 10
775.5909447376803
 20
193.1038653302399
 30
0.0
 10
775.4501129542
 20
193.2353273325871
 30
0.0
 10
775.2827962890367
 20
193.352271155617
 30
0.0
 10
775.0970299311917
 20
193.4491529622299
 30
0.0
 10
774.9018180424627
 20
193.5212634701779
 30
0.0
 10
774.7065945657023
 20
193.5651159023203
 30
0.0
 10
774.5206698871986
 20
193.5785794462536
 30
0.0
 10
774.3526273411401
 20
193.5608144778063
 30
0.0
 10
774.2099886395333
 20
193.5119300766804
 30
0.0
 10
774.1063506755955
 20
193.4368990968463
 30
0.0
 10
774.0625983284034
 20
193.372994300035
 30
0.0
 10
774.0486409267105
 20
193.3437572978506
 30
0.0
 11
775.763651980236
 21
192.8136794281755
 31
0.0
 11
775.6972983047695
 21
192.9553610174372
 31
0.0
 11
775.5910765130368
 21
193.0961911570574
 31
0.0
 11
775.4503130094115
 21
193.2291080344699
 31
0.0
 11
775.2820662644212
 21
193.347446644462
 31
0.0
 11
775.0947728711978
 21
193.4452729931197
 31
0.0
 11
774.8978245040984
 21
193.5176816606746
 31
0.0
 11
774.7010969743842
 21
193.5610417723994
 31
0.0
 11
774.5144550237486
 21
193.5731790725196
 31
0.0
 11
774.3472576580873
 21
193.5534849446965
 31
0.0
 11
774.2078888520424
 21
193.502946936753
 31
0.0
 11
774.1033371386915
 21
193.4240992334986
 31
0.0
 11
774.0486409267105
 21
193.3437572978506
 31
0.0
  0
SPLINE
  5
150
330
2
100
AcDbEntity
  8
0
100
AcDbSpline
210
0.0
220
0.0
230
1.0
 70
     8
 71
     3
 72
    14
 73
    10
 74
     8
 42
0.0000000001
 43
0.0000000001
 44
0.0000000001
 12
-0.3073810307584328
 22
0.9515865183628251
 32
0.0
 13
0.9961830126899435
 23
0.0872892045329066
 33
0.0
 40
0.0
 40
0.0
 40
0.0
 40
0.0
 40
0.0771793056749187
 40
0.1495464398907126
 40
0.2205953452661275
 40
0.2954805639425335
 40
0.37817666416254
 40
0.4710755759611333
 40
0.4767190273730459
 40
0.4767190273730459
 40
0.4767190273730459
 40
0.4767190273730459
 10
772.8492101814065
 20
189.8163346205125
 30
0.0
 10
772.8413023632294
 20
189.8408155494381
 30
0.0
 10
772.8312734131109
 20
189.8903491126993
 30
0.0
 10
772.8393968666969
 20
189.9649001054288
 30
0.0
 10
772.8741749439612
 20
190.0308556568431
 30
0.0
 10
772.9328216363543
 20
190.0818014884489
 30
0.0
 10
773.0101128957358
 20
190.1157675137655
 30
0.0
 10
773.0699795097928
 20
190.1268733671189
 30
0.0
 10
773.1026830600999
 20
190.1299084901878
 30
0.0
 10
773.1045570302431
 20
190.130072694316
 30
0.0
 11
772.8492101814065
 21
189.8163346205125
 31
0.0
 11
772.8350886857761
 21
189.8922110238644
 31
0.0
 11
772.8439181710222
 21
189.9640374974302
 31
0.0
 11
772.8769260112326
 21
190.026953548162
 31
0.0
 11
772.9326706482892
 21
190.0769568622086
 31
0.0
 11
773.0078115510615
 21
190.1114893066943
 31
0.0
 11
773.0989377437903
 21
190.1295510013025
 31
0.0
 11
773.1045570302431
 21
190.130072694316
 31
0.0
  0
SPLINE
  5
151
330
2
100
AcDbEntity
  8
0
100
AcDbSpline
210
0.0
220
0.0
230
1.0
 70
     8
 71
     3
 72
    20
 73
    16
 74
    14
 42
0.0000000001
 43
0.0000000001
 44
0.0000000001
 12
-0.429615625923624
 22
-0.9030118570441103
 32
0.0
 13
-0.3073810668504123
 23
0.9515865067044103
 33
0.0
 40
0.0
 40
0.0
 40
0.0
 40
0.0
 40
0.0301873437329924
 40
0.0820189025228369
 40
0.1392577067011965
 40
0.2035527490200009
 40
0.2754510765675231
 40
0.3539058504768358
 40
0.4364504776832897
 40
0.5208352478893545
 40
0.6053981377690118
 40
0.6879338467960135
 40
0.7651667953088508
 40
0.834387859321329
 40
0.8944345128987986
 40
0.8944345128987986
 40
0.8944345128987986
 40
0.8944345128987986
 10
773.8116130162937
 20
189.6987229399039
 30
0.0
 10
773.8072900314362
 20
189.6896364301294
 30
0.0
 10
773.7927576161388
 20
189.6661723269188
 30
0.0
 10
773.7569675804384
 20
189.6351384613415
 30
0.0
 10
773.7034617658983
 20
189.6116685397494
 30
0.0
 10
773.6396284188624
 20
189.5998364258907
 30
0.0
 10
773.5677595805299
 20
189.5997333641477
 30
0.0
 10
773.4907381326294
 20
189.6113042309962
 30
0.0
 10
773.4119318242609
 20
189.633995685474
 30
0.0
 10
773.3345804782134
 20
189.6668214619539
 30
0.0
 10
773.2616617999684
 20
189.7085836916006
 30
0.0
 10
773.1963553004987
 20
189.757628311813
 30
0.0
 10
773.1419894230883
 20
189.8116108895664
 30
0.0
 10
773.1012182764465
 20
189.8674588963551
 30
0.0
 10
773.0827664101105
 20
189.9068371889266
 30
0.0
 10
773.0766140086313
 20
189.9258837173656
 30
0.0
 11
773.8116130162937
 21
189.6987229399039
 31
0.0
 11
773.7957057515033
 21
189.6730668558586
 31
0.0
 11
773.7570857113655
 21
189.6384980406295
 31
0.0
 11
773.7050633532994
 21
189.6146243110298
 31
0.0
 11
773.6419912965296
 21
189.6021436010492
 31
0.0
 11
773.5700962077451
 21
189.601461169522
 31
0.0
 11
773.4924559622093
 21
189.6127369764688
 31
0.0
 11
773.4130773134155
 21
189.6353786547708
 31
0.0
 11
773.335377705272
 21
189.6682961324549
 31
0.0
 11
773.2620440681497
 21
189.7104038515953
 31
0.0
 11
773.1962115352112
 21
189.7601855839023
 31
0.0
 11
773.1417155324926
 21
189.81491321882
 31
0.0
 11
773.1014343394548
 21
189.8712069235344
 31
0.0
 11
773.0766140086313
 21
189.9258837173656
 31
0.0
  0
SPLINE
  5
152
330
2
100
AcDbEntity
  8
0
100
AcDbSpline
210
0.0
220
0.0
230
1.0
 70
     8
 71
     3
 72
    10
 73
     6
 74
     4
 42
0.0000000001
 43
0.0000000001
 44
0.0000000001
 12
-0.3111944080725616
 22
0.9503462739361731
 32
0.0
 13
0.4290835539125116
 23
0.9032648026807029
 33
0.0
 40
0.0
 40
0.0
 40
0.0
 40
0.0
 40
0.0124134729458882
 40
0.0584733465976941
 40
0.1109281131527592
 40
0.1109281131527592
 40
0.1109281131527592
 40
0.1109281131527592
 10
774.0503623453895
 20
192.3920459712443
 30
0.0
 10
774.0490746776011
 20
192.3959783371645
 30
0.0
 10
774.044140893304
 20
192.4148980001752
 30
0.0
 10
774.0457747319238
 20
192.4528635774343
 30
0.0
 10
774.0571019175153
 20
192.4840265951108
 30
0.0
 10
774.0646044100664
 20
192.4998201098981
 30
0.0
 11
774.0503623453895
 21
192.3920459712443
 31
0.0
 11
774.047241035142
 21
192.4040606178441
 31
0.0
 11
774.0478394453653
 21
192.4501166040568
 31
0.0
 11
774.0646044100664
 21
192.4998201098981
 31
0.0
  0
SPLINE
  5
153
330
2
100
AcDbEntity
  8
0
100
AcDbSpline
210
0.0
220
0.0
230
1.0
 70
     8
 71
     3
 72
    22
 73
    18
 74
    16
 42
0.0000000001
 43
0.0000000001
 44
0.0000000001
 12
0.307381030564535
 22
-0.9515865184254581
 32
0.0
 13
-0.3073809998813065
 23
0.9515865283367396
 33
0.0
 40
0.0
 40
0.0
 40
0.0
 40
0.0
 40
0.07717930567466
 40
0.1495464398743704
 40
0.2205953452479537
 40
0.2954805639241424
 40
0.3781766635052948
 40
0.4710755760236286
 40
0.574974283269151
 40
0.6883661706523978
 40
0.8076847104535273
 40
0.9296600819382733
 40
1.05188141418842
 40
1.17115254782045
 40
1.282732395626334
 40
1.382710312616983
 40
1.469151160286868
 40
1.469151160286868
 40
1.469151160286868
 40
1.469151160286868
 10
773.9157343937226
 20
189.6619422223485
 30
0.0
 10
773.9236422118948
 20
189.6374612934214
 30
0.0
 10
773.9336710788238
 20
189.5879277223835
 30
0.0
 10
773.9255479781001
 20
189.5133767626757
 30
0.0
 10
773.8907686207607
 20
189.4474210924764
 30
0.0
 10
773.8321271126093
 20
189.3964757418044
 30
0.0
 10
773.7548133972762
 20
189.3625076338243
 30
0.0
 10
773.6625907254189
 20
189.3453901692352
 30
0.0
 10
773.558729949093
 20
189.3452220011373
 30
0.0
 10
773.4474082723038
 20
189.3619321486311
 30
0.0
 10
773.333499598059
 20
189.3947362006866
 30
0.0
 10
773.2216991529835
 20
189.4421958065588
 30
0.0
 10
773.1163143051361
 20
189.5025657875187
 30
0.0
 10
773.0219770815465
 20
189.5734806057724
 30
0.0
 10
772.9434382786087
 20
189.6514823237177
 30
0.0
 10
772.8846954610941
 20
189.7321419181657
 30
0.0
 10
772.858066939469
 20
189.7889159717989
 30
0.0
 10
772.8492101814065
 20
189.8163346205125
 30
0.0
 11
773.9157343937226
 21
189.6619422223485
 31
0.0
 11
773.9298558893532
 21
189.5860658189969
 31
0.0
 11
773.9210264033506
 21
189.5142393455403
 31
0.0
 11
773.8880185631423
 21
189.4513232948095
 31
0.0
 11
773.8322739260858
 21
189.4013199807631
 31
0.0
 11
773.7571330240669
 21
189.3667875361679
 31
0.0
 11
773.6660068305829
 21
189.3487258416681
 31
0.0
 11
773.5621129891949
 21
189.3477203124817
 31
0.0
 11
773.4498965811203
 21
189.364005209877
 31
0.0
 11
773.3351552868843
 21
189.3967366830688
 31
0.0
 11
773.2228477689584
 21
189.4443288322762
 31
0.0
 11
773.1168663651857
 21
189.5052057253586
 31
0.0
 11
773.0217577498762
 21
189.577177626902
 31
0.0
 11
772.9430541772569
 21
189.656271306127
 31
0.0
 11
772.8849375173872
 21
189.7376226289889
 31
0.0
 11
772.8492101814065
 21
189.8163346205125
 31
0.0
  0
SPLINE
  5
154
330
2
100
AcDbEntity
  8
0
100
AcDbSpline
210
0.0
220
0.0
230
1.0
 70
     8
 71
     3
 72
    19
 73
    15
 74
    13
 42
0.0000000001
 43
0.0000000001
 44
0.0000000001
 12
-0.3073810398524297
 22
0.9515865154252866
 32
0.0
 13
-0.4308145042823706
 23
-0.9024405038006303
 33
0.0
 40
0.0
 40
0.0
 40
0.0
 40
0.0
 40
0.1236696980992594
 40
0.2631079886829526
 40
0.4161447921099292
 40
0.5787428693796956
 40
0.7457725828450109
 40
0.9116439385994361
 40
1.070884813024076
 40
1.218732458498384
 40
1.351811696136753
 40
1.46899897015169
 40
1.572512184898896
 40
1.649341030562789
 40
1.649341030562789
 40
1.649341030562789
 40
1.649341030562789
 10
774.0634069762847
 20
189.6405648134714
 30
0.0
 10
774.0507357361515
 20
189.6797922858307
 30
0.0
 10
774.0119406416442
 20
189.759533880781
 30
0.0
 10
773.9268860129325
 20
189.8699498592756
 30
0.0
 10
773.8155618426469
 20
189.9738674432865
 30
0.0
 10
773.6833020016393
 20
190.0663087495899
 30
0.0
 10
773.536458119634
 20
190.1428915127986
 30
0.0
 10
773.3821477686516
 20
190.1998931499545
 30
0.0
 10
773.2278282589549
 20
190.2345574559938
 30
0.0
 10
773.0808592274227
 20
190.2452000644538
 30
0.0
 10
772.9480255954614
 20
190.2311572820739
 30
0.0
 10
772.8352730985657
 20
190.1925153254468
 30
0.0
 10
772.7533497551882
 20
190.1332051232747
 30
0.0
 10
772.7187645664163
 20
190.0826899030477
 30
0.0
 10
772.7077315727299
 20
190.0595787489853
 30
0.0
 11
774.0634069762847
 21
189.6405648134714
 31
0.0
 11
774.0109559757757
 21
189.7525607364935
 31
0.0
 11
773.9269901786111
 21
189.8638836083007
 31
0.0
 11
773.8157199810893
 21
189.9689512357917
 31
0.0
 11
773.6827249349931
 21
190.0624950888539
 31
0.0
 11
773.5346739671705
 21
190.1398244888715
 31
0.0
 11
773.3789909717114
 21
190.1970618157195
 31
0.0
 11
773.2234825439944
 21
190.2313369524298
 31
0.0
 11
773.0759465256227
 21
190.2409311983778
 31
0.0
 11
772.9437809892082
 21
190.2253634601132
 31
0.0
 11
772.8336132662047
 21
190.1854143675169
 31
0.0
 11
772.7509676260457
 21
190.1230871359883
 31
0.0
 11
772.7077315727299
 21
190.0595787489853
 31
0.0
  0
SPLINE
  5
155
330
2
100
AcDbEntity
  8
0
100
AcDbSpline
210
0.0
220
0.0
230
1.0
 70
     8
 71
     3
 72
     9
 73
     5
 74
     3
 42
0.0000000001
 43
0.0000000001
 44
0.0000000001
 12
0.3073810382846733
 22
-0.9515865159317026
 32
0.0
 13
-0.4267800468263492
 23
-0.9043554564610639
 33
0.0
 40
0.0
 40
0.0
 40
0.0
 40
0.0
 40
0.0754959601310279
 40
0.1362481968979892
 40
0.1362481968979892
 40
0.1362481968979892
 40
0.1362481968979892
 10
778.3202811899204
 20
199.2108335207084
 30
0.0
 10
778.3280165321241
 20
199.1868865414857
 30
0.0
 10
778.3360042516349
 20
199.1409572933084
 30
0.0
 10
778.3251803076259
 20
199.0954466942767
 30
0.0
 10
778.3165376934752
 20
199.0771328220059
 30
0.0
 11
778.3202811899204
 21
199.2108335207084
 31
0.0
 11
778.3310928080156
 21
199.1361157255705
 31
0.0
 11
778.3165376934752
 21
199.0771328220059
 31
0.0
  0
SPLINE
  5
156
330
2
100
AcDbEntity
  8
0
100
AcDbSpline
210
0.0
220
0.0
230
1.0
 70
     8
 71
     3
 72
    10
 73
     6
 74
     4
 42
0.0000000001
 43
0.0000000001
 44
0.0000000001
 12
0.3073810384969669
 22
-0.9515865158631275
 32
0.0
 13
-0.4308145048760477
 23
-0.9024405035172158
 33
0.0
 40
0.0
 40
0.0
 40
0.0
 40
0.0
 40
0.1086069260581534
 40
0.2067894788484913
 40
0.2264501713701885
 40
0.2264501713701885
 40
0.2264501713701885
 40
0.2264501713701885
 10
774.0634069762847
 20
189.6405648134714
 30
0.0
 10
774.0745348795246
 20
189.6061151846826
 30
0.0
 10
774.0877823652222
 20
189.5372693189061
 30
0.0
 10
774.0755433145066
 20
189.4607385823544
 30
0.0
 10
774.0600363729059
 20
189.4246122956299
 30
0.0
 10
774.0572130024012
 20
189.418698093877
 30
0.0
 11
774.0634069762847
 21
189.6405648134714
 31
0.0
 11
774.0817130682122
 21
189.5335117827523
 31
0.0
 11
774.0649563075576
 21
189.4367697306509
 31
0.0
 11
774.0572130024012
 21
189.418698093877
 31
0.0
  0
SPLINE
  5
157
330
2
100
AcDbEntity
  8
0
100
AcDbSpline
210
0.0
220
0.0
230
1.0
 70
     8
 71
     3
 72
     9
 73
     5
 74
     3
 42
0.0000000001
 43
0.0000000001
 44
0.0000000001
 12
0.3073810397016998
 22
-0.9515865154739751
 32
0.0
 13
-0.2060140456567377
 23
-0.9785490345364118
 33
0.0
 40
0.0
 40
0.0
 40
0.0
 40
0.0
 40
0.1086069260569842
 40
0.1683628581045904
 40
0.1683628581045904
 40
0.1683628581045904
 40
0.1683628581045904
 10
775.3646983005596
 20
192.3799162543867
 30
0.0
 10
775.3758262038431
 20
192.3454666256123
 30
0.0
 10
775.3865789396502
 20
192.2892183889906
 30
0.0
 10
775.3812439451118
 20
192.2328870789088
 30
0.0
 10
775.377140424674
 20
192.2133957090378
 30
0.0
 11
775.3646983005596
 21
192.3799162543867
 31
0.0
 11
775.3830043924867
 21
192.2728632236687
 31
0.0
 11
775.377140424674
 21
192.2133957090378
 31
0.0
  0
SPLINE
  5
158
330
2
100
AcDbEntity
  8
0
100
AcDbSpline
210
0.0
220
0.0
230
1.0
 70
     8
 71
     3
 72
     9
 73
     5
 74
     3
 42
0.0000000001
 43
0.0000000001
 44
0.0000000001
 12
-0.5614875631323402
 22
0.8274851759685525
 32
0.0
 13
-0.6772945032987867
 23
0.7357120060195089
 33
0.0
 40
0.0
 40
0.0
 40
0.0
 40
0.0
 40
0.1360071893728182
 40
0.1471959794126461
 40
0.1471959794126461
 40
0.1471959794126461
 40
0.1471959794126461
 10
776.2135893334471
 20
194.1224984177859
 30
0.0
 10
776.1881338850039
 20
194.1600130621296
 30
0.0
 10
776.1573640092802
 20
194.1985249163275
 30
0.0
 10
776.1243119554811
 20
194.2347811427057
 30
0.0
 10
776.1217859201503
 20
194.2375250517608
 30
0.0
 11
776.2135893334471
 21
194.1224984177859
 31
0.0
 11
776.1293235326257
 21
194.2292562295517
 31
0.0
 11
776.1217859201503
 21
194.2375250517608
 31
0.0
  0
SPLINE
  5
159
330
2
100
AcDbEntity
  8
0
100
AcDbSpline
210
0.0
220
0.0
230
1.0
 70
     8
 71
     3
 72
    13
 73
     9
 74
     7
 42
0.0000000001
 43
0.0000000001
 44
0.0000000001
 12
-0.6772945048406456
 22
0.7357120046000777
 32
0.0
 13
-0.9981392072620623
 23
0.0609764128681067
 33
0.0
 40
0.0
 40
0.0
 40
0.0
 40
0.0
 40
0.1824452682264321
 40
0.3881416313814641
 40
0.599444280761499
 40
0.8092815383874567
 40
1.010730837099116
 40
1.110839349347837
 40
1.110839349347837
 40
1.110839349347837
 40
1.110839349347837
 10
776.1217859201503
 20
194.2375250517608
 30
0.0
 10
776.0805961942822
 20
194.2822674430997
 30
0.0
 10
775.9852904588179
 20
194.3705433480202
 30
0.0
 10
775.8210480857437
 20
194.4853319181895
 30
0.0
 10
775.6352714805736
 20
194.5822197005655
 30
0.0
 10
775.4400816778634
 20
194.6543262840445
 30
0.0
 10
775.2731587054547
 20
194.6918154080625
 30
0.0
 10
775.1730780377266
 20
194.7024093492442
 30
0.0
 10
775.1397706273746
 20
194.7044441019024
 30
0.0
 11
776.1217859201503
 21
194.2375250517608
 31
0.0
 11
775.9885600291087
 21
194.36217310772
 31
0.0
 11
775.8203132841162
 21
194.4805117177111
 31
0.0
 11
775.6330198908977
 21
194.5783380663689
 31
0.0
 11
775.4360715229315
 21
194.6507467332774
 31
0.0
 11
775.2393439940837
 21
194.6941068456484
 31
0.0
 11
775.1397706273746
 21
194.7044441019024
 31
0.0
  0
SPLINE
  5
15A
330
2
100
AcDbEntity
  8
0
100
AcDbSpline
210
0.0
220
0.0
230
1.0
 70
     8
 71
     3
 72
     9
 73
     5
 74
     3
 42
0.0000000001
 43
0.0000000001
 44
0.0000000001
 12
-0.9981392074181055
 22
0.060976410313794
 32
0.0
 13
-0.996218956668015
 23
-0.0868780200930691
 33
0.0
 40
0.0
 40
0.0
 40
0.0
 40
0.0
 40
0.0870871889628075
 40
0.148261022319994
 40
0.148261022319994
 40
0.148261022319994
 40
0.148261022319994
 10
775.1397706273746
 20
194.7044441019024
 30
0.0
 10
775.1107955814521
 20
194.7062141899581
 30
0.0
 10
775.061320250579
 20
194.7073168910272
 30
0.0
 10
775.0119295192863
 20
194.7047518386297
 30
0.0
 10
774.9916153418055
 20
194.7029802847885
 30
0.0
 11
775.1397706273746
 21
194.7044441019024
 31
0.0
 11
775.0527020433374
 21
194.706244145014
 31
0.0
 11
774.9916153418055
 21
194.7029802847885
 31
0.0
  0
SPLINE
  5
15B
330
2
100
AcDbEntity
  8
0
100
AcDbSpline
210
0.0
220
0.0
230
1.0
 70
     8
 71
     3
 72
     9
 73
     5
 74
     3
 42
0.0000000001
 43
0.0000000001
 44
0.0000000001
 12
0.3073810394915313
 22
-0.9515865155418637
 32
0.0
 13
-0.2065720139719843
 23
-0.9784313992526806
 33
0.0
 40
0.0
 40
0.0
 40
0.0
 40
0.0
 40
0.1016470409744699
 40
0.146996654628983
 40
0.146996654628983
 40
0.146996654628983
 40
0.146996654628983
 10
775.4495285429123
 20
192.752301198152
 30
0.0
 10
775.4599433339509
 20
192.72005921364
 30
0.0
 10
775.4689513353032
 20
192.6706352176487
 30
0.0
 10
775.4634852314564
 20
192.6216442126914
 30
0.0
 10
775.4603625777812
 20
192.6068537173769
 30
0.0
 11
775.4495285429123
 21
192.752301198152
 31
0.0
 11
775.4654802999717
 21
192.6519136372414
 31
0.0
 11
775.4603625777812
 21
192.6068537173769
 31
0.0
  0
SPLINE
  5
15C
330
2
100
AcDbEntity
  8
0
100
AcDbSpline
210
0.0
220
0.0
230
1.0
 70
     8
 71
     3
 72
    10
 73
     6
 74
     4
 42
0.0000000001
 43
0.0000000001
 44
0.0000000001
 12
0.3073810407004566
 22
-0.9515865151513573
 32
0.0
 13
-0.4308145049413584
 23
-0.9024405034860372
 33
0.0
 40
0.0
 40
0.0
 40
0.0
 40
0.0
 40
0.137394303762634
 40
0.2616011482091016
 40
0.2864731077289841
 40
0.2864731077289841
 40
0.2864731077289841
 40
0.2864731077289841
 10
775.763651980236
 20
192.8136794281755
 30
0.0
 10
775.7777294482617
 20
192.7700985726024
 30
0.0
 10
775.7944883137429
 20
192.6830044052478
 30
0.0
 10
775.7790051809899
 20
192.5861884121018
 30
0.0
 10
775.7593879628353
 20
192.5404864844604
 30
0.0
 10
775.7558162291927
 20
192.5330046632365
 30
0.0
 11
775.763651980236
 21
192.8136794281755
 31
0.0
 11
775.7868102887648
 21
192.6782508955374
 31
0.0
 11
775.7656119771779
 21
192.5558663712167
 31
0.0
 11
775.7558162291927
 21
192.5330046632365
 31
0.0
  0
DIMENSION
  5
15D
330
2
100
AcDbEntity
  8
DIM
100
AcDbDimension
  2
*D2
 10
801.3955830305185
 20
208.2880176123889
 30
0.0
 11
793.9783684708083
 21
208.2880176123889
 31
0.0
 70
   160
 71
     5
 42
14.8000000000012
 73
     0
 74
     0
 75
     0
  3
01
100
AcDbAlignedDimension
 13
786.5955830305172
 23
211.9773672266863
 33
0.0
 14
801.3955830305185
 24
211.0737405209188
 34
0.0
100
AcDbRotatedDimension
1001
ACAD
1000
DSTYLE
1002
{
1070
   147
1040
0.2
1070
   140
1040
1.0
1070
    41
1040
0.8
1070
    44
1040
0.2
1002
}
  0
DIMENSION
  5
16E
330
2
100
AcDbEntity
  8
DIM
100
AcDbDimension
  2
*D3
 10
784.8279979383047
 20
212.4773672266863
 30
0.0
 11
784.1279979383044
 21
214.7595100838293
 31
0.0
 70
    32
  1
%%C<>
 71
     5
 42
1.000000000000113
 73
     0
 74
     0
 75
     0
  3
01
100
AcDbAlignedDimension
 13
787.0955830305172
 23
211.4773672266862
 33
0.0
 14
787.0955830305172
 24
212.4773672266863
 34
0.0
 50
90.0
100
AcDbRotatedDimension
1001
ACAD
1000
DSTYLE
1002
{
1070
   147
1040
0.2
1070
   140
1040
1.0
1070
    41
1040
0.8
1070
    44
1040
0.2
1002
}
  0
DIMENSION
  5
17C
330
2
100
AcDbEntity
  8
DIM
100
AcDbDimension
  2
*D4
 10
794.6955830305179
 20
214.7523660986748
 30
0.0
 11
790.4709246172258
 21
214.7523660986748
 31
0.0
 70
   160
 71
     5
 42
8.100000000000591
 73
     0
 74
     0
 75
     0
  3
01
100
AcDbAlignedDimension
 13
786.5955830305172
 23
211.9773672266863
 33
0.0
 14
794.6955830305179
 24
212.882367226686
 34
0.0
100
AcDbRotatedDimension
1001
ACAD
1000
DSTYLE
1002
{
1070
   147
1040
0.2
1070
   140
1040
1.0
1070
    41
1040
0.8
1070
    44
1040
0.2
1002
}
  0
DIMENSION
  5
189
330
2
100
AcDbEntity
  8
DIM
100
AcDbDimension
  2
*D5
 10
805.7327506630977
 20
212.8073672266862
 30
0.0
 11
805.0327506630974
 21
216.0895100838291
 31
0.0
 70
    32
  1
%%C<>
 71
     5
 42
1.659999999999882
 73
     0
 74
     0
 75
     0
  3
01
100
AcDbAlignedDimension
 13
801.3816359987979
 23
211.1473672266863
 33
0.0
 14
801.3955830305185
 24
212.8073672266862
 34
0.0
 50
90.0
100
AcDbRotatedDimension
1001
ACAD
1000
DSTYLE
1002
{
1070
   271
1070
     2
1070
   147
1040
0.2
1070
   140
1040
1.0
1070
    41
1040
0.8
1070
    44
1040
0.2
1002
}
  0
DIMENSION
  5
197
330
2
100
AcDbEntity
  8
DIM
100
AcDbDimension
  2
*D6
 10
803.7641668468078
 20
212.4273672266866
 30
0.0
 11
803.064166846808
 21
214.7809386552582
 31
0.0
 70
    32
  1
%%Cd
 71
     5
 42
0.9000000000007162
 73
     0
 74
     0
 75
     0
  3
01
100
AcDbAlignedDimension
 13
801.2455830305171
 23
211.5273672266859
 33
0.0
 14
801.2455830305171
 24
212.4273672266866
 34
0.0
 50
90.0
100
AcDbRotatedDimension
1001
ACAD
1000
DSTYLE
1002
{
1070
   147
1040
0.2
1070
   140
1040
1.0
1070
    41
1040
0.8
1070
    44
1040
0.2
1002
}
  0
DIMENSION
  5
1A5
330
2
100
AcDbEntity
  8
DIM
100
AcDbDimension
  2
*D7
 10
801.3955830305185
 20
214.7847840362575
 30
0.0
 11
799.3955830305185
 21
215.4847840362575
 31
0.0
 70
    32
 71
     5
 42
4.000000000000113
 73
     0
 74
     0
 75
     0
  3
01
100
AcDbAlignedDimension
 13
797.3955830305182
 23
212.4273672266866
 33
0.0
 14
801.3955830305185
 24
212.8073672266862
 34
0.0
100
AcDbRotatedDimension
1001
ACAD
1000
DSTYLE
1002
{
1070
   147
1040
0.2
1070
   140
1040
1.0
1070
    41
1040
0.8
1070
    44
1040
0.2
1002
}
  0
MTEXT
  5
30A
330
2
100
AcDbEntity
  8
图框
 62
     3
100
AcDbMText
 10
832.6177772502783
 20
191.9202167855909
 30
0.0
 40
0.746378394635083
 41
8.403098007973925
 46
2.218038889596384
 71
     5
 72
     5
  1
{\C4;1010142100101}
  7
Romans字体
 73
     1
 44
1.0
1001
ACAD
1000
ACAD_MTEXT_DEFINED_HEIGHT_BEGIN
1070
    46
1040
2.218038889596384
1000
ACAD_MTEXT_DEFINED_HEIGHT_END
  0
INSERT
  5
30B
330
2
100
AcDbEntity
  8
DIM
100
AcDbBlockReference
  2
A4图框-NEW
 10
555.0872002708088
 20
64.63287239158471
 30
0.0
 41
0.25
 42
0.25
 43
0.25
  0
MTEXT
  5
357
330
2
100
AcDbEntity
  8
图框
 62
     3
100
AcDbMText
 10
832.6177769243468
 20
194.1150792678115
 30
0.0
 40
0.7463783937585367
 41
8.403097998105339
 46
2.171686376421464
 71
     5
 72
     5
  1
CSGM-0.25
  7
Romans字体
 73
     1
 44
1.0
1001
ACAD
1000
ACAD_MTEXT_DEFINED_HEIGHT_BEGIN
1070
    46
1040
2.171686376421464
1000
ACAD_MTEXT_DEFINED_HEIGHT_END
  0
MTEXT
  5
358
330
2
100
AcDbEntity
  8
图框
 62
     3
100
AcDbMText
 10
815.6043606917004
 20
188.5933078664186
 30
0.0
 40
0.7463783937585367
 41
2.707337108597616
 46
1.971523650302624
 71
     5
 72
     5
  1
4:1
  7
Romans字体
 73
     1
 44
1.0
1001
ACAD
1000
ACAD_MTEXT_DEFINED_HEIGHT_BEGIN
1070
    46
1040
1.971523650302624
1000
ACAD_MTEXT_DEFINED_HEIGHT_END
  0
LINE
  5
3E5
330
2
100
AcDbEntity
  8
图框
370
    -3
100
AcDbLine
 10
774.9374208577841
 20
232.1644225912248
 30
0.0
 11
781.7969867828086
 21
232.1644225912248
 31
0.0
  0
LINE
  5
3E6
330
2
100
AcDbEntity
  8
图框
370
    -3
100
AcDbLine
 10
764.3154132321934
 20
230.8122004044093
 30
0.0
 11
793.9682545015187
 21
230.8122004044101
 31
0.0
  0
LINE
  5
3E7
330
2
100
AcDbEntity
  8
图框
370
    -3
100
AcDbLine
 10
764.3154132321934
 20
229.4599782175936
 30
0.0
 11
793.9682545015187
 21
229.4599782175936
 31
0.0
  0
MTEXT
  5
3E8
330
2
100
AcDbEntity
  8
图框
100
AcDbMText
 10
778.3672628926916
 20
232.8405336846672
 30
0.0
 40
0.6000023545570477
 41
6.859684067146692
 46
1.352222186885061
 71
     5
 72
     5
  1
{\f仿宋_GB2312|b0|i0|c134|p49;\C4;线径\Fromans|c134;/Wire Gauge}
  7
Romans字体
 73
     1
 44
1.0
1001
ACAD
1000
ACAD_MTEXT_DEFINED_HEIGHT_BEGIN
1070
    46
1040
1.352222186885061
1000
ACAD_MTEXT_DEFINED_HEIGHT_END
  0
LINE
  5
3E9
330
2
100
AcDbEntity
  8
图框
370
    -3
100
AcDbLine
 10
764.3154132321934
 20
228.1077560307784
 30
0.0
 11
793.9682545015187
 21
228.1077560307782
 31
0.0
  0
MTEXT
  5
3EA
330
2
100
AcDbEntity
  8
图框
100
AcDbMText
 10
780.3220344438098
 20
231.4882764638581
 30
0.0
 40
0.6000023545570477
 41
2.949904677997924
 46
1.352152118895874
 71
     5
 72
     5
  1
{\C4;AWG}
  7
Romans字体
 73
     1
 44
1.0
1001
ACAD
1000
ACAD_MTEXT_DEFINED_HEIGHT_BEGIN
1070
    46
1040
1.352152118895874
1000
ACAD_MTEXT_DEFINED_HEIGHT_END
  0
MTEXT
  5
3EB
330
2
100
AcDbEntity
  8
图框
100
AcDbMText
 10
776.8922514816313
 20
231.4883114978174
 30
0.0
 40
0.6000023545570477
 41
3.909661246359366
 46
1.352222186814757
 71
     5
 72
     5
  1
\A1;{\C4;mm\H0.7x;\S2^  ;}
  7
Romans字体
 73
     1
 44
1.0
1001
ACAD
1000
ACAD_MTEXT_DEFINED_HEIGHT_BEGIN
1070
    46
1040
1.352222186814757
1000
ACAD_MTEXT_DEFINED_HEIGHT_END
  0
MTEXT
  5
3EC
330
2
100
AcDbEntity
  8
图框
100
AcDbMText
 10
776.8922514819645
 20
230.1360893110015
 30
0.0
 40
0.6000023545570477
 41
3.909661247026225
 46
1.3522221868165
 71
     5
 72
     5
  1
{\C4;0.09-0.25}
  7
Romans字体
 73
     1
 44
1.0
1001
ACAD
1000
ACAD_MTEXT_DEFINED_HEIGHT_BEGIN
1070
    46
1040
1.3522221868165
1000
ACAD_MTEXT_DEFINED_HEIGHT_END
  0
MTEXT
  5
3ED
330
2
100
AcDbEntity
  8
图框
100
AcDbMText
 10
776.8922514819645
 20
228.7838671241858
 30
0.0
 40
0.6000023545570477
 41
3.909661247026225
 46
1.352222186815229
 71
     5
 72
     5
  1
{\C4;0.25-0.33}
  7
Romans字体
 73
     1
 44
1.0
1001
ACAD
1000
ACAD_MTEXT_DEFINED_HEIGHT_BEGIN
1070
    46
1040
1.352222186815229
1000
ACAD_MTEXT_DEFINED_HEIGHT_END
  0
MTEXT
  5
3EE
330
2
100
AcDbEntity
  8
图框
100
AcDbMText
 10
780.322034444143
 20
230.1360893110018
 30
0.0
 40
0.6000023545570477
 41
2.949904678664852
 46
1.352222186816635
 71
     5
 72
     5
  1
{\C4;28-24}
  7
Romans字体
 73
     1
 44
1.0
1001
ACAD
1000
ACAD_MTEXT_DEFINED_HEIGHT_BEGIN
1070
    46
1040
1.352222186816635
1000
ACAD_MTEXT_DEFINED_HEIGHT_END
  0
MTEXT
  5
3EF
330
2
100
AcDbEntity
  8
图框
100
AcDbMText
 10
780.3220344444763
 20
228.7838671241858
 30
0.0
 40
0.6000023545570477
 41
2.949904677998123
 46
1.352222186815164
 71
     5
 72
     5
  1
{\C4;26-22}
  7
Romans字体
 73
     1
 44
1.0
1001
ACAD
1000
ACAD_MTEXT_DEFINED_HEIGHT_BEGIN
1070
    46
1040
1.352222186815164
1000
ACAD_MTEXT_DEFINED_HEIGHT_END
  0
MTEXT
  5
3F0
330
2
100
AcDbEntity
  8
图框
100
AcDbMText
 10
771.9040038586929
 20
232.1643825555159
 30
0.0
 40
0.6000023545570477
 41
6.066833998183262
 46
2.704364302212839
 71
     5
 72
     5
  1
{\f仿宋_GB2312|b0|i0|c134|p49;\C4;产品料号\Fromans|c134;\PPart NO.}
  7
Romans字体
 73
     1
 44
1.0
1001
ACAD
1000
ACAD_MTEXT_DEFINED_HEIGHT_BEGIN
1070
    46
1040
2.704364302212839
1000
ACAD_MTEXT_DEFINED_HEIGHT_END
  0
MTEXT
  5
3F1
330
2
100
AcDbEntity
  8
图框
100
AcDbMText
 10
783.0134386456736
 20
232.1643825555162
 30
0.0
 40
0.6000023545570477
 41
2.432903725729715
 46
2.704364302212435
 71
     5
 72
     5
  1
{\C4;d}
  7
Romans字体
 73
     1
 44
1.0
1001
ACAD
1000
ACAD_MTEXT_DEFINED_HEIGHT_BEGIN
1070
    46
1040
2.704364302212435
1000
ACAD_MTEXT_DEFINED_HEIGHT_END
  0
MTEXT
  5
3F2
330
2
100
AcDbEntity
  8
图框
100
AcDbMText
 10
783.0134386456736
 20
230.1360893110018
 30
0.0
 40
0.6000023545570477
 41
2.43290372572948
 46
1.352222186816667
 71
     5
 72
     5
  1
{\C4;0.64}
  7
Romans字体
 73
     1
 44
1.0
1001
ACAD
1000
ACAD_MTEXT_DEFINED_HEIGHT_BEGIN
1070
    46
1040
1.352222186816667
1000
ACAD_MTEXT_DEFINED_HEIGHT_END
  0
MTEXT
  5
3F3
330
2
100
AcDbEntity
  8
图框
100
AcDbMText
 10
783.0134386456736
 20
228.7838671241857
 30
0.0
 40
0.6000023545570477
 41
2.43290372572947
 46
1.352222186815196
 71
     5
 72
     5
  1
{\C4;0.9}
  7
Romans字体
 73
     1
 44
1.0
1001
ACAD
1000
ACAD_MTEXT_DEFINED_HEIGHT_BEGIN
1070
    46
1040
1.352222186815196
1000
ACAD_MTEXT_DEFINED_HEIGHT_END
  0
LINE
  5
3F4
330
2
100
AcDbEntity
  8
图框
370
    35
380
     1
100
AcDbLine
 10
784.229890508538
 20
233.5166447781097
 30
0.0
 11
784.229890508538
 21
226.7555338439631
 31
0.0
  0
LINE
  5
3F5
330
2
100
AcDbEntity
  8
图框
370
    -3
100
AcDbLine
 10
781.7969867834752
 20
233.5166447781097
 30
0.0
 11
781.7969867834757
 21
226.7555338439631
 31
0.0
  0
LINE
  5
3F6
330
2
100
AcDbEntity
  8
图框
370
    -3
100
AcDbLine
 10
778.8470821054779
 20
232.1644325947932
 30
0.0
 11
778.8470821054772
 21
226.7555338439631
 31
0.0
  0
LINE
  5
3F7
330
2
100
AcDbEntity
  8
图框
370
    -3
100
AcDbLine
 10
768.8705868602681
 20
226.7555338439631
 30
0.0
 11
768.8705868602681
 21
232.1644325947924
 31
0.0
  0
LINE
  5
3F8
330
2
100
AcDbEntity
  8
图框
370
    -3
100
AcDbLine
 10
774.9374208584512
 20
226.7555338439631
 30
0.0
 11
774.9374208584512
 21
233.5166447781095
 31
0.0
  0
MTEXT
  5
3F9
330
2
100
AcDbEntity
  8
图框
100
AcDbMText
 10
776.8922514822981
 20
227.4316449373706
 30
0.0
 40
0.59999791584616
 41
3.909661246359378
 46
1.352222186815279
 71
     5
 72
     5
  1
{\C4;0.33-0.52}
  7
Romans字体
 73
     1
 44
1.0
1001
ACAD
1000
ACAD_MTEXT_DEFINED_HEIGHT_BEGIN
1070
    46
1040
1.352222186815279
1000
ACAD_MTEXT_DEFINED_HEIGHT_END
  0
MTEXT
  5
3FA
330
2
100
AcDbEntity
  8
图框
100
AcDbMText
 10
780.3220344444763
 20
227.4316449373706
 30
0.0
 40
0.59999791584616
 41
2.949904677998274
 46
1.35222218681521
 71
     5
 72
     5
  1
{\C4;22-20}
  7
Romans字体
 73
     1
 44
1.0
1001
ACAD
1000
ACAD_MTEXT_DEFINED_HEIGHT_BEGIN
1070
    46
1040
1.35222218681521
1000
ACAD_MTEXT_DEFINED_HEIGHT_END
  0
MTEXT
  5
3FB
330
2
100
AcDbEntity
  8
图框
100
AcDbMText
 10
783.0134386460067
 20
227.4316449373706
 30
0.0
 40
0.59999791584616
 41
2.432903725062625
 46
1.352222186815245
 71
     5
 72
     5
  1
{\C4;1.12}
  7
Romans字体
 73
     1
 44
1.0
1001
ACAD
1000
ACAD_MTEXT_DEFINED_HEIGHT_BEGIN
1070
    46
1040
1.352222186815245
1000
ACAD_MTEXT_DEFINED_HEIGHT_END
  0
LINE
  5
3FC
330
2
100
AcDbEntity
  8
图框
370
    -3
100
AcDbLine
 10
781.7969867828086
 20
233.5165647066226
 30
0.0
 11
781.796986782809
 21
226.7555338439631
 31
0.0
  0
LINE
  5
3FD
330
2
100
AcDbEntity
  8
图框
370
    -3
100
AcDbLine
 10
768.8705868596014
 20
226.7555338439631
 30
0.0
 11
768.8705868596014
 21
233.5165647066226
 31
0.0
  0
LINE
  5
3FE
330
2
100
AcDbEntity
  8
图框
370
    -3
100
AcDbLine
 10
774.9374208577841
 20
226.7555338439631
 30
0.0
 11
774.9374208577841
 21
233.5165647066226
 31
0.0
  0
LINE
  5
3FF
330
2
100
AcDbEntity
  8
图框
370
    35
380
     1
100
AcDbLine
 10
790.0585932544921
 20
233.5166447781098
 30
0.0
 11
790.0585932544921
 21
226.7556139154502
 31
0.0
  0
LINE
  5
400
330
2
100
AcDbEntity
  8
图框
370
    -3
100
AcDbLine
 10
764.3154132321934
 20
226.7555338439631
 30
0.0
 11
793.9682545015187
 21
226.755533843963
 31
0.0
  0
MTEXT
  5
401
330
2
100
AcDbEntity
  8
图框
100
AcDbMText
 10
766.5930000458977
 20
232.1644275930084
 30
0.0
 40
0.6000023545570477
 41
4.555173627407302
 46
2.704274227227899
 71
     5
 72
     5
  1
{\f仿宋_GB2312|b0|i0|c134|p49;\C4;产品代号\fFangSong_GB2312|b0|i0|c134|p49;\P\Fromans|c134;Part Code}
  7
Romans字体
 73
     1
 44
1.0
1001
ACAD
1000
ACAD_MTEXT_DEFINED_HEIGHT_BEGIN
1070
    46
1040
2.704274227227899
1000
ACAD_MTEXT_DEFINED_HEIGHT_END
  0
MTEXT
  5
402
330
2
100
AcDbEntity
  8
图框
100
AcDbMText
 10
792.0134238776713
 20
232.8405737204108
 30
0.0
 40
0.6000023545570477
 41
3.909661246359441
 46
1.352142115397727
 71
     5
 72
     5
  1
{\f仿宋_GB2312|b0|i0|c134|p49;\C4;重量\Fromans|c134;/Weight}
  7
Romans字体
 73
     1
 44
1.0
1001
ACAD
1000
ACAD_MTEXT_DEFINED_HEIGHT_BEGIN
1070
    46
1040
1.352142115397727
1000
ACAD_MTEXT_DEFINED_HEIGHT_END
  0
MTEXT
  5
403
330
2
100
AcDbEntity
  8
图框
100
AcDbMText
 10
792.0134238776713
 20
231.4883915693044
 30
0.0
 40
0.6000023545570477
 41
3.909661246359381
 46
1.352222186814967
 71
     5
 72
     5
  1
{\C4;g}
  7
Romans字体
 73
     1
 44
1.0
1001
ACAD
1000
ACAD_MTEXT_DEFINED_HEIGHT_BEGIN
1070
    46
1040
1.352222186814967
1000
ACAD_MTEXT_DEFINED_HEIGHT_END
  0
LINE
  5
404
330
2
100
AcDbEntity
  8
图框
370
    -3
100
AcDbLine
 10
774.9374208584512
 20
233.5165647066226
 30
0.0
 11
774.9374208584512
 21
226.7555338439631
 31
0.0
  0
MTEXT
  5
405
330
2
100
AcDbEntity
  8
图框
100
AcDbMText
 10
787.144241881515
 20
232.1644626270034
 30
0.0
 40
0.6000023545570477
 41
5.828702745953783
 46
2.704364302212259
 71
     5
 72
     5
  1
{\f仿宋_GB2312|b0|i0|c134|p49;\C4;剥线长度\Fromans|c134;\PStripping Length}
  7
Romans字体
 73
     1
 44
1.0
1001
ACAD
1000
ACAD_MTEXT_DEFINED_HEIGHT_BEGIN
1070
    46
1040
2.704364302212259
1000
ACAD_MTEXT_DEFINED_HEIGHT_END
  0
LINE
  5
406
330
2
100
AcDbEntity
  8
图框
370
    35
380
     1
100
AcDbLine
 10
784.229890508538
 20
233.5166447781097
 30
0.0
 11
784.229890508538
 21
226.7556139154502
 31
0.0
  0
MTEXT
  5
407
330
2
100
AcDbEntity
  8
图框
100
AcDbMText
 10
787.144241881515
 20
230.1361693824889
 30
0.0
 40
0.6000023545570477
 41
5.828702745953752
 46
1.35222218681682
 71
     5
 72
     5
  1
{\C4;5}
  7
Romans字体
 73
     1
 44
1.0
1001
ACAD
1000
ACAD_MTEXT_DEFINED_HEIGHT_BEGIN
1070
    46
1040
1.35222218681682
1000
ACAD_MTEXT_DEFINED_HEIGHT_END
  0
MTEXT
  5
408
330
2
100
AcDbEntity
  8
图框
100
AcDbMText
 10
792.0134238770047
 20
230.1360893110013
 30
0.0
 40
0.6000023545570477
 41
3.90966124635945
 46
1.352222186816528
 71
     5
 72
     5
  1
{\C4;0.19}
  7
Romans字体
 73
     1
 44
1.0
1001
ACAD
1000
ACAD_MTEXT_DEFINED_HEIGHT_BEGIN
1070
    46
1040
1.352222186816528
1000
ACAD_MTEXT_DEFINED_HEIGHT_END
  0
MTEXT
  5
409
330
2
100
AcDbEntity
  8
图框
100
AcDbMText
 10
792.0134238770047
 20
228.7838671241846
 30
0.0
 40
0.6000023545570477
 41
3.90966124635945
 46
1.352222186816528
 71
     5
 72
     5
  1
{\C4;0.18}
  7
Romans字体
 73
     1
 44
1.0
1001
ACAD
1000
ACAD_MTEXT_DEFINED_HEIGHT_BEGIN
1070
    46
1040
1.352222186816528
1000
ACAD_MTEXT_DEFINED_HEIGHT_END
  0
MTEXT
  5
40A
330
2
100
AcDbEntity
  8
图框
100
AcDbMText
 10
792.0134238770047
 20
227.4316449373695
 30
0.0
 40
0.6000023545570477
 41
3.90966124635945
 46
1.352222186816528
 71
     5
 72
     5
  1
{\C4;0.17}
  7
Romans字体
 73
     1
 44
1.0
1001
ACAD
1000
ACAD_MTEXT_DEFINED_HEIGHT_BEGIN
1070
    46
1040
1.352222186816528
1000
ACAD_MTEXT_DEFINED_HEIGHT_END
  0
MTEXT
  5
40B
330
2
100
AcDbEntity
  8
图框
100
AcDbMText
 10
787.144241881515
 20
228.7839471956738
 30
0.0
 40
0.6000023545570477
 41
5.828702745953752
 46
1.35222218681682
 71
     5
 72
     5
  1
{\C4;5}
  7
Romans字体
 73
     1
 44
1.0
1001
ACAD
1000
ACAD_MTEXT_DEFINED_HEIGHT_BEGIN
1070
    46
1040
1.35222218681682
1000
ACAD_MTEXT_DEFINED_HEIGHT_END
  0
MTEXT
  5
40C
330
2
100
AcDbEntity
  8
图框
100
AcDbMText
 10
787.144241881515
 20
227.4317250088583
 30
0.0
 40
0.6000023545570477
 41
5.828702745953752
 46
1.35222218681682
 71
     5
 72
     5
  1
{\C4;5}
  7
Romans字体
 73
     1
 44
1.0
1001
ACAD
1000
ACAD_MTEXT_DEFINED_HEIGHT_BEGIN
1070
    46
1040
1.35222218681682
1000
ACAD_MTEXT_DEFINED_HEIGHT_END
  0
LINE
  5
40D
330
2
100
AcDbEntity
  8
图框
370
    -3
100
AcDbLine
 10
793.9682545015187
 20
233.5166447781096
 30
0.0
 11
793.9682545015187
 21
226.755533843963
 31
0.0
  0
MTEXT
  5
40E
330
2
100
AcDbEntity
  8
图框
100
AcDbMText
 10
766.5930000460339
 20
228.7794550243041
 30
0.0
 40
0.6000023545570477
 41
4.555173628468742
 46
1.3551569177361
 71
     5
 72
     5
  1
{\C4;CSGM-0.33}
  7
Romans字体
 73
     1
 44
1.0
1001
ACAD
1000
ACAD_MTEXT_DEFINED_HEIGHT_BEGIN
1070
    46
1040
1.3551569177361
1000
ACAD_MTEXT_DEFINED_HEIGHT_END
  0
MTEXT
  5
40F
330
2
100
AcDbEntity
  8
图框
100
AcDbMText
 10
766.5930000460339
 20
230.1346119420419
 30
0.0
 40
0.59999791584616
 41
4.555173628468827
 46
1.355156917739057
 71
     5
 72
     5
  1
{\C4;CSGM-0.25}
  7
Romans字体
 73
     1
 44
1.0
1001
ACAD
1000
ACAD_MTEXT_DEFINED_HEIGHT_BEGIN
1070
    46
1040
1.355156917739057
1000
ACAD_MTEXT_DEFINED_HEIGHT_END
  0
MTEXT
  5
410
330
2
100
AcDbEntity
  8
图框
100
AcDbMText
 10
766.5930000462309
 20
227.4257704737775
 30
0.0
 40
0.59999791584616
 41
4.555173628074261
 46
1.35221218331696
 71
     5
 72
     5
  1
{\C4;CSGM-0.52}
  7
Romans字体
 73
     1
 44
1.0
1001
ACAD
1000
ACAD_MTEXT_DEFINED_HEIGHT_BEGIN
1070
    46
1040
1.35221218331696
1000
ACAD_MTEXT_DEFINED_HEIGHT_END
  0
MTEXT
  5
411
330
2
100
AcDbEntity
  8
图框
100
AcDbMText
 10
771.9040038593597
 20
230.1360793075029
 30
0.0
 40
0.6000023545570477
 41
6.066833998183262
 46
1.352222186816343
 71
     5
 72
     5
  1
{\C4;1010142100101}
  7
Romans字体
 73
     1
 44
1.0
1001
ACAD
1000
ACAD_MTEXT_DEFINED_HEIGHT_BEGIN
1070
    46
1040
1.352222186816343
1000
ACAD_MTEXT_DEFINED_HEIGHT_END
  0
MTEXT
  5
412
330
2
100
AcDbEntity
  8
图框
100
AcDbMText
 10
771.9040038593601
 20
228.7809223897641
 30
0.0
 40
0.6000023545570477
 41
6.066833998183262
 46
1.352222186816343
 71
     5
 72
     5
  1
{\C4;1010142100201}
  7
Romans字体
 73
     1
 44
1.0
1001
ACAD
1000
ACAD_MTEXT_DEFINED_HEIGHT_BEGIN
1070
    46
1040
1.352222186816343
1000
ACAD_MTEXT_DEFINED_HEIGHT_END
  0
MTEXT
  5
413
330
2
100
AcDbEntity
  8
图框
100
AcDbMText
 10
771.9040038593601
 20
227.428700202949
 30
0.0
 40
0.6000023545570477
 41
6.066833998183262
 46
1.352222186816343
 71
     5
 72
     5
  1
{\C4;1010142100501}
  7
Romans字体
 73
     1
 44
1.0
1001
ACAD
1000
ACAD_MTEXT_DEFINED_HEIGHT_BEGIN
1070
    46
1040
1.352222186816343
1000
ACAD_MTEXT_DEFINED_HEIGHT_END
  0
MTEXT
  5
4CF
330
2
100
AcDbEntity
  8
图框
 62
     3
100
AcDbMText
 10
821.1006401720686
 20
188.4912789487474
 30
0.0
 40
0.7463783937585367
 41
8.403097998105339
 46
2.171686376421464
 71
     5
 72
     5
  1
0.19g
  7
Romans字体
 73
     1
 44
1.0
1001
ACAD
1000
ACAD_MTEXT_DEFINED_HEIGHT_BEGIN
1070
    46
1040
2.171686376421464
1000
ACAD_MTEXT_DEFINED_HEIGHT_END
  0
ENDSEC
  0
SECTION
  2
OBJECTS
  0
DICTIONARY
  5
B
330
0
100
AcDbDictionary
281
     1
  3
ACAD_COLOR
350
1F8
  3
ACAD_GROUP
350
1E5
  3
ACAD_LAYOUT
350
1C6
  3
ACAD_MATERIAL
350
D
  3
ACAD_MLEADERSTYLE
350
259
  3
ACAD_MLINESTYLE
350
1E6
  3
ACAD_PLOTSETTINGS
350
1E7
  3
ACAD_PLOTSTYLENAME
350
A
  3
ACAD_SCALELIST
350
1F9
  3
ACAD_TABLESTYLE
350
1FA
  3
ACAD_VISUALSTYLE
350
1DF
  3
ACDB_RECOMPOSE_DATA
350
249
  3
AcDbVariableDictionary
350
222
  0
DICTIONARY
  5
1E0
330
1DC
100
AcDbDictionary
280
     1
281
     1
  0
DICTIONARY
  5
1D1
330
1D0
100
AcDbDictionary
280
     1
281
     1
  3
ACAD_LAYERFILTERS
360
489
  3
ACAD_LAYERSTATES
360
1D3
  3
ACLYDICTIONARY
360
488
  0
DICTIONARY
  5
7
330
6
100
AcDbDictionary
280
     1
281
     1
  3
ADSK_XREC_LAYER_RECONCILED
360
8
  0
DICTIONARY
  5
18
330
17
100
AcDbDictionary
280
     1
281
     1
  3
ADSK_XREC_LAYER_RECONCILED
360
19
  0
DICTIONARY
  5
26
330
25
100
AcDbDictionary
280
     1
281
     1
  3
ADSK_XREC_LAYER_RECONCILED
360
27
  0
DICTIONARY
  5
3
330
2
100
AcDbDictionary
280
     1
281
     1
  3
ACAD_SORTENTS
360
221
  0
DICTIONARY
  5
568
330
268
100
AcDbDictionary
280
     1
281
     1
  0
DICTIONARY
  5
599
330
4D3
100
AcDbDictionary
280
     1
281
     1
  3
ACAD_MTEXT_2008_RT
360
59A
  0
DICTIONARY
  5
59B
330
517
100
AcDbDictionary
280
     1
281
     1
  3
ACAD_MTEXT_2008_RT
360
59C
  0
DICTIONARY
  5
59D
330
518
100
AcDbDictionary
280
     1
281
     1
  3
ACAD_MTEXT_2008_RT
360
59E
  0
DICTIONARY
  5
59F
330
53D
100
AcDbDictionary
280
     1
281
     1
  3
ACAD_MTEXT_2008_RT
360
5A0
  0
DICTIONARY
  5
5A1
330
540
100
AcDbDictionary
280
     1
281
     1
  3
ACAD_MTEXT_2008_RT
360
5A2
  0
DICTIONARY
  5
5A3
330
541
100
AcDbDictionary
280
     1
281
     1
  3
ACAD_MTEXT_2008_RT
360
5A4
  0
DICTIONARY
  5
5A5
330
54B
100
AcDbDictionary
280
     1
281
     1
  3
ACAD_MTEXT_2008_RT
360
5A6
  0
DICTIONARY
  5
5A7
330
54C
100
AcDbDictionary
280
     1
281
     1
  3
ACAD_MTEXT_2008_RT
360
5A8
  0
DICTIONARY
  5
5A9
330
54D
100
AcDbDictionary
280
     1
281
     1
  3
ACAD_MTEXT_2008_RT
360
5AA
  0
DICTIONARY
  5
5AB
330
55B
100
AcDbDictionary
280
     1
281
     1
  3
ACAD_MTEXT_2008_RT
360
5AC
  0
DICTIONARY
  5
5AD
330
55C
100
AcDbDictionary
280
     1
281
     1
  3
ACAD_MTEXT_2008_RT
360
5AE
  0
DICTIONARY
  5
5AF
330
55D
100
AcDbDictionary
280
     1
281
     1
  3
ACAD_MTEXT_2008_RT
360
5B0
  0
DICTIONARY
  5
596
330
DF
100
AcDbDictionary
280
     1
281
     1
  3
ACAD_MTEXT_2008_RT
360
597
  0
DICTIONARY
  5
1F8
102
{ACAD_REACTORS
330
B
102
}
330
B
100
AcDbDictionary
281
     1
  0
DICTIONARY
  5
1E5
102
{ACAD_REACTORS
330
B
102
}
330
B
100
AcDbDictionary
281
     1
  0
DICTIONARY
  5
1C6
102
{ACAD_REACTORS
330
B
102
}
330
B
100
AcDbDictionary
281
     1
  3
Layout1
350
1CB
  3
Layout2
350
1CF
  3
Model
350
1C5
  0
DICTIONARY
  5
D
102
{ACAD_REACTORS
330
B
102
}
330
B
100
AcDbDictionary
281
     1
  3
ByBlock
350
1F0
  3
ByLayer
350
1E8
  3
Global
350
C
  0
DICTIONARY
  5
259
102
{ACAD_REACTORS
330
B
102
}
330
B
100
AcDbDictionary
281
     1
  3
Standard
350
25A
  0
DICTIONARY
  5
1E6
102
{ACAD_REACTORS
330
B
102
}
330
B
100
AcDbDictionary
281
     1
  3
Standard
350
1FB
  0
DICTIONARY
  5
1E7
102
{ACAD_REACTORS
330
B
102
}
330
B
100
AcDbDictionary
281
     1
  0
ACDBDICTIONARYWDFLT
  5
A
102
{ACAD_REACTORS
330
B
102
}
330
B
100
AcDbDictionary
281
     1
  3
Normal
350
9
100
AcDbDictionaryWithDefault
340
9
  0
DICTIONARY
  5
1F9
102
{ACAD_REACTORS
330
B
102
}
330
B
100
AcDbDictionary
281
     1
  3
A0
350
200
  3
A1
350
201
  3
A2
350
202
  3
A3
350
203
  3
A4
350
204
  3
A5
350
205
  3
A6
350
206
  3
A7
350
207
  3
A8
350
208
  3
A9
350
209
  3
B0
350
20A
  3
B1
350
20B
  3
B2
350
20C
  3
B3
350
20D
  3
B4
350
20E
  3
B5
350
20F
  3
B6
350
210
  3
B7
350
211
  3
B8
350
212
  3
B9
350
213
  3
C0
350
214
  3
C1
350
215
  3
C2
350
216
  3
C3
350
217
  3
C4
350
218
  3
C5
350
219
  3
C6
350
21A
  3
C7
350
21B
  3
C8
350
21C
  3
C9
350
21D
  3
D0
350
21E
  3
D1
350
21F
  3
D2
350
220
  0
DICTIONARY
  5
1FA
102
{ACAD_REACTORS
330
B
102
}
330
B
100
AcDbDictionary
281
     1
  3
Standard
350
1FC
  0
DICTIONARY
  5
1DF
102
{ACAD_REACTORS
330
B
102
}
330
B
100
AcDbDictionary
281
     1
  3
2dWireframe
350
1DE
  3
3D Hidden
350
251
  3
3dWireframe
350
1FF
  3
Basic
350
250
  3
Brighten
350
254
  3
ColorChange
350
258
  3
Conceptual
350
252
  3
Dim
350
253
  3
Facepattern
350
257
  3
Flat
350
24C
  3
FlatWithEdges
350
24D
  3
Gouraud
350
24E
  3
GouraudWithEdges
350
24F
  3
Linepattern
350
256
  3
Realistic
350
1FE
  3
Thicken
350
255
  0
XRECORD
  5
249
102
{ACAD_REACTORS
330
B
102
}
330
B
100
AcDbXrecord
280
     1
 90
        1
330
DF
330
1FC
330
4D3
330
517
330
518
330
53D
330
540
330
541
330
54B
330
54C
330
54D
330
55B
330
55C
330
55D
  0
DICTIONARY
  5
222
102
{ACAD_REACTORS
330
B
102
}
330
B
100
AcDbDictionary
281
     1
  3
CANNOSCALE
350
225
  3
CMLEADERSTYLE
350
224
  3
CTABLESTYLE
350
223
  3
DIMASSOC
350
35D
  3
HIDETEXT
350
35C
  3
INDEXCTL
350
35B
  3
LIGHTINGUNITS
350
226
  3
MSLTSCALE
350
359
  3
SORTENTS
350
35A
  0
DICTIONARY
  5
489
102
{ACAD_REACTORS
330
1D1
102
}
330
1D1
100
AcDbDictionary
281
     1
  0
DICTIONARY
  5
1D3
102
{ACAD_REACTORS
330
1D1
102
}
330
1D1
100
AcDbDictionary
281
     1
  0
DICTIONARY
  5
488
102
{ACAD_REACTORS
330
1D1
102
}
330
1D1
100
AcDbDictionary
281
     1
1001
ACAD
1000
<All
  0
XRECORD
  5
8
102
{ACAD_REACTORS
330
7
102
}
330
7
100
AcDbXrecord
280
     1
290
     1
  0
XRECORD
  5
19
102
{ACAD_REACTORS
330
18
102
}
330
18
100
AcDbXrecord
280
     1
290
     1
  0
XRECORD
  5
27
102
{ACAD_REACTORS
330
26
102
}
330
26
100
AcDbXrecord
280
     1
290
     1
  0
SORTENTSTABLE
  5
221
102
{ACAD_REACTORS
330
3
102
}
330
3
100
AcDbSortentsTable
330
2
331
140
  5
152
331
14F
  5
197
331
131
  5
143
331
122
  5
134
331
10B
  5
11E
331
110
  5
123
331
1F
  5
1F
331
141
  5
153
331
150
  5
1A5
331
132
  5
144
331
123
  5
135
331
357
  5
3A1
331
10C
  5
11F
331
20
  5
20
331
111
  5
124
331
358
  5
3A2
331
142
  5
154
331
151
  5
1B2
331
133
  5
145
331
124
  5
136
331
10D
  5
120
331
158
  5
1B9
331
16E
  5
1BF
331
21
  5
21
331
143
  5
155
331
125
  5
137
331
152
  5
1B3
331
134
  5
146
331
10E
  5
121
331
DF
  5
F3
331
197
  5
30A
331
22
  5
22
331
159
  5
1BA
331
113
  5
125
331
144
  5
156
331
153
  5
1B4
331
10F
  5
122
331
135
  5
147
331
126
  5
138
331
189
  5
1C1
331
114
  5
126
331
15A
  5
1BB
331
16
  5
16
331
F9
  5
10D
331
23
  5
23
331
145
  5
157
331
154
  5
1B5
331
136
  5
148
331
127
  5
139
331
118
  5
12A
331
FA
  5
10E
331
15B
  5
1BC
331
115
  5
127
331
128
  5
13A
331
155
  5
1B6
331
146
  5
158
331
119
  5
12B
331
137
  5
149
331
116
  5
128
331
15C
  5
1BD
331
100
  5
115
331
FB
  5
10F
331
147
  5
159
331
156
  5
1B7
331
138
  5
14A
331
129
  5
13B
331
11A
  5
12C
331
30A
  5
357
331
101
  5
116
331
FC
  5
110
331
15D
  5
1BE
331
117
  5
129
331
12A
  5
13C
331
139
  5
14B
331
11B
  5
12D
331
157
  5
1B8
331
148
  5
15A
331
30B
  5
358
331
102
  5
117
331
FD
  5
111
331
149
  5
15B
331
13A
  5
14C
331
12B
  5
13D
331
11C
  5
12E
331
103
  5
118
331
FE
  5
113
331
1A5
  5
30B
331
14A
  5
15C
331
12C
  5
13E
331
13B
  5
14D
331
11D
  5
12F
331
F6
  5
10C
331
1A
  5
1A
331
104
  5
119
331
FF
  5
114
331
14B
  5
15D
331
13C
  5
14E
331
12D
  5
13F
331
11E
  5
130
331
105
  5
11A
331
1B
  5
1B
331
14C
  5
16E
331
12E
  5
140
331
13D
  5
14F
331
11F
  5
131
331
108
  5
11B
331
1C
  5
1C
331
14D
  5
17C
331
12F
  5
141
331
120
  5
132
331
13E
  5
150
331
109
  5
11C
331
1D
  5
1D
331
14E
  5
189
331
130
  5
142
331
121
  5
133
331
13F
  5
151
331
10A
  5
11D
331
1E
  5
1E
331
17C
  5
1C0
  0
XRECORD
  5
59A
102
{ACAD_REACTORS
330
599
102
}
330
599
100
AcDbXrecord
280
     1
 40
1527.0
  1
\pxqc;BQ LUO
  0
XRECORD
  5
59C
102
{ACAD_REACTORS
330
59B
102
}
330
59B
100
AcDbXrecord
280
     1
 40
3624820.0
  1
\pxqc;档案员{\H0.7x;\P\Fromans|c134;Filing Clerk\fFangSong_GB2312|b0|i0|c134|p49; }
  0
XRECORD
  5
59E
102
{ACAD_REACTORS
330
59D
102
}
330
59D
100
AcDbXrecord
280
     1
 40
2054623.0
  1
\pxqc;日期{\Fromans|c134;/Date}
  0
XRECORD
  5
5A0
102
{ACAD_REACTORS
330
59F
102
}
330
59F
100
AcDbXrecord
280
     1
 40
1836818.0
  1
\pxsm0.7;{\fFangSong_GB2312|b0|i0|c134|p49;标准化}\PStand.
  0
XRECORD
  5
5A2
102
{ACAD_REACTORS
330
5A1
102
}
330
5A1
100
AcDbXrecord
280
     1
 40
1476476.0
  1
\pxsm0.7;签名\P{\Fromans|c134;Signature} 
  0
XRECORD
  5
5A4
102
{ACAD_REACTORS
330
5A3
102
}
330
5A3
100
AcDbXrecord
280
     1
 40
1354713.0
  1
\pxsm0.7,qc;处数\P{\Fromans|c134;Number }
  0
XRECORD
  5
5A6
102
{ACAD_REACTORS
330
5A5
102
}
330
5A5
100
AcDbXrecord
280
     1
 40
1692934.0
  1
\pxsm0.7;标记\P{\Fromans|c134;Mark}
  0
XRECORD
  5
5A8
102
{ACAD_REACTORS
330
5A7
102
}
330
5A7
100
AcDbXrecord
280
     1
 40
1391581.0
  1
\pxsm0.7;审核\P{\Fromans|c134;Checked}
  0
XRECORD
  5
5AA
102
{ACAD_REACTORS
330
5A9
102
}
330
5A9
100
AcDbXrecord
280
     1
 40
1546703.0
  1
\pxsm0.7;绘图\P{\Fromans|c134;Drawn\Ftxt|c134; }
  0
XRECORD
  5
5AC
102
{ACAD_REACTORS
330
5AB
102
}
330
5AB
100
AcDbXrecord
280
     1
 40
1293614.0
  1
\pxsm0.7;批准\P{\Fromans|c134;Approved}
  0
XRECORD
  5
5AE
102
{ACAD_REACTORS
330
5AD
102
}
330
5AD
100
AcDbXrecord
280
     1
 40
1583427.0
  1
\pxsm0.7;工艺\P{\Fromans|c134;Process}
  0
XRECORD
  5
5B0
102
{ACAD_REACTORS
330
5AF
102
}
330
5AF
100
AcDbXrecord
280
     1
 40
1435325.0
  1
\pxsm0.7;日期\P{\Fromans|c134;Date}
  0
XRECORD
  5
597
102
{ACAD_REACTORS
330
596
102
}
330
596
100
AcDbXrecord
280
     1
 40
324931853.0
  1
\A1;\pxql;{\f仿宋_GB2312|b0|i0|c134|p49;技术参数}:\P\pq*;- {\f仿宋_GB2312|b0|i0|c134|p49;材料}: {\f仿宋_GB2312|b0|i0|c134|p49;铜合金}\P- {\f仿宋_GB2312|b0|i0|c134|p49;表面处理}: {\f仿宋_GB2312|b0|i0|c134|p49;镀金}\P\pql;- {\f仿宋_GB2312|b0|i0|c134|p49;额定电流}: 5A\P- {\f仿宋_GB2312
  1
|b0|i0|c134|p49;接触电阻}: ≤3mΩ\P- {\f仿宋_GB2312|b0|i0|c134|p49;线径范围}: 0.09-0.25mm{\H0.7x;\S2^ ;}(28-24 AWG)\P\pq*;- {\f仿宋_GB2312|b0|i0|c134|p49;可插拔次数}: {\f仿宋_GB2312|b0|i0|c134|p49;≥}500\P\P\pql;Technical specification:\P- Material: copper alloy\P- Surface
  1
: hard-gold plated\P- Rated current: 5A\P- Contact resistance: ≤3mΩ\P- Wire gauge: 0.09-0.25mm{\H0.7x;\S2^ ;}(28-24 AWG)\P- Mating cycles: {\f仿宋_GB2312|b0|i0|c134|p49;≥}500
  0
LAYOUT
  5
1CB
102
{ACAD_REACTORS
330
1C6
102
}
330
1C6
100
AcDbPlotSettings
  1

  2
none_device
  4

  6

 40
0.0
 41
0.0
 42
0.0
 43
0.0
 44
0.0
 45
0.0
 46
0.0
 47
0.0
 48
0.0
 49
0.0
140
0.0
141
0.0
142
1.0
143
1.0
 70
   688
 72
     0
 73
     0
 74
     5
  7

 75
    16
147
1.0
 76
     0
 77
     2
 78
   300
148
0.0
149
0.0
100
AcDbLayout
  1
Layout1
 70
     1
 71
     1
 10
0.0
 20
0.0
 11
12.0
 21
9.0
 12
0.0
 22
0.0
 32
0.0
 14
1.000000000000000E+20
 24
1.000000000000000E+20
 34
1.000000000000000E+20
 15
-1.000000000000000E+20
 25
-1.000000000000000E+20
 35
-1.000000000000000E+20
146
0.0
 13
0.0
 23
0.0
 33
0.0
 16
1.0
 26
0.0
 36
0.0
 17
0.0
 27
1.0
 37
0.0
 76
     0
330
1C8
  0
LAYOUT
  5
1CF
102
{ACAD_REACTORS
330
1C6
102
}
330
1C6
100
AcDbPlotSettings
  1

  2
none_device
  4

  6

 40
0.0
 41
0.0
 42
0.0
 43
0.0
 44
0.0
 45
0.0
 46
0.0
 47
0.0
 48
0.0
 49
0.0
140
0.0
141
0.0
142
1.0
143
1.0
 70
   688
 72
     0
 73
     0
 74
     5
  7

 75
    16
147
1.0
 76
     0
 77
     2
 78
   300
148
0.0
149
0.0
100
AcDbLayout
  1
Layout2
 70
     1
 71
     2
 10
0.0
 20
0.0
 11
0.0
 21
0.0
 12
0.0
 22
0.0
 32
0.0
 14
0.0
 24
0.0
 34
0.0
 15
0.0
 25
0.0
 35
0.0
146
0.0
 13
0.0
 23
0.0
 33
0.0
 16
1.0
 26
0.0
 36
0.0
 17
0.0
 27
1.0
 37
0.0
 76
     0
330
1CC
  0
LAYOUT
  5
1C5
102
{ACAD_REACTORS
330
1C6
102
}
330
1C6
100
AcDbPlotSettings
  1

  2
Adobe PDF Converter.pc3
  4
A4
  6

 40
3.174999952316281
 41
3.174999952316281
 42
3.17498779296875
 43
3.175003051757812
 44
297.0318298339844
 45
209.9733276367186
 46
0.0000000000000076
 47
1.630241740247063
 48
246.9897427644609
 49
39.36804549891383
140
544.952097801264
141
244.7492402188181
142
1.0
143
1.025046328645055
 70
  3764
 72
     1
 73
     0
 74
     4
  7
monochrome.ctb
 75
     0
147
0.9755656618192436
 76
     1
 77
     2
 78
   300
148
-246.9897427644609
149
-39.36804549891383
100
AcDbLayout
  1
Model
 70
     1
 71
     0
 10
0.0
 20
0.0
 11
12.0
 21
9.0
 12
0.0
 22
0.0
 32
0.0
 14
1.000000000000000E+20
 24
1.000000000000000E+20
 34
1.000000000000000E+20
 15
-1.000000000000000E+20
 25
-1.000000000000000E+20
 35
-1.000000000000000E+20
146
0.0
 13
0.0
 23
0.0
 33
0.0
 16
1.0
 26
0.0
 36
0.0
 17
0.0
 27
1.0
 37
0.0
 76
     0
330
2
331
1DD
1001
ACAD_PSEXT
1000
Adobe PDF Converter.pc3
1000
Adobe PDF Converter
1000
桌面\*.pdf
1000

1070
     0
  0
MATERIAL
  5
1F0
102
{ACAD_XDICTIONARY
360
1F1
102
}
102
{ACAD_REACTORS
330
D
102
}
330
D
100
AcDbMaterial
  1
ByBlock
 72
     0
 43
0.0208333333333333
 43
0.0
 43
0.0
 43
0.0
 43
0.0
 43
0.0208333333333333
 43
0.0
 43
0.0
 43
0.0
 43
0.0
 43
1.0
 43
0.0
 43
0.0
 43
0.0
 43
0.0
 43
1.0
 77
     0
 47
0.0208333333333333
 47
0.0
 47
0.0
 47
0.0
 47
0.0
 47
0.0208333333333333
 47
0.0
 47
0.0
 47
0.0
 47
0.0
 47
1.0
 47
0.0
 47
0.0
 47
0.0
 47
0.0
 47
1.0
171
     0
 49
0.0208333333333333
 49
0.0
 49
0.0
 49
0.0
 49
0.0
 49
0.0208333333333333
 49
0.0
 49
0.0
 49
0.0
 49
0.0
 49
1.0
 49
0.0
 49
0.0
 49
0.0
 49
0.0
 49
1.0
175
     0
142
0.0208333333333333
142
0.0
142
0.0
142
0.0
142
0.0
142
0.0208333333333333
142
0.0
142
0.0
142
0.0
142
0.0
142
1.0
142
0.0
142
0.0
142
0.0
142
0.0
142
1.0
179
     0
144
0.0208333333333333
144
0.0
144
0.0
144
0.0
144
0.0
144
0.0208333333333333
144
0.0
144
0.0
144
0.0
144
0.0
144
1.0
144
0.0
144
0.0
144
0.0
144
0.0
144
1.0
147
0.0208333333333333
147
0.0
147
0.0
147
0.0
147
0.0
147
0.0208333333333333
147
0.0
147
0.0
147
0.0
147
0.0
147
1.0
147
0.0
147
0.0
147
0.0
147
0.0
147
1.0
  0
MATERIAL
  5
1E8
102
{ACAD_XDICTIONARY
360
1E9
102
}
102
{ACAD_REACTORS
330
D
102
}
330
D
100
AcDbMaterial
  1
ByLayer
 72
     0
 43
0.0208333333333333
 43
0.0
 43
0.0
 43
0.0
 43
0.0
 43
0.0208333333333333
 43
0.0
 43
0.0
 43
0.0
 43
0.0
 43
1.0
 43
0.0
 43
0.0
 43
0.0
 43
0.0
 43
1.0
 77
     0
 47
0.0208333333333333
 47
0.0
 47
0.0
 47
0.0
 47
0.0
 47
0.0208333333333333
 47
0.0
 47
0.0
 47
0.0
 47
0.0
 47
1.0
 47
0.0
 47
0.0
 47
0.0
 47
0.0
 47
1.0
171
     0
 49
0.0208333333333333
 49
0.0
 49
0.0
 49
0.0
 49
0.0
 49
0.0208333333333333
 49
0.0
 49
0.0
 49
0.0
 49
0.0
 49
1.0
 49
0.0
 49
0.0
 49
0.0
 49
0.0
 49
1.0
175
     0
142
0.0208333333333333
142
0.0
142
0.0
142
0.0
142
0.0
142
0.0208333333333333
142
0.0
142
0.0
142
0.0
142
0.0
142
1.0
142
0.0
142
0.0
142
0.0
142
0.0
142
1.0
179
     0
144
0.0208333333333333
144
0.0
144
0.0
144
0.0
144
0.0
144
0.0208333333333333
144
0.0
144
0.0
144
0.0
144
0.0
144
1.0
144
0.0
144
0.0
144
0.0
144
0.0
144
1.0
147
0.0208333333333333
147
0.0
147
0.0
147
0.0
147
0.0
147
0.0208333333333333
147
0.0
147
0.0
147
0.0
147
0.0
147
1.0
147
0.0
147
0.0
147
0.0
147
0.0
147
1.0
  0
MATERIAL
  5
C
102
{ACAD_XDICTIONARY
360
E
102
}
102
{ACAD_REACTORS
330
D
102
}
330
D
100
AcDbMaterial
  1
Global
 72
     0
 43
0.0208333333333333
 43
0.0
 43
0.0
 43
0.0
 43
0.0
 43
0.0208333333333333
 43
0.0
 43
0.0
 43
0.0
 43
0.0
 43
1.0
 43
0.0
 43
0.0
 43
0.0
 43
0.0
 43
1.0
 77
     0
 47
0.0208333333333333
 47
0.0
 47
0.0
 47
0.0
 47
0.0
 47
0.0208333333333333
 47
0.0
 47
0.0
 47
0.0
 47
0.0
 47
1.0
 47
0.0
 47
0.0
 47
0.0
 47
0.0
 47
1.0
171
     0
 49
0.0208333333333333
 49
0.0
 49
0.0
 49
0.0
 49
0.0
 49
0.0208333333333333
 49
0.0
 49
0.0
 49
0.0
 49
0.0
 49
1.0
 49
0.0
 49
0.0
 49
0.0
 49
0.0
 49
1.0
175
     0
142
0.0208333333333333
142
0.0
142
0.0
142
0.0
142
0.0
142
0.0208333333333333
142
0.0
142
0.0
142
0.0
142
0.0
142
1.0
142
0.0
142
0.0
142
0.0
142
0.0
142
1.0
179
     0
144
0.0208333333333333
144
0.0
144
0.0
144
0.0
144
0.0
144
0.0208333333333333
144
0.0
144
0.0
144
0.0
144
0.0
144
1.0
144
0.0
144
0.0
144
0.0
144
0.0
144
1.0
147
0.0208333333333333
147
0.0
147
0.0
147
0.0
147
0.0
147
0.0208333333333333
147
0.0
147
0.0
147
0.0
147
0.0
147
1.0
147
0.0
147
0.0
147
0.0
147
0.0
147
1.0
  0
MLEADERSTYLE
  5
25A
102
{ACAD_REACTORS
330
259
102
}
330
259
100
AcDbMLeaderStyle
170
     2
171
     1
172
     0
 90
        2
 40
0.0
 41
0.0
173
     1
 91
-1056964608
340
1D8
 92
       -2
290
     1
 42
0.09
291
     1
 43
0.36
  3
Standard
 44
0.18
300

342
46
174
     1
178
     6
175
     1
176
     0
 93
-1056964608
 45
0.18
292
     0
297
     0
 46
0.18
 94
-1056964608
 47
1.0
 49
1.0
140
1.0
293
     1
141
0.0
294
     1
177
     0
142
1.0
295
     0
296
     0
143
0.125
1001
ACAD_MLEADERVER
1070
     2
  0
MLINESTYLE
  5
1FB
102
{ACAD_REACTORS
330
1E6
102
}
330
1E6
100
AcDbMlineStyle
  2
STANDARD
 70
     0
  3

 62
   256
 51
90.0
 52
90.0
 71
     2
 49
0.5
 62
   256
  6
BYLAYER
 49
-0.5
 62
   256
  6
BYLAYER
  0
ACDBPLACEHOLDER
  5
9
102
{ACAD_REACTORS
330
A
102
}
330
A
  0
SCALE
  5
200
102
{ACAD_REACTORS
330
1F9
102
}
330
1F9
100
AcDbScale
 70
     0
300
1:1
140
1.0
141
1.0
290
     1
  0
SCALE
  5
201
102
{ACAD_REACTORS
330
1F9
102
}
330
1F9
100
AcDbScale
 70
     0
300
1:2
140
1.0
141
2.0
290
     0
  0
SCALE
  5
202
102
{ACAD_REACTORS
330
1F9
102
}
330
1F9
100
AcDbScale
 70
     0
300
1:4
140
1.0
141
4.0
290
     0
  0
SCALE
  5
203
102
{ACAD_REACTORS
330
1F9
102
}
330
1F9
100
AcDbScale
 70
     0
300
1:5
140
1.0
141
5.0
290
     0
  0
SCALE
  5
204
102
{ACAD_REACTORS
330
1F9
102
}
330
1F9
100
AcDbScale
 70
     0
300
1:8
140
1.0
141
8.0
290
     0
  0
SCALE
  5
205
102
{ACAD_REACTORS
330
1F9
102
}
330
1F9
100
AcDbScale
 70
     0
300
1:10
140
1.0
141
10.0
290
     0
  0
SCALE
  5
206
102
{ACAD_REACTORS
330
1F9
102
}
330
1F9
100
AcDbScale
 70
     0
300
1:16
140
1.0
141
16.0
290
     0
  0
SCALE
  5
207
102
{ACAD_REACTORS
330
1F9
102
}
330
1F9
100
AcDbScale
 70
     0
300
1:20
140
1.0
141
20.0
290
     0
  0
SCALE
  5
208
102
{ACAD_REACTORS
330
1F9
102
}
330
1F9
100
AcDbScale
 70
     0
300
1:30
140
1.0
141
30.0
290
     0
  0
SCALE
  5
209
102
{ACAD_REACTORS
330
1F9
102
}
330
1F9
100
AcDbScale
 70
     0
300
1:40
140
1.0
141
40.0
290
     0
  0
SCALE
  5
20A
102
{ACAD_REACTORS
330
1F9
102
}
330
1F9
100
AcDbScale
 70
     0
300
1:50
140
1.0
141
50.0
290
     0
  0
SCALE
  5
20B
102
{ACAD_REACTORS
330
1F9
102
}
330
1F9
100
AcDbScale
 70
     0
300
1:100
140
1.0
141
100.0
290
     0
  0
SCALE
  5
20C
102
{ACAD_REACTORS
330
1F9
102
}
330
1F9
100
AcDbScale
 70
     0
300
2:1
140
2.0
141
1.0
290
     0
  0
SCALE
  5
20D
102
{ACAD_REACTORS
330
1F9
102
}
330
1F9
100
AcDbScale
 70
     0
300
4:1
140
4.0
141
1.0
290
     0
  0
SCALE
  5
20E
102
{ACAD_REACTORS
330
1F9
102
}
330
1F9
100
AcDbScale
 70
     0
300
8:1
140
8.0
141
1.0
290
     0
  0
SCALE
  5
20F
102
{ACAD_REACTORS
330
1F9
102
}
330
1F9
100
AcDbScale
 70
     0
300
10:1
140
10.0
141
1.0
290
     0
  0
SCALE
  5
210
102
{ACAD_REACTORS
330
1F9
102
}
330
1F9
100
AcDbScale
 70
     0
300
100:1
140
100.0
141
1.0
290
     0
  0
SCALE
  5
211
102
{ACAD_REACTORS
330
1F9
102
}
330
1F9
100
AcDbScale
 70
     0
300
1/128" = 1'-0"
140
0.0078125
141
12.0
290
     0
  0
SCALE
  5
212
102
{ACAD_REACTORS
330
1F9
102
}
330
1F9
100
AcDbScale
 70
     0
300
1/64" = 1'-0"
140
0.015625
141
12.0
290
     0
  0
SCALE
  5
213
102
{ACAD_REACTORS
330
1F9
102
}
330
1F9
100
AcDbScale
 70
     0
300
1/32" = 1'-0"
140
0.03125
141
12.0
290
     0
  0
SCALE
  5
214
102
{ACAD_REACTORS
330
1F9
102
}
330
1F9
100
AcDbScale
 70
     0
300
1/16" = 1'-0"
140
0.0625
141
12.0
290
     0
  0
SCALE
  5
215
102
{ACAD_REACTORS
330
1F9
102
}
330
1F9
100
AcDbScale
 70
     0
300
3/32" = 1'-0"
140
0.09375
141
12.0
290
     0
  0
SCALE
  5
216
102
{ACAD_REACTORS
330
1F9
102
}
330
1F9
100
AcDbScale
 70
     0
300
1/8" = 1'-0"
140
0.125
141
12.0
290
     0
  0
SCALE
  5
217
102
{ACAD_REACTORS
330
1F9
102
}
330
1F9
100
AcDbScale
 70
     0
300
3/16" = 1'-0"
140
0.1875
141
12.0
290
     0
  0
SCALE
  5
218
102
{ACAD_REACTORS
330
1F9
102
}
330
1F9
100
AcDbScale
 70
     0
300
1/4" = 1'-0"
140
0.25
141
12.0
290
     0
  0
SCALE
  5
219
102
{ACAD_REACTORS
330
1F9
102
}
330
1F9
100
AcDbScale
 70
     0
300
3/8" = 1'-0"
140
0.375
141
12.0
290
     0
  0
SCALE
  5
21A
102
{ACAD_REACTORS
330
1F9
102
}
330
1F9
100
AcDbScale
 70
     0
300
1/2" = 1'-0"
140
0.5
141
12.0
290
     0
  0
SCALE
  5
21B
102
{ACAD_REACTORS
330
1F9
102
}
330
1F9
100
AcDbScale
 70
     0
300
3/4" = 1'-0"
140
0.75
141
12.0
290
     0
  0
SCALE
  5
21C
102
{ACAD_REACTORS
330
1F9
102
}
330
1F9
100
AcDbScale
 70
     0
300
1" = 1'-0"
140
1.0
141
12.0
290
     0
  0
SCALE
  5
21D
102
{ACAD_REACTORS
330
1F9
102
}
330
1F9
100
AcDbScale
 70
     0
300
1-1/2" = 1'-0"
140
1.5
141
12.0
290
     0
  0
SCALE
  5
21E
102
{ACAD_REACTORS
330
1F9
102
}
330
1F9
100
AcDbScale
 70
     0
300
3" = 1'-0"
140
3.0
141
12.0
290
     0
  0
SCALE
  5
21F
102
{ACAD_REACTORS
330
1F9
102
}
330
1F9
100
AcDbScale
 70
     0
300
6" = 1'-0"
140
6.0
141
12.0
290
     0
  0
SCALE
  5
220
102
{ACAD_REACTORS
330
1F9
102
}
330
1F9
100
AcDbScale
 70
     0
300
1'-0" = 1'-0"
140
12.0
141
12.0
290
     0
  0
TABLESTYLE
  5
1FC
102
{ACAD_XDICTIONARY
360
1FD
102
}
102
{ACAD_REACTORS
330
1FA
102
}
330
1FA
100
AcDbTableStyle
  3
Standard
 70
     0
 71
     0
 40
0.06
 41
0.06
280
     0
281
     0
  7
Standard
140
0.18
170
     2
 62
     0
 63
     7
283
     0
 90
      512
 91
        0
  1

274
    -2
284
     1
 64
     0
275
    -2
285
     1
 65
     0
276
    -2
286
     1
 66
     0
277
    -2
287
     1
 67
     0
278
    -2
288
     1
 68
     0
279
    -2
289
     1
 69
     0
  7
Standard
140
0.25
170
     5
 62
     0
 63
     7
283
     0
 90
      512
 91
        0
  1

274
    -2
284
     1
 64
     0
275
    -2
285
     1
 65
     0
276
    -2
286
     1
 66
     0
277
    -2
287
     1
 67
     0
278
    -2
288
     1
 68
     0
279
    -2
289
     1
 69
     0
  7
Standard
140
0.18
170
     5
 62
     0
 63
     7
283
     0
 90
      512
 91
        0
  1

274
    -2
284
     1
 64
     0
275
    -2
285
     1
 65
     0
276
    -2
286
     1
 66
     0
277
    -2
287
     1
 67
     0
278
    -2
288
     1
 68
     0
279
    -2
289
     1
 69
     0
  0
VISUALSTYLE
  5
1DE
102
{ACAD_REACTORS
330
1DF
102
}
330
1DF
100
AcDbVisualStyle
  2
2dWireframe
 70
     4
 71
     0
 72
     2
 73
     0
 90
        0
 40
-0.6
 41
-30.0
 62
     5
 63
     7
 74
     1
 91
        4
 64
     7
 65
   257
 75
     1
175
     1
 42
1.0
 92
        0
 66
   257
 43
1.0
 76
     1
 77
     6
 78
     2
 67
     7
 79
     5
170
     0
171
     0
290
     0
174
     0
 93
        1
 44
0.0
173
     0
291
     0
 45
0.0
1001
ACAD
1000
AcDbSavedByObjectVersion
1070
     0
1000
AcDbSavedByObjectVersion
1070
     0
1000
AcDbSavedByObjectVersion
1070
     0
1000
AcDbSavedByObjectVersion
1070
     0
1000
AcDbSavedByObjectVersion
1070
     0
1000
AcDbSavedByObjectVersion
1070
     0
1000
AcDbSavedByObjectVersion
1070
     0
1000
AcDbSavedByObjectVersion
1070
     0
1000
AcDbSavedByObjectVersion
1070
     0
1000
AcDbSavedByObjectVersion
1070
     0
1000
AcDbSavedByObjectVersion
1070
     0
1000
AcDbSavedByObjectVersion
1070
     0
1000
AcDbSavedByObjectVersion
1070
     0
1000
AcDbSavedByObjectVersion
1070
     0
1000
AcDbSavedByObjectVersion
1070
     0
1000
AcDbSavedByObjectVersion
1070
     0
1000
AcDbSavedByObjectVersion
1070
     0
1000
AcDbSavedByObjectVersion
1070
     0
1000
AcDbSavedByObjectVersion
1070
     0
1000
AcDbSavedByObjectVersion
1070
     0
1000
AcDbSavedByObjectVersion
1070
     0
1000
AcDbSavedByObjectVersion
1070
     0
1000
AcDbSavedByObjectVersion
1070
     0
1000
AcDbSavedByObjectVersion
1070
     0
1000
AcDbSavedByObjectVersion
1070
     0
1000
AcDbSavedByObjectVersion
1070
     0
1000
AcDbSavedByObjectVersion
1070
     0
1000
AcDbSavedByObjectVersion
1070
     0
1000
AcDbSavedByObjectVersion
1070
     0
1000
AcDbSavedByObjectVersion
1070
     0
1000
AcDbSavedByObjectVersion
1070
     0
1000
AcDbSavedByObjectVersion
1070
     0
1000
AcDbSavedByObjectVersion
1070
     0
1000
AcDbSavedByObjectVersion
1070
     0
1000
AcDbSavedByObjectVersion
1070
     0
  0
VISUALSTYLE
  5
251
102
{ACAD_REACTORS
330
1DF
102
}
330
1DF
100
AcDbVisualStyle
  2
3D Hidden
 70
     6
 71
     1
 72
     2
 73
     2
 90
        0
 40
-0.6
 41
-30.0
 62
     5
 63
     7
 74
     2
 91
        2
 64
     7
 65
   257
 75
     2
175
     1
 42
40.0
 92
        0
 66
   257
 43
1.0
 76
     1
 77
     6
 78
     2
 67
     7
 79
     3
170
     0
171
     0
290
     0
174
     0
 93
        1
 44
0.0
173
     0
291
     0
 45
0.0
1001
ACAD
1000
AcDbSavedByObjectVersion
1070
     0
1000
AcDbSavedByObjectVersion
1070
     0
  0
VISUALSTYLE
  5
1FF
102
{ACAD_REACTORS
330
1DF
102
}
330
1DF
100
AcDbVisualStyle
  2
3dWireframe
 70
     5
 71
     0
 72
     2
 73
     0
 90
        0
 40
-0.6
 41
-30.0
 62
     5
 63
     7
 74
     1
 91
        4
 64
     7
 65
   257
 75
     1
175
     1
 42
1.0
 92
        0
 66
   257
 43
1.0
 76
     1
 77
     6
 78
     2
 67
     7
 79
     5
170
     0
171
     0
290
     0
174
     0
 93
        1
 44
0.0
173
     0
291
     0
 45
0.0
1001
ACAD
1000
AcDbSavedByObjectVersion
1070
     0
1000
AcDbSavedByObjectVersion
1070
     0
1000
AcDbSavedByObjectVersion
1070
     0
1000
AcDbSavedByObjectVersion
1070
     0
1000
AcDbSavedByObjectVersion
1070
     0
1000
AcDbSavedByObjectVersion
1070
     0
1000
AcDbSavedByObjectVersion
1070
     0
1000
AcDbSavedByObjectVersion
1070
     0
1000
AcDbSavedByObjectVersion
1070
     0
1000
AcDbSavedByObjectVersion
1070
     0
1000
AcDbSavedByObjectVersion
1070
     0
1000
AcDbSavedByObjectVersion
1070
     0
1000
AcDbSavedByObjectVersion
1070
     0
1000
AcDbSavedByObjectVersion
1070
     0
1000
AcDbSavedByObjectVersion
1070
     0
1000
AcDbSavedByObjectVersion
1070
     0
1000
AcDbSavedByObjectVersion
1070
     0
1000
AcDbSavedByObjectVersion
1070
     0
1000
AcDbSavedByObjectVersion
1070
     0
1000
AcDbSavedByObjectVersion
1070
     0
1000
AcDbSavedByObjectVersion
1070
     0
1000
AcDbSavedByObjectVersion
1070
     0
1000
AcDbSavedByObjectVersion
1070
     0
1000
AcDbSavedByObjectVersion
1070
     0
1000
AcDbSavedByObjectVersion
1070
     0
1000
AcDbSavedByObjectVersion
1070
     0
1000
AcDbSavedByObjectVersion
1070
     0
1000
AcDbSavedByObjectVersion
1070
     0
1000
AcDbSavedByObjectVersion
1070
     0
1000
AcDbSavedByObjectVersion
1070
     0
1000
AcDbSavedByObjectVersion
1070
     0
1000
AcDbSavedByObjectVersion
1070
     0
1000
AcDbSavedByObjectVersion
1070
     0
1000
AcDbSavedByObjectVersion
1070
     0
1000
AcDbSavedByObjectVersion
1070
     0
  0
VISUALSTYLE
  5
250
102
{ACAD_REACTORS
330
1DF
102
}
330
1DF
100
AcDbVisualStyle
  2
Basic
 70
     7
 71
     1
 72
     0
 73
     1
 90
        0
 40
-0.6
 41
-30.0
 62
     5
 63
     7
 74
     0
 91
        4
 64
     7
 65
   257
 75
     1
175
     1
 42
1.0
 92
        8
 66
     7
 43
1.0
 76
     1
 77
     6
 78
     2
 67
     7
 79
     5
170
     0
171
     0
290
     0
174
     0
 93
        1
 44
0.0
173
     0
291
     1
 45
0.0
1001
ACAD
1000
AcDbSavedByObjectVersion
1070
     0
1000
AcDbSavedByObjectVersion
1070
     0
  0
VISUALSTYLE
  5
254
102
{ACAD_REACTORS
330
1DF
102
}
330
1DF
100
AcDbVisualStyle
  2
Brighten
 70
    12
 71
     2
 72
     2
 73
     0
 90
        0
 40
-0.6
 41
-30.0
 62
     5
 63
     7
 74
     1
 91
        4
 64
     7
 65
   257
 75
     1
175
     1
 42
1.0
 92
        8
 66
     7
 43
1.0
 76
     1
 77
     6
 78
     2
 67
     7
 79
     5
170
     0
171
     0
290
     0
174
     0
 93
        1
 44
50.0
173
     0
291
     1
 45
0.0
1001
ACAD
1000
AcDbSavedByObjectVersion
1070
     0
1000
AcDbSavedByObjectVersion
1070
     0
  0
VISUALSTYLE
  5
258
102
{ACAD_REACTORS
330
1DF
102
}
330
1DF
100
AcDbVisualStyle
  2
ColorChange
 70
    16
 71
     2
 72
     2
 73
     3
 90
        0
 40
-0.6
 41
-30.0
 62
     5
 63
     8
 74
     1
 91
        4
 64
     7
 65
   257
 75
     1
175
     1
 42
1.0
 92
        8
 66
     8
 43
1.0
 76
     1
 77
     6
 78
     2
 67
     7
 79
     5
170
     0
171
     0
290
     0
174
     0
 93
        1
 44
0.0
173
     0
291
     1
 45
0.0
1001
ACAD
1000
AcDbSavedByObjectVersion
1070
     0
1000
AcDbSavedByObjectVersion
1070
     0
  0
VISUALSTYLE
  5
252
102
{ACAD_REACTORS
330
1DF
102
}
330
1DF
100
AcDbVisualStyle
  2
Conceptual
 70
     9
 71
     3
 72
     2
 73
     0
 90
        0
 40
-0.6
 41
-30.0
 62
     5
 63
     7
 74
     2
 91
        2
 64
     7
 65
   257
 75
     1
175
     1
 42
40.0
 92
        8
 66
     7
 43
1.0
 76
     1
 77
     6
 78
     2
 67
     7
 79
     3
170
     0
171
     0
290
     0
174
     0
 93
        1
 44
0.0
173
     0
291
     0
 45
0.0
1001
ACAD
1000
AcDbSavedByObjectVersion
1070
     0
1000
AcDbSavedByObjectVersion
1070
     0
  0
VISUALSTYLE
  5
253
102
{ACAD_REACTORS
330
1DF
102
}
330
1DF
100
AcDbVisualStyle
  2
Dim
 70
    11
 71
     2
 72
     2
 73
     0
 90
        0
 40
-0.6
 41
-30.0
 62
     5
 63
     7
 74
     1
 91
        4
 64
     7
 65
   257
 75
     1
175
     1
 42
1.0
 92
        8
 66
     7
 43
1.0
 76
     1
 77
     6
 78
     2
 67
     7
 79
     5
170
     0
171
     0
290
     0
174
     0
 93
        1
 44
-50.0
173
     0
291
     1
 45
0.0
1001
ACAD
1000
AcDbSavedByObjectVersion
1070
     0
1000
AcDbSavedByObjectVersion
1070
     0
  0
VISUALSTYLE
  5
257
102
{ACAD_REACTORS
330
1DF
102
}
330
1DF
100
AcDbVisualStyle
  2
Facepattern
 70
    15
 71
     2
 72
     2
 73
     0
 90
        0
 40
-0.6
 41
-30.0
 62
     5
 63
     7
 74
     1
 91
        4
 64
     7
 65
   257
 75
     1
175
     1
 42
1.0
 92
        8
 66
     7
 43
1.0
 76
     1
 77
     6
 78
     2
 67
     7
 79
     5
170
     0
171
     0
290
     0
174
     0
 93
        1
 44
0.0
173
     0
291
     1
 45
0.0
1001
ACAD
1000
AcDbSavedByObjectVersion
1070
     0
1000
AcDbSavedByObjectVersion
1070
     0
  0
VISUALSTYLE
  5
24C
102
{ACAD_REACTORS
330
1DF
102
}
330
1DF
100
AcDbVisualStyle
  2
Flat
 70
     0
 71
     2
 72
     1
 73
     1
 90
        2
 40
-0.6
 41
30.0
 62
     5
 63
     7
 74
     0
 91
        4
 64
     7
 65
   257
 75
     1
175
     1
 42
1.0
 92
        8
 66
     7
 43
1.0
 76
     1
 77
     6
 78
     2
 67
     7
 79
     5
170
     0
171
     0
290
     0
174
     0
 93
       13
 44
0.0
173
     0
291
     1
 45
0.0
1001
ACAD
1000
AcDbSavedByObjectVersion
1070
     0
1000
AcDbSavedByObjectVersion
1070
     0
  0
VISUALSTYLE
  5
24D
102
{ACAD_REACTORS
330
1DF
102
}
330
1DF
100
AcDbVisualStyle
  2
FlatWithEdges
 70
     1
 71
     2
 72
     1
 73
     1
 90
        2
 40
-0.6
 41
30.0
 62
     5
 63
     7
 74
     1
 91
        4
 64
     7
 65
   257
 75
     1
175
     1
 42
1.0
 92
        0
 66
   257
 43
1.0
 76
     1
 77
     6
 78
     2
 67
     7
 79
     5
170
     0
171
     0
290
     0
174
     0
 93
       13
 44
0.0
173
     0
291
     1
 45
0.0
1001
ACAD
1000
AcDbSavedByObjectVersion
1070
     0
1000
AcDbSavedByObjectVersion
1070
     0
  0
VISUALSTYLE
  5
24E
102
{ACAD_REACTORS
330
1DF
102
}
330
1DF
100
AcDbVisualStyle
  2
Gouraud
 70
     2
 71
     2
 72
     2
 73
     1
 90
        2
 40
-0.6
 41
30.0
 62
     5
 63
     7
 74
     0
 91
        4
 64
     7
 65
   257
 75
     1
175
     1
 42
1.0
 92
        0
 66
     7
 43
1.0
 76
     1
 77
     6
 78
     2
 67
     7
 79
     5
170
     0
171
     0
290
     0
174
     0
 93
       13
 44
0.0
173
     0
291
     1
 45
0.0
1001
ACAD
1000
AcDbSavedByObjectVersion
1070
     0
1000
AcDbSavedByObjectVersion
1070
     0
  0
VISUALSTYLE
  5
24F
102
{ACAD_REACTORS
330
1DF
102
}
330
1DF
100
AcDbVisualStyle
  2
GouraudWithEdges
 70
     3
 71
     2
 72
     2
 73
     1
 90
        2
 40
-0.6
 41
30.0
 62
     5
 63
     7
 74
     1
 91
        4
 64
     7
 65
   257
 75
     1
175
     1
 42
1.0
 92
        0
 66
   257
 43
1.0
 76
     1
 77
     6
 78
     2
 67
     7
 79
     5
170
     0
171
     0
290
     0
174
     0
 93
       13
 44
0.0
173
     0
291
     1
 45
0.0
1001
ACAD
1000
AcDbSavedByObjectVersion
1070
     0
1000
AcDbSavedByObjectVersion
1070
     0
  0
VISUALSTYLE
  5
256
102
{ACAD_REACTORS
330
1DF
102
}
330
1DF
100
AcDbVisualStyle
  2
Linepattern
 70
    14
 71
     2
 72
     2
 73
     0
 90
        0
 40
-0.6
 41
-30.0
 62
     5
 63
     7
 74
     1
 91
        4
 64
     7
 65
   257
 75
     7
175
     7
 42
1.0
 92
        8
 66
     7
 43
1.0
 76
     1
 77
     6
 78
     2
 67
     7
 79
     5
170
     0
171
     0
290
     0
174
     0
 93
        1
 44
0.0
173
     0
291
     1
 45
0.0
1001
ACAD
1000
AcDbSavedByObjectVersion
1070
     0
1000
AcDbSavedByObjectVersion
1070
     0
  0
VISUALSTYLE
  5
1FE
102
{ACAD_REACTORS
330
1DF
102
}
330
1DF
100
AcDbVisualStyle
  2
Realistic
 70
     8
 71
     2
 72
     2
 73
     0
 90
        0
 40
-0.6
 41
-30.0
 62
     5
 63
     7
 74
     1
 91
        0
 64
     7
 65
   257
 75
     1
175
     1
 42
1.0
 92
        8
 66
     8
 43
1.0
 76
     1
 77
     6
 78
     2
 67
     7
 79
     5
170
     0
171
     0
290
     0
174
     0
 93
       13
 44
0.0
173
     0
291
     0
 45
0.0
1001
ACAD
1000
AcDbSavedByObjectVersion
1070
     0
1000
AcDbSavedByObjectVersion
1070
     0
1000
AcDbSavedByObjectVersion
1070
     0
1000
AcDbSavedByObjectVersion
1070
     0
1000
AcDbSavedByObjectVersion
1070
     0
1000
AcDbSavedByObjectVersion
1070
     0
1000
AcDbSavedByObjectVersion
1070
     0
1000
AcDbSavedByObjectVersion
1070
     0
1000
AcDbSavedByObjectVersion
1070
     0
1000
AcDbSavedByObjectVersion
1070
     0
1000
AcDbSavedByObjectVersion
1070
     0
1000
AcDbSavedByObjectVersion
1070
     0
1000
AcDbSavedByObjectVersion
1070
     0
1000
AcDbSavedByObjectVersion
1070
     0
1000
AcDbSavedByObjectVersion
1070
     0
1000
AcDbSavedByObjectVersion
1070
     0
1000
AcDbSavedByObjectVersion
1070
     0
1000
AcDbSavedByObjectVersion
1070
     0
1000
AcDbSavedByObjectVersion
1070
     0
1000
AcDbSavedByObjectVersion
1070
     0
1000
AcDbSavedByObjectVersion
1070
     0
1000
AcDbSavedByObjectVersion
1070
     0
1000
AcDbSavedByObjectVersion
1070
     0
1000
AcDbSavedByObjectVersion
1070
     0
1000
AcDbSavedByObjectVersion
1070
     0
1000
AcDbSavedByObjectVersion
1070
     0
1000
AcDbSavedByObjectVersion
1070
     0
1000
AcDbSavedByObjectVersion
1070
     0
1000
AcDbSavedByObjectVersion
1070
     0
1000
AcDbSavedByObjectVersion
1070
     0
1000
AcDbSavedByObjectVersion
1070
     0
1000
AcDbSavedByObjectVersion
1070
     0
1000
AcDbSavedByObjectVersion
1070
     0
1000
AcDbSavedByObjectVersion
1070
     0
1000
AcDbSavedByObjectVersion
1070
     0
  0
VISUALSTYLE
  5
255
102
{ACAD_REACTORS
330
1DF
102
}
330
1DF
100
AcDbVisualStyle
  2
Thicken
 70
    13
 71
     2
 72
     2
 73
     0
 90
        0
 40
-0.6
 41
-30.0
 62
     5
 63
     7
 74
     1
 91
        4
 64
     7
 65
   257
 75
     1
175
     1
 42
1.0
 92
       12
 66
     7
 43
1.0
 76
     1
 77
     6
 78
     2
 67
     7
 79
     5
170
     0
171
     0
290
     0
174
     0
 93
        1
 44
0.0
173
     0
291
     1
 45
0.0
1001
ACAD
1000
AcDbSavedByObjectVersion
1070
     0
1000
AcDbSavedByObjectVersion
1070
     0
  0
DICTIONARYVAR
  5
225
102
{ACAD_REACTORS
330
222
102
}
330
222
100
DictionaryVariables
280
     0
  1
1:1
  0
DICTIONARYVAR
  5
224
102
{ACAD_REACTORS
330
222
102
}
330
222
100
DictionaryVariables
280
     0
  1
STANDARD
  0
DICTIONARYVAR
  5
223
102
{ACAD_REACTORS
330
222
102
}
330
222
100
DictionaryVariables
280
     0
  1
STANDARD
  0
DICTIONARYVAR
  5
35D
102
{ACAD_REACTORS
330
222
102
}
330
222
100
DictionaryVariables
280
     0
  1
1
  0
DICTIONARYVAR
  5
35C
102
{ACAD_REACTORS
330
222
102
}
330
222
100
DictionaryVariables
280
     0
  1
1
  0
DICTIONARYVAR
  5
35B
102
{ACAD_REACTORS
330
222
102
}
330
222
100
DictionaryVariables
280
     0
  1
0
  0
DICTIONARYVAR
  5
226
102
{ACAD_REACTORS
330
222
102
}
330
222
100
DictionaryVariables
280
     0
  1
0
  0
DICTIONARYVAR
  5
359
102
{ACAD_REACTORS
330
222
102
}
330
222
100
DictionaryVariables
280
     0
  1
1
  0
DICTIONARYVAR
  5
35A
102
{ACAD_REACTORS
330
222
102
}
330
222
100
DictionaryVariables
280
     0
  1
127
  0
DICTIONARY
  5
1F1
330
1F0
100
AcDbDictionary
280
     1
281
     1
  3
ACAD_XREC_ROUNDTRIP
360
385
  3
BUMPTILE
360
1F2
  3
DIFFUSETILE
360
1F3
  3
OPACITYTILE
360
1F4
  3
REFLECTIONTILE
360
1F5
  3
REFRACTIONTILE
360
1F6
  3
SPECULARTILE
360
1F7
  0
DICTIONARY
  5
1E9
330
1E8
100
AcDbDictionary
280
     1
281
     1
  3
ACAD_XREC_ROUNDTRIP
360
384
  3
BUMPTILE
360
1EA
  3
DIFFUSETILE
360
1EB
  3
OPACITYTILE
360
1EC
  3
REFLECTIONTILE
360
1ED
  3
REFRACTIONTILE
360
1EE
  3
SPECULARTILE
360
1EF
  0
DICTIONARY
  5
E
330
C
100
AcDbDictionary
280
     1
281
     1
  3
ACAD_XREC_ROUNDTRIP
360
37C
  3
BUMPTILE
360
F
  3
DIFFUSETILE
360
10
  3
OPACITYTILE
360
11
  3
REFLECTIONTILE
360
12
  3
REFRACTIONTILE
360
13
  3
SPECULARTILE
360
14
  0
DICTIONARY
  5
1FD
330
1FC
100
AcDbDictionary
280
     1
281
     1
  3
ACAD_ROUNDTRIP_2008_TABLESTYLE_CELLSTYLEMAP
360
598
  0
XRECORD
  5
385
102
{ACAD_REACTORS
330
1F1
102
}
330
1F1
100
AcDbXrecord
280
     1
102
MATERIAL
148
0.0
149
0.0
149
0.0
 93
        0
 94
      127
282
     0
 72
     0
 77
     0
171
     0
175
     0
179
     0
273
     0
  0
XRECORD
  5
1F2
102
{ACAD_REACTORS
330
1F1
102
}
330
1F1
100
AcDbXrecord
280
     1
270
     1
271
     1
  0
XRECORD
  5
1F3
102
{ACAD_REACTORS
330
1F1
102
}
330
1F1
100
AcDbXrecord
280
     1
270
     1
271
     1
  0
XRECORD
  5
1F4
102
{ACAD_REACTORS
330
1F1
102
}
330
1F1
100
AcDbXrecord
280
     1
270
     1
271
     1
  0
XRECORD
  5
1F5
102
{ACAD_REACTORS
330
1F1
102
}
330
1F1
100
AcDbXrecord
280
     1
270
     1
271
     1
  0
XRECORD
  5
1F6
102
{ACAD_REACTORS
330
1F1
102
}
330
1F1
100
AcDbXrecord
280
     1
270
     1
271
     1
  0
XRECORD
  5
1F7
102
{ACAD_REACTORS
330
1F1
102
}
330
1F1
100
AcDbXrecord
280
     1
270
     1
271
     1
  0
XRECORD
  5
384
102
{ACAD_REACTORS
330
1E9
102
}
330
1E9
100
AcDbXrecord
280
     1
102
MATERIAL
148
0.0
149
0.0
149
0.0
 93
        0
 94
      127
282
     0
 72
     0
 77
     0
171
     0
175
     0
179
     0
273
     0
  0
XRECORD
  5
1EA
102
{ACAD_REACTORS
330
1E9
102
}
330
1E9
100
AcDbXrecord
280
     1
270
     1
271
     1
  0
XRECORD
  5
1EB
102
{ACAD_REACTORS
330
1E9
102
}
330
1E9
100
AcDbXrecord
280
     1
270
     1
271
     1
  0
XRECORD
  5
1EC
102
{ACAD_REACTORS
330
1E9
102
}
330
1E9
100
AcDbXrecord
280
     1
270
     1
271
     1
  0
XRECORD
  5
1ED
102
{ACAD_REACTORS
330
1E9
102
}
330
1E9
100
AcDbXrecord
280
     1
270
     1
271
     1
  0
XRECORD
  5
1EE
102
{ACAD_REACTORS
330
1E9
102
}
330
1E9
100
AcDbXrecord
280
     1
270
     1
271
     1
  0
XRECORD
  5
1EF
102
{ACAD_REACTORS
330
1E9
102
}
330
1E9
100
AcDbXrecord
280
     1
270
     1
271
     1
  0
XRECORD
  5
37C
102
{ACAD_REACTORS
330
E
102
}
330
E
100
AcDbXrecord
280
     1
102
MATERIAL
148
0.0
149
0.0
149
0.0
 93
        0
 94
      127
282
     0
 72
     0
 77
     0
171
     0
175
     0
179
     0
273
     0
  0
XRECORD
  5
F
102
{ACAD_REACTORS
330
E
102
}
330
E
100
AcDbXrecord
280
     1
270
     1
271
     1
  0
XRECORD
  5
10
102
{ACAD_REACTORS
330
E
102
}
330
E
100
AcDbXrecord
280
     1
270
     1
271
     1
  0
XRECORD
  5
11
102
{ACAD_REACTORS
330
E
102
}
330
E
100
AcDbXrecord
280
     1
270
     1
271
     1
  0
XRECORD
  5
12
102
{ACAD_REACTORS
330
E
102
}
330
E
100
AcDbXrecord
280
     1
270
     1
271
     1
  0
XRECORD
  5
13
102
{ACAD_REACTORS
330
E
102
}
330
E
100
AcDbXrecord
280
     1
270
     1
271
     1
  0
XRECORD
  5
14
102
{ACAD_REACTORS
330
E
102
}
330
E
100
AcDbXrecord
280
     1
270
     1
271
     1
  0
CELLSTYLEMAP
  5
598
102
{ACAD_REACTORS
330
1FD
102
}
330
1FD
100
AcDbCellStyleMap
 90
        3
300
CELLSTYLE
  1
TABLEFORMAT_BEGIN
 90
        5
170
     1
 91
        0
 92
    32768
 62
   257
 93
        1
300
CONTENTFORMAT
  1
CONTENTFORMAT_BEGIN
 90
        0
 91
        0
 92
      512
 93
        0
300

 40
0.0
140
1.0
 94
        5
 62
     0
340
46
144
0.25
309
CONTENTFORMAT_END
171
     1
301
MARGIN
  1
CELLMARGIN_BEGIN
 40
0.06
 40
0.06
 40
0.06
 40
0.06
 40
0.18
 40
0.18
309
CELLMARGIN_END
 94
        6
 95
        1
302
GRIDFORMAT
  1
GRIDFORMAT_BEGIN
 90
        0
 91
        1
 62
     0
 92
       -2
340
0
 93
        0
 40
0.045
309
GRIDFORMAT_END
 95
        2
302
GRIDFORMAT
  1
GRIDFORMAT_BEGIN
 90
        0
 91
        1
 62
     0
 92
       -2
340
0
 93
        0
 40
0.045
309
GRIDFORMAT_END
 95
        4
302
GRIDFORMAT
  1
GRIDFORMAT_BEGIN
 90
        0
 91
        1
 62
     0
 92
       -2
340
0
 93
        0
 40
0.045
309
GRIDFORMAT_END
 95
        8
302
GRIDFORMAT
  1
GRIDFORMAT_BEGIN
 90
        0
 91
        1
 62
     0
 92
       -2
340
0
 93
        0
 40
0.045
309
GRIDFORMAT_END
 95
       16
302
GRIDFORMAT
  1
GRIDFORMAT_BEGIN
 90
        0
 91
        1
 62
     0
 92
       -2
340
0
 93
        0
 40
0.045
309
GRIDFORMAT_END
 95
       32
302
GRIDFORMAT
  1
GRIDFORMAT_BEGIN
 90
        0
 91
        1
 62
     0
 92
       -2
340
0
 93
        0
 40
0.045
309
GRIDFORMAT_END
309
TABLEFORMAT_END
  1
CELLSTYLE_BEGIN
 90
        1
 91
        1
300
_TITLE
309
CELLSTYLE_END
300
CELLSTYLE
  1
TABLEFORMAT_BEGIN
 90
        5
170
     1
 91
        0
 92
        0
 62
   257
 93
        1
300
CONTENTFORMAT
  1
CONTENTFORMAT_BEGIN
 90
        0
 91
        0
 92
      512
 93
        0
300

 40
0.0
140
1.0
 94
        5
 62
     0
340
46
144
0.18
309
CONTENTFORMAT_END
171
     1
301
MARGIN
  1
CELLMARGIN_BEGIN
 40
0.06
 40
0.06
 40
0.06
 40
0.06
 40
0.18
 40
0.18
309
CELLMARGIN_END
 94
        6
 95
        1
302
GRIDFORMAT
  1
GRIDFORMAT_BEGIN
 90
        0
 91
        1
 62
     0
 92
       -2
340
0
 93
        0
 40
0.045
309
GRIDFORMAT_END
 95
        2
302
GRIDFORMAT
  1
GRIDFORMAT_BEGIN
 90
        0
 91
        1
 62
     0
 92
       -2
340
0
 93
        0
 40
0.045
309
GRIDFORMAT_END
 95
        4
302
GRIDFORMAT
  1
GRIDFORMAT_BEGIN
 90
        0
 91
        1
 62
     0
 92
       -2
340
0
 93
        0
 40
0.045
309
GRIDFORMAT_END
 95
        8
302
GRIDFORMAT
  1
GRIDFORMAT_BEGIN
 90
        0
 91
        1
 62
     0
 92
       -2
340
0
 93
        0
 40
0.045
309
GRIDFORMAT_END
 95
       16
302
GRIDFORMAT
  1
GRIDFORMAT_BEGIN
 90
        0
 91
        1
 62
     0
 92
       -2
340
0
 93
        0
 40
0.045
309
GRIDFORMAT_END
 95
       32
302
GRIDFORMAT
  1
GRIDFORMAT_BEGIN
 90
        0
 91
        1
 62
     0
 92
       -2
340
0
 93
        0
 40
0.045
309
GRIDFORMAT_END
309
TABLEFORMAT_END
  1
CELLSTYLE_BEGIN
 90
        2
 91
        1
300
_HEADER
309
CELLSTYLE_END
300
CELLSTYLE
  1
TABLEFORMAT_BEGIN
 90
        5
170
     1
 91
        0
 92
        0
 62
   257
 93
        1
300
CONTENTFORMAT
  1
CONTENTFORMAT_BEGIN
 90
        0
 91
        0
 92
      512
 93
        0
300

 40
0.0
140
1.0
 94
        2
 62
     0
340
46
144
0.18
309
CONTENTFORMAT_END
171
     1
301
MARGIN
  1
CELLMARGIN_BEGIN
 40
0.06
 40
0.06
 40
0.06
 40
0.06
 40
0.18
 40
0.18
309
CELLMARGIN_END
 94
        6
 95
        1
302
GRIDFORMAT
  1
GRIDFORMAT_BEGIN
 90
        0
 91
        1
 62
     0
 92
       -2
340
0
 93
        0
 40
0.045
309
GRIDFORMAT_END
 95
        2
302
GRIDFORMAT
  1
GRIDFORMAT_BEGIN
 90
        0
 91
        1
 62
     0
 92
       -2
340
0
 93
        0
 40
0.045
309
GRIDFORMAT_END
 95
        4
302
GRIDFORMAT
  1
GRIDFORMAT_BEGIN
 90
        0
 91
        1
 62
     0
 92
       -2
340
0
 93
        0
 40
0.045
309
GRIDFORMAT_END
 95
        8
302
GRIDFORMAT
  1
GRIDFORMAT_BEGIN
 90
        0
 91
        1
 62
     0
 92
       -2
340
0
 93
        0
 40
0.045
309
GRIDFORMAT_END
 95
       16
302
GRIDFORMAT
  1
GRIDFORMAT_BEGIN
 90
        0
 91
        1
 62
     0
 92
       -2
340
0
 93
        0
 40
0.045
309
GRIDFORMAT_END
 95
       32
302
GRIDFORMAT
  1
GRIDFORMAT_BEGIN
 90
        0
 91
        1
 62
     0
 92
       -2
340
0
 93
        0
 40
0.045
309
GRIDFORMAT_END
309
TABLEFORMAT_END
  1
CELLSTYLE_BEGIN
 90
        3
 91
        2
300
_DATA
309
CELLSTYLE_END
  0
ENDSEC
  0
EOF
